  0
SECTION
  2
HEADER
  9
$ACADVER
  1
AC1009
  9
$INSBASE
 10
205.707635
 20
166.2
 30
0.0
  9
$EXTMIN
 10
205.707635
 20
166.2
 30
0.0
  9
$EXTMAX
 10
1045.707635
 20
760.2
 30
0.0
  9
$LIMMIN
 10
205.707635
 20
166.2
  9
$LIMMAX
 10
1045.707635
 20
760.2
  9
$ORTHOMODE
 70
     0
  9
$REGENMODE
 70
     1
  9
$FILLMODE
 70
     1
  9
$QTEXTMODE
 70
     0
  9
$MIRRTEXT
 70
     1
  9
$DRAGMODE
 70
     2
  9
$LTSCALE
 40
2.0
  9
$OSMODE
 70
     0
  9
$ATTMODE
 70
     1
  9
$TEXTSIZE
 40
0.2
  9
$TRACEWID
 40
0.05
  9
$TEXTSTYLE
  7
STANDARD
  9
$CLAYER
  8
0
  9
$CELTYPE
  6
BYLAYER
  9
$CECOLOR
 62
     7
  9
$DIMSCALE
 40
2.0
  9
$DIMASZ
 40
3.5
  9
$DIMEXO
 40
0.0625
  9
$DIMDLI
 40
0.38
  9
$DIMRND
 40
0.0
  9
$DIMDLE
 40
0.0
  9
$DIMEXE
 40
0.18
  9
$DIMTP
 40
0.0
  9
$DIMTM
 40
0.0
  9
$DIMTXT
 40
3.5
  9
$DIMCEN
 40
0.09
  9
$DIMTSZ
 40
0.0
  9
$DIMTOL
 70
     0
  9
$DIMLIM
 70
     0
  9
$DIMTIH
 70
     1
  9
$DIMTOH
 70
     1
  9
$DIMSE1
 70
     0
  9
$DIMSE2
 70
     0
  9
$DIMTAD
 70
     1
  9
$DIMZIN
 70
     0
  9
$DIMBLK
  1

  9
$DIMASO
 70
     1
  9
$DIMSHO
 70
     1
  9
$DIMPOST
  1

  9
$DIMAPOST
  1

  9
$DIMALT
 70
     0
  9
$DIMALTD
 70
     2
  9
$DIMALTF
 40
25.4
  9
$DIMLFAC
 40
1.0
  9
$DIMTOFL
 70
     0
  9
$DIMTVP
 40
0.0
  9
$DIMTIX
 70
     0
  9
$DIMSOXD
 70
     0
  9
$DIMSAH
 70
     0
  9
$DIMBLK1
  1

  9
$DIMBLK2
  1

  9
$DIMSTYLE
  2
STANDARD
  9
$DIMCLRD
 70
     0
  9
$DIMCLRE
 70
     0
  9
$DIMCLRT
 70
     0
  9
$DIMTFAC
 40
1.0
  9
$DIMGAP
 40
0.09
  9
$LUNITS
 70
     2
  9
$LUPREC
 70
     2
  9
$AXISMODE
 70
     0
  9
$AXISUNIT
 10
0.0
 20
0.0
  9
$SKETCHINC
 40
0.1
  9
$FILLETRAD
 40
0.0
  9
$AUNITS
 70
     0
  9
$AUPREC
 70
     0
  9
$MENU
  1
acad
  9
$ELEVATION
 40
0.0
  9
$PELEVATION
 40
0.0
  9
$THICKNESS
 40
0.0
  9
$LIMCHECK
 70
     0
  9
$BLIPMODE
 70
     1
  9
$CHAMFERA
 40
0.0
  9
$CHAMFERB
 40
0.0
  9
$SKPOLY
 70
     0
  9
$TDCREATE
 40
0.000000000
  9
$TDUPDATE
 40
0.000000000
  9
$TDINDWG
 40
0.0000000000
  9
$TDUSRTIMER
 40
0.0000000000
  9
$USRTIMER
 70
     1
  9
$ANGBASE
 50
0.0
  9
$ANGDIR
 70
     0
  9
$PDMODE
 70
     0
  9
$PDSIZE
 40
0.0
  9
$PLINEWID
 40
0.0
  9
$COORDS
 70
     0
  9
$SPLFRAME
 70
     0
  9
$SPLINETYPE
 70
     6
  9
$SPLINESEGS
 70
     8
  9
$ATTDIA
 70
     0
  9
$ATTREQ
 70
     1
  9
$HANDLING
 70
     1
  9
$HANDSEED
  5
2B2
  9
$SURFTAB1
 70
     6
  9
$SURFTAB2
 70
     6
  9
$SURFTYPE
 70
     6
  9
$SURFU
 70
     6
  9
$SURFV
 70
     6
  9
$UCSNAME
  2

  9
$UCSORG
 10
0.0
 20
0.0
 30
0.0
  9
$UCSXDIR
 10
1.0
 20
0.0
 30
0.0
  9
$UCSYDIR
 10
0.0
 20
1.0
 30
0.0
  9
$PUCSNAME
  2

  9
$PUCSORG
 10
0.0
 20
0.0
 30
0.0
  9
$PUCSXDIR
 10
1.0
 20
0.0
 30
0.0
  9
$PUCSYDIR
 10
0.0
 20
1.0
 30
0.0
  9
$USERI1
 70
     0
  9
$USERI2
 70
     0
  9
$USERI3
 70
     0
  9
$USERI4
 70
     0
  9
$USERI5
 70
     0
  9
$USERR1
 40
0.0
  9
$USERR2
 40
0.0
  9
$USERR3
 40
0.0
  9
$USERR4
 40
0.0
  9
$USERR5
 40
0.0
  9
$WORLDVIEW
 70
     1
  9
$SHADEDGE
 70
     3
  9
$SHADEDIF
 70
    70
  9
$TILEMODE
 70
     1
  9
$MAXACTVP
 70
    16
  9
$PINSBASE
 10
0.0
 20
0.0
 30
0.0
  9
$PLIMCHECK
 70
     0
  9
$PEXTMIN
 10
1.000000E+20
 20
1.000000E+20
 30
1.000000E+20
  9
$PEXTMAX
 10
-1.000000E+20
 20
-1.000000E+20
 30
-1.000000E+20
  9
$PLIMMIN
 10
205.707635
 20
166.2
  9
$PLIMMAX
 10
1045.707635
 20
760.2
  9
$UNITMODE
 70
     0
  9
$VISRETAIN
 70
     0
  9
$PLINEGEN
 70
     1
  9
$PSLTSCALE
 70
     0
  9
$TREEDEPTH
 70
  3020
  9
$DWGCODEPAGE
  3
dos850
  0
ENDSEC
  0
SECTION
  2
TABLES
  0
TABLE
  2
VPORT
 70
     1
  0
VPORT
  2
*ACTIVE
 70
     0
 10
0.0
 20
0.0
 11
1.0
 21
1.0
 12
420.0
 22
297.0
 13
0.0
 23
0.0
 14
1.0
 24
1.0
 15
0.0
 25
0.0
 16
0.0
 26
0.0
 36
1.0
 17
205.707635
 27
166.2
 37
0.0
 40
594.0
 41
1.604229
 42
50.0
 43
0.0
 44
0.0
 50
0.0
 51
0.0
 71
     0
 72
   100
 73
     1
 74
     1
 75
     0
 76
     0
 77
     0
 78
     0
  0
ENDTAB
  0
TABLE
  2
LTYPE
 70
     3
  0
LTYPE
  2
CONTINUOUS
 70
    64
  3
Solid line
 72
    65
 73
     0
 40
0.0
  0
LTYPE
  2
DASHED
 70
    64
  3
__ __ __ __ __
 72
    65
 73
     2
 40
6.25
 49
5.0
 49
-1.25
  0
LTYPE
  2
DASHDOT
 70
    64
  3
__ . __ . __ . __ . __
 72
    65
 73
     4
 40
7.5
 49
5.0
 49
-1.25
 49
0.0
 49
-1.25
  0
ENDTAB
  0
TABLE
  2
LAYER
 70
    11
  0
LAYER
  2
0
 70
     0
 62
     7
  6
CONTINUOUS
  0
LAYER
  2
LC-INFO-1-2-MM-A3-0
 70
     1
 62
    -1
  6
CONTINUOUS
  0
LAYER
  2
LC-005-003-MTH-0
 70
     0
 62
     2
  6
CONTINUOUS
  0
LAYER
  2
LC-006-003-MTG-0
 70
     0
 62
     2
  6
CONTINUOUS
  0
LAYER
  2
LC-004-003-----0
 70
     0
 62
     2
  6
CONTINUOUS
  0
LAYER
  2
LC-007-005-----0
 70
     0
 62
     2
  6
CONTINUOUS
  0
LAYER
  2
LC-003-000-----0
 70
     0
 62
     7
  6
CONTINUOUS
  0
LAYER
  2
LC-001-002-----0
 70
     0
 62
     1
  6
CONTINUOUS
  0
LAYER
  2
LC-002-004-----0
 70
     0
 62
     1
  6
CONTINUOUS
  0
LAYER
  2
LC-008-061-----0
 70
     0
 62
     2
  6
DASHDOT
  0
LAYER
  2
LC-000
 70
     0
 62
     7
  6
CONTINUOUS
  0
ENDTAB
  0
TABLE
  2
STYLE
 70
     4
  0
STYLE
  2
STANDARD
 70
     0
 40
0.0
 41
1.0
 50
0.0
 71
     0
 42
0.0
  3
txt
  4

  0
STYLE
  2
LC-STANDARD
 70
    64
 40
0.0
 41
1.0
 50
0.0
 71
     0
 42
3.5
  3
MONOTXT
  4

  0
STYLE
  2
LC-TXTSTYLE-150-400-0-0-D2
 70
    64
 40
0.0
 41
1.0
 50
15.0
 71
     0
 42
3.5
  3
MONOTXT
  4

  0
STYLE
  2
LC-TXTSTYLE-150-400-0-0-D3
 70
    64
 40
0.0
 41
1.0
 50
15.0
 71
     0
 42
3.5
  3
LC-STANDARD
  4

  0
ENDTAB
  0
TABLE
  2
VIEW
 70
     0
  0
ENDTAB
  0
TABLE
  2
UCS
 70
     0
  0
ENDTAB
  0
TABLE
  2
APPID
 70
     1
  0
APPID
  2
ACAD
 70
     0
  0
ENDTAB
  0
TABLE
  2
DIMSTYLE
 70
     3
  0
DIMSTYLE
  2
STANDARD
 70
     0
  3

  4

  5

  6

  7

 40
1.0
 41
0.18
 42
0.0625
 43
0.38
 44
0.18
 45
0.0
 46
0.0
 47
0.0
 48
0.0
 71
     0
 72
     0
 73
     1
 74
     1
 75
     0
 76
     0
 77
     0
 78
     0
140
0.18
141
0.09
142
0.0
143
25.4
144
1.0
145
0.0
146
1.0
147
0.09
170
     0
171
     2
172
     0
173
     0
174
     0
175
     0
176
     0
177
     0
178
     0
  0
DIMSTYLE
  2
LC-STANDARD
 70
     0
  3

  4

  5

  6

  7

 40
1.0
 41
3.5
 42
0.0
 43
7.5
 44
1.8
 45
0.0
 46
0.0
 47
0.0
 48
0.0
 71
     0
 72
     0
 73
     0
 74
     0
 75
     0
 76
     0
 77
     1
 78
     8
140
3.5
141
0.0
142
0.0
143
25.4
144
1.0
145
0.0
146
0.71
147
1.5
170
     0
171
     2
172
     1
173
     0
174
     0
175
     0
176
     0
177
     0
178
     3
  0
DIMSTYLE
  2
LC-DIM-L-0100-02-02
 70
     0
  3

  4

  5

  6

  7

 40
2.0
 41
3.5
 42
0.0
 43
7.5
 44
1.8
 45
0.0
 46
0.0
 47
0.0
 48
0.0
 71
     0
 72
     0
 73
     0
 74
     0
 75
     0
 76
     0
 77
     1
 78
     8
140
10.0
141
0.0
142
0.0
143
25.4
144
1.0
145
0.0
146
0.71
147
1.5
170
     0
171
     2
172
     0
173
     0
174
     0
175
     0
176
     2
177
     2
178
     6
  0
ENDTAB
  0
ENDSEC
  0
SECTION
  2
BLOCKS
  0
BLOCK
  8
0
  5
23
  2
BLK1
 70
    64
 10
0.0
 20
0.0
 30
0.0
  3
BLK1
  0
ENDBLK
  8
0
  5
24
  0
BLOCK
  8
0
  5
26
  2
BLK2
 70
    64
 10
0.0
 20
0.0
 30
0.0
  3
BLK2
  0
ENDBLK
  8
0
  5
27
  0
BLOCK
  8
0
  5
29
  2
BLK3
 70
    64
 10
0.0
 20
0.0
 30
0.0
  3
BLK3
  0
ENDBLK
  8
0
  5
2A
  0
BLOCK
  8
0
  5
2C
  2
BLK4
 70
    64
 10
0.0
 20
0.0
 30
0.0
  3
BLK4
  0
ENDBLK
  8
0
  5
2D
  0
BLOCK
  8
0
  5
2F
  2
BLK5
 70
    64
 10
0.0
 20
0.0
 30
0.0
  3
BLK5
  0
ENDBLK
  8
0
  5
30
  0
BLOCK
  8
0
  5
32
  2
BLK6
 70
    64
 10
0.0
 20
0.0
 30
0.0
  3
BLK6
  0
ENDBLK
  8
0
  5
33
  0
BLOCK
  8
0
  5
35
  2
BLK7
 70
    64
 10
0.0
 20
0.0
 30
0.0
  3
BLK7
  0
ENDBLK
  8
0
  5
36
  0
BLOCK
  8
0
  5
38
  2
BLK8
 70
    64
 10
0.0
 20
0.0
 30
0.0
  3
BLK8
  0
ENDBLK
  8
0
  5
39
  0
BLOCK
  8
0
  5
3B
  2
BLK9
 70
    64
 10
0.0
 20
0.0
 30
0.0
  3
BLK9
  0
ENDBLK
  8
0
  5
3C
  0
BLOCK
  8
0
  5
3E
  2
BLK10
 70
    64
 10
0.0
 20
0.0
 30
0.0
  3
BLK10
  0
ENDBLK
  8
0
  5
3F
  0
BLOCK
  8
0
  5
41
  2
BLK11
 70
    64
 10
0.0
 20
0.0
 30
0.0
  3
BLK11
  0
ENDBLK
  8
0
  5
42
  0
BLOCK
  8
0
  5
44
  2
BLK12
 70
    64
 10
0.0
 20
0.0
 30
0.0
  3
BLK12
  0
ENDBLK
  8
0
  5
45
  0
BLOCK
  8
0
  5
47
  2
BLK13
 70
    64
 10
0.0
 20
0.0
 30
0.0
  3
BLK13
  0
ENDBLK
  8
0
  5
48
  0
BLOCK
  8
0
  5
4A
  2
BLK14
 70
    64
 10
0.0
 20
0.0
 30
0.0
  3
BLK14
  0
ENDBLK
  8
0
  5
4B
  0
BLOCK
  8
0
  5
4D
  2
BLK15
 70
    64
 10
0.0
 20
0.0
 30
0.0
  3
BLK15
  0
ENDBLK
  8
0
  5
4E
  0
BLOCK
  8
0
  5
50
  2
BLK16
 70
    64
 10
0.0
 20
0.0
 30
0.0
  3
BLK16
  0
ENDBLK
  8
0
  5
51
  0
BLOCK
  8
0
  5
53
  2
BLK17
 70
    64
 10
0.0
 20
0.0
 30
0.0
  3
BLK17
  0
ENDBLK
  8
0
  5
54
  0
BLOCK
  8
0
  5
56
  2
BLK18
 70
    64
 10
0.0
 20
0.0
 30
0.0
  3
BLK18
  0
ENDBLK
  8
0
  5
57
  0
BLOCK
  8
0
  5
59
  2
BLK19
 70
    64
 10
0.0
 20
0.0
 30
0.0
  3
BLK19
  0
ENDBLK
  8
0
  5
5A
  0
BLOCK
  8
0
  5
5C
  2
BLK20
 70
    64
 10
0.0
 20
0.0
 30
0.0
  3
BLK20
  0
ENDBLK
  8
0
  5
5D
  0
BLOCK
  8
0
  5
5F
  2
BLK21
 70
    64
 10
0.0
 20
0.0
 30
0.0
  3
BLK21
  0
ENDBLK
  8
0
  5
60
  0
BLOCK
  8
0
  5
62
  2
BLK22
 70
    64
 10
0.0
 20
0.0
 30
0.0
  3
BLK22
  0
ENDBLK
  8
0
  5
63
  0
BLOCK
  8
0
  5
65
  2
BLK23
 70
    64
 10
0.0
 20
0.0
 30
0.0
  3
BLK23
  0
ENDBLK
  8
0
  5
66
  0
BLOCK
  8
0
  5
68
  2
BLK24
 70
    64
 10
0.0
 20
0.0
 30
0.0
  3
BLK24
  0
ENDBLK
  8
0
  5
69
  0
BLOCK
  8
0
  5
6B
  2
BLK25
 70
    64
 10
0.0
 20
0.0
 30
0.0
  3
BLK25
  0
ENDBLK
  8
0
  5
6C
  0
BLOCK
  8
0
  5
6E
  2
BLK26
 70
    64
 10
0.0
 20
0.0
 30
0.0
  3
BLK26
  0
ENDBLK
  8
0
  5
6F
  0
BLOCK
  8
0
  5
71
  2
BLK27
 70
    64
 10
0.0
 20
0.0
 30
0.0
  3
BLK27
  0
ENDBLK
  8
0
  5
72
  0
BLOCK
  8
0
  5
74
  2
BLK28
 70
    64
 10
0.0
 20
0.0
 30
0.0
  3
BLK28
  0
ENDBLK
  8
0
  5
75
  0
BLOCK
  8
0
  5
77
  2
BLK29
 70
    64
 10
0.0
 20
0.0
 30
0.0
  3
BLK29
  0
ENDBLK
  8
0
  5
78
  0
BLOCK
  8
0
  5
7A
  2
BLK30
 70
    64
 10
0.0
 20
0.0
 30
0.0
  3
BLK30
  0
ENDBLK
  8
0
  5
7B
  0
BLOCK
  8
0
  5
7D
  2
BLK31
 70
    64
 10
0.0
 20
0.0
 30
0.0
  3
BLK31
  0
ENDBLK
  8
0
  5
7E
  0
BLOCK
  8
0
  5
80
  2
BLK32
 70
    64
 10
0.0
 20
0.0
 30
0.0
  3
BLK32
  0
ENDBLK
  8
0
  5
81
  0
BLOCK
  8
0
  5
83
  2
*D32
 70
    65
 10
0.0
 20
0.0
 30
0.0
  3
*D32
  0
LINE
  8
LC-005-003-MTH-0
  6
CONTINUOUS
  5
85
 10
486.583761
 20
531.61512
 30
0.0
 11
486.583761
 21
572.0
 31
0.0
  0
LINE
  8
LC-005-003-MTH-0
  6
CONTINUOUS
  5
86
 10
717.983761
 20
531.615116
 30
0.0
 11
717.983761
 21
572.0
 31
0.0
  0
LINE
  8
LC-006-003-MTG-0
  6
CONTINUOUS
  5
88
 10
486.583761
 20
560.0
 30
0.0
 11
717.983761
 21
560.0
 31
0.0
  0
LINE
  8
LC-004-003-----0
  6
CONTINUOUS
  5
8A
 10
506.412659
 20
562.610524
 30
0.0
 11
486.583761
 21
560.0
 31
0.0
  0
LINE
  8
LC-004-003-----0
  6
CONTINUOUS
  5
8B
 10
486.583761
 20
560.0
 30
0.0
 11
506.412659
 21
557.389476
 31
0.0
  0
LINE
  8
LC-004-003-----0
  6
CONTINUOUS
  5
8C
 10
506.412659
 20
557.389476
 30
0.0
 11
506.412659
 21
562.610524
 31
0.0
  0
LINE
  8
LC-004-003-----0
  6
CONTINUOUS
  5
8D
 10
506.457145
 20
561.931788
 30
0.0
 11
491.783761
 21
560.0
 31
0.0
  0
LINE
  8
LC-004-003-----0
  6
CONTINUOUS
  5
8E
 10
491.783761
 20
560.0
 30
0.0
 11
506.457145
 21
558.068212
 31
0.0
  0
LINE
  8
LC-004-003-----0
  6
CONTINUOUS
  5
8F
 10
506.501632
 20
561.253051
 30
0.0
 11
496.983761
 21
560.0
 31
0.0
  0
LINE
  8
LC-004-003-----0
  6
CONTINUOUS
  5
90
 10
496.983761
 20
560.0
 30
0.0
 11
506.501632
 21
558.746949
 31
0.0
  0
LINE
  8
LC-004-003-----0
  6
CONTINUOUS
  5
91
 10
506.546119
 20
560.574315
 30
0.0
 11
502.183761
 21
560.0
 31
0.0
  0
LINE
  8
LC-004-003-----0
  6
CONTINUOUS
  5
92
 10
502.183761
 20
560.0
 30
0.0
 11
506.546119
 21
559.425685
 31
0.0
  0
LINE
  8
LC-004-003-----0
  6
CONTINUOUS
  5
93
 10
698.154864
 20
557.389476
 30
0.0
 11
717.983761
 21
560.0
 31
0.0
  0
LINE
  8
LC-004-003-----0
  6
CONTINUOUS
  5
94
 10
717.983761
 20
560.0
 30
0.0
 11
698.154864
 21
562.610524
 31
0.0
  0
LINE
  8
LC-004-003-----0
  6
CONTINUOUS
  5
95
 10
698.154864
 20
562.610524
 30
0.0
 11
698.154864
 21
557.389476
 31
0.0
  0
LINE
  8
LC-004-003-----0
  6
CONTINUOUS
  5
96
 10
698.110377
 20
558.068212
 30
0.0
 11
712.783761
 21
560.0
 31
0.0
  0
LINE
  8
LC-004-003-----0
  6
CONTINUOUS
  5
97
 10
712.783761
 20
560.0
 30
0.0
 11
698.110377
 21
561.931788
 31
0.0
  0
LINE
  8
LC-004-003-----0
  6
CONTINUOUS
  5
98
 10
698.065891
 20
558.746949
 30
0.0
 11
707.583761
 21
560.0
 31
0.0
  0
LINE
  8
LC-004-003-----0
  6
CONTINUOUS
  5
99
 10
707.583761
 20
560.0
 30
0.0
 11
698.065891
 21
561.253051
 31
0.0
  0
LINE
  8
LC-004-003-----0
  6
CONTINUOUS
  5
9A
 10
698.021404
 20
559.425685
 30
0.0
 11
702.383761
 21
560.0
 31
0.0
  0
LINE
  8
LC-004-003-----0
  6
CONTINUOUS
  5
9B
 10
702.383761
 20
560.0
 30
0.0
 11
698.021404
 21
560.574315
 31
0.0
  0
TEXT
  8
LC-004-003-----0
  6
CONTINUOUS
 62
     6
  5
9D
 10
578.176992
 20
571.59111
 30
0.0
 40
20.0
  1
Ø230
 41
0.9
 51
15.0
  7
LC-TXTSTYLE-150-400-0-0-D0
 72
     1
 11
605.38959
 21
571.59111
 31
0.0
  0
ENDBLK
  8
0
  5
9E
  0
BLOCK
  8
0
  5
A0
  2
*X33
 70
    65
 10
730.278784
 20
472.388333
 30
0.0
  3
*X33
  0
LINE
  8
LC-007-005-----0
  6
CONTINUOUS
  5
A2
 10
735.428431
 20
479.663862
 30
0.0
 11
735.241372
 21
479.850921
 31
0.0
  0
LINE
  8
LC-007-005-----0
  6
DASHED
  5
A4
 10
736.278784
 20
477.682138
 30
0.0
 11
734.675687
 21
479.285235
 31
0.0
  0
LINE
  8
LC-007-005-----0
  6
DASHED
  5
A5
 10
736.278784
 20
477.116453
 30
0.0
 11
734.392844
 21
479.002393
 31
0.0
  0
LINE
  8
LC-007-005-----0
  6
CONTINUOUS
  5
A6
 10
736.278784
 20
475.985082
 30
0.0
 11
733.827158
 21
478.436707
 31
0.0
  0
LINE
  8
LC-007-005-----0
  6
CONTINUOUS
  5
A7
 10
736.278784
 20
475.419396
 30
0.0
 11
733.544316
 21
478.153865
 31
0.0
  0
LINE
  8
LC-007-005-----0
  6
DASHED
  5
A8
 10
736.278784
 20
474.288026
 30
0.0
 11
731.038661
 21
479.528148
 31
0.0
  0
LINE
  8
LC-007-005-----0
  6
DASHED
  5
A9
 10
736.278784
 20
473.72234
 30
0.0
 11
730.812387
 21
479.188737
 31
0.0
  0
LINE
  8
LC-007-005-----0
  6
CONTINUOUS
  5
AA
 10
736.278784
 20
472.590969
 30
0.0
 11
730.359838
 21
478.509915
 31
0.0
  0
LINE
  8
LC-007-005-----0
  6
CONTINUOUS
  5
AB
 10
735.915735
 20
472.388333
 30
0.0
 11
730.278784
 21
478.025284
 31
0.0
  0
LINE
  8
LC-007-005-----0
  6
DASHED
  5
AC
 10
734.784364
 20
472.388333
 30
0.0
 11
730.278784
 21
476.893913
 31
0.0
  0
LINE
  8
LC-007-005-----0
  6
DASHED
  5
AD
 10
734.218679
 20
472.388333
 30
0.0
 11
730.278784
 21
476.328228
 31
0.0
  0
LINE
  8
LC-007-005-----0
  6
CONTINUOUS
  5
AE
 10
733.087308
 20
472.388333
 30
0.0
 11
730.278784
 21
475.196857
 31
0.0
  0
LINE
  8
LC-007-005-----0
  6
CONTINUOUS
  5
AF
 10
732.521622
 20
472.388333
 30
0.0
 11
730.278784
 21
474.631171
 31
0.0
  0
LINE
  8
LC-007-005-----0
  6
DASHED
  5
B0
 10
731.390252
 20
472.388333
 30
0.0
 11
730.278784
 21
473.4998
 31
0.0
  0
LINE
  8
LC-007-005-----0
  6
DASHED
  5
B1
 10
730.824566
 20
472.388333
 30
0.0
 11
730.278784
 21
472.934115
 31
0.0
  0
ENDBLK
  8
0
  5
B2
  0
BLOCK
  8
0
  5
B4
  2
BLK33
 70
    64
 10
0.0
 20
0.0
 30
0.0
  3
BLK33
  0
ENDBLK
  8
0
  5
B5
  0
BLOCK
  8
0
  5
B7
  2
*X35
 70
    65
 10
468.288739
 20
472.388333
 30
0.0
  3
*X35
  0
LINE
  8
LC-007-005-----0
  6
DASHED
  5
B8
 10
474.288739
 20
477.759831
 30
0.0
 11
472.724488
 21
479.324082
 31
0.0
  0
LINE
  8
LC-007-005-----0
  6
DASHED
  5
B9
 10
474.288739
 20
477.194146
 30
0.0
 11
472.441646
 21
479.041239
 31
0.0
  0
LINE
  8
LC-007-005-----0
  6
CONTINUOUS
  5
BA
 10
474.288739
 20
476.062775
 30
0.0
 11
471.87596
 21
478.475554
 31
0.0
  0
LINE
  8
LC-007-005-----0
  6
CONTINUOUS
  5
BB
 10
474.288739
 20
475.497089
 30
0.0
 11
471.593117
 21
478.192711
 31
0.0
  0
LINE
  8
LC-007-005-----0
  6
DASHED
  5
BC
 10
474.288739
 20
474.365719
 30
0.0
 11
469.079693
 21
479.574764
 31
0.0
  0
LINE
  8
LC-007-005-----0
  6
DASHED
  5
BD
 10
474.288739
 20
473.800033
 30
0.0
 11
468.853419
 21
479.235353
 31
0.0
  0
LINE
  8
LC-007-005-----0
  6
CONTINUOUS
  5
BE
 10
474.288739
 20
472.668662
 30
0.0
 11
468.400871
 21
478.55653
 31
0.0
  0
LINE
  8
LC-007-005-----0
  6
CONTINUOUS
  5
BF
 10
474.003383
 20
472.388333
 30
0.0
 11
468.288739
 21
478.102977
 31
0.0
  0
LINE
  8
LC-007-005-----0
  6
DASHED
  5
C0
 10
472.872012
 20
472.388333
 30
0.0
 11
468.288739
 21
476.971606
 31
0.0
  0
LINE
  8
LC-007-005-----0
  6
DASHED
  5
C1
 10
472.306327
 20
472.388333
 30
0.0
 11
468.288739
 21
476.405921
 31
0.0
  0
LINE
  8
LC-007-005-----0
  6
CONTINUOUS
  5
C2
 10
471.174956
 20
472.388333
 30
0.0
 11
468.288739
 21
475.27455
 31
0.0
  0
LINE
  8
LC-007-005-----0
  6
CONTINUOUS
  5
C3
 10
470.609271
 20
472.388333
 30
0.0
 11
468.288739
 21
474.708864
 31
0.0
  0
LINE
  8
LC-007-005-----0
  6
DASHED
  5
C4
 10
469.4779
 20
472.388333
 30
0.0
 11
468.288739
 21
473.577494
 31
0.0
  0
LINE
  8
LC-007-005-----0
  6
DASHED
  5
C5
 10
468.912214
 20
472.388333
 30
0.0
 11
468.288739
 21
473.011808
 31
0.0
  0
ENDBLK
  8
0
  5
C6
  0
BLOCK
  8
0
  5
C8
  2
BLK34
 70
    64
 10
0.0
 20
0.0
 30
0.0
  3
BLK34
  0
ENDBLK
  8
0
  5
C9
  0
BLOCK
  8
0
  5
CB
  2
BLK35
 70
    64
 10
0.0
 20
0.0
 30
0.0
  3
BLK35
  0
ENDBLK
  8
0
  5
CC
  0
BLOCK
  8
0
  5
CE
  2
BLK36
 70
    64
 10
0.0
 20
0.0
 30
0.0
  3
BLK36
  0
ENDBLK
  8
0
  5
CF
  0
BLOCK
  8
0
  5
D1
  2
BLK37
 70
    64
 10
0.0
 20
0.0
 30
0.0
  3
BLK37
  0
ENDBLK
  8
0
  5
D2
  0
BLOCK
  8
0
  5
D4
  2
BLK38
 70
    64
 10
0.0
 20
0.0
 30
0.0
  3
BLK38
  0
ENDBLK
  8
0
  5
D5
  0
BLOCK
  8
0
  5
D7
  2
BLK39
 70
    64
 10
0.0
 20
0.0
 30
0.0
  3
BLK39
  0
ENDBLK
  8
0
  5
D8
  0
BLOCK
  8
0
  5
DA
  2
BLK40
 70
    64
 10
0.0
 20
0.0
 30
0.0
  3
BLK40
  0
ENDBLK
  8
0
  5
DB
  0
BLOCK
  8
0
  5
DD
  2
BLK41
 70
    64
 10
0.0
 20
0.0
 30
0.0
  3
BLK41
  0
ENDBLK
  8
0
  5
DE
  0
BLOCK
  8
0
  5
E0
  2
BLK42
 70
    64
 10
0.0
 20
0.0
 30
0.0
  3
BLK42
  0
ENDBLK
  8
0
  5
E1
  0
BLOCK
  8
0
  5
E3
  2
BLK43
 70
    64
 10
0.0
 20
0.0
 30
0.0
  3
BLK43
  0
ENDBLK
  8
0
  5
E4
  0
BLOCK
  8
0
  5
E6
  2
BLK44
 70
    64
 10
0.0
 20
0.0
 30
0.0
  3
BLK44
  0
ENDBLK
  8
0
  5
E7
  0
BLOCK
  8
0
  5
E9
  2
BLK45
 70
    64
 10
0.0
 20
0.0
 30
0.0
  3
BLK45
  0
ENDBLK
  8
0
  5
EA
  0
BLOCK
  8
0
  5
EC
  2
BLK46
 70
    64
 10
0.0
 20
0.0
 30
0.0
  3
BLK46
  0
ENDBLK
  8
0
  5
ED
  0
BLOCK
  8
0
  5
EF
  2
BLK47
 70
    64
 10
0.0
 20
0.0
 30
0.0
  3
BLK47
  0
ENDBLK
  8
0
  5
F0
  0
BLOCK
  8
0
  5
F2
  2
BLK48
 70
    64
 10
0.0
 20
0.0
 30
0.0
  3
BLK48
  0
ENDBLK
  8
0
  5
F3
  0
BLOCK
  8
0
  5
F5
  2
BLK49
 70
    64
 10
0.0
 20
0.0
 30
0.0
  3
BLK49
  0
ENDBLK
  8
0
  5
F6
  0
BLOCK
  8
0
  5
F8
  2
BLK50
 70
    64
 10
0.0
 20
0.0
 30
0.0
  3
BLK50
  0
ENDBLK
  8
0
  5
F9
  0
BLOCK
  8
0
  5
FB
  2
BLK51
 70
    64
 10
0.0
 20
0.0
 30
0.0
  3
BLK51
  0
ENDBLK
  8
0
  5
FC
  0
BLOCK
  8
0
  5
FE
  2
BLK52
 70
    64
 10
0.0
 20
0.0
 30
0.0
  3
BLK52
  0
ENDBLK
  8
0
  5
FF
  0
BLOCK
  8
0
  5
101
  2
BLK53
 70
    64
 10
0.0
 20
0.0
 30
0.0
  3
BLK53
  0
ENDBLK
  8
0
  5
102
  0
BLOCK
  8
0
  5
104
  2
BLK54
 70
    64
 10
0.0
 20
0.0
 30
0.0
  3
BLK54
  0
ENDBLK
  8
0
  5
105
  0
BLOCK
  8
0
  5
107
  2
BLK55
 70
    64
 10
0.0
 20
0.0
 30
0.0
  3
BLK55
  0
ENDBLK
  8
0
  5
108
  0
BLOCK
  8
0
  5
10A
  2
BLK56
 70
    64
 10
0.0
 20
0.0
 30
0.0
  3
BLK56
  0
ENDBLK
  8
0
  5
10B
  0
BLOCK
  8
0
  5
10D
  2
BLK57
 70
    64
 10
0.0
 20
0.0
 30
0.0
  3
BLK57
  0
ENDBLK
  8
0
  5
10E
  0
BLOCK
  8
0
  5
110
  2
BLK58
 70
    64
 10
0.0
 20
0.0
 30
0.0
  3
BLK58
  0
ENDBLK
  8
0
  5
111
  0
BLOCK
  8
0
  5
113
  2
BLK59
 70
    64
 10
0.0
 20
0.0
 30
0.0
  3
BLK59
  0
ENDBLK
  8
0
  5
114
  0
BLOCK
  8
0
  5
116
  2
BLK60
 70
    64
 10
0.0
 20
0.0
 30
0.0
  3
BLK60
  0
ENDBLK
  8
0
  5
117
  0
BLOCK
  8
0
  5
119
  2
BLK61
 70
    64
 10
0.0
 20
0.0
 30
0.0
  3
BLK61
  0
ENDBLK
  8
0
  5
11A
  0
BLOCK
  8
0
  5
11C
  2
BLK62
 70
    64
 10
0.0
 20
0.0
 30
0.0
  3
BLK62
  0
ENDBLK
  8
0
  5
11D
  0
BLOCK
  8
0
  5
11F
  2
BLK63
 70
    64
 10
0.0
 20
0.0
 30
0.0
  3
BLK63
  0
ENDBLK
  8
0
  5
120
  0
BLOCK
  8
0
  5
122
  2
BLK64
 70
    64
 10
0.0
 20
0.0
 30
0.0
  3
BLK64
  0
ENDBLK
  8
0
  5
123
  0
BLOCK
  8
0
  5
125
  2
BLK65
 70
    64
 10
0.0
 20
0.0
 30
0.0
  3
BLK65
  0
ENDBLK
  8
0
  5
126
  0
BLOCK
  8
0
  5
128
  2
BLK66
 70
    64
 10
0.0
 20
0.0
 30
0.0
  3
BLK66
  0
ENDBLK
  8
0
  5
129
  0
BLOCK
  8
0
  5
12B
  2
BLK67
 70
    64
 10
0.0
 20
0.0
 30
0.0
  3
BLK67
  0
ENDBLK
  8
0
  5
12C
  0
BLOCK
  8
0
  5
12E
  2
BLK68
 70
    64
 10
0.0
 20
0.0
 30
0.0
  3
BLK68
  0
ENDBLK
  8
0
  5
12F
  0
BLOCK
  8
0
  5
131
  2
BLK69
 70
    64
 10
0.0
 20
0.0
 30
0.0
  3
BLK69
  0
ENDBLK
  8
0
  5
132
  0
BLOCK
  8
0
  5
134
  2
BLK70
 70
    64
 10
0.0
 20
0.0
 30
0.0
  3
BLK70
  0
ENDBLK
  8
0
  5
135
  0
BLOCK
  8
0
  5
137
  2
BLK71
 70
    64
 10
0.0
 20
0.0
 30
0.0
  3
BLK71
  0
ENDBLK
  8
0
  5
138
  0
BLOCK
  8
0
  5
13A
  2
BLK72
 70
    64
 10
0.0
 20
0.0
 30
0.0
  3
BLK72
  0
ENDBLK
  8
0
  5
13B
  0
BLOCK
  8
0
  5
13D
  2
BLK73
 70
    64
 10
0.0
 20
0.0
 30
0.0
  3
BLK73
  0
ENDBLK
  8
0
  5
13E
  0
BLOCK
  8
0
  5
140
  2
BLK74
 70
    64
 10
0.0
 20
0.0
 30
0.0
  3
BLK74
  0
ENDBLK
  8
0
  5
141
  0
BLOCK
  8
0
  5
143
  2
BLK75
 70
    64
 10
0.0
 20
0.0
 30
0.0
  3
BLK75
  0
ENDBLK
  8
0
  5
144
  0
BLOCK
  8
0
  5
146
  2
BLK76
 70
    64
 10
0.0
 20
0.0
 30
0.0
  3
BLK76
  0
ENDBLK
  8
0
  5
147
  0
BLOCK
  8
0
  5
149
  2
BLK77
 70
    64
 10
0.0
 20
0.0
 30
0.0
  3
BLK77
  0
ENDBLK
  8
0
  5
14A
  0
BLOCK
  8
0
  5
14C
  2
BLK78
 70
    64
 10
0.0
 20
0.0
 30
0.0
  3
BLK78
  0
ENDBLK
  8
0
  5
14D
  0
BLOCK
  8
0
  5
14F
  2
BLK79
 70
    64
 10
0.0
 20
0.0
 30
0.0
  3
BLK79
  0
ENDBLK
  8
0
  5
150
  0
BLOCK
  8
0
  5
152
  2
BLK80
 70
    64
 10
0.0
 20
0.0
 30
0.0
  3
BLK80
  0
ENDBLK
  8
0
  5
153
  0
BLOCK
  8
0
  5
155
  2
BLK81
 70
    64
 10
0.0
 20
0.0
 30
0.0
  3
BLK81
  0
ENDBLK
  8
0
  5
156
  0
ENDSEC
  0
SECTION
  2
ENTITIES
  0
VIEWPORT
  8
LC-000
  5
25D
 67
     1
 68
     1
 10
420.0
 20
297.0
 30
0.0
 40
840.0
 41
594.0
 69
     1
1001
ACAD
1000
MVIEW
1002
{
1070
    16
1010
0.0
1020
0.0
1030
0.0
1010
0.0
1020
0.0
1030
1.0
1040
0.0
1040
594.0
1040
420.0
1040
297.0
1040
50.0
1040
0.0
1040
0.0
1070
     0
1070
   100
1070
     1
1070
     1
1070
     0
1070
     0
1070
     0
1070
     0
1040
0.0
1040
0.0
1040
0.0
1040
1.0
1040
1.0
1040
0.0
1040
0.0
1070
     0
1002
{
1002
}
1002
}
  0
VIEWPORT
  8
0
  5
25E
 67
     1
 68
     1
 10
0.0
 20
0.0
 30
0.0
 40
0.0
 41
0.0
 69
     1
1001
ACAD
1000
MVIEW
1002
{
1070
    16
1010
0.0
1020
0.0
1030
0.0
1010
0.0
1020
0.0
1030
1.0
1040
0.0
1040
594.0
1040
0.0
1040
0.0
1040
50.0
1040
0.0
1040
0.0
1070
     0
1070
   100
1070
     0
1070
     1
1070
     0
1070
     0
1070
     0
1070
     0
1040
0.0
1040
0.0
1040
0.0
1040
0.5
1040
0.5
1040
0.5
1040
0.5
1070
     0
1002
{
1002
}
1002
}
  0
INSERT
  8
0
  5
158
  2
BLK1
 10
0.0
 20
0.0
 30
0.0
  0
INSERT
  8
0
  5
159
  2
BLK2
 10
0.0
 20
0.0
 30
0.0
  0
INSERT
  8
0
  5
15A
  2
BLK3
 10
0.0
 20
0.0
 30
0.0
  0
INSERT
  8
0
  5
15B
  2
BLK4
 10
0.0
 20
0.0
 30
0.0
  0
INSERT
  8
0
  5
15C
  2
BLK5
 10
0.0
 20
0.0
 30
0.0
  0
INSERT
  8
0
  5
15D
  2
BLK6
 10
0.0
 20
0.0
 30
0.0
  0
INSERT
  8
0
  5
15E
  2
BLK7
 10
0.0
 20
0.0
 30
0.0
  0
INSERT
  8
0
  5
15F
  2
BLK8
 10
0.0
 20
0.0
 30
0.0
  0
INSERT
  8
0
  5
160
  2
BLK9
 10
0.0
 20
0.0
 30
0.0
  0
INSERT
  8
0
  5
161
  2
BLK10
 10
0.0
 20
0.0
 30
0.0
  0
INSERT
  8
0
  5
162
  2
BLK11
 10
0.0
 20
0.0
 30
0.0
  0
INSERT
  8
0
  5
163
  2
BLK12
 10
0.0
 20
0.0
 30
0.0
  0
INSERT
  8
0
  5
164
  2
BLK13
 10
0.0
 20
0.0
 30
0.0
  0
INSERT
  8
0
  5
165
  2
BLK14
 10
0.0
 20
0.0
 30
0.0
  0
INSERT
  8
0
  5
166
  2
BLK15
 10
0.0
 20
0.0
 30
0.0
  0
INSERT
  8
0
  5
167
  2
BLK16
 10
0.0
 20
0.0
 30
0.0
  0
INSERT
  8
0
  5
168
  2
BLK17
 10
0.0
 20
0.0
 30
0.0
  0
INSERT
  8
0
  5
169
  2
BLK18
 10
0.0
 20
0.0
 30
0.0
  0
INSERT
  8
0
  5
16A
  2
BLK19
 10
0.0
 20
0.0
 30
0.0
  0
INSERT
  8
0
  5
16B
  2
BLK20
 10
0.0
 20
0.0
 30
0.0
  0
INSERT
  8
0
  5
16C
  2
BLK21
 10
0.0
 20
0.0
 30
0.0
  0
INSERT
  8
0
  5
16D
  2
BLK22
 10
0.0
 20
0.0
 30
0.0
  0
INSERT
  8
0
  5
16E
  2
BLK23
 10
0.0
 20
0.0
 30
0.0
  0
INSERT
  8
0
  5
16F
  2
BLK24
 10
0.0
 20
0.0
 30
0.0
  0
INSERT
  8
0
  5
170
  2
BLK25
 10
0.0
 20
0.0
 30
0.0
  0
INSERT
  8
0
  5
171
  2
BLK26
 10
0.0
 20
0.0
 30
0.0
  0
INSERT
  8
0
  5
172
  2
BLK27
 10
0.0
 20
0.0
 30
0.0
  0
INSERT
  8
0
  5
173
  2
BLK28
 10
0.0
 20
0.0
 30
0.0
  0
INSERT
  8
0
  5
174
  2
BLK29
 10
0.0
 20
0.0
 30
0.0
  0
INSERT
  8
0
  5
175
  2
BLK30
 10
0.0
 20
0.0
 30
0.0
  0
INSERT
  8
0
  5
176
  2
BLK31
 10
0.0
 20
0.0
 30
0.0
  0
INSERT
  8
0
  5
177
  2
BLK32
 10
0.0
 20
0.0
 30
0.0
  0
DIMENSION
  8
0
  5
178
  2
*D32
 10
602.283761
 20
560.0
 30
0.0
 11
602.283761
 21
560.0
 31
0.0
  1
%%c230
 13
486.583761
 23
531.61512
 33
0.0
 14
717.983761
 24
531.615116
 34
0.0
  3
LC-DIM-L-0100-02-02
  0
INSERT
  8
0
  5
179
  2
*X33
 10
730.278784
 20
472.388333
 30
0.0
  0
INSERT
  8
0
  5
17A
  2
BLK33
 10
0.0
 20
0.0
 30
0.0
  0
INSERT
  8
0
  5
17B
  2
*X35
 10
468.288739
 20
472.388333
 30
0.0
  0
INSERT
  8
0
  5
17C
  2
BLK34
 10
0.0
 20
0.0
 30
0.0
  0
INSERT
  8
0
  5
17D
  2
BLK35
 10
0.0
 20
0.0
 30
0.0
  0
INSERT
  8
0
  5
17E
  2
BLK36
 10
0.0
 20
0.0
 30
0.0
  0
INSERT
  8
0
  5
17F
  2
BLK37
 10
0.0
 20
0.0
 30
0.0
  0
INSERT
  8
0
  5
180
  2
BLK38
 10
0.0
 20
0.0
 30
0.0
  0
INSERT
  8
0
  5
181
  2
BLK39
 10
0.0
 20
0.0
 30
0.0
  0
INSERT
  8
0
  5
182
  2
BLK40
 10
0.0
 20
0.0
 30
0.0
  0
INSERT
  8
0
  5
183
  2
BLK41
 10
0.0
 20
0.0
 30
0.0
  0
INSERT
  8
0
  5
184
  2
BLK42
 10
0.0
 20
0.0
 30
0.0
  0
INSERT
  8
0
  5
185
  2
BLK43
 10
0.0
 20
0.0
 30
0.0
  0
INSERT
  8
0
  5
186
  2
BLK44
 10
0.0
 20
0.0
 30
0.0
  0
INSERT
  8
0
  5
187
  2
BLK45
 10
0.0
 20
0.0
 30
0.0
  0
INSERT
  8
0
  5
188
  2
BLK46
 10
0.0
 20
0.0
 30
0.0
  0
INSERT
  8
0
  5
189
  2
BLK47
 10
0.0
 20
0.0
 30
0.0
  0
INSERT
  8
0
  5
18A
  2
BLK48
 10
0.0
 20
0.0
 30
0.0
  0
INSERT
  8
0
  5
18B
  2
BLK49
 10
0.0
 20
0.0
 30
0.0
  0
INSERT
  8
0
  5
18C
  2
BLK50
 10
0.0
 20
0.0
 30
0.0
  0
INSERT
  8
0
  5
18D
  2
BLK51
 10
0.0
 20
0.0
 30
0.0
  0
INSERT
  8
0
  5
18E
  2
BLK52
 10
0.0
 20
0.0
 30
0.0
  0
INSERT
  8
0
  5
18F
  2
BLK53
 10
0.0
 20
0.0
 30
0.0
  0
INSERT
  8
0
  5
190
  2
BLK54
 10
0.0
 20
0.0
 30
0.0
  0
INSERT
  8
0
  5
191
  2
BLK55
 10
0.0
 20
0.0
 30
0.0
  0
INSERT
  8
0
  5
192
  2
BLK56
 10
0.0
 20
0.0
 30
0.0
  0
INSERT
  8
0
  5
193
  2
BLK57
 10
0.0
 20
0.0
 30
0.0
  0
INSERT
  8
0
  5
194
  2
BLK58
 10
0.0
 20
0.0
 30
0.0
  0
INSERT
  8
0
  5
195
  2
BLK59
 10
0.0
 20
0.0
 30
0.0
  0
INSERT
  8
0
  5
196
  2
BLK60
 10
0.0
 20
0.0
 30
0.0
  0
INSERT
  8
0
  5
197
  2
BLK61
 10
0.0
 20
0.0
 30
0.0
  0
INSERT
  8
0
  5
198
  2
BLK62
 10
0.0
 20
0.0
 30
0.0
  0
INSERT
  8
0
  5
199
  2
BLK63
 10
0.0
 20
0.0
 30
0.0
  0
INSERT
  8
0
  5
19A
  2
BLK64
 10
0.0
 20
0.0
 30
0.0
  0
INSERT
  8
0
  5
19B
  2
BLK65
 10
0.0
 20
0.0
 30
0.0
  0
INSERT
  8
0
  5
19C
  2
BLK66
 10
0.0
 20
0.0
 30
0.0
  0
INSERT
  8
0
  5
19D
  2
BLK67
 10
0.0
 20
0.0
 30
0.0
  0
INSERT
  8
0
  5
19E
  2
BLK68
 10
0.0
 20
0.0
 30
0.0
  0
INSERT
  8
0
  5
19F
  2
BLK69
 10
0.0
 20
0.0
 30
0.0
  0
INSERT
  8
0
  5
1A0
  2
BLK70
 10
0.0
 20
0.0
 30
0.0
  0
INSERT
  8
0
  5
1A1
  2
BLK71
 10
0.0
 20
0.0
 30
0.0
  0
INSERT
  8
0
  5
1A2
  2
BLK72
 10
0.0
 20
0.0
 30
0.0
  0
INSERT
  8
0
  5
1A3
  2
BLK73
 10
0.0
 20
0.0
 30
0.0
  0
INSERT
  8
0
  5
1A4
  2
BLK74
 10
0.0
 20
0.0
 30
0.0
  0
INSERT
  8
0
  5
1A5
  2
BLK75
 10
0.0
 20
0.0
 30
0.0
  0
INSERT
  8
0
  5
1A6
  2
BLK76
 10
0.0
 20
0.0
 30
0.0
  0
INSERT
  8
0
  5
1A7
  2
BLK77
 10
0.0
 20
0.0
 30
0.0
  0
INSERT
  8
0
  5
1A8
  2
BLK78
 10
0.0
 20
0.0
 30
0.0
  0
INSERT
  8
0
  5
1A9
  2
BLK79
 10
0.0
 20
0.0
 30
0.0
  0
INSERT
  8
0
  5
1AA
  2
BLK80
 10
0.0
 20
0.0
 30
0.0
  0
INSERT
  8
0
  5
1AB
  2
BLK81
 10
0.0
 20
0.0
 30
0.0
  0
LINE
  8
LC-001-002-----0
  6
CONTINUOUS
  5
1AD
 10
465.051867
 20
484.941947
 30
0.0
 11
463.283761
 21
484.941947
 31
0.0
  0
LINE
  8
LC-001-002-----0
  6
CONTINUOUS
  5
1AE
 10
500.039675
 20
484.941947
 30
0.0
 11
704.527847
 21
484.941947
 31
0.0
  0
LINE
  8
LC-001-002-----0
  6
CONTINUOUS
  5
1AF
 10
739.515655
 20
484.941947
 30
0.0
 11
741.283761
 21
484.941947
 31
0.0
  0
LINE
  8
LC-001-002-----0
  6
CONTINUOUS
  5
1B0
 10
480.584148
 20
529.647142
 30
0.0
 11
492.582888
 21
529.647109
 31
0.0
  0
LINE
  8
LC-002-004-----0
  6
CONTINUOUS
  5
1B2
 10
480.584148
 20
528.147142
 30
0.0
 11
486.584147
 21
528.147126
 31
0.0
  0
LINE
  8
LC-002-004-----0
  6
CONTINUOUS
  5
1B3
 10
483.584147
 20
528.147134
 30
0.0
 11
483.584115
 21
516.147134
 31
0.0
  0
LINE
  8
LC-002-004-----0
  6
CONTINUOUS
  5
1B4
 10
483.584115
 20
516.147134
 30
0.0
 11
486.584102
 21
511.147126
 31
0.0
  0
LINE
  8
LC-002-004-----0
  6
CONTINUOUS
 62
     2
  5
1B5
 10
483.584143
 20
526.647134
 30
0.0
 11
484.584143
 21
526.647131
 31
0.0
  0
LINE
  8
LC-002-004-----0
  6
CONTINUOUS
 62
     2
  5
1B6
 10
484.584143
 20
526.647131
 30
0.0
 11
484.584111
 21
514.647131
 31
0.0
  0
LINE
  8
LC-002-004-----0
  6
CONTINUOUS
  5
1B7
 10
485.784157
 20
531.61512
 30
0.0
 11
485.784154
 21
530.646217
 31
0.0
  0
LINE
  8
LC-002-004-----0
  6
CONTINUOUS
  5
1B8
 10
483.584115
 20
516.147134
 30
0.0
 11
486.584115
 21
516.147126
 31
0.0
  0
LINE
  8
LC-002-004-----0
  6
CONTINUOUS
  5
1B9
 10
492.582887
 20
528.146213
 30
0.0
 11
486.582887
 21
528.146217
 31
0.0
  0
LINE
  8
LC-002-004-----0
  6
CONTINUOUS
  5
1BA
 10
489.582887
 20
528.146215
 30
0.0
 11
489.582879
 21
516.146215
 31
0.0
  0
LINE
  8
LC-002-004-----0
  6
CONTINUOUS
  5
1BB
 10
489.582879
 20
516.146215
 30
0.0
 11
486.582876
 21
511.146217
 31
0.0
  0
LINE
  8
LC-002-004-----0
  6
CONTINUOUS
 62
     2
  5
1BC
 10
489.582886
 20
526.646215
 30
0.0
 11
484.584143
 21
526.646218
 31
0.0
  0
LINE
  8
LC-002-004-----0
  6
CONTINUOUS
 62
     2
  5
1BD
 10
488.582886
 20
526.646215
 30
0.0
 11
488.582878
 21
514.646216
 31
0.0
  0
LINE
  8
LC-002-004-----0
  6
CONTINUOUS
  5
1BE
 10
487.382889
 20
531.615116
 30
0.0
 11
487.382889
 21
530.646216
 31
0.0
  0
LINE
  8
LC-002-004-----0
  6
CONTINUOUS
  5
1BF
 10
489.582879
 20
516.146215
 30
0.0
 11
486.582879
 21
516.146217
 31
0.0
  0
LINE
  8
LC-002-004-----0
  6
CONTINUOUS
  5
1C0
 10
480.584152
 20
529.647142
 30
0.0
 11
480.584148
 21
528.147142
 31
0.0
  0
ARC
  8
LC-001-002-----0
  6
CONTINUOUS
  5
1C1
 10
486.583498
 20
521.649014
 30
0.0
 40
9.99811
 50
94.585648
 51
126.873341
  0
LINE
  8
LC-001-002-----0
  6
CONTINUOUS
  5
1C2
 10
487.382888
 20
530.646216
 30
0.0
 11
485.784154
 21
530.646217
 31
0.0
  0
LINE
  8
LC-002-004-----0
  6
CONTINUOUS
  5
1C3
 10
492.582888
 20
529.647109
 30
0.0
 11
492.582887
 21
528.146213
 31
0.0
  0
ARC
  8
LC-001-002-----0
  6
CONTINUOUS
  5
1C4
 10
486.583498
 20
521.649014
 30
0.0
 40
9.99811
 50
53.12635
 51
85.414066
  0
LINE
  8
LC-001-002-----0
  6
CONTINUOUS
  5
1C5
 10
723.983375
 20
529.647142
 30
0.0
 11
711.984635
 21
529.647109
 31
0.0
  0
LINE
  8
LC-002-004-----0
  6
CONTINUOUS
  5
1C6
 10
723.983375
 20
528.147142
 30
0.0
 11
717.983375
 21
528.147126
 31
0.0
  0
LINE
  8
LC-002-004-----0
  6
CONTINUOUS
  5
1C7
 10
720.983375
 20
528.147134
 30
0.0
 11
720.983408
 21
516.147134
 31
0.0
  0
LINE
  8
LC-002-004-----0
  6
CONTINUOUS
  5
1C8
 10
720.983408
 20
516.147134
 30
0.0
 11
717.983421
 21
511.147126
 31
0.0
  0
LINE
  8
LC-002-004-----0
  6
CONTINUOUS
 62
     2
  5
1C9
 10
720.983379
 20
526.647134
 30
0.0
 11
719.983379
 21
526.647131
 31
0.0
  0
LINE
  8
LC-002-004-----0
  6
CONTINUOUS
 62
     2
  5
1CA
 10
719.983379
 20
526.647131
 30
0.0
 11
719.983412
 21
514.647131
 31
0.0
  0
LINE
  8
LC-002-004-----0
  6
CONTINUOUS
  5
1CB
 10
718.783366
 20
531.61512
 30
0.0
 11
718.783369
 21
530.646217
 31
0.0
  0
LINE
  8
LC-002-004-----0
  6
CONTINUOUS
  5
1CC
 10
720.983408
 20
516.147134
 30
0.0
 11
717.983408
 21
516.147126
 31
0.0
  0
LINE
  8
LC-002-004-----0
  6
CONTINUOUS
  5
1CD
 10
711.984636
 20
528.146213
 30
0.0
 11
717.984636
 21
528.146217
 31
0.0
  0
LINE
  8
LC-002-004-----0
  6
CONTINUOUS
  5
1CE
 10
714.984636
 20
528.146215
 30
0.0
 11
714.984644
 21
516.146215
 31
0.0
  0
LINE
  8
LC-002-004-----0
  6
CONTINUOUS
  5
1CF
 10
714.984644
 20
516.146215
 30
0.0
 11
717.984647
 21
511.146217
 31
0.0
  0
LINE
  8
LC-002-004-----0
  6
CONTINUOUS
 62
     2
  5
1D0
 10
714.984637
 20
526.646215
 30
0.0
 11
719.983379
 21
526.646218
 31
0.0
  0
LINE
  8
LC-002-004-----0
  6
CONTINUOUS
 62
     2
  5
1D1
 10
715.984637
 20
526.646215
 30
0.0
 11
715.984645
 21
514.646216
 31
0.0
  0
LINE
  8
LC-002-004-----0
  6
CONTINUOUS
  5
1D2
 10
717.184634
 20
531.615116
 30
0.0
 11
717.184634
 21
530.646216
 31
0.0
  0
LINE
  8
LC-002-004-----0
  6
CONTINUOUS
  5
1D3
 10
714.984644
 20
516.146215
 30
0.0
 11
717.984644
 21
516.146217
 31
0.0
  0
LINE
  8
LC-002-004-----0
  6
CONTINUOUS
  5
1D4
 10
723.983371
 20
529.647142
 30
0.0
 11
723.983375
 21
528.147142
 31
0.0
  0
ARC
  8
LC-001-002-----0
  6
CONTINUOUS
  5
1D5
 10
717.984025
 20
521.649014
 30
0.0
 40
9.99811
 50
53.126659
 51
85.414352
  0
LINE
  8
LC-001-002-----0
  6
CONTINUOUS
  5
1D6
 10
717.184635
 20
530.646216
 30
0.0
 11
718.783369
 21
530.646217
 31
0.0
  0
LINE
  8
LC-002-004-----0
  6
CONTINUOUS
  5
1D7
 10
711.984635
 20
529.647109
 30
0.0
 11
711.984636
 21
528.146213
 31
0.0
  0
ARC
  8
LC-001-002-----0
  6
CONTINUOUS
  5
1D8
 10
717.984025
 20
521.649014
 30
0.0
 40
9.99811
 50
94.585934
 51
126.87365
  0
LINE
  8
LC-001-002-----0
  6
CONTINUOUS
  5
1D9
 10
730.278784
 20
478.388333
 30
0.0
 11
730.278784
 21
472.388333
 31
0.0
  0
LINE
  8
LC-001-002-----0
  6
CONTINUOUS
  5
1DA
 10
736.278784
 20
478.388333
 30
0.0
 11
736.278784
 21
472.388333
 31
0.0
  0
LINE
  8
LC-001-002-----0
  6
CONTINUOUS
  5
1DB
 10
733.278784
 20
477.888333
 30
0.0
 11
731.278784
 21
479.888333
 31
0.0
  0
LINE
  8
LC-001-002-----0
  6
CONTINUOUS
  5
1DC
 10
730.278784
 20
478.388333
 30
0.0
 11
731.278784
 21
479.888333
 31
0.0
  0
LINE
  8
LC-001-002-----0
  6
CONTINUOUS
  5
1DD
 10
733.278784
 20
477.888333
 30
0.0
 11
735.278784
 21
479.888333
 31
0.0
  0
LINE
  8
LC-001-002-----0
  6
CONTINUOUS
  5
1DE
 10
736.278784
 20
478.388333
 30
0.0
 11
735.278784
 21
479.888333
 31
0.0
  0
LINE
  8
LC-001-002-----0
  6
CONTINUOUS
  5
1DF
 10
596.285033
 20
529.647142
 30
0.0
 11
608.283773
 21
529.647109
 31
0.0
  0
LINE
  8
LC-002-004-----0
  6
CONTINUOUS
  5
1E0
 10
596.285033
 20
528.147142
 30
0.0
 11
602.285033
 21
528.147126
 31
0.0
  0
LINE
  8
LC-002-004-----0
  6
CONTINUOUS
  5
1E1
 10
599.285033
 20
528.147134
 30
0.0
 11
599.285001
 21
516.147134
 31
0.0
  0
LINE
  8
LC-002-004-----0
  6
CONTINUOUS
  5
1E2
 10
599.285001
 20
516.147134
 30
0.0
 11
602.284987
 21
511.147126
 31
0.0
  0
LINE
  8
LC-002-004-----0
  6
CONTINUOUS
 62
     2
  5
1E3
 10
599.285029
 20
526.647134
 30
0.0
 11
600.285029
 21
526.647131
 31
0.0
  0
LINE
  8
LC-002-004-----0
  6
CONTINUOUS
 62
     2
  5
1E4
 10
600.285029
 20
526.647131
 30
0.0
 11
600.284997
 21
514.647131
 31
0.0
  0
LINE
  8
LC-002-004-----0
  6
CONTINUOUS
  5
1E5
 10
601.485042
 20
531.61512
 30
0.0
 11
601.48504
 21
530.646217
 31
0.0
  0
LINE
  8
LC-002-004-----0
  6
CONTINUOUS
  5
1E6
 10
599.285001
 20
516.147134
 30
0.0
 11
602.285001
 21
516.147126
 31
0.0
  0
LINE
  8
LC-002-004-----0
  6
CONTINUOUS
  5
1E7
 10
608.283772
 20
528.146213
 30
0.0
 11
602.283773
 21
528.146217
 31
0.0
  0
LINE
  8
LC-002-004-----0
  6
CONTINUOUS
  5
1E8
 10
605.283772
 20
528.146215
 30
0.0
 11
605.283765
 21
516.146215
 31
0.0
  0
LINE
  8
LC-002-004-----0
  6
CONTINUOUS
  5
1E9
 10
605.283765
 20
516.146215
 30
0.0
 11
602.283761
 21
511.146217
 31
0.0
  0
LINE
  8
LC-002-004-----0
  6
CONTINUOUS
 62
     2
  5
1EA
 10
605.283771
 20
526.646215
 30
0.0
 11
600.285029
 21
526.646218
 31
0.0
  0
LINE
  8
LC-002-004-----0
  6
CONTINUOUS
 62
     2
  5
1EB
 10
604.283772
 20
526.646215
 30
0.0
 11
604.283764
 21
514.646216
 31
0.0
  0
LINE
  8
LC-002-004-----0
  6
CONTINUOUS
  5
1EC
 10
603.083775
 20
531.615116
 30
0.0
 11
603.083774
 21
530.646216
 31
0.0
  0
LINE
  8
LC-002-004-----0
  6
CONTINUOUS
  5
1ED
 10
605.283765
 20
516.146215
 30
0.0
 11
602.283765
 21
516.146217
 31
0.0
  0
LINE
  8
LC-002-004-----0
  6
CONTINUOUS
  5
1EE
 10
596.285037
 20
529.647142
 30
0.0
 11
596.285033
 21
528.147142
 31
0.0
  0
ARC
  8
LC-001-002-----0
  6
CONTINUOUS
  5
1EF
 10
602.284384
 20
521.649014
 30
0.0
 40
9.99811
 50
94.585648
 51
126.873341
  0
LINE
  8
LC-001-002-----0
  6
CONTINUOUS
  5
1F0
 10
603.083774
 20
530.646216
 30
0.0
 11
601.48504
 21
530.646217
 31
0.0
  0
LINE
  8
LC-002-004-----0
  6
CONTINUOUS
  5
1F1
 10
608.283773
 20
529.647109
 30
0.0
 11
608.283772
 21
528.146213
 31
0.0
  0
ARC
  8
LC-001-002-----0
  6
CONTINUOUS
  5
1F2
 10
602.284384
 20
521.649014
 30
0.0
 40
9.99811
 50
53.12635
 51
85.414066
  0
LINE
  8
LC-001-002-----0
  6
CONTINUOUS
  5
1F3
 10
468.288739
 20
472.388333
 30
0.0
 11
736.278784
 21
472.388333
 31
0.0
  0
LINE
  8
LC-001-002-----0
  6
CONTINUOUS
  5
1F4
 10
474.288739
 20
478.388333
 30
0.0
 11
474.288739
 21
472.388333
 31
0.0
  0
LINE
  8
LC-001-002-----0
  6
CONTINUOUS
  5
1F5
 10
468.288739
 20
478.388333
 30
0.0
 11
468.288739
 21
472.388333
 31
0.0
  0
LINE
  8
LC-001-002-----0
  6
CONTINUOUS
  5
1F6
 10
471.288739
 20
477.888333
 30
0.0
 11
473.288739
 21
479.888333
 31
0.0
  0
LINE
  8
LC-001-002-----0
  6
CONTINUOUS
  5
1F7
 10
474.288739
 20
478.388333
 30
0.0
 11
473.288739
 21
479.888333
 31
0.0
  0
LINE
  8
LC-001-002-----0
  6
CONTINUOUS
  5
1F8
 10
471.288739
 20
477.888333
 30
0.0
 11
469.288739
 21
479.888333
 31
0.0
  0
LINE
  8
LC-001-002-----0
  6
CONTINUOUS
  5
1F9
 10
468.288739
 20
478.388333
 30
0.0
 11
469.288739
 21
479.888333
 31
0.0
  0
LINE
  8
LC-001-002-----0
  6
CONTINUOUS
  5
1FA
 10
473.288739
 20
479.888333
 30
0.0
 11
731.278784
 21
479.888333
 31
0.0
  0
LINE
  8
LC-001-002-----0
  6
CONTINUOUS
  5
1FB
 10
474.288739
 20
478.388333
 30
0.0
 11
730.278784
 21
478.388333
 31
0.0
  0
LINE
  8
LC-001-002-----0
  6
DASHDOT
 62
     2
  5
1FD
 10
544.433319
 20
531.614211
 30
0.0
 11
544.433319
 21
511.145308
 31
0.0
  0
LINE
  8
LC-001-002-----0
  6
CONTINUOUS
  5
1FE
 10
538.433364
 20
529.646233
 30
0.0
 11
550.432105
 21
529.646201
 31
0.0
  0
LINE
  8
LC-002-004-----0
  6
CONTINUOUS
  5
1FF
 10
538.433364
 20
528.146233
 30
0.0
 11
544.433364
 21
528.146217
 31
0.0
  0
LINE
  8
LC-002-004-----0
  6
CONTINUOUS
  5
200
 10
541.433364
 20
528.146225
 30
0.0
 11
541.433332
 21
516.146225
 31
0.0
  0
LINE
  8
LC-002-004-----0
  6
CONTINUOUS
  5
201
 10
541.433332
 20
516.146225
 30
0.0
 11
544.433319
 21
511.146217
 31
0.0
  0
LINE
  8
LC-002-004-----0
  6
CONTINUOUS
 62
     2
  5
202
 10
541.43336
 20
526.646225
 30
0.0
 11
542.43336
 21
526.646222
 31
0.0
  0
LINE
  8
LC-002-004-----0
  6
CONTINUOUS
 62
     2
  5
203
 10
542.43336
 20
526.646222
 30
0.0
 11
542.433328
 21
514.646222
 31
0.0
  0
LINE
  8
LC-002-004-----0
  6
CONTINUOUS
  5
204
 10
543.633374
 20
531.614211
 30
0.0
 11
543.633371
 21
530.645308
 31
0.0
  0
LINE
  8
LC-002-004-----0
  6
CONTINUOUS
  5
205
 10
541.433332
 20
516.146225
 30
0.0
 11
544.433332
 21
516.146217
 31
0.0
  0
LINE
  8
LC-002-004-----0
  6
CONTINUOUS
  5
206
 10
550.432104
 20
528.145304
 30
0.0
 11
544.432104
 21
528.145308
 31
0.0
  0
LINE
  8
LC-002-004-----0
  6
CONTINUOUS
  5
207
 10
547.432104
 20
528.145306
 30
0.0
 11
547.432096
 21
516.145306
 31
0.0
  0
LINE
  8
LC-002-004-----0
  6
CONTINUOUS
  5
208
 10
547.432096
 20
516.145306
 30
0.0
 11
544.432093
 21
511.145308
 31
0.0
  0
LINE
  8
LC-002-004-----0
  6
CONTINUOUS
 62
     2
  5
209
 10
547.432103
 20
526.645306
 30
0.0
 11
542.43336
 21
526.645309
 31
0.0
  0
LINE
  8
LC-002-004-----0
  6
CONTINUOUS
 62
     2
  5
20A
 10
546.432103
 20
526.645306
 30
0.0
 11
546.432095
 21
514.645307
 31
0.0
  0
LINE
  8
LC-002-004-----0
  6
CONTINUOUS
  5
20B
 10
545.232106
 20
531.614207
 30
0.0
 11
545.232106
 21
530.645307
 31
0.0
  0
LINE
  8
LC-002-004-----0
  6
CONTINUOUS
  5
20C
 10
547.432096
 20
516.145306
 30
0.0
 11
544.432096
 21
516.145308
 31
0.0
  0
LINE
  8
LC-002-004-----0
  6
CONTINUOUS
  5
20D
 10
538.433368
 20
529.646233
 30
0.0
 11
538.433364
 21
528.146233
 31
0.0
  0
ARC
  8
LC-001-002-----0
  6
CONTINUOUS
  5
20E
 10
544.432715
 20
521.648106
 30
0.0
 40
9.99811
 50
94.585648
 51
126.873341
  0
LINE
  8
LC-001-002-----0
  6
CONTINUOUS
  5
20F
 10
545.232105
 20
530.645307
 30
0.0
 11
543.633371
 21
530.645308
 31
0.0
  0
LINE
  8
LC-002-004-----0
  6
CONTINUOUS
  5
210
 10
550.432105
 20
529.646201
 30
0.0
 11
550.432104
 21
528.145304
 31
0.0
  0
ARC
  8
LC-001-002-----0
  6
CONTINUOUS
  5
211
 10
544.432715
 20
521.648106
 30
0.0
 40
9.99811
 50
53.12635
 51
85.414066
  0
LINE
  8
LC-001-002-----0
  6
DASHDOT
 62
     2
  5
212
 10
660.134204
 20
531.614211
 30
0.0
 11
660.134204
 21
511.145308
 31
0.0
  0
LINE
  8
LC-001-002-----0
  6
CONTINUOUS
  5
213
 10
666.134158
 20
529.646233
 30
0.0
 11
654.135418
 21
529.646201
 31
0.0
  0
LINE
  8
LC-002-004-----0
  6
CONTINUOUS
  5
214
 10
666.134158
 20
528.146233
 30
0.0
 11
660.134158
 21
528.146217
 31
0.0
  0
LINE
  8
LC-002-004-----0
  6
CONTINUOUS
  5
215
 10
663.134158
 20
528.146225
 30
0.0
 11
663.134191
 21
516.146225
 31
0.0
  0
LINE
  8
LC-002-004-----0
  6
CONTINUOUS
  5
216
 10
663.134191
 20
516.146225
 30
0.0
 11
660.134204
 21
511.146217
 31
0.0
  0
LINE
  8
LC-002-004-----0
  6
CONTINUOUS
 62
     2
  5
217
 10
663.134162
 20
526.646225
 30
0.0
 11
662.134162
 21
526.646222
 31
0.0
  0
LINE
  8
LC-002-004-----0
  6
CONTINUOUS
 62
     2
  5
218
 10
662.134162
 20
526.646222
 30
0.0
 11
662.134195
 21
514.646222
 31
0.0
  0
LINE
  8
LC-002-004-----0
  6
CONTINUOUS
  5
219
 10
660.934149
 20
531.614211
 30
0.0
 11
660.934152
 21
530.645308
 31
0.0
  0
LINE
  8
LC-002-004-----0
  6
CONTINUOUS
  5
21A
 10
663.134191
 20
516.146225
 30
0.0
 11
660.134191
 21
516.146217
 31
0.0
  0
LINE
  8
LC-002-004-----0
  6
CONTINUOUS
  5
21B
 10
654.135419
 20
528.145304
 30
0.0
 11
660.135419
 21
528.145308
 31
0.0
  0
LINE
  8
LC-002-004-----0
  6
CONTINUOUS
  5
21C
 10
657.135419
 20
528.145306
 30
0.0
 11
657.135427
 21
516.145306
 31
0.0
  0
LINE
  8
LC-002-004-----0
  6
CONTINUOUS
  5
21D
 10
657.135427
 20
516.145306
 30
0.0
 11
660.13543
 21
511.145308
 31
0.0
  0
LINE
  8
LC-002-004-----0
  6
CONTINUOUS
 62
     2
  5
21E
 10
657.13542
 20
526.645306
 30
0.0
 11
662.134162
 21
526.645309
 31
0.0
  0
LINE
  8
LC-002-004-----0
  6
CONTINUOUS
 62
     2
  5
21F
 10
658.13542
 20
526.645306
 30
0.0
 11
658.135428
 21
514.645307
 31
0.0
  0
LINE
  8
LC-002-004-----0
  6
CONTINUOUS
  5
220
 10
659.335417
 20
531.614207
 30
0.0
 11
659.335417
 21
530.645307
 31
0.0
  0
LINE
  8
LC-002-004-----0
  6
CONTINUOUS
  5
221
 10
657.135427
 20
516.145306
 30
0.0
 11
660.135427
 21
516.145308
 31
0.0
  0
LINE
  8
LC-002-004-----0
  6
CONTINUOUS
  5
222
 10
666.134154
 20
529.646233
 30
0.0
 11
666.134158
 21
528.146233
 31
0.0
  0
ARC
  8
LC-001-002-----0
  6
CONTINUOUS
  5
223
 10
660.134808
 20
521.648106
 30
0.0
 40
9.99811
 50
53.126659
 51
85.414352
  0
LINE
  8
LC-001-002-----0
  6
CONTINUOUS
  5
224
 10
659.335418
 20
530.645307
 30
0.0
 11
660.934152
 21
530.645308
 31
0.0
  0
LINE
  8
LC-002-004-----0
  6
CONTINUOUS
  5
225
 10
654.135418
 20
529.646201
 30
0.0
 11
654.135419
 21
528.145304
 31
0.0
  0
ARC
  8
LC-001-002-----0
  6
CONTINUOUS
  5
226
 10
660.134808
 20
521.648106
 30
0.0
 40
9.99811
 50
94.585934
 51
126.87365
  0
LINE
  8
LC-001-002-----0
  6
DASHDOT
 62
     2
  5
227
 10
602.283761
 20
531.61512
 30
0.0
 11
602.283761
 21
472.388333
 31
0.0
  0
LINE
  8
LC-001-002-----0
  6
CONTINUOUS
  5
228
 10
488.783761
 20
485.941947
 30
0.0
 11
476.301138
 21
485.941947
 31
0.0
  0
LINE
  8
LC-001-002-----0
  6
CONTINUOUS
  5
229
 10
720.183761
 20
485.941947
 30
0.0
 11
728.266385
 21
485.941947
 31
0.0
  0
LINE
  8
LC-001-002-----0
  6
DASHDOT
 62
     2
  5
22A
 10
717.983761
 20
531.615116
 30
0.0
 11
717.983761
 21
483.452546
 31
0.0
  0
LINE
  8
LC-001-002-----0
  6
CONTINUOUS
  5
22B
 10
495.962686
 20
486.741947
 30
0.0
 11
476.596978
 21
486.741947
 31
0.0
  0
ARC
  8
LC-001-002-----0
  6
CONTINUOUS
  5
22C
 10
475.096978
 20
484.741947
 30
0.0
 40
2.5
 50
53.130102
 51
139.364835
  0
LINE
  8
LC-001-002-----0
  6
CONTINUOUS
  5
22D
 10
702.283761
 20
485.741947
 30
0.0
 11
500.332086
 21
485.741947
 31
0.0
  0
ARC
  8
LC-001-002-----0
  6
CONTINUOUS
  5
22E
 10
500.332086
 20
485.941947
 30
0.0
 40
0.2
 50
212.089799
 51
359.943258
  0
ARC
  8
LC-001-002-----0
  6
CONTINUOUS
  5
22F
 10
497.620998
 20
484.241947
 30
0.0
 40
3.0
 50
32.089951
 51
123.557272
  0
ARC
  8
LC-001-002-----0
  6
CONTINUOUS
  5
230
 10
497.620998
 20
484.241947
 30
0.0
 40
2.2
 50
32.089951
 51
129.40055
  0
ARC
  8
LC-001-002-----0
  6
CONTINUOUS
  5
231
 10
500.039675
 20
485.441947
 30
0.0
 40
0.5
 50
206.387648
 51
270.0
  0
ARC
  8
LC-001-002-----0
  6
CONTINUOUS
  5
232
 10
471.288739
 20
486.741947
 30
0.0
 40
2.5
 50
220.635165
 51
319.2158
  0
ARC
  8
LC-001-002-----0
  6
CONTINUOUS
  5
233
 10
471.288739
 20
486.741947
 30
0.0
 40
1.7
 50
220.635165
 51
324.768438
  0
LINE
  8
LC-001-002-----0
  6
CONTINUOUS
  5
234
 10
465.051867
 20
485.741947
 30
0.0
 11
463.283761
 21
485.741947
 31
0.0
  0
ARC
  8
LC-001-002-----0
  6
CONTINUOUS
  5
235
 10
465.051867
 20
485.941947
 30
0.0
 40
0.2
 50
270.0
 51
333.612258
  0
ARC
  8
LC-001-002-----0
  6
CONTINUOUS
  5
236
 10
467.470545
 20
484.741947
 30
0.0
 40
2.5
 50
40.635165
 51
153.6122
  0
LINE
  8
LC-001-002-----0
  6
CONTINUOUS
  5
237
 10
463.283761
 20
485.741947
 30
0.0
 11
463.283761
 21
484.941947
 31
0.0
  0
LINE
  8
LC-001-002-----0
  6
CONTINUOUS
  5
238
 10
502.283761
 20
485.741947
 30
0.0
 11
502.283761
 21
484.941947
 31
0.0
  0
LINE
  8
LC-001-002-----0
  6
CONTINUOUS
  5
239
 10
708.604837
 20
486.741947
 30
0.0
 11
727.970545
 21
486.741947
 31
0.0
  0
ARC
  8
LC-001-002-----0
  6
CONTINUOUS
  5
23A
 10
729.470545
 20
484.741947
 30
0.0
 40
2.5
 50
40.635165
 51
126.869898
  0
LINE
  8
LC-001-002-----0
  6
CONTINUOUS
  5
23B
 10
702.283761
 20
485.741947
 30
0.0
 11
704.235436
 21
485.741947
 31
0.0
  0
ARC
  8
LC-001-002-----0
  6
CONTINUOUS
  5
23C
 10
706.946525
 20
484.241947
 30
0.0
 40
3.0
 50
56.442728
 51
147.910049
  0
ARC
  8
LC-001-002-----0
  6
CONTINUOUS
  5
23D
 10
706.946525
 20
484.241947
 30
0.0
 40
2.2
 50
50.59945
 51
147.910049
  0
ARC
  8
LC-001-002-----0
  6
CONTINUOUS
  5
23E
 10
704.527847
 20
485.441947
 30
0.0
 40
0.5
 50
270.0
 51
333.612352
  0
ARC
  8
LC-001-002-----0
  6
CONTINUOUS
  5
23F
 10
733.278784
 20
486.741947
 30
0.0
 40
2.5
 50
220.7842
 51
319.364835
  0
ARC
  8
LC-001-002-----0
  6
CONTINUOUS
  5
240
 10
733.278784
 20
486.741947
 30
0.0
 40
1.7
 50
215.231562
 51
319.364835
  0
LINE
  8
LC-001-002-----0
  6
CONTINUOUS
  5
241
 10
739.515655
 20
485.741947
 30
0.0
 11
741.283761
 21
485.741947
 31
0.0
  0
ARC
  8
LC-001-002-----0
  6
CONTINUOUS
  5
242
 10
739.515655
 20
485.941947
 30
0.0
 40
0.2
 50
206.387742
 51
270.0
  0
ARC
  8
LC-001-002-----0
  6
CONTINUOUS
  5
243
 10
737.096978
 20
484.741947
 30
0.0
 40
2.5
 50
26.3878
 51
139.364835
  0
LINE
  8
LC-001-002-----0
  6
CONTINUOUS
  5
244
 10
741.283761
 20
485.741947
 30
0.0
 11
741.283761
 21
484.941947
 31
0.0
  0
LINE
  8
LC-001-002-----0
  6
CONTINUOUS
  5
245
 10
702.283761
 20
485.741947
 30
0.0
 11
702.283761
 21
484.941947
 31
0.0
  0
ARC
  8
LC-001-002-----0
  6
CONTINUOUS
  5
246
 10
739.515655
 20
485.941947
 30
0.0
 40
1.0
 50
206.387742
 51
270.0
  0
ARC
  8
LC-001-002-----0
  6
CONTINUOUS
  5
247
 10
737.096978
 20
484.741947
 30
0.0
 40
1.7
 50
26.3878
 51
140.820449
  0
LINE
  8
LC-001-002-----0
  6
CONTINUOUS
  5
248
 10
721.233761
 20
485.941947
 30
0.0
 11
721.233761
 21
486.741947
 31
0.0
  0
LINE
  8
LC-001-002-----0
  6
CONTINUOUS
  5
249
 10
714.733761
 20
485.941947
 30
0.0
 11
714.733761
 21
486.741947
 31
0.0
  0
ARC
  8
LC-001-002-----0
  6
CONTINUOUS
  5
24A
 10
729.470545
 20
484.741947
 30
0.0
 40
1.7
 50
39.179551
 51
135.099128
  0
LINE
  8
LC-001-002-----0
  6
CONTINUOUS
  5
24B
 10
708.342949
 20
485.941947
 30
0.0
 11
720.441278
 21
485.941947
 31
0.0
  0
LINE
  8
LC-001-002-----0
  6
CONTINUOUS
  5
24C
 10
735.199799
 20
486.370048
 30
0.0
 11
734.568866
 21
485.634839
 31
0.0
  0
LINE
  8
LC-001-002-----0
  6
CONTINUOUS
  5
24D
 10
735.806896
 20
485.849055
 30
0.0
 11
735.175963
 21
485.113847
 31
0.0
  0
LINE
  8
LC-001-002-----0
  6
CONTINUOUS
  5
24E
 10
731.367724
 20
486.370048
 30
0.0
 11
731.890178
 21
485.761247
 31
0.0
  0
ARC
  8
LC-001-002-----0
  6
CONTINUOUS
  5
24F
 10
465.051867
 20
485.941947
 30
0.0
 40
1.0
 50
270.0
 51
333.612258
  0
ARC
  8
LC-001-002-----0
  6
CONTINUOUS
  5
250
 10
467.470545
 20
484.741947
 30
0.0
 40
1.7
 50
39.179551
 51
153.6122
  0
LINE
  8
LC-001-002-----0
  6
CONTINUOUS
  5
251
 10
483.333761
 20
485.941947
 30
0.0
 11
483.333761
 21
486.741947
 31
0.0
  0
LINE
  8
LC-001-002-----0
  6
CONTINUOUS
  5
252
 10
489.833761
 20
485.941947
 30
0.0
 11
489.833761
 21
486.741947
 31
0.0
  0
LINE
  8
LC-008-061-----0
  5
254
 10
486.583761
 20
531.61512
 30
0.0
 11
486.583761
 21
483.452546
 31
0.0
  0
LINE
  8
LC-001-002-----0
  6
CONTINUOUS
  5
255
 10
730.760627
 20
485.849055
 30
0.0
 11
731.39156
 21
485.113847
 31
0.0
  0
ARC
  8
LC-001-002-----0
  6
CONTINUOUS
  5
256
 10
475.096978
 20
484.741947
 30
0.0
 40
1.7
 50
44.900872
 51
140.820449
  0
LINE
  8
LC-001-002-----0
  6
CONTINUOUS
  5
257
 10
496.224574
 20
485.941947
 30
0.0
 11
488.783761
 21
485.941947
 31
0.0
  0
LINE
  8
LC-001-002-----0
  6
CONTINUOUS
  5
258
 10
469.367724
 20
486.370048
 30
0.0
 11
469.998657
 21
485.634839
 31
0.0
  0
LINE
  8
LC-001-002-----0
  6
CONTINUOUS
  5
259
 10
468.760627
 20
485.849055
 30
0.0
 11
469.39156
 21
485.113847
 31
0.0
  0
LINE
  8
LC-001-002-----0
  6
CONTINUOUS
  5
25A
 10
473.199799
 20
486.370048
 30
0.0
 11
472.677345
 21
485.761247
 31
0.0
  0
LINE
  8
LC-001-002-----0
  6
CONTINUOUS
  5
25B
 10
473.806896
 20
485.849055
 30
0.0
 11
473.175963
 21
485.113847
 31
0.0
  0
ENDSEC
  0
EOF
