  0
SECTION
  2
HEADER
  9
$ACADVER
  1
AC1009
  9
$INSBASE
 10
0.0
 20
0.0
 30
0.0
  9
$EXTMIN
 10
0.0
 20
0.0
 30
0.0
  9
$EXTMAX
 10
1188.0
 20
840.0
 30
0.0
  9
$LIMMIN
 10
0.0
 20
0.0
  9
$LIMMAX
 10
1188.0
 20
840.0
  9
$ORTHOMODE
 70
     0
  9
$REGENMODE
 70
     1
  9
$FILLMODE
 70
     1
  9
$QTEXTMODE
 70
     0
  9
$MIRRTEXT
 70
     1
  9
$DRAGMODE
 70
     2
  9
$LTSCALE
 40
2.0
  9
$OSMODE
 70
     0
  9
$ATTMODE
 70
     1
  9
$TEXTSIZE
 40
0.2
  9
$TRACEWID
 40
0.05
  9
$TEXTSTYLE
  7
STANDARD
  9
$CLAYER
  8
0
  9
$CELTYPE
  6
BYLAYER
  9
$CECOLOR
 62
     7
  9
$DIMSCALE
 40
2.0
  9
$DIMASZ
 40
3.5
  9
$DIMEXO
 40
0.0625
  9
$DIMDLI
 40
0.38
  9
$DIMRND
 40
0.0
  9
$DIMDLE
 40
0.0
  9
$DIMEXE
 40
0.18
  9
$DIMTP
 40
0.0
  9
$DIMTM
 40
0.0
  9
$DIMTXT
 40
3.5
  9
$DIMCEN
 40
0.09
  9
$DIMTSZ
 40
0.0
  9
$DIMTOL
 70
     0
  9
$DIMLIM
 70
     0
  9
$DIMTIH
 70
     1
  9
$DIMTOH
 70
     1
  9
$DIMSE1
 70
     0
  9
$DIMSE2
 70
     0
  9
$DIMTAD
 70
     1
  9
$DIMZIN
 70
     0
  9
$DIMBLK
  1

  9
$DIMASO
 70
     1
  9
$DIMSHO
 70
     1
  9
$DIMPOST
  1

  9
$DIMAPOST
  1

  9
$DIMALT
 70
     0
  9
$DIMALTD
 70
     2
  9
$DIMALTF
 40
25.4
  9
$DIMLFAC
 40
1.0
  9
$DIMTOFL
 70
     0
  9
$DIMTVP
 40
0.0
  9
$DIMTIX
 70
     0
  9
$DIMSOXD
 70
     0
  9
$DIMSAH
 70
     0
  9
$DIMBLK1
  1

  9
$DIMBLK2
  1

  9
$DIMSTYLE
  2
STANDARD
  9
$DIMCLRD
 70
     0
  9
$DIMCLRE
 70
     0
  9
$DIMCLRT
 70
     0
  9
$DIMTFAC
 40
1.0
  9
$DIMGAP
 40
0.09
  9
$LUNITS
 70
     2
  9
$LUPREC
 70
     2
  9
$AXISMODE
 70
     0
  9
$AXISUNIT
 10
0.0
 20
0.0
  9
$SKETCHINC
 40
0.1
  9
$FILLETRAD
 40
0.0
  9
$AUNITS
 70
     0
  9
$AUPREC
 70
     0
  9
$MENU
  1
acad
  9
$ELEVATION
 40
0.0
  9
$PELEVATION
 40
0.0
  9
$THICKNESS
 40
0.0
  9
$LIMCHECK
 70
     0
  9
$BLIPMODE
 70
     1
  9
$CHAMFERA
 40
0.0
  9
$CHAMFERB
 40
0.0
  9
$SKPOLY
 70
     0
  9
$TDCREATE
 40
0.000000000
  9
$TDUPDATE
 40
0.000000000
  9
$TDINDWG
 40
0.0000000000
  9
$TDUSRTIMER
 40
0.0000000000
  9
$USRTIMER
 70
     1
  9
$ANGBASE
 50
0.0
  9
$ANGDIR
 70
     0
  9
$PDMODE
 70
     0
  9
$PDSIZE
 40
0.0
  9
$PLINEWID
 40
0.0
  9
$COORDS
 70
     0
  9
$SPLFRAME
 70
     0
  9
$SPLINETYPE
 70
     6
  9
$SPLINESEGS
 70
     8
  9
$ATTDIA
 70
     0
  9
$ATTREQ
 70
     1
  9
$HANDLING
 70
     1
  9
$HANDSEED
  5
96A
  9
$SURFTAB1
 70
     6
  9
$SURFTAB2
 70
     6
  9
$SURFTYPE
 70
     6
  9
$SURFU
 70
     6
  9
$SURFV
 70
     6
  9
$UCSNAME
  2

  9
$UCSORG
 10
0.0
 20
0.0
 30
0.0
  9
$UCSXDIR
 10
1.0
 20
0.0
 30
0.0
  9
$UCSYDIR
 10
0.0
 20
1.0
 30
0.0
  9
$PUCSNAME
  2

  9
$PUCSORG
 10
0.0
 20
0.0
 30
0.0
  9
$PUCSXDIR
 10
1.0
 20
0.0
 30
0.0
  9
$PUCSYDIR
 10
0.0
 20
1.0
 30
0.0
  9
$USERI1
 70
     0
  9
$USERI2
 70
     0
  9
$USERI3
 70
     0
  9
$USERI4
 70
     0
  9
$USERI5
 70
     0
  9
$USERR1
 40
0.0
  9
$USERR2
 40
0.0
  9
$USERR3
 40
0.0
  9
$USERR4
 40
0.0
  9
$USERR5
 40
0.0
  9
$WORLDVIEW
 70
     1
  9
$SHADEDGE
 70
     3
  9
$SHADEDIF
 70
    70
  9
$TILEMODE
 70
     1
  9
$MAXACTVP
 70
    16
  9
$PINSBASE
 10
0.0
 20
0.0
 30
0.0
  9
$PLIMCHECK
 70
     0
  9
$PEXTMIN
 10
1.000000E+20
 20
1.000000E+20
 30
1.000000E+20
  9
$PEXTMAX
 10
-1.000000E+20
 20
-1.000000E+20
 30
-1.000000E+20
  9
$PLIMMIN
 10
0.0
 20
0.0
  9
$PLIMMAX
 10
1188.0
 20
840.0
  9
$UNITMODE
 70
     0
  9
$VISRETAIN
 70
     0
  9
$PLINEGEN
 70
     1
  9
$PSLTSCALE
 70
     0
  9
$TREEDEPTH
 70
  3020
  9
$DWGCODEPAGE
  3
dos850
  0
ENDSEC
  0
SECTION
  2
TABLES
  0
TABLE
  2
VPORT
 70
     1
  0
VPORT
  2
*ACTIVE
 70
     0
 10
0.0
 20
0.0
 11
1.0
 21
1.0
 12
594.0
 22
420.0
 13
0.0
 23
0.0
 14
1.0
 24
1.0
 15
0.0
 25
0.0
 16
0.0
 26
0.0
 36
1.0
 17
0.0
 27
0.0
 37
0.0
 40
840.0
 41
1.604229
 42
50.0
 43
0.0
 44
0.0
 50
0.0
 51
0.0
 71
     0
 72
   100
 73
     1
 74
     1
 75
     0
 76
     0
 77
     0
 78
     0
  0
ENDTAB
  0
TABLE
  2
LTYPE
 70
     3
  0
LTYPE
  2
CONTINUOUS
 70
    64
  3
Solid line
 72
    65
 73
     0
 40
0.0
  0
LTYPE
  2
DASHED
 70
    64
  3
__ __ __ __ __
 72
    65
 73
     2
 40
6.25
 49
5.0
 49
-1.25
  0
LTYPE
  2
DASHDOT
 70
    64
  3
__ . __ . __ . __ . __
 72
    65
 73
     4
 40
7.5
 49
5.0
 49
-1.25
 49
0.0
 49
-1.25
  0
ENDTAB
  0
TABLE
  2
LAYER
 70
    13
  0
LAYER
  2
0
 70
     0
 62
     7
  6
CONTINUOUS
  0
LAYER
  2
LC-INFO-1-2-MM-A2-0
 70
     1
 62
    -1
  6
CONTINUOUS
  0
LAYER
  2
LC-004-005-----0
 70
     0
 62
     2
  6
CONTINUOUS
  0
LAYER
  2
LC-007-003-MTH-0
 70
     0
 62
     2
  6
CONTINUOUS
  0
LAYER
  2
LC-008-003-MTG-0
 70
     0
 62
     2
  6
CONTINUOUS
  0
LAYER
  2
LC-006-003-----0
 70
     0
 62
     2
  6
CONTINUOUS
  0
LAYER
  2
LC-002-000-----0
 70
     0
 62
     7
  6
CONTINUOUS
  0
LAYER
  2
LC-009-100-D02-0
 70
     0
 62
     7
  6
CONTINUOUS
  0
LAYER
  2
LC-001-002-----0
 70
     0
 62
     1
  6
CONTINUOUS
  0
LAYER
  2
LC-003-002-RND-0
 70
     0
 62
     1
  6
CONTINUOUS
  0
LAYER
  2
LC-005-061-----0
 70
     0
 62
     2
  6
DASHDOT
  0
LAYER
  2
LC-010-100-D00-0
 70
     0
 62
     7
  6
CONTINUOUS
  0
LAYER
  2
LC-000
 70
     0
 62
     7
  6
CONTINUOUS
  0
ENDTAB
  0
TABLE
  2
STYLE
 70
     4
  0
STYLE
  2
STANDARD
 70
     0
 40
0.0
 41
1.0
 50
0.0
 71
     0
 42
0.0
  3
txt
  4

  0
STYLE
  2
LC-STANDARD
 70
    64
 40
0.0
 41
1.0
 50
0.0
 71
     0
 42
3.5
  3
MONOTXT
  4

  0
STYLE
  2
LC-TXTSTYLE-150-400-0-0-D2
 70
    64
 40
0.0
 41
1.0
 50
15.0
 71
     0
 42
3.5
  3
MONOTXT
  4

  0
STYLE
  2
LC-TXTSTYLE-150-400-0-0-D3
 70
    64
 40
0.0
 41
1.0
 50
15.0
 71
     0
 42
3.5
  3
LC-STANDARD
  4

  0
ENDTAB
  0
TABLE
  2
VIEW
 70
     0
  0
ENDTAB
  0
TABLE
  2
UCS
 70
     0
  0
ENDTAB
  0
TABLE
  2
APPID
 70
     1
  0
APPID
  2
ACAD
 70
     0
  0
ENDTAB
  0
TABLE
  2
DIMSTYLE
 70
     3
  0
DIMSTYLE
  2
STANDARD
 70
     0
  3

  4

  5

  6

  7

 40
1.0
 41
0.18
 42
0.0625
 43
0.38
 44
0.18
 45
0.0
 46
0.0
 47
0.0
 48
0.0
 71
     0
 72
     0
 73
     1
 74
     1
 75
     0
 76
     0
 77
     0
 78
     0
140
0.18
141
0.09
142
0.0
143
25.4
144
1.0
145
0.0
146
1.0
147
0.09
170
     0
171
     2
172
     0
173
     0
174
     0
175
     0
176
     0
177
     0
178
     0
  0
DIMSTYLE
  2
LC-STANDARD
 70
     0
  3

  4

  5

  6

  7

 40
1.0
 41
3.5
 42
0.0
 43
7.5
 44
1.8
 45
0.0
 46
0.0
 47
0.0
 48
0.0
 71
     0
 72
     0
 73
     0
 74
     0
 75
     0
 76
     0
 77
     1
 78
     8
140
3.5
141
0.0
142
0.0
143
25.4
144
1.0
145
0.0
146
0.71
147
1.5
170
     0
171
     2
172
     1
173
     0
174
     0
175
     0
176
     0
177
     0
178
     3
  0
DIMSTYLE
  2
LC-DIM-L-0090-02-02
 70
     0
  3

  4

  5

  6

  7

 40
2.0
 41
3.5
 42
0.0
 43
7.5
 44
1.8
 45
0.0
 46
0.0
 47
0.0
 48
0.0
 71
     0
 72
     0
 73
     0
 74
     0
 75
     0
 76
     0
 77
     1
 78
     8
140
9.0
141
0.0
142
0.0
143
25.4
144
1.0
145
0.0
146
0.71
147
1.5
170
     0
171
     2
172
     0
173
     0
174
     0
175
     0
176
     2
177
     2
178
     6
  0
ENDTAB
  0
ENDSEC
  0
SECTION
  2
BLOCKS
  0
BLOCK
  8
0
  5
23
  2
BLK1
 70
    64
 10
0.0
 20
0.0
 30
0.0
  3
BLK1
  0
ENDBLK
  8
0
  5
24
  0
BLOCK
  8
0
  5
26
  2
BLK2
 70
    64
 10
0.0
 20
0.0
 30
0.0
  3
BLK2
  0
ENDBLK
  8
0
  5
27
  0
BLOCK
  8
0
  5
29
  2
*X2
 70
    65
 10
325.582499
 20
577.194179
 30
0.0
  3
*X2
  0
LINE
  8
LC-004-005-----0
  6
CONTINUOUS
  5
2B
 10
348.091582
 20
577.194179
 30
0.0
 11
350.317282
 21
579.41988
 31
0.0
  0
LINE
  8
LC-004-005-----0
  6
CONTINUOUS
  5
2C
 10
347.794031
 20
579.725055
 30
0.0
 11
350.154729
 21
582.085753
 31
0.0
  0
LINE
  8
LC-004-005-----0
  6
CONTINUOUS
  5
2D
 10
347.631478
 20
582.390929
 30
0.0
 11
349.992176
 21
584.751627
 31
0.0
  0
LINE
  8
LC-004-005-----0
  6
CONTINUOUS
  5
2E
 10
345.765286
 20
583.353164
 30
0.0
 11
348.072942
 21
585.66082
 31
0.0
  0
LINE
  8
LC-004-005-----0
  6
CONTINUOUS
  5
2F
 10
343.164406
 20
583.580712
 30
0.0
 11
345.472062
 21
585.888368
 31
0.0
  0
LINE
  8
LC-004-005-----0
  6
CONTINUOUS
  5
30
 10
340.563527
 20
583.808259
 30
0.0
 11
342.871183
 21
586.115915
 31
0.0
  0
LINE
  8
LC-004-005-----0
  6
CONTINUOUS
  5
31
 10
337.962647
 20
584.035807
 30
0.0
 11
340.270303
 21
586.343463
 31
0.0
  0
LINE
  8
LC-004-005-----0
  6
CONTINUOUS
  5
32
 10
335.361767
 20
584.263354
 30
0.0
 11
337.669423
 21
586.57101
 31
0.0
  0
LINE
  8
LC-004-005-----0
  6
CONTINUOUS
  5
33
 10
332.760888
 20
584.490902
 30
0.0
 11
335.068544
 21
586.798558
 31
0.0
  0
LINE
  8
LC-004-005-----0
  6
CONTINUOUS
  5
34
 10
330.160008
 20
584.718449
 30
0.0
 11
332.467664
 21
587.026105
 31
0.0
  0
LINE
  8
LC-004-005-----0
  6
CONTINUOUS
  5
35
 10
327.559129
 20
584.945997
 30
0.0
 11
329.866784
 21
587.253653
 31
0.0
  0
LINE
  8
LC-004-005-----0
  6
CONTINUOUS
  5
36
 10
325.582499
 20
585.797795
 30
0.0
 11
327.265905
 21
587.4812
 31
0.0
  0
ENDBLK
  8
0
  5
37
  0
BLOCK
  8
0
  5
39
  2
*X3
 70
    65
 10
349.838597
 20
529.519753
 30
0.0
  3
*X3
  0
LINE
  8
LC-004-005-----0
  6
CONTINUOUS
  5
3A
 10
405.120372
 20
529.571166
 30
0.0
 11
405.582499
 21
530.033293
 31
0.0
  0
LINE
  8
LC-004-005-----0
  6
CONTINUOUS
  5
3B
 10
402.575109
 20
529.85433
 30
0.0
 11
404.829502
 21
532.108722
 31
0.0
  0
LINE
  8
LC-004-005-----0
  6
CONTINUOUS
  5
3C
 10
400.029846
 20
530.137494
 30
0.0
 11
402.284909
 21
532.392557
 31
0.0
  0
LINE
  8
LC-004-005-----0
  6
CONTINUOUS
  5
3D
 10
397.484583
 20
530.420658
 30
0.0
 11
399.740316
 21
532.676391
 31
0.0
  0
LINE
  8
LC-004-005-----0
  6
CONTINUOUS
  5
3E
 10
394.93932
 20
530.703822
 30
0.0
 11
397.195723
 21
532.960225
 31
0.0
  0
LINE
  8
LC-004-005-----0
  6
CONTINUOUS
  5
3F
 10
392.394057
 20
530.986986
 30
0.0
 11
394.651131
 21
533.24406
 31
0.0
  0
LINE
  8
LC-004-005-----0
  6
CONTINUOUS
  5
40
 10
389.848794
 20
531.27015
 30
0.0
 11
392.106538
 21
533.527894
 31
0.0
  0
LINE
  8
LC-004-005-----0
  6
CONTINUOUS
  5
41
 10
387.303531
 20
531.553314
 30
0.0
 11
389.561945
 21
533.811729
 31
0.0
  0
LINE
  8
LC-004-005-----0
  6
CONTINUOUS
  5
42
 10
384.758268
 20
531.836479
 30
0.0
 11
387.017353
 21
534.095563
 31
0.0
  0
LINE
  8
LC-004-005-----0
  6
CONTINUOUS
  5
43
 10
382.213005
 20
532.119643
 30
0.0
 11
384.47276
 21
534.379398
 31
0.0
  0
LINE
  8
LC-004-005-----0
  6
CONTINUOUS
  5
44
 10
379.667742
 20
532.402807
 30
0.0
 11
381.928167
 21
534.663232
 31
0.0
  0
LINE
  8
LC-004-005-----0
  6
CONTINUOUS
  5
45
 10
377.122479
 20
532.685971
 30
0.0
 11
379.383575
 21
534.947066
 31
0.0
  0
LINE
  8
LC-004-005-----0
  6
CONTINUOUS
  5
46
 10
374.577216
 20
532.969135
 30
0.0
 11
376.838982
 21
535.230901
 31
0.0
  0
LINE
  8
LC-004-005-----0
  6
CONTINUOUS
  5
47
 10
372.031953
 20
533.252299
 30
0.0
 11
374.294389
 21
535.514735
 31
0.0
  0
LINE
  8
LC-004-005-----0
  6
CONTINUOUS
  5
48
 10
369.48669
 20
533.535463
 30
0.0
 11
371.749797
 21
535.79857
 31
0.0
  0
LINE
  8
LC-004-005-----0
  6
CONTINUOUS
  5
49
 10
366.941427
 20
533.818627
 30
0.0
 11
369.205204
 21
536.082404
 31
0.0
  0
LINE
  8
LC-004-005-----0
  6
CONTINUOUS
  5
4A
 10
364.396164
 20
534.101792
 30
0.0
 11
366.660611
 21
536.366239
 31
0.0
  0
LINE
  8
LC-004-005-----0
  6
CONTINUOUS
  5
4B
 10
361.850901
 20
534.384956
 30
0.0
 11
364.116018
 21
536.650073
 31
0.0
  0
LINE
  8
LC-004-005-----0
  6
CONTINUOUS
  5
4C
 10
359.305638
 20
534.66812
 30
0.0
 11
361.571426
 21
536.933908
 31
0.0
  0
LINE
  8
LC-004-005-----0
  6
CONTINUOUS
  5
4D
 10
357.068014
 20
535.258923
 30
0.0
 11
359.050129
 21
537.241038
 31
0.0
  0
LINE
  8
LC-004-005-----0
  6
CONTINUOUS
  5
4E
 10
355.31533
 20
536.334666
 30
0.0
 11
357.107402
 21
538.126738
 31
0.0
  0
LINE
  8
LC-004-005-----0
  6
CONTINUOUS
  5
4F
 10
353.952669
 20
537.800433
 30
0.0
 11
355.777062
 21
539.624826
 31
0.0
  0
LINE
  8
LC-004-005-----0
  6
CONTINUOUS
  5
50
 10
352.992655
 20
539.668845
 30
0.0
 11
355.116375
 21
541.792565
 31
0.0
  0
LINE
  8
LC-004-005-----0
  6
CONTINUOUS
  5
51
 10
352.578005
 20
542.082622
 30
0.0
 11
354.516401
 21
544.021018
 31
0.0
  0
LINE
  8
LC-004-005-----0
  6
CONTINUOUS
  5
52
 10
351.224138
 20
543.557183
 30
0.0
 11
353.102187
 21
545.435232
 31
0.0
  0
LINE
  8
LC-004-005-----0
  6
CONTINUOUS
  5
53
 10
349.907224
 20
545.068695
 30
0.0
 11
351.032707
 21
546.194179
 31
0.0
  0
ENDBLK
  8
0
  5
54
  0
BLOCK
  8
0
  5
56
  2
*X4
 70
    65
 10
409.582499
 20
527.628479
 30
0.0
  3
*X4
  0
LINE
  8
LC-004-005-----0
  6
CONTINUOUS
  5
57
 10
420.39195
 20
527.872181
 30
0.0
 11
422.582499
 21
530.06273
 31
0.0
  0
LINE
  8
LC-004-005-----0
  6
CONTINUOUS
  5
58
 10
417.846687
 20
528.155345
 30
0.0
 11
420.097058
 21
530.405716
 31
0.0
  0
LINE
  8
LC-004-005-----0
  6
CONTINUOUS
  5
59
 10
415.301424
 20
528.438509
 30
0.0
 11
417.552465
 21
530.68955
 31
0.0
  0
LINE
  8
LC-004-005-----0
  6
CONTINUOUS
  5
5A
 10
412.756161
 20
528.721673
 30
0.0
 11
415.007872
 21
530.973384
 31
0.0
  0
LINE
  8
LC-004-005-----0
  6
CONTINUOUS
  5
5B
 10
410.210898
 20
529.004837
 30
0.0
 11
412.46328
 21
531.257219
 31
0.0
  0
LINE
  8
LC-004-005-----0
  6
CONTINUOUS
  5
5C
 10
409.582499
 20
531.204865
 30
0.0
 11
409.918687
 21
531.541053
 31
0.0
  0
ENDBLK
  8
0
  5
5D
  0
BLOCK
  8
0
  5
5F
  2
*X5
 70
    65
 10
422.582499
 20
527.628479
 30
0.0
  3
*X5
  0
LINE
  8
LC-004-005-----0
  6
CONTINUOUS
  5
60
 10
432.573466
 20
528.739988
 30
0.0
 11
435.390629
 21
531.557151
 31
0.0
  0
LINE
  8
LC-004-005-----0
  6
CONTINUOUS
  5
61
 10
429.390983
 20
528.385933
 30
0.0
 11
432.207097
 21
531.202047
 31
0.0
  0
LINE
  8
LC-004-005-----0
  6
CONTINUOUS
  5
62
 10
426.2085
 20
528.031877
 30
0.0
 11
429.023566
 21
530.846942
 31
0.0
  0
LINE
  8
LC-004-005-----0
  6
CONTINUOUS
  5
63
 10
423.026018
 20
527.677821
 30
0.0
 11
425.840035
 21
530.491838
 31
0.0
  0
LINE
  8
LC-004-005-----0
  6
CONTINUOUS
  5
64
 10
422.582499
 20
530.06273
 30
0.0
 11
422.656503
 21
530.136734
 31
0.0
  0
ENDBLK
  8
0
  5
65
  0
BLOCK
  8
0
  5
67
  2
*X6
 70
    65
 10
439.582499
 20
529.519753
 30
0.0
  3
*X6
  0
LINE
  8
LC-004-005-----0
  6
CONTINUOUS
  5
68
 10
486.726602
 20
534.809863
 30
0.0
 11
492.40575
 21
540.489011
 31
0.0
  0
LINE
  8
LC-004-005-----0
  6
CONTINUOUS
  5
69
 10
483.493192
 20
534.40488
 30
0.0
 11
486.39961
 21
537.311298
 31
0.0
  0
LINE
  8
LC-004-005-----0
  6
CONTINUOUS
  5
6A
 10
489.877101
 20
540.788789
 30
0.0
 11
495.282491
 21
546.194179
 31
0.0
  0
LINE
  8
LC-004-005-----0
  6
CONTINUOUS
  5
6B
 10
480.310709
 20
534.050825
 30
0.0
 11
483.1436
 21
536.883716
 31
0.0
  0
LINE
  8
LC-004-005-----0
  6
CONTINUOUS
  5
6C
 10
477.128226
 20
533.696769
 30
0.0
 11
479.960069
 21
536.528611
 31
0.0
  0
LINE
  8
LC-004-005-----0
  6
CONTINUOUS
  5
6D
 10
473.945743
 20
533.342713
 30
0.0
 11
476.776538
 21
536.173507
 31
0.0
  0
LINE
  8
LC-004-005-----0
  6
CONTINUOUS
  5
6E
 10
470.763261
 20
532.988657
 30
0.0
 11
473.593006
 21
535.818403
 31
0.0
  0
LINE
  8
LC-004-005-----0
  6
CONTINUOUS
  5
6F
 10
467.580778
 20
532.634602
 30
0.0
 11
470.409475
 21
535.463299
 31
0.0
  0
LINE
  8
LC-004-005-----0
  6
CONTINUOUS
  5
70
 10
464.398295
 20
532.280546
 30
0.0
 11
467.225943
 21
535.108194
 31
0.0
  0
LINE
  8
LC-004-005-----0
  6
CONTINUOUS
  5
71
 10
461.215812
 20
531.92649
 30
0.0
 11
464.042412
 21
534.75309
 31
0.0
  0
LINE
  8
LC-004-005-----0
  6
CONTINUOUS
  5
72
 10
458.033329
 20
531.572434
 30
0.0
 11
460.85888
 21
534.397986
 31
0.0
  0
LINE
  8
LC-004-005-----0
  6
CONTINUOUS
  5
73
 10
454.850846
 20
531.218379
 30
0.0
 11
457.675349
 21
534.042881
 31
0.0
  0
LINE
  8
LC-004-005-----0
  6
CONTINUOUS
  5
74
 10
451.668363
 20
530.864323
 30
0.0
 11
454.491817
 21
533.687777
 31
0.0
  0
LINE
  8
LC-004-005-----0
  6
CONTINUOUS
  5
75
 10
448.485881
 20
530.510267
 30
0.0
 11
451.308286
 21
533.332673
 31
0.0
  0
LINE
  8
LC-004-005-----0
  6
CONTINUOUS
  5
76
 10
445.303398
 20
530.156211
 30
0.0
 11
448.124755
 21
532.977568
 31
0.0
  0
LINE
  8
LC-004-005-----0
  6
CONTINUOUS
  5
77
 10
442.120915
 20
529.802156
 30
0.0
 11
444.941223
 21
532.622464
 31
0.0
  0
LINE
  8
LC-004-005-----0
  6
CONTINUOUS
  5
78
 10
439.582499
 20
530.092167
 30
0.0
 11
441.757692
 21
532.26736
 31
0.0
  0
ENDBLK
  8
0
  5
79
  0
BLOCK
  8
0
  5
7B
  2
*X7
 70
    65
 10
494.712002
 20
577.194179
 30
0.0
  3
*X7
  0
LINE
  8
LC-004-005-----0
  6
CONTINUOUS
  5
7C
 10
517.011769
 20
584.89402
 30
0.0
 11
519.582499
 21
587.46475
 31
0.0
  0
LINE
  8
LC-004-005-----0
  6
CONTINUOUS
  5
7D
 10
513.912161
 20
584.622839
 30
0.0
 11
516.662318
 21
587.372996
 31
0.0
  0
LINE
  8
LC-004-005-----0
  6
CONTINUOUS
  5
7E
 10
510.812553
 20
584.351659
 30
0.0
 11
513.562711
 21
587.101816
 31
0.0
  0
LINE
  8
LC-004-005-----0
  6
CONTINUOUS
  5
7F
 10
507.712946
 20
584.080478
 30
0.0
 11
510.463103
 21
586.830635
 31
0.0
  0
LINE
  8
LC-004-005-----0
  6
CONTINUOUS
  5
80
 10
504.613338
 20
583.809298
 30
0.0
 11
507.363495
 21
586.559455
 31
0.0
  0
LINE
  8
LC-004-005-----0
  6
CONTINUOUS
  5
81
 10
495.169792
 20
577.194179
 30
0.0
 11
497.349558
 21
579.373945
 31
0.0
  0
LINE
  8
LC-004-005-----0
  6
CONTINUOUS
  5
82
 10
501.513731
 20
583.538117
 30
0.0
 11
504.263888
 21
586.288274
 31
0.0
  0
LINE
  8
LC-004-005-----0
  6
CONTINUOUS
  5
83
 10
494.86594
 20
579.718753
 30
0.0
 11
497.533222
 21
582.386036
 31
0.0
  0
LINE
  8
LC-004-005-----0
  6
CONTINUOUS
  5
84
 10
498.414123
 20
583.266937
 30
0.0
 11
501.16428
 21
586.017094
 31
0.0
  0
LINE
  8
LC-004-005-----0
  6
CONTINUOUS
  5
85
 10
495.049604
 20
582.730845
 30
0.0
 11
498.064672
 21
585.745913
 31
0.0
  0
ENDBLK
  8
0
  5
86
  0
BLOCK
  8
0
  5
88
  2
*X8
 70
    65
 10
333.582499
 20
323.39747
 30
0.0
  3
*X8
  0
LINE
  8
LC-004-005-----0
  6
CONTINUOUS
  5
89
 10
422.420912
 20
323.425962
 30
0.0
 11
422.582499
 21
323.58755
 31
0.0
  0
LINE
  8
LC-004-005-----0
  6
CONTINUOUS
  5
8A
 10
420.016455
 20
323.849933
 30
0.0
 11
422.582499
 21
326.415977
 31
0.0
  0
LINE
  8
LC-004-005-----0
  6
CONTINUOUS
  5
8B
 10
417.611998
 20
324.273903
 30
0.0
 11
420.201652
 21
326.863557
 31
0.0
  0
LINE
  8
LC-004-005-----0
  6
CONTINUOUS
  5
8C
 10
415.207542
 20
324.697874
 30
0.0
 11
417.797196
 21
327.287528
 31
0.0
  0
LINE
  8
LC-004-005-----0
  6
CONTINUOUS
  5
8D
 10
412.803085
 20
325.121844
 30
0.0
 11
415.392739
 21
327.711498
 31
0.0
  0
LINE
  8
LC-004-005-----0
  6
CONTINUOUS
  5
8E
 10
410.398629
 20
325.545815
 30
0.0
 11
412.988283
 21
328.135469
 31
0.0
  0
LINE
  8
LC-004-005-----0
  6
CONTINUOUS
  5
8F
 10
407.994172
 20
325.969786
 30
0.0
 11
410.583826
 21
328.55944
 31
0.0
  0
LINE
  8
LC-004-005-----0
  6
CONTINUOUS
  5
90
 10
405.589716
 20
326.393756
 30
0.0
 11
408.17937
 21
328.98341
 31
0.0
  0
LINE
  8
LC-004-005-----0
  6
CONTINUOUS
  5
91
 10
403.185259
 20
326.817727
 30
0.0
 11
405.774913
 21
329.407381
 31
0.0
  0
LINE
  8
LC-004-005-----0
  6
CONTINUOUS
  5
92
 10
400.780803
 20
327.241697
 30
0.0
 11
403.370457
 21
329.831351
 31
0.0
  0
LINE
  8
LC-004-005-----0
  6
CONTINUOUS
  5
93
 10
398.376346
 20
327.665668
 30
0.0
 11
400.966
 21
330.255322
 31
0.0
  0
LINE
  8
LC-004-005-----0
  6
CONTINUOUS
  5
94
 10
395.971889
 20
328.089638
 30
0.0
 11
398.561543
 21
330.679292
 31
0.0
  0
LINE
  8
LC-004-005-----0
  6
CONTINUOUS
  5
95
 10
393.567433
 20
328.513609
 30
0.0
 11
396.157087
 21
331.103263
 31
0.0
  0
LINE
  8
LC-004-005-----0
  6
CONTINUOUS
  5
96
 10
391.162976
 20
328.93758
 30
0.0
 11
393.75263
 21
331.527234
 31
0.0
  0
LINE
  8
LC-004-005-----0
  6
CONTINUOUS
  5
97
 10
388.75852
 20
329.36155
 30
0.0
 11
391.348174
 21
331.951204
 31
0.0
  0
LINE
  8
LC-004-005-----0
  6
CONTINUOUS
  5
98
 10
386.354063
 20
329.785521
 30
0.0
 11
388.943717
 21
332.375175
 31
0.0
  0
LINE
  8
LC-004-005-----0
  6
CONTINUOUS
  5
99
 10
383.949607
 20
330.209491
 30
0.0
 11
386.539261
 21
332.799145
 31
0.0
  0
LINE
  8
LC-004-005-----0
  6
CONTINUOUS
  5
9A
 10
381.54515
 20
330.633462
 30
0.0
 11
384.134804
 21
333.223116
 31
0.0
  0
LINE
  8
LC-004-005-----0
  6
CONTINUOUS
  5
9B
 10
379.140694
 20
331.057432
 30
0.0
 11
381.730347
 21
333.647086
 31
0.0
  0
LINE
  8
LC-004-005-----0
  6
CONTINUOUS
  5
9C
 10
376.736237
 20
331.481403
 30
0.0
 11
379.325891
 21
334.071057
 31
0.0
  0
LINE
  8
LC-004-005-----0
  6
CONTINUOUS
  5
9D
 10
374.33178
 20
331.905374
 30
0.0
 11
376.921434
 21
334.495027
 31
0.0
  0
LINE
  8
LC-004-005-----0
  6
CONTINUOUS
  5
9E
 10
371.927324
 20
332.329344
 30
0.0
 11
374.516978
 21
334.918998
 31
0.0
  0
LINE
  8
LC-004-005-----0
  6
CONTINUOUS
  5
9F
 10
369.522867
 20
332.753315
 30
0.0
 11
372.112521
 21
335.342969
 31
0.0
  0
LINE
  8
LC-004-005-----0
  6
CONTINUOUS
  5
A0
 10
367.118411
 20
333.177285
 30
0.0
 11
369.708065
 21
335.766939
 31
0.0
  0
LINE
  8
LC-004-005-----0
  6
CONTINUOUS
  5
A1
 10
364.749108
 20
333.63641
 30
0.0
 11
367.303608
 21
336.19091
 31
0.0
  0
LINE
  8
LC-004-005-----0
  6
CONTINUOUS
  5
A2
 10
362.547585
 20
334.263314
 30
0.0
 11
364.959134
 21
336.674863
 31
0.0
  0
LINE
  8
LC-004-005-----0
  6
CONTINUOUS
  5
A3
 10
360.504543
 20
335.048699
 30
0.0
 11
362.808497
 21
337.352653
 31
0.0
  0
LINE
  8
LC-004-005-----0
  6
CONTINUOUS
  5
A4
 10
358.602324
 20
335.974907
 30
0.0
 11
360.829657
 21
338.20224
 31
0.0
  0
LINE
  8
LC-004-005-----0
  6
CONTINUOUS
  5
A5
 10
356.829005
 20
337.030016
 30
0.0
 11
359.003362
 21
339.204372
 31
0.0
  0
LINE
  8
LC-004-005-----0
  6
CONTINUOUS
  5
A6
 10
355.176668
 20
338.206105
 30
0.0
 11
357.317358
 21
340.346796
 31
0.0
  0
LINE
  8
LC-004-005-----0
  6
CONTINUOUS
  5
A7
 10
353.640417
 20
339.498281
 30
0.0
 11
355.764281
 21
341.622146
 31
0.0
  0
LINE
  8
LC-004-005-----0
  6
CONTINUOUS
  5
A8
 10
352.217845
 20
340.904137
 30
0.0
 11
354.340568
 21
343.02686
 31
0.0
  0
LINE
  8
LC-004-005-----0
  6
CONTINUOUS
  5
A9
 10
350.908792
 20
342.42351
 30
0.0
 11
353.045979
 21
344.560698
 31
0.0
  0
LINE
  8
LC-004-005-----0
  6
CONTINUOUS
  5
AA
 10
349.715321
 20
344.058467
 30
0.0
 11
351.883569
 21
346.226715
 31
0.0
  0
LINE
  8
LC-004-005-----0
  6
CONTINUOUS
  5
AB
 10
348.641935
 20
345.813508
 30
0.0
 11
350.86009
 21
348.031663
 31
0.0
  0
LINE
  8
LC-004-005-----0
  6
CONTINUOUS
  5
AC
 10
347.696059
 20
347.696059
 30
0.0
 11
349.986973
 21
349.986973
 31
0.0
  0
LINE
  8
LC-004-005-----0
  6
CONTINUOUS
  5
AD
 10
346.888938
 20
349.717365
 30
0.0
 11
349.282244
 21
352.110672
 31
0.0
  0
LINE
  8
LC-004-005-----0
  6
CONTINUOUS
  5
AE
 10
346.23723
 20
351.894085
 30
0.0
 11
348.774258
 21
354.431112
 31
0.0
  0
LINE
  8
LC-004-005-----0
  6
CONTINUOUS
  5
AF
 10
345.765915
 20
354.251196
 30
0.0
 11
348.490775
 21
356.976056
 31
0.0
  0
LINE
  8
LC-004-005-----0
  6
CONTINUOUS
  5
B0
 10
345.49404
 20
356.807749
 30
0.0
 11
348.263227
 21
359.576936
 31
0.0
  0
LINE
  8
LC-004-005-----0
  6
CONTINUOUS
  5
B1
 10
345.266493
 20
359.408628
 30
0.0
 11
348.03568
 21
362.177815
 31
0.0
  0
LINE
  8
LC-004-005-----0
  6
CONTINUOUS
  5
B2
 10
345.038945
 20
362.009508
 30
0.0
 11
347.808132
 21
364.778695
 31
0.0
  0
LINE
  8
LC-004-005-----0
  6
CONTINUOUS
  5
B3
 10
344.811398
 20
364.610388
 30
0.0
 11
347.580585
 21
367.379575
 31
0.0
  0
LINE
  8
LC-004-005-----0
  6
CONTINUOUS
  5
B4
 10
344.58385
 20
367.211267
 30
0.0
 11
347.353037
 21
369.980454
 31
0.0
  0
LINE
  8
LC-004-005-----0
  6
CONTINUOUS
  5
B5
 10
344.356303
 20
369.812147
 30
0.0
 11
347.12549
 21
372.581334
 31
0.0
  0
LINE
  8
LC-004-005-----0
  6
CONTINUOUS
  5
B6
 10
344.128755
 20
372.413027
 30
0.0
 11
346.897942
 21
375.182214
 31
0.0
  0
LINE
  8
LC-004-005-----0
  6
CONTINUOUS
  5
B7
 10
343.901208
 20
375.013906
 30
0.0
 11
346.670395
 21
377.783093
 31
0.0
  0
LINE
  8
LC-004-005-----0
  6
CONTINUOUS
  5
B8
 10
343.67366
 20
377.614786
 30
0.0
 11
346.442847
 21
380.383973
 31
0.0
  0
LINE
  8
LC-004-005-----0
  6
CONTINUOUS
  5
B9
 10
343.446113
 20
380.215665
 30
0.0
 11
346.2153
 21
382.984853
 31
0.0
  0
LINE
  8
LC-004-005-----0
  6
CONTINUOUS
  5
BA
 10
343.218565
 20
382.816545
 30
0.0
 11
345.987752
 21
385.585732
 31
0.0
  0
LINE
  8
LC-004-005-----0
  6
CONTINUOUS
  5
BB
 10
342.991018
 20
385.417425
 30
0.0
 11
345.760205
 21
388.186612
 31
0.0
  0
LINE
  8
LC-004-005-----0
  6
CONTINUOUS
  5
BC
 10
342.76347
 20
388.018304
 30
0.0
 11
345.532657
 21
390.787491
 31
0.0
  0
LINE
  8
LC-004-005-----0
  6
CONTINUOUS
  5
BD
 10
342.535923
 20
390.619184
 30
0.0
 11
345.30511
 21
393.388371
 31
0.0
  0
LINE
  8
LC-004-005-----0
  6
CONTINUOUS
  5
BE
 10
342.308375
 20
393.220064
 30
0.0
 11
345.077562
 21
395.989251
 31
0.0
  0
LINE
  8
LC-004-005-----0
  6
CONTINUOUS
  5
BF
 10
342.080828
 20
395.820943
 30
0.0
 11
344.850015
 21
398.59013
 31
0.0
  0
LINE
  8
LC-004-005-----0
  6
CONTINUOUS
  5
C0
 10
341.85328
 20
398.421823
 30
0.0
 11
344.622468
 21
401.19101
 31
0.0
  0
LINE
  8
LC-004-005-----0
  6
CONTINUOUS
  5
C1
 10
341.625733
 20
401.022703
 30
0.0
 11
344.39492
 21
403.79189
 31
0.0
  0
LINE
  8
LC-004-005-----0
  6
CONTINUOUS
  5
C2
 10
341.398186
 20
403.623582
 30
0.0
 11
344.167373
 21
406.392769
 31
0.0
  0
LINE
  8
LC-004-005-----0
  6
CONTINUOUS
  5
C3
 10
341.170638
 20
406.224462
 30
0.0
 11
343.939825
 21
408.993649
 31
0.0
  0
LINE
  8
LC-004-005-----0
  6
CONTINUOUS
  5
C4
 10
340.943091
 20
408.825342
 30
0.0
 11
343.712278
 21
411.594529
 31
0.0
  0
LINE
  8
LC-004-005-----0
  6
CONTINUOUS
  5
C5
 10
340.715543
 20
411.426221
 30
0.0
 11
343.48473
 21
414.195408
 31
0.0
  0
LINE
  8
LC-004-005-----0
  6
CONTINUOUS
  5
C6
 10
340.487996
 20
414.027101
 30
0.0
 11
343.257183
 21
416.796288
 31
0.0
  0
LINE
  8
LC-004-005-----0
  6
CONTINUOUS
  5
C7
 10
340.260448
 20
416.62798
 30
0.0
 11
343.082499
 21
419.450031
 31
0.0
  0
LINE
  8
LC-004-005-----0
  6
CONTINUOUS
  5
C8
 10
339.465988
 20
418.661947
 30
0.0
 11
343.082499
 21
422.278459
 31
0.0
  0
LINE
  8
LC-004-005-----0
  6
CONTINUOUS
  5
C9
 10
337.332499
 20
419.356886
 30
0.0
 11
339.435274
 21
421.459661
 31
0.0
  0
LINE
  8
LC-004-005-----0
  6
CONTINUOUS
  5
CA
 10
340.582499
 20
422.606886
 30
0.0
 11
343.082499
 21
425.106886
 31
0.0
  0
LINE
  8
LC-004-005-----0
  6
CONTINUOUS
  5
CB
 10
340.582499
 20
425.435313
 30
0.0
 11
343.082499
 21
427.935313
 31
0.0
  0
LINE
  8
LC-004-005-----0
  6
CONTINUOUS
  5
CC
 10
339.226753
 20
426.907994
 30
0.0
 11
342.531603
 21
430.212844
 31
0.0
  0
LINE
  8
LC-004-005-----0
  6
CONTINUOUS
  5
CD
 10
337.332499
 20
427.842167
 30
0.0
 11
341.117389
 21
431.627057
 31
0.0
  0
LINE
  8
LC-004-005-----0
  6
CONTINUOUS
  5
CE
 10
337.332499
 20
430.670594
 30
0.0
 11
339.703176
 21
433.041271
 31
0.0
  0
LINE
  8
LC-004-005-----0
  6
CONTINUOUS
  5
CF
 10
335.495425
 20
431.661947
 30
0.0
 11
338.288962
 21
434.455484
 31
0.0
  0
LINE
  8
LC-004-005-----0
  6
CONTINUOUS
  5
D0
 10
333.667949
 20
432.662899
 30
0.0
 11
335.666998
 21
434.661947
 31
0.0
  0
ENDBLK
  8
0
  5
D1
  0
BLOCK
  8
0
  5
D3
  2
*X9
 70
    65
 10
407.70462
 20
384.235389
 30
0.0
  3
*X9
  0
LINE
  8
LC-004-005-----0
  6
CONTINUOUS
  5
D4
 10
422.346029
 20
385.576477
 30
0.0
 11
422.582499
 21
385.812946
 31
0.0
  0
LINE
  8
LC-004-005-----0
  6
CONTINUOUS
  5
D5
 10
421.922059
 20
387.980933
 30
0.0
 11
422.582499
 21
388.641374
 31
0.0
  0
LINE
  8
LC-004-005-----0
  6
CONTINUOUS
  5
D6
 10
421.498088
 20
390.38539
 30
0.0
 11
422.582499
 21
391.469801
 31
0.0
  0
LINE
  8
LC-004-005-----0
  6
CONTINUOUS
  5
D7
 10
421.074117
 20
392.789846
 30
0.0
 11
422.582499
 21
394.298228
 31
0.0
  0
LINE
  8
LC-004-005-----0
  6
CONTINUOUS
  5
D8
 10
420.650147
 20
395.194303
 30
0.0
 11
422.582499
 21
397.126655
 31
0.0
  0
LINE
  8
LC-004-005-----0
  6
CONTINUOUS
  5
D9
 10
420.226176
 20
397.598759
 30
0.0
 11
422.582499
 21
399.955082
 31
0.0
  0
LINE
  8
LC-004-005-----0
  6
CONTINUOUS
  5
DA
 10
419.802206
 20
400.003216
 30
0.0
 11
422.582499
 21
402.783509
 31
0.0
  0
LINE
  8
LC-004-005-----0
  6
CONTINUOUS
  5
DB
 10
419.378235
 20
402.407672
 30
0.0
 11
422.399498
 21
405.428935
 31
0.0
  0
LINE
  8
LC-004-005-----0
  6
CONTINUOUS
  5
DC
 10
418.954265
 20
404.812129
 30
0.0
 11
419.707218
 21
405.565083
 31
0.0
  0
ENDBLK
  8
0
  5
DD
  0
BLOCK
  8
0
  5
DF
  2
*X10
 70
    65
 10
411.932373
 20
397.337261
 30
0.0
  3
*X10
  0
LINE
  8
LC-004-005-----0
  6
CONTINUOUS
  5
E0
 10
418.895824
 20
401.925261
 30
0.0
 11
419.378235
 21
402.407672
 31
0.0
  0
LINE
  8
LC-004-005-----0
  6
CONTINUOUS
  5
E1
 10
416.491367
 20
402.349231
 30
0.0
 11
418.954265
 21
404.812129
 31
0.0
  0
LINE
  8
LC-004-005-----0
  6
CONTINUOUS
  5
E2
 10
414.08691
 20
402.773202
 30
0.0
 11
416.665796
 21
405.352088
 31
0.0
  0
LINE
  8
LC-004-005-----0
  6
CONTINUOUS
  5
E3
 10
411.995308
 20
403.510027
 30
0.0
 11
415.693717
 21
407.208436
 31
0.0
  0
LINE
  8
LC-004-005-----0
  6
CONTINUOUS
  5
E4
 10
412.600801
 20
406.943947
 30
0.0
 11
417.325074
 21
411.66822
 31
0.0
  0
LINE
  8
LC-004-005-----0
  6
CONTINUOUS
  5
E5
 10
418.493459
 20
412.836605
 30
0.0
 11
422.582499
 21
416.925645
 31
0.0
  0
LINE
  8
LC-004-005-----0
  6
CONTINUOUS
  5
E6
 10
413.342414
 20
410.513987
 30
0.0
 11
419.647692
 21
416.819265
 31
0.0
  0
ENDBLK
  8
0
  5
E7
  0
BLOCK
  8
0
  5
E9
  2
*X11
 70
    65
 10
407.70462
 20
405.339254
 30
0.0
  3
*X11
  0
LINE
  8
LC-004-005-----0
  6
CONTINUOUS
  5
EA
 10
419.707218
 20
405.565083
 30
0.0
 11
421.975528
 21
407.833392
 31
0.0
  0
LINE
  8
LC-004-005-----0
  6
CONTINUOUS
  5
EB
 10
418.530294
 20
407.216586
 30
0.0
 11
419.684452
 21
408.370744
 31
0.0
  0
ENDBLK
  8
0
  5
EC
  0
BLOCK
  8
0
  5
EE
  2
*X12
 70
    65
 10
422.582499
 20
321.537645
 30
0.0
  3
*X12
  0
LINE
  8
LC-004-005-----0
  6
CONTINUOUS
  5
EF
 10
432.038738
 20
321.73008
 30
0.0
 11
432.937655
 21
322.628997
 31
0.0
  0
LINE
  8
LC-004-005-----0
  6
CONTINUOUS
  5
F0
 10
429.634281
 20
322.154051
 30
0.0
 11
432.223935
 21
324.743704
 31
0.0
  0
LINE
  8
LC-004-005-----0
  6
CONTINUOUS
  5
F1
 10
427.229825
 20
322.578021
 30
0.0
 11
429.819479
 21
325.167675
 31
0.0
  0
LINE
  8
LC-004-005-----0
  6
CONTINUOUS
  5
F2
 10
424.825368
 20
323.001992
 30
0.0
 11
427.415022
 21
325.591646
 31
0.0
  0
LINE
  8
LC-004-005-----0
  6
CONTINUOUS
  5
F3
 10
422.582499
 20
323.58755
 30
0.0
 11
425.010566
 21
326.015616
 31
0.0
  0
LINE
  8
LC-004-005-----0
  6
CONTINUOUS
  5
F4
 10
422.582499
 20
326.415977
 30
0.0
 11
422.606109
 21
326.439587
 31
0.0
  0
ENDBLK
  8
0
  5
F5
  0
BLOCK
  8
0
  5
F7
  2
*X13
 70
    65
 10
422.582499
 20
321.24072
 30
0.0
  3
*X13
  0
LINE
  8
LC-004-005-----0
  6
CONTINUOUS
  5
F8
 10
434.525012
 20
321.387927
 30
0.0
 11
436.814497
 21
323.677412
 31
0.0
  0
LINE
  8
LC-004-005-----0
  6
CONTINUOUS
  5
F9
 10
433.369264
 20
323.060606
 30
0.0
 11
436.390527
 21
326.081869
 31
0.0
  0
LINE
  8
LC-004-005-----0
  6
CONTINUOUS
  5
FA
 10
432.945293
 20
325.465063
 30
0.0
 11
435.966556
 21
328.486326
 31
0.0
  0
LINE
  8
LC-004-005-----0
  6
CONTINUOUS
  5
FB
 10
432.521323
 20
327.869519
 30
0.0
 11
435.542586
 21
330.890782
 31
0.0
  0
LINE
  8
LC-004-005-----0
  6
CONTINUOUS
  5
FC
 10
432.097352
 20
330.273976
 30
0.0
 11
435.118615
 21
333.295239
 31
0.0
  0
LINE
  8
LC-004-005-----0
  6
CONTINUOUS
  5
FD
 10
431.673382
 20
332.678432
 30
0.0
 11
434.694645
 21
335.699695
 31
0.0
  0
LINE
  8
LC-004-005-----0
  6
CONTINUOUS
  5
FE
 10
431.249411
 20
335.082889
 30
0.0
 11
434.270674
 21
338.104152
 31
0.0
  0
LINE
  8
LC-004-005-----0
  6
CONTINUOUS
  5
FF
 10
430.82544
 20
337.487345
 30
0.0
 11
433.846703
 21
340.508608
 31
0.0
  0
LINE
  8
LC-004-005-----0
  6
CONTINUOUS
  5
100
 10
430.40147
 20
339.891802
 30
0.0
 11
433.422733
 21
342.913065
 31
0.0
  0
LINE
  8
LC-004-005-----0
  6
CONTINUOUS
  5
101
 10
429.977499
 20
342.296258
 30
0.0
 11
432.998762
 21
345.317521
 31
0.0
  0
LINE
  8
LC-004-005-----0
  6
CONTINUOUS
  5
102
 10
429.553529
 20
344.700715
 30
0.0
 11
432.574792
 21
347.721978
 31
0.0
  0
LINE
  8
LC-004-005-----0
  6
CONTINUOUS
  5
103
 10
429.129558
 20
347.105172
 30
0.0
 11
432.150821
 21
350.126435
 31
0.0
  0
LINE
  8
LC-004-005-----0
  6
CONTINUOUS
  5
104
 10
428.705588
 20
349.509628
 30
0.0
 11
431.726851
 21
352.530891
 31
0.0
  0
LINE
  8
LC-004-005-----0
  6
CONTINUOUS
  5
105
 10
428.281617
 20
351.914085
 30
0.0
 11
431.30288
 21
354.935348
 31
0.0
  0
LINE
  8
LC-004-005-----0
  6
CONTINUOUS
  5
106
 10
427.857647
 20
354.318541
 30
0.0
 11
430.878909
 21
357.339804
 31
0.0
  0
LINE
  8
LC-004-005-----0
  6
CONTINUOUS
  5
107
 10
427.433676
 20
356.722998
 30
0.0
 11
430.454939
 21
359.744261
 31
0.0
  0
LINE
  8
LC-004-005-----0
  6
CONTINUOUS
  5
108
 10
427.009705
 20
359.127454
 30
0.0
 11
430.030968
 21
362.148717
 31
0.0
  0
LINE
  8
LC-004-005-----0
  6
CONTINUOUS
  5
109
 10
426.585735
 20
361.531911
 30
0.0
 11
429.606998
 21
364.553174
 31
0.0
  0
LINE
  8
LC-004-005-----0
  6
CONTINUOUS
  5
10A
 10
426.161764
 20
363.936367
 30
0.0
 11
429.183027
 21
366.95763
 31
0.0
  0
LINE
  8
LC-004-005-----0
  6
CONTINUOUS
  5
10B
 10
425.737794
 20
366.340824
 30
0.0
 11
428.759057
 21
369.362087
 31
0.0
  0
LINE
  8
LC-004-005-----0
  6
CONTINUOUS
  5
10C
 10
425.313823
 20
368.745281
 30
0.0
 11
428.335086
 21
371.766544
 31
0.0
  0
LINE
  8
LC-004-005-----0
  6
CONTINUOUS
  5
10D
 10
424.889853
 20
371.149737
 30
0.0
 11
427.911116
 21
374.171
 31
0.0
  0
LINE
  8
LC-004-005-----0
  6
CONTINUOUS
  5
10E
 10
424.465882
 20
373.554194
 30
0.0
 11
427.487145
 21
376.575457
 31
0.0
  0
LINE
  8
LC-004-005-----0
  6
CONTINUOUS
  5
10F
 10
424.041911
 20
375.95865
 30
0.0
 11
427.063174
 21
378.979913
 31
0.0
  0
LINE
  8
LC-004-005-----0
  6
CONTINUOUS
  5
110
 10
423.617941
 20
378.363107
 30
0.0
 11
426.639204
 21
381.38437
 31
0.0
  0
LINE
  8
LC-004-005-----0
  6
CONTINUOUS
  5
111
 10
423.19397
 20
380.767563
 30
0.0
 11
426.215233
 21
383.788826
 31
0.0
  0
LINE
  8
LC-004-005-----0
  6
CONTINUOUS
  5
112
 10
422.77
 20
383.17202
 30
0.0
 11
425.791263
 21
386.193283
 31
0.0
  0
LINE
  8
LC-004-005-----0
  6
CONTINUOUS
  5
113
 10
422.582499
 20
385.812946
 30
0.0
 11
425.367292
 21
388.597739
 31
0.0
  0
LINE
  8
LC-004-005-----0
  6
CONTINUOUS
  5
114
 10
422.582499
 20
388.641374
 30
0.0
 11
424.943322
 21
391.002196
 31
0.0
  0
LINE
  8
LC-004-005-----0
  6
CONTINUOUS
  5
115
 10
422.582499
 20
391.469801
 30
0.0
 11
424.519351
 21
393.406653
 31
0.0
  0
LINE
  8
LC-004-005-----0
  6
CONTINUOUS
  5
116
 10
422.582499
 20
394.298228
 30
0.0
 11
424.09538
 21
395.811109
 31
0.0
  0
LINE
  8
LC-004-005-----0
  6
CONTINUOUS
  5
117
 10
422.582499
 20
397.126655
 30
0.0
 11
423.67141
 21
398.215566
 31
0.0
  0
LINE
  8
LC-004-005-----0
  6
CONTINUOUS
  5
118
 10
422.582499
 20
399.955082
 30
0.0
 11
423.247439
 21
400.620022
 31
0.0
  0
LINE
  8
LC-004-005-----0
  6
CONTINUOUS
  5
119
 10
422.582499
 20
402.783509
 30
0.0
 11
422.823469
 21
403.024479
 31
0.0
  0
ENDBLK
  8
0
  5
11A
  0
BLOCK
  8
0
  5
11C
  2
*X14
 70
    65
 10
336.582499
 20
421.309293
 30
0.0
  3
*X14
  0
LINE
  8
LC-004-005-----0
  6
DASHED
  5
11E
 10
339.516272
 20
421.540659
 30
0.0
 11
340.351133
 21
422.37552
 31
0.0
  0
LINE
  8
LC-004-005-----0
  6
DASHED
  5
11F
 10
337.967573
 20
421.406173
 30
0.0
 11
340.582499
 21
424.021099
 31
0.0
  0
LINE
  8
LC-004-005-----0
  6
CONTINUOUS
  5
120
 10
336.626246
 20
422.893273
 30
0.0
 11
340.076839
 21
426.343867
 31
0.0
  0
LINE
  8
LC-004-005-----0
  6
CONTINUOUS
  5
121
 10
336.582499
 20
424.26374
 30
0.0
 11
339.220809
 21
426.90205
 31
0.0
  0
ENDBLK
  8
0
  5
122
  0
BLOCK
  8
0
  5
124
  2
*X15
 70
    65
 10
422.582499
 20
414.334189
 30
0.0
  3
*X15
  0
LINE
  8
LC-004-005-----0
  6
CONTINUOUS
  5
125
 10
506.345546
 20
418.664305
 30
0.0
 11
507.832499
 21
420.151258
 31
0.0
  0
LINE
  8
LC-004-005-----0
  6
CONTINUOUS
  5
126
 10
503.423711
 20
418.570897
 30
0.0
 11
506.199183
 21
421.34637
 31
0.0
  0
LINE
  8
LC-004-005-----0
  6
CONTINUOUS
  5
127
 10
500.438854
 20
418.414467
 30
0.0
 11
504.582499
 21
422.558112
 31
0.0
  0
LINE
  8
LC-004-005-----0
  6
CONTINUOUS
  5
128
 10
497.453997
 20
418.258037
 30
0.0
 11
500.62426
 21
421.428301
 31
0.0
  0
LINE
  8
LC-004-005-----0
  6
CONTINUOUS
  5
129
 10
502.082499
 20
422.88654
 30
0.0
 11
504.582499
 21
425.38654
 31
0.0
  0
LINE
  8
LC-004-005-----0
  6
CONTINUOUS
  5
12A
 10
506.166905
 20
426.970945
 30
0.0
 11
507.832499
 21
428.63654
 31
0.0
  0
LINE
  8
LC-004-005-----0
  6
CONTINUOUS
  5
12B
 10
494.46914
 20
418.101608
 30
0.0
 11
497.639404
 21
421.271871
 31
0.0
  0
LINE
  8
LC-004-005-----0
  6
CONTINUOUS
  5
12C
 10
502.082499
 20
425.714967
 30
0.0
 11
507.832499
 21
431.464967
 31
0.0
  0
LINE
  8
LC-004-005-----0
  6
CONTINUOUS
  5
12D
 10
508.02948
 20
431.661947
 30
0.0
 11
510.829973
 21
434.462441
 31
0.0
  0
LINE
  8
LC-004-005-----0
  6
CONTINUOUS
  5
12E
 10
491.484283
 20
417.945178
 30
0.0
 11
494.654547
 21
421.115442
 31
0.0
  0
LINE
  8
LC-004-005-----0
  6
CONTINUOUS
  5
12F
 10
502.082499
 20
428.543394
 30
0.0
 11
508.201053
 21
434.661947
 31
0.0
  0
LINE
  8
LC-004-005-----0
  6
CONTINUOUS
  5
130
 10
488.499426
 20
417.788748
 30
0.0
 11
491.66969
 21
420.959012
 31
0.0
  0
LINE
  8
LC-004-005-----0
  6
CONTINUOUS
  5
131
 10
485.51457
 20
417.632319
 30
0.0
 11
488.684833
 21
420.802582
 31
0.0
  0
LINE
  8
LC-004-005-----0
  6
CONTINUOUS
  5
132
 10
482.529713
 20
417.475889
 30
0.0
 11
485.699976
 21
420.646152
 31
0.0
  0
LINE
  8
LC-004-005-----0
  6
CONTINUOUS
  5
133
 10
479.544856
 20
417.319459
 30
0.0
 11
482.715119
 21
420.489723
 31
0.0
  0
LINE
  8
LC-004-005-----0
  6
CONTINUOUS
  5
134
 10
476.559999
 20
417.163029
 30
0.0
 11
479.730263
 21
420.333293
 31
0.0
  0
LINE
  8
LC-004-005-----0
  6
CONTINUOUS
  5
135
 10
473.575142
 20
417.0066
 30
0.0
 11
476.745406
 21
420.176863
 31
0.0
  0
LINE
  8
LC-004-005-----0
  6
CONTINUOUS
  5
136
 10
470.590285
 20
416.85017
 30
0.0
 11
473.760549
 21
420.020433
 31
0.0
  0
LINE
  8
LC-004-005-----0
  6
CONTINUOUS
  5
137
 10
467.605428
 20
416.69374
 30
0.0
 11
470.775692
 21
419.864004
 31
0.0
  0
LINE
  8
LC-004-005-----0
  6
CONTINUOUS
  5
138
 10
464.620572
 20
416.537311
 30
0.0
 11
467.790835
 21
419.707574
 31
0.0
  0
LINE
  8
LC-004-005-----0
  6
CONTINUOUS
  5
139
 10
461.635715
 20
416.380881
 30
0.0
 11
464.805978
 21
419.551144
 31
0.0
  0
LINE
  8
LC-004-005-----0
  6
CONTINUOUS
  5
13A
 10
458.650858
 20
416.224451
 30
0.0
 11
461.821121
 21
419.394715
 31
0.0
  0
LINE
  8
LC-004-005-----0
  6
CONTINUOUS
  5
13B
 10
455.666001
 20
416.068021
 30
0.0
 11
458.836265
 21
419.238285
 31
0.0
  0
LINE
  8
LC-004-005-----0
  6
CONTINUOUS
  5
13C
 10
452.681144
 20
415.911592
 30
0.0
 11
455.851408
 21
419.081855
 31
0.0
  0
LINE
  8
LC-004-005-----0
  6
CONTINUOUS
  5
13D
 10
449.696287
 20
415.755162
 30
0.0
 11
452.866551
 21
418.925425
 31
0.0
  0
LINE
  8
LC-004-005-----0
  6
CONTINUOUS
  5
13E
 10
446.711431
 20
415.598732
 30
0.0
 11
449.881694
 21
418.768996
 31
0.0
  0
LINE
  8
LC-004-005-----0
  6
CONTINUOUS
  5
13F
 10
443.726574
 20
415.442303
 30
0.0
 11
446.896837
 21
418.612566
 31
0.0
  0
LINE
  8
LC-004-005-----0
  6
CONTINUOUS
  5
140
 10
440.741717
 20
415.285873
 30
0.0
 11
443.91198
 21
418.456136
 31
0.0
  0
LINE
  8
LC-004-005-----0
  6
CONTINUOUS
  5
141
 10
437.75686
 20
415.129443
 30
0.0
 11
440.927124
 21
418.299707
 31
0.0
  0
LINE
  8
LC-004-005-----0
  6
CONTINUOUS
  5
142
 10
434.772003
 20
414.973013
 30
0.0
 11
437.942267
 21
418.143277
 31
0.0
  0
LINE
  8
LC-004-005-----0
  6
CONTINUOUS
  5
143
 10
431.787146
 20
414.816584
 30
0.0
 11
434.95741
 21
417.986847
 31
0.0
  0
LINE
  8
LC-004-005-----0
  6
CONTINUOUS
  5
144
 10
428.80229
 20
414.660154
 30
0.0
 11
431.972553
 21
417.830417
 31
0.0
  0
LINE
  8
LC-004-005-----0
  6
CONTINUOUS
  5
145
 10
425.817433
 20
414.503724
 30
0.0
 11
428.987696
 21
417.673988
 31
0.0
  0
LINE
  8
LC-004-005-----0
  6
CONTINUOUS
  5
146
 10
422.832576
 20
414.347294
 30
0.0
 11
426.002839
 21
417.517558
 31
0.0
  0
LINE
  8
LC-004-005-----0
  6
CONTINUOUS
  5
147
 10
422.582499
 20
416.925645
 30
0.0
 11
423.017983
 21
417.361128
 31
0.0
  0
ENDBLK
  8
0
  5
148
  0
BLOCK
  8
0
  5
14A
  2
*X16
 70
    65
 10
486.881993
 20
583.536161
 30
0.0
  3
*X16
  0
LINE
  8
LC-004-005-----0
  6
CONTINUOUS
  5
14B
 10
496.684203
 20
585.779657
 30
0.0
 11
497.891377
 21
586.986831
 31
0.0
  0
LINE
  8
LC-004-005-----0
  6
CONTINUOUS
  5
14C
 10
495.021496
 20
585.531164
 30
0.0
 11
497.078592
 21
587.58826
 31
0.0
  0
LINE
  8
LC-004-005-----0
  6
CONTINUOUS
  5
14D
 10
492.196136
 20
584.120017
 30
0.0
 11
495.736327
 21
587.660209
 31
0.0
  0
LINE
  8
LC-004-005-----0
  6
CONTINUOUS
  5
14E
 10
490.533429
 20
583.871524
 30
0.0
 11
494.18914
 21
587.527235
 31
0.0
  0
LINE
  8
LC-004-005-----0
  6
CONTINUOUS
  5
14F
 10
488.870722
 20
583.623031
 30
0.0
 11
493.376355
 21
588.128664
 31
0.0
  0
LINE
  8
LC-004-005-----0
  6
CONTINUOUS
  5
150
 10
487.760817
 20
583.927339
 30
0.0
 11
491.91086
 21
588.077383
 31
0.0
  0
LINE
  8
LC-004-005-----0
  6
CONTINUOUS
  5
151
 10
487.125674
 20
584.70641
 30
0.0
 11
490.248154
 21
587.828889
 31
0.0
  0
LINE
  8
LC-004-005-----0
  6
CONTINUOUS
  5
152
 10
486.941799
 20
585.936749
 30
0.0
 11
488.585447
 21
587.580396
 31
0.0
  0
ENDBLK
  8
0
  5
153
  0
BLOCK
  8
0
  5
155
  2
*X17
 70
    65
 10
292.582499
 20
560.58443
 30
0.0
  3
*X17
  0
LINE
  8
LC-004-005-----0
  6
CONTINUOUS
  5
156
 10
314.51127
 20
560.58443
 30
0.0
 11
316.582499
 21
562.655659
 31
0.0
  0
LINE
  8
LC-004-005-----0
  6
CONTINUOUS
  5
157
 10
306.694545
 20
561.252986
 30
0.0
 11
316.582499
 21
571.14094
 31
0.0
  0
LINE
  8
LC-004-005-----0
  6
CONTINUOUS
  5
158
 10
305.582499
 20
568.626222
 30
0.0
 11
316.582499
 21
579.626222
 31
0.0
  0
LINE
  8
LC-004-005-----0
  6
CONTINUOUS
  5
159
 10
305.582499
 20
577.111503
 30
0.0
 11
316.683766
 21
588.21277
 31
0.0
  0
LINE
  8
LC-004-005-----0
  6
CONTINUOUS
  5
15A
 10
317.954159
 20
589.483163
 30
0.0
 11
322.582499
 21
594.111503
 31
0.0
  0
LINE
  8
LC-004-005-----0
  6
CONTINUOUS
  5
15B
 10
305.450439
 20
585.464725
 30
0.0
 11
317.570144
 21
597.58443
 31
0.0
  0
LINE
  8
LC-004-005-----0
  6
CONTINUOUS
  5
15C
 10
299.084863
 20
587.58443
 30
0.0
 11
309.727284
 21
598.226851
 31
0.0
  0
LINE
  8
LC-004-005-----0
  6
CONTINUOUS
  5
15D
 10
292.715671
 20
589.700519
 30
0.0
 11
308.582499
 21
605.567347
 31
0.0
  0
LINE
  8
LC-004-005-----0
  6
CONTINUOUS
  5
15E
 10
293.30291
 20
598.773039
 30
0.0
 11
308.582499
 21
614.052629
 31
0.0
  0
LINE
  8
LC-004-005-----0
  6
CONTINUOUS
  5
15F
 10
296.408738
 20
610.364149
 30
0.0
 11
303.629019
 21
617.58443
 31
0.0
  0
ENDBLK
  8
0
  5
160
  0
BLOCK
  8
0
  5
162
  2
*X18
 70
    65
 10
321.127499
 20
466.161947
 30
0.0
  3
*X18
  0
LINE
  8
LC-004-005-----0
  6
CONTINUOUS
  5
163
 10
323.836249
 20
586.917285
 30
0.0
 11
321.169105
 21
589.58443
 31
0.0
  0
LINE
  8
LC-004-005-----0
  6
CONTINUOUS
  5
164
 10
323.836249
 20
581.260431
 30
0.0
 11
321.127499
 21
583.969181
 31
0.0
  0
LINE
  8
LC-004-005-----0
  6
CONTINUOUS
  5
165
 10
323.836249
 20
575.603577
 30
0.0
 11
321.127499
 21
578.312327
 31
0.0
  0
LINE
  8
LC-004-005-----0
  6
CONTINUOUS
  5
166
 10
331.469999
 20
562.312972
 30
0.0
 11
326.164042
 21
567.61893
 31
0.0
  0
LINE
  8
LC-004-005-----0
  6
CONTINUOUS
  5
167
 10
323.836249
 20
569.946722
 30
0.0
 11
321.127499
 21
572.655472
 31
0.0
  0
LINE
  8
LC-004-005-----0
  6
CONTINUOUS
  5
168
 10
331.469999
 20
556.656118
 30
0.0
 11
328.564873
 21
559.561244
 31
0.0
  0
LINE
  8
LC-004-005-----0
  6
CONTINUOUS
  5
169
 10
323.458684
 20
564.667433
 30
0.0
 11
321.131003
 21
566.995114
 31
0.0
  0
LINE
  8
LC-004-005-----0
  6
CONTINUOUS
  5
16A
 10
331.469999
 20
550.999264
 30
0.0
 11
328.613499
 21
553.855764
 31
0.0
  0
LINE
  8
LC-004-005-----0
  6
CONTINUOUS
  5
16B
 10
327.57455
 20
554.894713
 30
0.0
 11
324.821249
 21
557.648014
 31
0.0
  0
LINE
  8
LC-004-005-----0
  6
CONTINUOUS
  5
16C
 10
331.469999
 20
545.34241
 30
0.0
 11
327.775785
 21
549.036623
 31
0.0
  0
LINE
  8
LC-004-005-----0
  6
CONTINUOUS
  5
16D
 10
331.469999
 20
539.685555
 30
0.0
 11
328.613499
 21
542.542055
 31
0.0
  0
LINE
  8
LC-004-005-----0
  6
CONTINUOUS
  5
16E
 10
325.575087
 20
545.580468
 30
0.0
 11
324.821249
 21
546.334305
 31
0.0
  0
LINE
  8
LC-004-005-----0
  6
CONTINUOUS
  5
16F
 10
331.469999
 20
534.028701
 30
0.0
 11
326.621395
 21
538.877305
 31
0.0
  0
LINE
  8
LC-004-005-----0
  6
CONTINUOUS
  5
170
 10
331.469999
 20
528.371847
 30
0.0
 11
328.613499
 21
531.228347
 31
0.0
  0
LINE
  8
LC-004-005-----0
  6
CONTINUOUS
  5
171
 10
331.469999
 20
522.714993
 30
0.0
 11
325.467004
 21
528.717987
 31
0.0
  0
LINE
  8
LC-004-005-----0
  6
CONTINUOUS
  5
172
 10
331.469999
 20
517.058138
 30
0.0
 11
328.506906
 21
520.021231
 31
0.0
  0
LINE
  8
LC-004-005-----0
  6
CONTINUOUS
  5
173
 10
331.469999
 20
511.401284
 30
0.0
 11
328.613499
 21
514.257784
 31
0.0
  0
LINE
  8
LC-004-005-----0
  6
CONTINUOUS
  5
174
 10
327.304104
 20
515.567179
 30
0.0
 11
324.821249
 21
518.050034
 31
0.0
  0
LINE
  8
LC-004-005-----0
  6
CONTINUOUS
  5
175
 10
331.469999
 20
505.74443
 30
0.0
 11
327.619644
 21
509.594785
 31
0.0
  0
LINE
  8
LC-004-005-----0
  6
CONTINUOUS
  5
176
 10
331.469999
 20
500.087576
 30
0.0
 11
328.613499
 21
502.944076
 31
0.0
  0
LINE
  8
LC-004-005-----0
  6
CONTINUOUS
  5
177
 10
325.304641
 20
506.252933
 30
0.0
 11
324.821249
 21
506.736326
 31
0.0
  0
LINE
  8
LC-004-005-----0
  6
CONTINUOUS
  5
178
 10
331.469999
 20
494.430721
 30
0.0
 11
326.465253
 21
499.435467
 31
0.0
  0
LINE
  8
LC-004-005-----0
  6
CONTINUOUS
  5
179
 10
331.469999
 20
488.773867
 30
0.0
 11
328.613499
 21
491.630367
 31
0.0
  0
LINE
  8
LC-004-005-----0
  6
CONTINUOUS
  5
17A
 10
331.469999
 20
483.117013
 30
0.0
 11
325.310863
 21
489.276149
 31
0.0
  0
LINE
  8
LC-004-005-----0
  6
CONTINUOUS
  5
17B
 10
331.469999
 20
477.460159
 30
0.0
 11
328.432414
 21
480.497743
 31
0.0
  0
LINE
  8
LC-004-005-----0
  6
CONTINUOUS
  5
17C
 10
331.469999
 20
471.803304
 30
0.0
 11
328.613499
 21
474.659804
 31
0.0
  0
LINE
  8
LC-004-005-----0
  6
CONTINUOUS
  5
17D
 10
327.033659
 20
476.239644
 30
0.0
 11
324.821249
 21
478.452054
 31
0.0
  0
LINE
  8
LC-004-005-----0
  6
CONTINUOUS
  5
17E
 10
331.454502
 20
466.161947
 30
0.0
 11
327.463502
 21
470.152947
 31
0.0
  0
LINE
  8
LC-004-005-----0
  6
CONTINUOUS
  5
17F
 10
325.034196
 20
466.925399
 30
0.0
 11
324.821249
 21
467.138346
 31
0.0
  0
ENDBLK
  8
0
  5
180
  0
BLOCK
  8
0
  5
182
  2
*X19
 70
    65
 10
522.582499
 20
560.58443
 30
0.0
  3
*X19
  0
LINE
  8
LC-004-005-----0
  6
CONTINUOUS
  5
183
 10
535.128585
 20
560.58443
 30
0.0
 11
539.582499
 21
565.038343
 31
0.0
  0
LINE
  8
LC-004-005-----0
  6
CONTINUOUS
  5
184
 10
528.582499
 20
562.523625
 30
0.0
 11
539.582499
 21
573.523625
 31
0.0
  0
LINE
  8
LC-004-005-----0
  6
CONTINUOUS
  5
185
 10
528.582499
 20
571.008906
 30
0.0
 11
539.582499
 21
582.008906
 31
0.0
  0
LINE
  8
LC-004-005-----0
  6
CONTINUOUS
  5
186
 10
545.158023
 20
587.58443
 30
0.0
 11
552.582499
 21
595.008906
 31
0.0
  0
LINE
  8
LC-004-005-----0
  6
CONTINUOUS
  5
187
 10
528.582499
 20
579.494187
 30
0.0
 11
551.016633
 21
601.928321
 31
0.0
  0
LINE
  8
LC-004-005-----0
  6
CONTINUOUS
  5
188
 10
528.549464
 20
587.946434
 30
0.0
 11
549.223482
 21
608.620452
 31
0.0
  0
LINE
  8
LC-004-005-----0
  6
CONTINUOUS
  5
189
 10
522.582499
 20
590.46475
 30
0.0
 11
529.702179
 21
597.58443
 31
0.0
  0
LINE
  8
LC-004-005-----0
  6
CONTINUOUS
  5
18A
 10
536.582499
 20
604.46475
 30
0.0
 11
547.430331
 21
615.312582
 31
0.0
  0
LINE
  8
LC-004-005-----0
  6
CONTINUOUS
  5
18B
 10
536.582499
 20
612.950031
 30
0.0
 11
541.216897
 21
617.58443
 31
0.0
  0
ENDBLK
  8
0
  5
18C
  0
BLOCK
  8
0
  5
18E
  2
*X20
 70
    65
 10
513.694999
 20
466.161947
 30
0.0
  3
*X20
  0
LINE
  8
LC-004-005-----0
  6
CONTINUOUS
  5
18F
 10
524.037499
 20
584.705934
 30
0.0
 11
521.328749
 21
587.414684
 31
0.0
  0
LINE
  8
LC-004-005-----0
  6
CONTINUOUS
  5
190
 10
524.037499
 20
579.04908
 30
0.0
 11
521.328749
 21
581.75783
 31
0.0
  0
LINE
  8
LC-004-005-----0
  6
CONTINUOUS
  5
191
 10
524.037499
 20
573.392225
 30
0.0
 11
521.328749
 21
576.100975
 31
0.0
  0
LINE
  8
LC-004-005-----0
  6
CONTINUOUS
  5
192
 10
524.037499
 20
567.735371
 30
0.0
 11
521.328749
 21
570.444121
 31
0.0
  0
LINE
  8
LC-004-005-----0
  6
CONTINUOUS
  5
193
 10
521.452086
 20
564.66393
 30
0.0
 11
518.497086
 21
567.61893
 31
0.0
  0
LINE
  8
LC-004-005-----0
  6
CONTINUOUS
  5
194
 10
516.573449
 20
563.885713
 30
0.0
 11
513.911798
 21
566.547364
 31
0.0
  0
LINE
  8
LC-004-005-----0
  6
CONTINUOUS
  5
195
 10
519.417924
 20
555.384384
 30
0.0
 11
513.694999
 21
561.107308
 31
0.0
  0
LINE
  8
LC-004-005-----0
  6
CONTINUOUS
  5
196
 10
516.551499
 20
552.593954
 30
0.0
 11
513.694999
 21
555.450454
 31
0.0
  0
LINE
  8
LC-004-005-----0
  6
CONTINUOUS
  5
197
 10
518.263533
 20
545.225066
 30
0.0
 11
513.694999
 21
549.7936
 31
0.0
  0
LINE
  8
LC-004-005-----0
  6
CONTINUOUS
  5
198
 10
520.343749
 20
537.487996
 30
0.0
 11
519.104816
 21
538.726929
 31
0.0
  0
LINE
  8
LC-004-005-----0
  6
CONTINUOUS
  5
199
 10
516.551499
 20
541.280246
 30
0.0
 11
513.694999
 21
544.136746
 31
0.0
  0
LINE
  8
LC-004-005-----0
  6
CONTINUOUS
  5
19A
 10
517.121207
 20
535.053683
 30
0.0
 11
513.694999
 21
538.479891
 31
0.0
  0
LINE
  8
LC-004-005-----0
  6
CONTINUOUS
  5
19B
 10
520.343749
 20
526.174287
 30
0.0
 11
517.067084
 21
529.450952
 31
0.0
  0
LINE
  8
LC-004-005-----0
  6
CONTINUOUS
  5
19C
 10
516.670546
 20
529.84749
 30
0.0
 11
513.694999
 21
532.823037
 31
0.0
  0
LINE
  8
LC-004-005-----0
  6
CONTINUOUS
  5
19D
 10
516.551499
 20
524.309683
 30
0.0
 11
513.694999
 21
527.166183
 31
0.0
  0
LINE
  8
LC-004-005-----0
  6
CONTINUOUS
  5
19E
 10
519.261782
 20
515.942546
 30
0.0
 11
513.694999
 21
521.509329
 31
0.0
  0
LINE
  8
LC-004-005-----0
  6
CONTINUOUS
  5
19F
 10
516.551499
 20
512.995974
 30
0.0
 11
513.694999
 21
515.852474
 31
0.0
  0
LINE
  8
LC-004-005-----0
  6
CONTINUOUS
  5
1A0
 10
518.107392
 20
505.783228
 30
0.0
 11
513.694999
 21
510.19562
 31
0.0
  0
LINE
  8
LC-004-005-----0
  6
CONTINUOUS
  5
1A1
 10
520.343749
 20
497.890016
 30
0.0
 11
518.83437
 21
499.399395
 31
0.0
  0
LINE
  8
LC-004-005-----0
  6
CONTINUOUS
  5
1A2
 10
516.551499
 20
501.682266
 30
0.0
 11
513.694999
 21
504.538766
 31
0.0
  0
LINE
  8
LC-004-005-----0
  6
CONTINUOUS
  5
1A3
 10
516.994155
 20
495.582756
 30
0.0
 11
513.694999
 21
498.881912
 31
0.0
  0
LINE
  8
LC-004-005-----0
  6
CONTINUOUS
  5
1A4
 10
520.260031
 20
486.660026
 30
0.0
 11
513.694999
 21
493.225057
 31
0.0
  0
LINE
  8
LC-004-005-----0
  6
CONTINUOUS
  5
1A5
 10
516.551499
 20
484.711703
 30
0.0
 11
513.694999
 21
487.568203
 31
0.0
  0
LINE
  8
LC-004-005-----0
  6
CONTINUOUS
  5
1A6
 10
519.10564
 20
476.500708
 30
0.0
 11
513.694999
 21
481.911349
 31
0.0
  0
LINE
  8
LC-004-005-----0
  6
CONTINUOUS
  5
1A7
 10
516.551499
 20
473.397995
 30
0.0
 11
513.694999
 21
476.254495
 31
0.0
  0
LINE
  8
LC-004-005-----0
  6
CONTINUOUS
  5
1A8
 10
517.95125
 20
466.34139
 30
0.0
 11
513.694999
 21
470.59764
 31
0.0
  0
ENDBLK
  8
0
  5
1A9
  0
BLOCK
  8
0
  5
1AB
  2
*X21
 70
    65
 10
524.082499
 20
582.756806
 30
0.0
  3
*X21
  0
LINE
  8
LC-004-005-----0
  6
DASHED
  5
1AC
 10
525.125313
 20
583.108069
 30
0.0
 11
528.582499
 21
586.565255
 31
0.0
  0
LINE
  8
LC-004-005-----0
  6
DASHED
  5
1AD
 10
524.421752
 20
583.818721
 30
0.0
 11
528.449518
 21
587.846487
 31
0.0
  0
LINE
  8
LC-004-005-----0
  6
CONTINUOUS
  5
1AE
 10
524.082499
 20
586.307896
 30
0.0
 11
527.005899
 21
589.231295
 31
0.0
  0
LINE
  8
LC-004-005-----0
  6
CONTINUOUS
  5
1AF
 10
524.220395
 20
587.860006
 30
0.0
 11
525.556923
 21
589.196533
 31
0.0
  0
ENDBLK
  8
0
  5
1B0
  0
BLOCK
  8
0
  5
1B2
  2
*X22
 70
    65
 10
316.582499
 20
582.756806
 30
0.0
  3
*X22
  0
LINE
  8
LC-004-005-----0
  6
DASHED
  5
1B3
 10
318.350995
 20
582.808931
 30
0.0
 11
321.082499
 21
585.540435
 31
0.0
  0
LINE
  8
LC-004-005-----0
  6
DASHED
  5
1B4
 10
317.399777
 20
583.271926
 30
0.0
 11
321.082499
 21
586.954649
 31
0.0
  0
LINE
  8
LC-004-005-----0
  6
CONTINUOUS
  5
1B5
 10
316.582499
 20
585.283076
 30
0.0
 11
320.183272
 21
588.883849
 31
0.0
  0
LINE
  8
LC-004-005-----0
  6
CONTINUOUS
  5
1B6
 10
316.582499
 20
586.697289
 30
0.0
 11
319.190909
 21
589.3057
 31
0.0
  0
ENDBLK
  8
0
  5
1B7
  0
BLOCK
  8
0
  5
1B9
  2
*X23
 70
    65
 10
504.582499
 20
421.309293
 30
0.0
  3
*X23
  0
LINE
  8
LC-004-005-----0
  6
DASHED
  5
1BA
 10
505.253403
 20
421.814803
 30
0.0
 11
508.578566
 21
425.139966
 31
0.0
  0
LINE
  8
LC-004-005-----0
  6
DASHED
  5
1BB
 10
504.689187
 20
422.664801
 30
0.0
 11
508.206417
 21
426.18203
 31
0.0
  0
LINE
  8
LC-004-005-----0
  6
CONTINUOUS
  5
1BC
 10
504.626155
 20
425.430196
 30
0.0
 11
506.130938
 21
426.934979
 31
0.0
  0
ENDBLK
  8
0
  5
1BD
  0
BLOCK
  8
0
  5
1BF
  2
*X24
 70
    65
 10
264.582499
 20
235.161947
 30
0.0
  3
*X24
  0
LINE
  8
LC-004-005-----0
  6
CONTINUOUS
  5
1C0
 10
370.926449
 20
235.161947
 30
0.0
 11
371.582499
 21
235.817997
 31
0.0
  0
LINE
  8
LC-004-005-----0
  6
CONTINUOUS
  5
1C1
 10
368.642404
 20
235.706329
 30
0.0
 11
371.582499
 21
238.646424
 31
0.0
  0
LINE
  8
LC-004-005-----0
  6
CONTINUOUS
  5
1C2
 10
368.044687
 20
237.937039
 30
0.0
 11
371.582499
 21
241.474851
 31
0.0
  0
LINE
  8
LC-004-005-----0
  6
CONTINUOUS
  5
1C3
 10
367.582499
 20
240.303278
 30
0.0
 11
371.582499
 21
244.303278
 31
0.0
  0
LINE
  8
LC-004-005-----0
  6
CONTINUOUS
  5
1C4
 10
367.582499
 20
243.131706
 30
0.0
 11
371.582499
 21
247.131706
 31
0.0
  0
LINE
  8
LC-004-005-----0
  6
CONTINUOUS
  5
1C5
 10
367.582499
 20
245.960133
 30
0.0
 11
371.582499
 21
249.960133
 31
0.0
  0
LINE
  8
LC-004-005-----0
  6
CONTINUOUS
  5
1C6
 10
367.582499
 20
248.78856
 30
0.0
 11
371.582499
 21
252.78856
 31
0.0
  0
LINE
  8
LC-004-005-----0
  6
CONTINUOUS
  5
1C7
 10
367.582499
 20
251.616987
 30
0.0
 11
371.582499
 21
255.616987
 31
0.0
  0
LINE
  8
LC-004-005-----0
  6
CONTINUOUS
  5
1C8
 10
367.582499
 20
254.445414
 30
0.0
 11
371.582499
 21
258.445414
 31
0.0
  0
LINE
  8
LC-004-005-----0
  6
CONTINUOUS
  5
1C9
 10
367.582499
 20
257.273841
 30
0.0
 11
371.582499
 21
261.273841
 31
0.0
  0
LINE
  8
LC-004-005-----0
  6
CONTINUOUS
  5
1CA
 10
367.582499
 20
260.102268
 30
0.0
 11
371.582499
 21
264.102268
 31
0.0
  0
LINE
  8
LC-004-005-----0
  6
CONTINUOUS
  5
1CB
 10
367.582499
 20
262.930695
 30
0.0
 11
371.582499
 21
266.930695
 31
0.0
  0
LINE
  8
LC-004-005-----0
  6
CONTINUOUS
  5
1CC
 10
367.582499
 20
265.759123
 30
0.0
 11
371.582499
 21
269.759123
 31
0.0
  0
LINE
  8
LC-004-005-----0
  6
CONTINUOUS
  5
1CD
 10
367.582499
 20
268.58755
 30
0.0
 11
371.582499
 21
272.58755
 31
0.0
  0
LINE
  8
LC-004-005-----0
  6
CONTINUOUS
  5
1CE
 10
367.582499
 20
271.415977
 30
0.0
 11
371.582499
 21
275.415977
 31
0.0
  0
LINE
  8
LC-004-005-----0
  6
CONTINUOUS
  5
1CF
 10
367.582499
 20
274.244404
 30
0.0
 11
371.582499
 21
278.244404
 31
0.0
  0
LINE
  8
LC-004-005-----0
  6
CONTINUOUS
  5
1D0
 10
367.582499
 20
277.072831
 30
0.0
 11
371.582499
 21
281.072831
 31
0.0
  0
LINE
  8
LC-004-005-----0
  6
CONTINUOUS
  5
1D1
 10
367.582499
 20
279.901258
 30
0.0
 11
371.582499
 21
283.901258
 31
0.0
  0
LINE
  8
LC-004-005-----0
  6
CONTINUOUS
  5
1D2
 10
367.582499
 20
282.729685
 30
0.0
 11
371.582499
 21
286.729685
 31
0.0
  0
LINE
  8
LC-004-005-----0
  6
CONTINUOUS
  5
1D3
 10
367.582499
 20
285.558112
 30
0.0
 11
371.582499
 21
289.558112
 31
0.0
  0
LINE
  8
LC-004-005-----0
  6
CONTINUOUS
  5
1D4
 10
367.582499
 20
288.38654
 30
0.0
 11
371.582499
 21
292.38654
 31
0.0
  0
LINE
  8
LC-004-005-----0
  6
CONTINUOUS
  5
1D5
 10
367.582499
 20
291.214967
 30
0.0
 11
371.582499
 21
295.214967
 31
0.0
  0
LINE
  8
LC-004-005-----0
  6
CONTINUOUS
  5
1D6
 10
367.582499
 20
294.043394
 30
0.0
 11
371.582499
 21
298.043394
 31
0.0
  0
LINE
  8
LC-004-005-----0
  6
CONTINUOUS
  5
1D7
 10
367.582499
 20
296.871821
 30
0.0
 11
371.582499
 21
300.871821
 31
0.0
  0
LINE
  8
LC-004-005-----0
  6
CONTINUOUS
  5
1D8
 10
365.044198
 20
297.161947
 30
0.0
 11
369.044198
 21
301.161947
 31
0.0
  0
LINE
  8
LC-004-005-----0
  6
CONTINUOUS
  5
1D9
 10
362.215771
 20
297.161947
 30
0.0
 11
366.215771
 21
301.161947
 31
0.0
  0
LINE
  8
LC-004-005-----0
  6
CONTINUOUS
  5
1DA
 10
359.387344
 20
297.161947
 30
0.0
 11
363.387344
 21
301.161947
 31
0.0
  0
LINE
  8
LC-004-005-----0
  6
CONTINUOUS
  5
1DB
 10
356.558917
 20
297.161947
 30
0.0
 11
360.558917
 21
301.161947
 31
0.0
  0
LINE
  8
LC-004-005-----0
  6
CONTINUOUS
  5
1DC
 10
353.73049
 20
297.161947
 30
0.0
 11
357.73049
 21
301.161947
 31
0.0
  0
LINE
  8
LC-004-005-----0
  6
CONTINUOUS
  5
1DD
 10
350.902063
 20
297.161947
 30
0.0
 11
354.902063
 21
301.161947
 31
0.0
  0
LINE
  8
LC-004-005-----0
  6
CONTINUOUS
  5
1DE
 10
348.073636
 20
297.161947
 30
0.0
 11
352.073636
 21
301.161947
 31
0.0
  0
LINE
  8
LC-004-005-----0
  6
CONTINUOUS
  5
1DF
 10
345.245208
 20
297.161947
 30
0.0
 11
349.245208
 21
301.161947
 31
0.0
  0
LINE
  8
LC-004-005-----0
  6
CONTINUOUS
  5
1E0
 10
342.739557
 20
297.484723
 30
0.0
 11
346.416781
 21
301.161947
 31
0.0
  0
LINE
  8
LC-004-005-----0
  6
CONTINUOUS
  5
1E1
 10
341.70428
 20
299.277874
 30
0.0
 11
344.632484
 21
302.206077
 31
0.0
  0
LINE
  8
LC-004-005-----0
  6
CONTINUOUS
  5
1E2
 10
340.669004
 20
301.071024
 30
0.0
 11
343.597207
 21
303.999228
 31
0.0
  0
LINE
  8
LC-004-005-----0
  6
CONTINUOUS
  5
1E3
 10
339.633728
 20
302.864175
 30
0.0
 11
343.26776
 21
306.498207
 31
0.0
  0
LINE
  8
LC-004-005-----0
  6
CONTINUOUS
  5
1E4
 10
339.327572
 20
305.386447
 30
0.0
 11
343.106792
 21
309.165667
 31
0.0
  0
LINE
  8
LC-004-005-----0
  6
CONTINUOUS
  5
1E5
 10
339.166605
 20
308.053907
 30
0.0
 11
342.945825
 21
311.833127
 31
0.0
  0
LINE
  8
LC-004-005-----0
  6
CONTINUOUS
  5
1E6
 10
339.005638
 20
310.721366
 30
0.0
 11
342.784858
 21
314.500586
 31
0.0
  0
LINE
  8
LC-004-005-----0
  6
CONTINUOUS
  5
1E7
 10
338.84467
 20
313.388826
 30
0.0
 11
342.62389
 21
317.168046
 31
0.0
  0
LINE
  8
LC-004-005-----0
  6
CONTINUOUS
  5
1E8
 10
338.683703
 20
316.056286
 30
0.0
 11
342.462923
 21
319.835506
 31
0.0
  0
LINE
  8
LC-004-005-----0
  6
CONTINUOUS
  5
1E9
 10
338.522735
 20
318.723745
 30
0.0
 11
342.301955
 21
322.502965
 31
0.0
  0
LINE
  8
LC-004-005-----0
  6
CONTINUOUS
  5
1EA
 10
338.361768
 20
321.391205
 30
0.0
 11
342.140988
 21
325.170425
 31
0.0
  0
LINE
  8
LC-004-005-----0
  6
CONTINUOUS
  5
1EB
 10
338.200801
 20
324.058665
 30
0.0
 11
341.980021
 21
327.837885
 31
0.0
  0
LINE
  8
LC-004-005-----0
  6
CONTINUOUS
  5
1EC
 10
338.039833
 20
326.726125
 30
0.0
 11
341.819053
 21
330.505345
 31
0.0
  0
LINE
  8
LC-004-005-----0
  6
CONTINUOUS
  5
1ED
 10
337.878866
 20
329.393584
 30
0.0
 11
341.658086
 21
333.172804
 31
0.0
  0
LINE
  8
LC-004-005-----0
  6
CONTINUOUS
  5
1EE
 10
337.717898
 20
332.061044
 30
0.0
 11
341.497118
 21
335.840264
 31
0.0
  0
LINE
  8
LC-004-005-----0
  6
CONTINUOUS
  5
1EF
 10
337.556931
 20
334.728504
 30
0.0
 11
341.336151
 21
338.507724
 31
0.0
  0
LINE
  8
LC-004-005-----0
  6
CONTINUOUS
  5
1F0
 10
337.395964
 20
337.395964
 30
0.0
 11
341.175184
 21
341.175184
 31
0.0
  0
LINE
  8
LC-004-005-----0
  6
CONTINUOUS
  5
1F1
 10
337.234996
 20
340.063423
 30
0.0
 11
341.014216
 21
343.842643
 31
0.0
  0
LINE
  8
LC-004-005-----0
  6
CONTINUOUS
  5
1F2
 10
337.074029
 20
342.730883
 30
0.0
 11
340.853249
 21
346.510103
 31
0.0
  0
LINE
  8
LC-004-005-----0
  6
CONTINUOUS
  5
1F3
 10
336.913061
 20
345.398343
 30
0.0
 11
340.692281
 21
349.177563
 31
0.0
  0
LINE
  8
LC-004-005-----0
  6
CONTINUOUS
  5
1F4
 10
336.752094
 20
348.065802
 30
0.0
 11
340.531314
 21
351.845022
 31
0.0
  0
LINE
  8
LC-004-005-----0
  6
CONTINUOUS
  5
1F5
 10
336.591127
 20
350.733262
 30
0.0
 11
340.370347
 21
354.512482
 31
0.0
  0
LINE
  8
LC-004-005-----0
  6
CONTINUOUS
  5
1F6
 10
336.430159
 20
353.400722
 30
0.0
 11
340.209379
 21
357.179942
 31
0.0
  0
LINE
  8
LC-004-005-----0
  6
CONTINUOUS
  5
1F7
 10
336.269192
 20
356.068182
 30
0.0
 11
340.048412
 21
359.847402
 31
0.0
  0
LINE
  8
LC-004-005-----0
  6
CONTINUOUS
  5
1F8
 10
336.108224
 20
358.735641
 30
0.0
 11
339.887444
 21
362.514861
 31
0.0
  0
LINE
  8
LC-004-005-----0
  6
CONTINUOUS
  5
1F9
 10
335.947257
 20
361.403101
 30
0.0
 11
339.726477
 21
365.182321
 31
0.0
  0
LINE
  8
LC-004-005-----0
  6
CONTINUOUS
  5
1FA
 10
335.78629
 20
364.070561
 30
0.0
 11
339.56551
 21
367.849781
 31
0.0
  0
LINE
  8
LC-004-005-----0
  6
CONTINUOUS
  5
1FB
 10
335.625322
 20
366.738021
 30
0.0
 11
339.404542
 21
370.517241
 31
0.0
  0
LINE
  8
LC-004-005-----0
  6
CONTINUOUS
  5
1FC
 10
335.464355
 20
369.40548
 30
0.0
 11
339.243575
 21
373.1847
 31
0.0
  0
LINE
  8
LC-004-005-----0
  6
CONTINUOUS
  5
1FD
 10
335.303387
 20
372.07294
 30
0.0
 11
339.082607
 21
375.85216
 31
0.0
  0
LINE
  8
LC-004-005-----0
  6
CONTINUOUS
  5
1FE
 10
335.14242
 20
374.7404
 30
0.0
 11
338.92164
 21
378.51962
 31
0.0
  0
LINE
  8
LC-004-005-----0
  6
CONTINUOUS
  5
1FF
 10
334.981453
 20
377.407859
 30
0.0
 11
338.760673
 21
381.187079
 31
0.0
  0
LINE
  8
LC-004-005-----0
  6
CONTINUOUS
  5
200
 10
334.820485
 20
380.075319
 30
0.0
 11
338.599705
 21
383.854539
 31
0.0
  0
LINE
  8
LC-004-005-----0
  6
CONTINUOUS
  5
201
 10
334.659518
 20
382.742779
 30
0.0
 11
338.438738
 21
386.521999
 31
0.0
  0
LINE
  8
LC-004-005-----0
  6
CONTINUOUS
  5
202
 10
334.49855
 20
385.410239
 30
0.0
 11
338.27777
 21
389.189459
 31
0.0
  0
LINE
  8
LC-004-005-----0
  6
CONTINUOUS
  5
203
 10
334.337583
 20
388.077698
 30
0.0
 11
338.116803
 21
391.856918
 31
0.0
  0
LINE
  8
LC-004-005-----0
  6
CONTINUOUS
  5
204
 10
334.176616
 20
390.745158
 30
0.0
 11
337.955836
 21
394.524378
 31
0.0
  0
LINE
  8
LC-004-005-----0
  6
CONTINUOUS
  5
205
 10
334.015648
 20
393.412618
 30
0.0
 11
337.794868
 21
397.191838
 31
0.0
  0
LINE
  8
LC-004-005-----0
  6
CONTINUOUS
  5
206
 10
333.854681
 20
396.080078
 30
0.0
 11
337.633901
 21
399.859298
 31
0.0
  0
LINE
  8
LC-004-005-----0
  6
CONTINUOUS
  5
207
 10
333.693713
 20
398.747537
 30
0.0
 11
337.472933
 21
402.526757
 31
0.0
  0
LINE
  8
LC-004-005-----0
  6
CONTINUOUS
  5
208
 10
333.532746
 20
401.414997
 30
0.0
 11
337.311966
 21
405.194217
 31
0.0
  0
LINE
  8
LC-004-005-----0
  6
CONTINUOUS
  5
209
 10
333.371779
 20
404.082457
 30
0.0
 11
337.150999
 21
407.861677
 31
0.0
  0
LINE
  8
LC-004-005-----0
  6
CONTINUOUS
  5
20A
 10
333.210811
 20
406.749916
 30
0.0
 11
336.990031
 21
410.529136
 31
0.0
  0
LINE
  8
LC-004-005-----0
  6
CONTINUOUS
  5
20B
 10
333.049844
 20
409.417376
 30
0.0
 11
336.829064
 21
413.196596
 31
0.0
  0
LINE
  8
LC-004-005-----0
  6
CONTINUOUS
  5
20C
 10
332.888876
 20
412.084836
 30
0.0
 11
336.668096
 21
415.864056
 31
0.0
  0
LINE
  8
LC-004-005-----0
  6
CONTINUOUS
  5
20D
 10
332.727909
 20
414.752296
 30
0.0
 11
336.588998
 21
418.613384
 31
0.0
  0
LINE
  8
LC-004-005-----0
  6
CONTINUOUS
  5
20E
 10
332.582499
 20
417.435313
 30
0.0
 11
336.587534
 21
421.440347
 31
0.0
  0
LINE
  8
LC-004-005-----0
  6
CONTINUOUS
  5
20F
 10
332.582499
 20
420.26374
 30
0.0
 11
336.58607
 21
424.26731
 31
0.0
  0
LINE
  8
LC-004-005-----0
  6
CONTINUOUS
  5
210
 10
332.582499
 20
423.092167
 30
0.0
 11
336.584606
 21
427.094274
 31
0.0
  0
LINE
  8
LC-004-005-----0
  6
CONTINUOUS
  5
211
 10
332.582499
 20
425.920594
 30
0.0
 11
336.583142
 21
429.921237
 31
0.0
  0
LINE
  8
LC-004-005-----0
  6
CONTINUOUS
  5
212
 10
331.23075
 20
427.397273
 30
0.0
 11
334.995425
 21
431.161947
 31
0.0
  0
LINE
  8
LC-004-005-----0
  6
CONTINUOUS
  5
213
 10
329.553961
 20
428.548911
 30
0.0
 11
332.582499
 21
431.577448
 31
0.0
  0
LINE
  8
LC-004-005-----0
  6
CONTINUOUS
  5
214
 10
328.643375
 20
430.466751
 30
0.0
 11
332.582499
 21
434.405876
 31
0.0
  0
LINE
  8
LC-004-005-----0
  6
CONTINUOUS
  5
215
 10
328.582499
 20
433.234303
 30
0.0
 11
332.582499
 21
437.234303
 31
0.0
  0
LINE
  8
LC-004-005-----0
  6
CONTINUOUS
  5
216
 10
328.582499
 20
436.06273
 30
0.0
 11
332.582499
 21
440.06273
 31
0.0
  0
LINE
  8
LC-004-005-----0
  6
CONTINUOUS
  5
217
 10
328.582499
 20
438.891157
 30
0.0
 11
332.582499
 21
442.891157
 31
0.0
  0
LINE
  8
LC-004-005-----0
  6
CONTINUOUS
  5
218
 10
328.582499
 20
441.719584
 30
0.0
 11
332.582499
 21
445.719584
 31
0.0
  0
LINE
  8
LC-004-005-----0
  6
CONTINUOUS
  5
219
 10
328.582499
 20
444.548011
 30
0.0
 11
332.582499
 21
448.548011
 31
0.0
  0
LINE
  8
LC-004-005-----0
  6
CONTINUOUS
  5
21A
 10
328.582499
 20
447.376438
 30
0.0
 11
332.582499
 21
451.376438
 31
0.0
  0
LINE
  8
LC-004-005-----0
  6
CONTINUOUS
  5
21B
 10
328.582499
 20
450.204865
 30
0.0
 11
332.582499
 21
454.204865
 31
0.0
  0
LINE
  8
LC-004-005-----0
  6
CONTINUOUS
  5
21C
 10
328.582499
 20
453.033293
 30
0.0
 11
332.582499
 21
457.033293
 31
0.0
  0
LINE
  8
LC-004-005-----0
  6
CONTINUOUS
  5
21D
 10
328.582499
 20
455.86172
 30
0.0
 11
332.582499
 21
459.86172
 31
0.0
  0
LINE
  8
LC-004-005-----0
  6
CONTINUOUS
  5
21E
 10
328.054349
 20
458.161997
 30
0.0
 11
332.0543
 21
462.161947
 31
0.0
  0
LINE
  8
LC-004-005-----0
  6
CONTINUOUS
  5
21F
 10
325.615691
 20
458.551766
 30
0.0
 11
329.225872
 21
462.161947
 31
0.0
  0
LINE
  8
LC-004-005-----0
  6
CONTINUOUS
  5
220
 10
323.702802
 20
459.467304
 30
0.0
 11
326.659225
 21
462.423727
 31
0.0
  0
LINE
  8
LC-004-005-----0
  6
CONTINUOUS
  5
221
 10
322.174734
 20
460.767663
 30
0.0
 11
325.009008
 21
463.601937
 31
0.0
  0
LINE
  8
LC-004-005-----0
  6
CONTINUOUS
  5
222
 10
321.007111
 20
462.428467
 30
0.0
 11
324.12946
 21
465.550816
 31
0.0
  0
LINE
  8
LC-004-005-----0
  6
CONTINUOUS
  5
223
 10
320.25584
 20
464.505623
 30
0.0
 11
324.082499
 21
468.332282
 31
0.0
  0
LINE
  8
LC-004-005-----0
  6
CONTINUOUS
  5
224
 10
320.082499
 20
467.16071
 30
0.0
 11
324.082499
 21
471.16071
 31
0.0
  0
LINE
  8
LC-004-005-----0
  6
CONTINUOUS
  5
225
 10
320.082499
 20
469.989137
 30
0.0
 11
324.082499
 21
473.989137
 31
0.0
  0
LINE
  8
LC-004-005-----0
  6
CONTINUOUS
  5
226
 10
320.082499
 20
472.817564
 30
0.0
 11
324.082499
 21
476.817564
 31
0.0
  0
LINE
  8
LC-004-005-----0
  6
CONTINUOUS
  5
227
 10
320.082499
 20
475.645991
 30
0.0
 11
324.082499
 21
479.645991
 31
0.0
  0
LINE
  8
LC-004-005-----0
  6
CONTINUOUS
  5
228
 10
320.082499
 20
478.474418
 30
0.0
 11
324.082499
 21
482.474418
 31
0.0
  0
LINE
  8
LC-004-005-----0
  6
CONTINUOUS
  5
229
 10
306.665442
 20
467.885788
 30
0.0
 11
312.382499
 21
473.602845
 31
0.0
  0
LINE
  8
LC-004-005-----0
  6
CONTINUOUS
  5
22A
 10
320.082499
 20
481.302845
 30
0.0
 11
324.082499
 21
485.302845
 31
0.0
  0
LINE
  8
LC-004-005-----0
  6
CONTINUOUS
  5
22B
 10
305.14073
 20
469.189503
 30
0.0
 11
312.382499
 21
476.431272
 31
0.0
  0
LINE
  8
LC-004-005-----0
  6
CONTINUOUS
  5
22C
 10
319.943592
 20
483.992365
 30
0.0
 11
324.082499
 21
488.131272
 31
0.0
  0
LINE
  8
LC-004-005-----0
  6
CONTINUOUS
  5
22D
 10
303.726516
 20
470.603717
 30
0.0
 11
305.847837
 21
472.725037
 31
0.0
  0
LINE
  8
LC-004-005-----0
  6
CONTINUOUS
  5
22E
 10
309.082499
 20
475.959699
 30
0.0
 11
312.382499
 21
479.259699
 31
0.0
  0
LINE
  8
LC-004-005-----0
  6
CONTINUOUS
  5
22F
 10
317.984747
 20
484.861947
 30
0.0
 11
321.284747
 21
488.161947
 31
0.0
  0
LINE
  8
LC-004-005-----0
  6
CONTINUOUS
  5
230
 10
302.312303
 20
472.01793
 30
0.0
 11
304.682499
 21
474.388127
 31
0.0
  0
LINE
  8
LC-004-005-----0
  6
CONTINUOUS
  5
231
 10
309.082499
 20
478.788127
 30
0.0
 11
312.382499
 21
482.088127
 31
0.0
  0
LINE
  8
LC-004-005-----0
  6
CONTINUOUS
  5
232
 10
315.15632
 20
484.861947
 30
0.0
 11
318.45632
 21
488.161947
 31
0.0
  0
LINE
  8
LC-004-005-----0
  6
CONTINUOUS
  5
233
 10
301.382499
 20
473.916554
 30
0.0
 11
304.682499
 21
477.216554
 31
0.0
  0
LINE
  8
LC-004-005-----0
  6
CONTINUOUS
  5
234
 10
309.082499
 20
481.616554
 30
0.0
 11
315.627893
 21
488.161947
 31
0.0
  0
LINE
  8
LC-004-005-----0
  6
CONTINUOUS
  5
235
 10
301.382499
 20
476.744981
 30
0.0
 11
304.682499
 21
480.044981
 31
0.0
  0
LINE
  8
LC-004-005-----0
  6
CONTINUOUS
  5
236
 10
309.082499
 20
484.444981
 30
0.0
 11
312.799466
 21
488.161947
 31
0.0
  0
LINE
  8
LC-004-005-----0
  6
CONTINUOUS
  5
237
 10
301.382499
 20
479.573408
 30
0.0
 11
304.682499
 21
482.873408
 31
0.0
  0
LINE
  8
LC-004-005-----0
  6
CONTINUOUS
  5
238
 10
309.082499
 20
487.273408
 30
0.0
 11
309.971038
 21
488.161947
 31
0.0
  0
LINE
  8
LC-004-005-----0
  6
CONTINUOUS
  5
239
 10
301.382499
 20
482.401835
 30
0.0
 11
304.682499
 21
485.701835
 31
0.0
  0
LINE
  8
LC-004-005-----0
  6
CONTINUOUS
  5
23A
 10
295.014184
 20
478.861947
 30
0.0
 11
297.911006
 21
481.758769
 31
0.0
  0
LINE
  8
LC-004-005-----0
  6
CONTINUOUS
  5
23B
 10
300.881047
 20
484.72881
 30
0.0
 11
304.314184
 21
488.161947
 31
0.0
  0
LINE
  8
LC-004-005-----0
  6
CONTINUOUS
  5
23C
 10
292.185757
 20
478.861947
 30
0.0
 11
301.485757
 21
488.161947
 31
0.0
  0
LINE
  8
LC-004-005-----0
  6
CONTINUOUS
  5
23D
 10
289.35733
 20
478.861947
 30
0.0
 11
293.15733
 21
482.661947
 31
0.0
  0
LINE
  8
LC-004-005-----0
  6
CONTINUOUS
  5
23E
 10
295.182499
 20
484.687116
 30
0.0
 11
298.65733
 21
488.161947
 31
0.0
  0
LINE
  8
LC-004-005-----0
  6
CONTINUOUS
  5
23F
 10
286.606305
 20
478.93935
 30
0.0
 11
290.328903
 21
482.661947
 31
0.0
  0
LINE
  8
LC-004-005-----0
  6
CONTINUOUS
  5
240
 10
295.182499
 20
487.515544
 30
0.0
 11
295.828903
 21
488.161947
 31
0.0
  0
LINE
  8
LC-004-005-----0
  6
CONTINUOUS
  5
241
 10
285.545971
 20
480.707443
 30
0.0
 11
288.182499
 21
483.343971
 31
0.0
  0
LINE
  8
LC-004-005-----0
  6
CONTINUOUS
  5
242
 10
285.318424
 20
483.308322
 30
0.0
 11
288.182499
 21
486.172398
 31
0.0
  0
LINE
  8
LC-004-005-----0
  6
CONTINUOUS
  5
243
 10
284.027478
 20
484.845804
 30
0.0
 11
287.343621
 21
488.161947
 31
0.0
  0
LINE
  8
LC-004-005-----0
  6
CONTINUOUS
  5
244
 10
281.215194
 20
484.861947
 30
0.0
 11
284.515194
 21
488.161947
 31
0.0
  0
LINE
  8
LC-004-005-----0
  6
CONTINUOUS
  5
245
 10
278.386767
 20
484.861947
 30
0.0
 11
281.686767
 21
488.161947
 31
0.0
  0
LINE
  8
LC-004-005-----0
  6
CONTINUOUS
  5
246
 10
275.711858
 20
485.015465
 30
0.0
 11
278.85834
 21
488.161947
 31
0.0
  0
LINE
  8
LC-004-005-----0
  6
CONTINUOUS
  5
247
 10
273.307401
 20
485.439435
 30
0.0
 11
276.187692
 21
488.319726
 31
0.0
  0
LINE
  8
LC-004-005-----0
  6
CONTINUOUS
  5
248
 10
270.902945
 20
485.863406
 30
0.0
 11
273.783235
 21
488.743697
 31
0.0
  0
LINE
  8
LC-004-005-----0
  6
CONTINUOUS
  5
249
 10
268.498488
 20
486.287377
 30
0.0
 11
271.378779
 21
489.167667
 31
0.0
  0
LINE
  8
LC-004-005-----0
  6
CONTINUOUS
  5
24A
 10
266.094031
 20
486.711347
 30
0.0
 11
268.974322
 21
489.591638
 31
0.0
  0
LINE
  8
LC-004-005-----0
  6
CONTINUOUS
  5
24B
 10
264.582499
 20
488.028242
 30
0.0
 11
266.569865
 21
490.015608
 31
0.0
  0
ENDBLK
  8
0
  5
24C
  0
BLOCK
  8
0
  5
24E
  2
*X25
 70
    65
 10
473.582499
 20
235.161947
 30
0.0
  3
*X25
  0
LINE
  8
LC-004-005-----0
  6
CONTINUOUS
  5
24F
 10
475.578253
 20
235.161947
 30
0.0
 11
476.66899
 21
236.252684
 31
0.0
  0
LINE
  8
LC-004-005-----0
  6
CONTINUOUS
  5
250
 10
473.582499
 20
235.994621
 30
0.0
 11
477.582499
 21
239.994621
 31
0.0
  0
LINE
  8
LC-004-005-----0
  6
CONTINUOUS
  5
251
 10
473.582499
 20
238.823048
 30
0.0
 11
477.582499
 21
242.823048
 31
0.0
  0
LINE
  8
LC-004-005-----0
  6
CONTINUOUS
  5
252
 10
473.582499
 20
241.651475
 30
0.0
 11
477.582499
 21
245.651475
 31
0.0
  0
LINE
  8
LC-004-005-----0
  6
CONTINUOUS
  5
253
 10
473.582499
 20
244.479902
 30
0.0
 11
477.582499
 21
248.479902
 31
0.0
  0
LINE
  8
LC-004-005-----0
  6
CONTINUOUS
  5
254
 10
473.582499
 20
247.308329
 30
0.0
 11
477.582499
 21
251.308329
 31
0.0
  0
LINE
  8
LC-004-005-----0
  6
CONTINUOUS
  5
255
 10
473.582499
 20
250.136756
 30
0.0
 11
477.582499
 21
254.136756
 31
0.0
  0
LINE
  8
LC-004-005-----0
  6
CONTINUOUS
  5
256
 10
473.582499
 20
252.965183
 30
0.0
 11
477.582499
 21
256.965183
 31
0.0
  0
LINE
  8
LC-004-005-----0
  6
CONTINUOUS
  5
257
 10
473.582499
 20
255.79361
 30
0.0
 11
477.582499
 21
259.79361
 31
0.0
  0
LINE
  8
LC-004-005-----0
  6
CONTINUOUS
  5
258
 10
473.582499
 20
258.622038
 30
0.0
 11
477.582499
 21
262.622038
 31
0.0
  0
LINE
  8
LC-004-005-----0
  6
CONTINUOUS
  5
259
 10
473.582499
 20
261.450465
 30
0.0
 11
477.582499
 21
265.450465
 31
0.0
  0
LINE
  8
LC-004-005-----0
  6
CONTINUOUS
  5
25A
 10
473.582499
 20
264.278892
 30
0.0
 11
477.582499
 21
268.278892
 31
0.0
  0
LINE
  8
LC-004-005-----0
  6
CONTINUOUS
  5
25B
 10
473.582499
 20
267.107319
 30
0.0
 11
477.582499
 21
271.107319
 31
0.0
  0
LINE
  8
LC-004-005-----0
  6
CONTINUOUS
  5
25C
 10
473.582499
 20
269.935746
 30
0.0
 11
477.582499
 21
273.935746
 31
0.0
  0
LINE
  8
LC-004-005-----0
  6
CONTINUOUS
  5
25D
 10
500.8087
 20
297.161947
 30
0.0
 11
504.193032
 21
300.546279
 31
0.0
  0
LINE
  8
LC-004-005-----0
  6
CONTINUOUS
  5
25E
 10
473.582499
 20
272.764173
 30
0.0
 11
477.582499
 21
276.764173
 31
0.0
  0
LINE
  8
LC-004-005-----0
  6
CONTINUOUS
  5
25F
 10
497.980273
 20
297.161947
 30
0.0
 11
505.813835
 21
304.995509
 31
0.0
  0
LINE
  8
LC-004-005-----0
  6
CONTINUOUS
  5
260
 10
473.582499
 20
275.5926
 30
0.0
 11
477.582499
 21
279.5926
 31
0.0
  0
LINE
  8
LC-004-005-----0
  6
CONTINUOUS
  5
261
 10
495.151846
 20
297.161947
 30
0.0
 11
499.151846
 21
301.161947
 31
0.0
  0
LINE
  8
LC-004-005-----0
  6
CONTINUOUS
  5
262
 10
500.992235
 20
303.002336
 30
0.0
 11
505.995477
 21
308.005578
 31
0.0
  0
LINE
  8
LC-004-005-----0
  6
CONTINUOUS
  5
263
 10
473.582499
 20
278.421027
 30
0.0
 11
477.582499
 21
282.421027
 31
0.0
  0
LINE
  8
LC-004-005-----0
  6
CONTINUOUS
  5
264
 10
492.323419
 20
297.161947
 30
0.0
 11
496.323419
 21
301.161947
 31
0.0
  0
LINE
  8
LC-004-005-----0
  6
CONTINUOUS
  5
265
 10
501.912494
 20
306.751023
 30
0.0
 11
506.177119
 21
311.015647
 31
0.0
  0
LINE
  8
LC-004-005-----0
  6
CONTINUOUS
  5
266
 10
473.582499
 20
281.249455
 30
0.0
 11
477.582499
 21
285.249455
 31
0.0
  0
LINE
  8
LC-004-005-----0
  6
CONTINUOUS
  5
267
 10
489.494992
 20
297.161947
 30
0.0
 11
493.494992
 21
301.161947
 31
0.0
  0
LINE
  8
LC-004-005-----0
  6
CONTINUOUS
  5
268
 10
502.094137
 20
309.761092
 30
0.0
 11
506.358761
 21
314.025716
 31
0.0
  0
LINE
  8
LC-004-005-----0
  6
CONTINUOUS
  5
269
 10
473.582499
 20
284.077882
 30
0.0
 11
477.582499
 21
288.077882
 31
0.0
  0
LINE
  8
LC-004-005-----0
  6
CONTINUOUS
  5
26A
 10
486.666565
 20
297.161947
 30
0.0
 11
490.666565
 21
301.161947
 31
0.0
  0
LINE
  8
LC-004-005-----0
  6
CONTINUOUS
  5
26B
 10
502.275779
 20
312.771161
 30
0.0
 11
506.540403
 21
317.035786
 31
0.0
  0
LINE
  8
LC-004-005-----0
  6
CONTINUOUS
  5
26C
 10
473.582499
 20
286.906309
 30
0.0
 11
477.582499
 21
290.906309
 31
0.0
  0
LINE
  8
LC-004-005-----0
  6
CONTINUOUS
  5
26D
 10
483.838138
 20
297.161947
 30
0.0
 11
487.838138
 21
301.161947
 31
0.0
  0
LINE
  8
LC-004-005-----0
  6
CONTINUOUS
  5
26E
 10
502.457421
 20
315.781231
 30
0.0
 11
506.722045
 21
320.045855
 31
0.0
  0
LINE
  8
LC-004-005-----0
  6
CONTINUOUS
  5
26F
 10
473.582499
 20
289.734736
 30
0.0
 11
477.582499
 21
293.734736
 31
0.0
  0
LINE
  8
LC-004-005-----0
  6
CONTINUOUS
  5
270
 10
481.00971
 20
297.161947
 30
0.0
 11
485.00971
 21
301.161947
 31
0.0
  0
LINE
  8
LC-004-005-----0
  6
CONTINUOUS
  5
271
 10
502.639063
 20
318.7913
 30
0.0
 11
506.903687
 21
323.055924
 31
0.0
  0
LINE
  8
LC-004-005-----0
  6
CONTINUOUS
  5
272
 10
473.582499
 20
292.563163
 30
0.0
 11
477.582499
 21
296.563163
 31
0.0
  0
LINE
  8
LC-004-005-----0
  6
CONTINUOUS
  5
273
 10
478.181283
 20
297.161947
 30
0.0
 11
482.181283
 21
301.161947
 31
0.0
  0
LINE
  8
LC-004-005-----0
  6
CONTINUOUS
  5
274
 10
502.820705
 20
321.801369
 30
0.0
 11
507.085329
 21
326.065993
 31
0.0
  0
LINE
  8
LC-004-005-----0
  6
CONTINUOUS
  5
275
 10
473.582499
 20
295.39159
 30
0.0
 11
479.352856
 21
301.161947
 31
0.0
  0
LINE
  8
LC-004-005-----0
  6
CONTINUOUS
  5
276
 10
503.002347
 20
324.811438
 30
0.0
 11
507.266972
 21
329.076063
 31
0.0
  0
LINE
  8
LC-004-005-----0
  6
CONTINUOUS
  5
277
 10
473.582499
 20
298.220017
 30
0.0
 11
476.524429
 21
301.161947
 31
0.0
  0
LINE
  8
LC-004-005-----0
  6
CONTINUOUS
  5
278
 10
503.183989
 20
327.821507
 30
0.0
 11
507.448614
 21
332.086132
 31
0.0
  0
LINE
  8
LC-004-005-----0
  6
CONTINUOUS
  5
279
 10
473.582499
 20
301.048444
 30
0.0
 11
473.696002
 21
301.161947
 31
0.0
  0
LINE
  8
LC-004-005-----0
  6
CONTINUOUS
  5
27A
 10
503.365631
 20
330.831577
 30
0.0
 11
507.630256
 21
335.096201
 31
0.0
  0
LINE
  8
LC-004-005-----0
  6
CONTINUOUS
  5
27B
 10
503.547273
 20
333.841646
 30
0.0
 11
507.811898
 21
338.10627
 31
0.0
  0
LINE
  8
LC-004-005-----0
  6
CONTINUOUS
  5
27C
 10
503.728916
 20
336.851715
 30
0.0
 11
507.99354
 21
341.11634
 31
0.0
  0
LINE
  8
LC-004-005-----0
  6
CONTINUOUS
  5
27D
 10
503.910558
 20
339.861784
 30
0.0
 11
508.175182
 21
344.126409
 31
0.0
  0
LINE
  8
LC-004-005-----0
  6
CONTINUOUS
  5
27E
 10
504.0922
 20
342.871854
 30
0.0
 11
508.356824
 21
347.136478
 31
0.0
  0
LINE
  8
LC-004-005-----0
  6
CONTINUOUS
  5
27F
 10
504.273842
 20
345.881923
 30
0.0
 11
508.538466
 21
350.146547
 31
0.0
  0
LINE
  8
LC-004-005-----0
  6
CONTINUOUS
  5
280
 10
504.455484
 20
348.891992
 30
0.0
 11
508.720108
 21
353.156617
 31
0.0
  0
LINE
  8
LC-004-005-----0
  6
CONTINUOUS
  5
281
 10
504.637126
 20
351.902061
 30
0.0
 11
508.90175
 21
356.166686
 31
0.0
  0
LINE
  8
LC-004-005-----0
  6
CONTINUOUS
  5
282
 10
504.818768
 20
354.912131
 30
0.0
 11
509.083393
 21
359.176755
 31
0.0
  0
LINE
  8
LC-004-005-----0
  6
CONTINUOUS
  5
283
 10
505.00041
 20
357.9222
 30
0.0
 11
509.265035
 21
362.186824
 31
0.0
  0
LINE
  8
LC-004-005-----0
  6
CONTINUOUS
  5
284
 10
505.182052
 20
360.932269
 30
0.0
 11
509.446677
 21
365.196893
 31
0.0
  0
LINE
  8
LC-004-005-----0
  6
CONTINUOUS
  5
285
 10
505.363695
 20
363.942338
 30
0.0
 11
509.628319
 21
368.206963
 31
0.0
  0
LINE
  8
LC-004-005-----0
  6
CONTINUOUS
  5
286
 10
505.545337
 20
366.952408
 30
0.0
 11
509.809961
 21
371.217032
 31
0.0
  0
LINE
  8
LC-004-005-----0
  6
CONTINUOUS
  5
287
 10
505.726979
 20
369.962477
 30
0.0
 11
509.991603
 21
374.227101
 31
0.0
  0
LINE
  8
LC-004-005-----0
  6
CONTINUOUS
  5
288
 10
505.908621
 20
372.972546
 30
0.0
 11
510.173245
 21
377.23717
 31
0.0
  0
LINE
  8
LC-004-005-----0
  6
CONTINUOUS
  5
289
 10
506.090263
 20
375.982615
 30
0.0
 11
510.354887
 21
380.24724
 31
0.0
  0
LINE
  8
LC-004-005-----0
  6
CONTINUOUS
  5
28A
 10
506.271905
 20
378.992684
 30
0.0
 11
510.536529
 21
383.257309
 31
0.0
  0
LINE
  8
LC-004-005-----0
  6
CONTINUOUS
  5
28B
 10
506.453547
 20
382.002754
 30
0.0
 11
510.718172
 21
386.267378
 31
0.0
  0
LINE
  8
LC-004-005-----0
  6
CONTINUOUS
  5
28C
 10
506.635189
 20
385.012823
 30
0.0
 11
510.899814
 21
389.277447
 31
0.0
  0
LINE
  8
LC-004-005-----0
  6
CONTINUOUS
  5
28D
 10
506.816831
 20
388.022892
 30
0.0
 11
511.081456
 21
392.287517
 31
0.0
  0
LINE
  8
LC-004-005-----0
  6
CONTINUOUS
  5
28E
 10
506.998474
 20
391.032961
 30
0.0
 11
511.263098
 21
395.297586
 31
0.0
  0
LINE
  8
LC-004-005-----0
  6
CONTINUOUS
  5
28F
 10
507.180116
 20
394.043031
 30
0.0
 11
511.44474
 21
398.307655
 31
0.0
  0
LINE
  8
LC-004-005-----0
  6
CONTINUOUS
  5
290
 10
507.361758
 20
397.0531
 30
0.0
 11
511.626382
 21
401.317724
 31
0.0
  0
LINE
  8
LC-004-005-----0
  6
CONTINUOUS
  5
291
 10
507.5434
 20
400.063169
 30
0.0
 11
511.808024
 21
404.327794
 31
0.0
  0
LINE
  8
LC-004-005-----0
  6
CONTINUOUS
  5
292
 10
507.725042
 20
403.073238
 30
0.0
 11
511.989666
 21
407.337863
 31
0.0
  0
LINE
  8
LC-004-005-----0
  6
CONTINUOUS
  5
293
 10
507.906684
 20
406.083308
 30
0.0
 11
512.171308
 21
410.347932
 31
0.0
  0
LINE
  8
LC-004-005-----0
  6
CONTINUOUS
  5
294
 10
508.088326
 20
409.093377
 30
0.0
 11
512.352951
 21
413.358001
 31
0.0
  0
LINE
  8
LC-004-005-----0
  6
CONTINUOUS
  5
295
 10
508.269968
 20
412.103446
 30
0.0
 11
512.534593
 21
416.36807
 31
0.0
  0
LINE
  8
LC-004-005-----0
  6
CONTINUOUS
  5
296
 10
508.45161
 20
415.113515
 30
0.0
 11
512.582499
 21
419.244404
 31
0.0
  0
LINE
  8
LC-004-005-----0
  6
CONTINUOUS
  5
297
 10
580.258908
 20
486.920813
 30
0.0
 11
580.582499
 21
487.244404
 31
0.0
  0
LINE
  8
LC-004-005-----0
  6
CONTINUOUS
  5
298
 10
508.575717
 20
418.066049
 30
0.0
 11
512.582499
 21
422.072831
 31
0.0
  0
LINE
  8
LC-004-005-----0
  6
CONTINUOUS
  5
299
 10
576.824989
 20
486.315321
 30
0.0
 11
580.582499
 21
490.072831
 31
0.0
  0
LINE
  8
LC-004-005-----0
  6
CONTINUOUS
  5
29A
 10
508.577183
 20
420.895942
 30
0.0
 11
512.582499
 21
424.901258
 31
0.0
  0
LINE
  8
LC-004-005-----0
  6
CONTINUOUS
  5
29B
 10
573.391069
 20
485.709828
 30
0.0
 11
577.50455
 21
489.823309
 31
0.0
  0
LINE
  8
LC-004-005-----0
  6
CONTINUOUS
  5
29C
 10
508.578648
 20
423.725834
 30
0.0
 11
516.582499
 21
431.729685
 31
0.0
  0
LINE
  8
LC-004-005-----0
  6
CONTINUOUS
  5
29D
 10
569.957149
 20
485.104335
 30
0.0
 11
574.07063
 21
489.217816
 31
0.0
  0
LINE
  8
LC-004-005-----0
  6
CONTINUOUS
  5
29E
 10
508.580114
 20
426.555727
 30
0.0
 11
516.582499
 21
434.558112
 31
0.0
  0
LINE
  8
LC-004-005-----0
  6
CONTINUOUS
  5
29F
 10
566.886334
 20
484.861947
 30
0.0
 11
570.63671
 21
488.612324
 31
0.0
  0
LINE
  8
LC-004-005-----0
  6
CONTINUOUS
  5
2A0
 10
508.581579
 20
429.38562
 30
0.0
 11
510.357907
 21
431.161947
 31
0.0
  0
LINE
  8
LC-004-005-----0
  6
CONTINUOUS
  5
2A1
 10
512.582499
 20
433.38654
 30
0.0
 11
516.582499
 21
437.38654
 31
0.0
  0
LINE
  8
LC-004-005-----0
  6
CONTINUOUS
  5
2A2
 10
558.057907
 20
478.861947
 30
0.0
 11
559.591762
 21
480.395803
 31
0.0
  0
LINE
  8
LC-004-005-----0
  6
CONTINUOUS
  5
2A3
 10
564.057907
 20
484.861947
 30
0.0
 11
567.357907
 21
488.161947
 31
0.0
  0
LINE
  8
LC-004-005-----0
  6
CONTINUOUS
  5
2A4
 10
512.582499
 20
436.214967
 30
0.0
 11
516.582499
 21
440.214967
 31
0.0
  0
LINE
  8
LC-004-005-----0
  6
CONTINUOUS
  5
2A5
 10
555.22948
 20
478.861947
 30
0.0
 11
559.862945
 21
483.495413
 31
0.0
  0
LINE
  8
LC-004-005-----0
  6
CONTINUOUS
  5
2A6
 10
561.22353
 20
484.855998
 30
0.0
 11
564.52948
 21
488.161947
 31
0.0
  0
LINE
  8
LC-004-005-----0
  6
CONTINUOUS
  5
2A7
 10
512.582499
 20
439.043394
 30
0.0
 11
516.582499
 21
443.043394
 31
0.0
  0
LINE
  8
LC-004-005-----0
  6
CONTINUOUS
  5
2A8
 10
552.401053
 20
478.861947
 30
0.0
 11
556.201053
 21
482.661947
 31
0.0
  0
LINE
  8
LC-004-005-----0
  6
CONTINUOUS
  5
2A9
 10
556.982499
 20
483.443394
 30
0.0
 11
561.701053
 21
488.161947
 31
0.0
  0
LINE
  8
LC-004-005-----0
  6
CONTINUOUS
  5
2AA
 10
512.582499
 20
441.871821
 30
0.0
 11
516.582499
 21
445.871821
 31
0.0
  0
LINE
  8
LC-004-005-----0
  6
CONTINUOUS
  5
2AB
 10
538.637919
 20
467.92724
 30
0.0
 11
543.717206
 21
473.006528
 31
0.0
  0
LINE
  8
LC-004-005-----0
  6
CONTINUOUS
  5
2AC
 10
549.572625
 20
478.861947
 30
0.0
 11
553.372625
 21
482.661947
 31
0.0
  0
LINE
  8
LC-004-005-----0
  6
CONTINUOUS
  5
2AD
 10
556.982499
 20
486.271821
 30
0.0
 11
558.872625
 21
488.161947
 31
0.0
  0
LINE
  8
LC-004-005-----0
  6
CONTINUOUS
  5
2AE
 10
512.582499
 20
444.700248
 30
0.0
 11
516.582499
 21
448.700248
 31
0.0
  0
LINE
  8
LC-004-005-----0
  6
CONTINUOUS
  5
2AF
 10
536.806242
 20
468.923991
 30
0.0
 11
543.782499
 21
475.900248
 31
0.0
  0
LINE
  8
LC-004-005-----0
  6
CONTINUOUS
  5
2B0
 10
547.551468
 20
479.669217
 30
0.0
 11
550.544198
 21
482.661947
 31
0.0
  0
LINE
  8
LC-004-005-----0
  6
CONTINUOUS
  5
2B1
 10
512.582499
 20
447.528675
 30
0.0
 11
516.582499
 21
451.528675
 31
0.0
  0
LINE
  8
LC-004-005-----0
  6
CONTINUOUS
  5
2B2
 10
535.392028
 20
470.338204
 30
0.0
 11
537.513349
 21
472.459525
 31
0.0
  0
LINE
  8
LC-004-005-----0
  6
CONTINUOUS
  5
2B3
 10
540.482499
 20
475.428675
 30
0.0
 11
543.782499
 21
478.728675
 31
0.0
  0
LINE
  8
LC-004-005-----0
  6
CONTINUOUS
  5
2B4
 10
547.218481
 20
482.164657
 30
0.0
 11
549.982499
 21
484.928675
 31
0.0
  0
LINE
  8
LC-004-005-----0
  6
CONTINUOUS
  5
2B5
 10
512.582499
 20
450.357102
 30
0.0
 11
516.582499
 21
454.357102
 31
0.0
  0
LINE
  8
LC-004-005-----0
  6
CONTINUOUS
  5
2B6
 10
522.511047
 20
460.285651
 30
0.0
 11
522.958796
 21
460.733399
 31
0.0
  0
LINE
  8
LC-004-005-----0
  6
CONTINUOUS
  5
2B7
 10
533.977815
 20
471.752418
 30
0.0
 11
536.099135
 21
473.873738
 31
0.0
  0
LINE
  8
LC-004-005-----0
  6
CONTINUOUS
  5
2B8
 10
540.482499
 20
478.257102
 30
0.0
 11
543.782499
 21
481.557102
 31
0.0
  0
LINE
  8
LC-004-005-----0
  6
CONTINUOUS
  5
2B9
 10
546.658283
 20
484.432886
 30
0.0
 11
549.982499
 21
487.757102
 31
0.0
  0
LINE
  8
LC-004-005-----0
  6
CONTINUOUS
  5
2BA
 10
512.582499
 20
453.185529
 30
0.0
 11
516.582499
 21
457.185529
 31
0.0
  0
LINE
  8
LC-004-005-----0
  6
CONTINUOUS
  5
2BB
 10
517.574031
 20
458.177062
 30
0.0
 11
525.067385
 21
465.670415
 31
0.0
  0
LINE
  8
LC-004-005-----0
  6
CONTINUOUS
  5
2BC
 10
532.782499
 20
473.385529
 30
0.0
 11
536.082499
 21
476.685529
 31
0.0
  0
LINE
  8
LC-004-005-----0
  6
CONTINUOUS
  5
2BD
 10
540.482499
 20
481.085529
 30
0.0
 11
547.558917
 21
488.161947
 31
0.0
  0
LINE
  8
LC-004-005-----0
  6
CONTINUOUS
  5
2BE
 10
512.582499
 20
456.013957
 30
0.0
 11
519.748222
 21
463.17968
 31
0.0
  0
LINE
  8
LC-004-005-----0
  6
CONTINUOUS
  5
2BF
 10
520.064766
 20
463.496224
 30
0.0
 11
525.082499
 21
468.513957
 31
0.0
  0
LINE
  8
LC-004-005-----0
  6
CONTINUOUS
  5
2C0
 10
532.782499
 20
476.213957
 30
0.0
 11
536.082499
 21
479.513957
 31
0.0
  0
LINE
  8
LC-004-005-----0
  6
CONTINUOUS
  5
2C1
 10
540.482499
 20
483.913957
 30
0.0
 11
544.73049
 21
488.161947
 31
0.0
  0
LINE
  8
LC-004-005-----0
  6
CONTINUOUS
  5
2C2
 10
512.582499
 20
458.842384
 30
0.0
 11
515.902063
 21
462.161947
 31
0.0
  0
LINE
  8
LC-004-005-----0
  6
CONTINUOUS
  5
2C3
 10
521.082499
 20
467.342384
 30
0.0
 11
525.082499
 21
471.342384
 31
0.0
  0
LINE
  8
LC-004-005-----0
  6
CONTINUOUS
  5
2C4
 10
532.782499
 20
479.042384
 30
0.0
 11
536.082499
 21
482.342384
 31
0.0
  0
LINE
  8
LC-004-005-----0
  6
CONTINUOUS
  5
2C5
 10
540.482499
 20
486.742384
 30
0.0
 11
541.902063
 21
488.161947
 31
0.0
  0
LINE
  8
LC-004-005-----0
  6
CONTINUOUS
  5
2C6
 10
512.582499
 20
461.670811
 30
0.0
 11
513.073636
 21
462.161947
 31
0.0
  0
LINE
  8
LC-004-005-----0
  6
CONTINUOUS
  5
2C7
 10
521.082499
 20
470.170811
 30
0.0
 11
525.082499
 21
474.170811
 31
0.0
  0
LINE
  8
LC-004-005-----0
  6
CONTINUOUS
  5
2C8
 10
532.782499
 20
481.870811
 30
0.0
 11
536.082499
 21
485.170811
 31
0.0
  0
LINE
  8
LC-004-005-----0
  6
CONTINUOUS
  5
2C9
 10
521.082499
 20
472.999238
 30
0.0
 11
525.082499
 21
476.999238
 31
0.0
  0
LINE
  8
LC-004-005-----0
  6
CONTINUOUS
  5
2CA
 10
532.566265
 20
484.483004
 30
0.0
 11
536.082499
 21
487.999238
 31
0.0
  0
LINE
  8
LC-004-005-----0
  6
CONTINUOUS
  5
2CB
 10
521.082499
 20
475.827665
 30
0.0
 11
525.082499
 21
479.827665
 31
0.0
  0
LINE
  8
LC-004-005-----0
  6
CONTINUOUS
  5
2CC
 10
530.116781
 20
484.861947
 30
0.0
 11
533.416781
 21
488.161947
 31
0.0
  0
LINE
  8
LC-004-005-----0
  6
CONTINUOUS
  5
2CD
 10
521.082499
 20
478.656092
 30
0.0
 11
525.082499
 21
482.656092
 31
0.0
  0
LINE
  8
LC-004-005-----0
  6
CONTINUOUS
  5
2CE
 10
527.288354
 20
484.861947
 30
0.0
 11
530.588354
 21
488.161947
 31
0.0
  0
LINE
  8
LC-004-005-----0
  6
CONTINUOUS
  5
2CF
 10
521.082499
 20
481.484519
 30
0.0
 11
527.759927
 21
488.161947
 31
0.0
  0
LINE
  8
LC-004-005-----0
  6
CONTINUOUS
  5
2D0
 10
521.082499
 20
484.312946
 30
0.0
 11
524.9315
 21
488.161947
 31
0.0
  0
LINE
  8
LC-004-005-----0
  6
CONTINUOUS
  5
2D1
 10
521.082499
 20
487.141374
 30
0.0
 11
522.103073
 21
488.161947
 31
0.0
  0
ENDBLK
  8
0
  5
2D2
  0
BLOCK
  8
0
  5
2D4
  2
*X26
 70
    65
 10
324.261469
 20
470.212604
 30
0.0
  3
*X26
  0
LINE
  8
LC-004-005-----0
  6
DASHED
  5
2D5
 10
325.982388
 20
470.232172
 30
0.0
 11
328.261469
 21
472.511253
 31
0.0
  0
LINE
  8
LC-004-005-----0
  6
DASHED
  5
2D6
 10
324.998131
 20
470.662128
 30
0.0
 11
328.261455
 21
473.925452
 31
0.0
  0
LINE
  8
LC-004-005-----0
  6
CONTINUOUS
  5
2D7
 10
324.261469
 20
472.753893
 30
0.0
 11
327.194509
 21
475.686934
 31
0.0
  0
LINE
  8
LC-004-005-----0
  6
CONTINUOUS
  5
2D8
 10
324.279543
 20
474.186181
 30
0.0
 11
325.993201
 21
475.899839
 31
0.0
  0
ENDBLK
  8
0
  5
2D9
  0
BLOCK
  8
0
  5
2DB
  2
*X27
 70
    65
 10
516.903529
 20
470.212604
 30
0.0
  3
*X27
  0
LINE
  8
LC-004-005-----0
  6
CONTINUOUS
  5
2DC
 10
520.131251
 20
470.633776
 30
0.0
 11
520.482357
 21
470.984882
 31
0.0
  0
LINE
  8
LC-004-005-----0
  6
DASHED
  5
2DD
 10
517.478419
 20
470.809371
 30
0.0
 11
520.881693
 21
474.212645
 31
0.0
  0
LINE
  8
LC-004-005-----0
  6
DASHED
  5
2DE
 10
516.967119
 20
471.712285
 30
0.0
 11
520.44593
 21
475.191096
 31
0.0
  0
LINE
  8
LC-004-005-----0
  6
CONTINUOUS
  5
2DF
 10
517.021752
 20
474.595345
 30
0.0
 11
518.224607
 21
475.7982
 31
0.0
  0
ENDBLK
  8
0
  5
2E0
  0
BLOCK
  8
0
  5
2E2
  2
*D28
 70
    65
 10
0.0
 20
0.0
 30
0.0
  3
*D28
  0
LINE
  8
LC-007-003-MTH-0
  6
CONTINUOUS
  5
2E4
 10
367.582499
 20
239.661947
 30
0.0
 11
367.582499
 21
169.2
 31
0.0
  0
LINE
  8
LC-007-003-MTH-0
  6
CONTINUOUS
  5
2E5
 10
477.582499
 20
239.661947
 30
0.0
 11
477.582499
 21
169.2
 31
0.0
  0
LINE
  8
LC-008-003-MTG-0
  6
CONTINUOUS
  5
2E7
 10
367.582499
 20
180.0
 30
0.0
 11
477.582499
 21
180.0
 31
0.0
  0
LINE
  8
LC-006-003-----0
  6
CONTINUOUS
  5
2E9
 10
385.428507
 20
182.349471
 30
0.0
 11
367.582499
 21
180.0
 31
0.0
  0
LINE
  8
LC-006-003-----0
  6
CONTINUOUS
  5
2EA
 10
367.582499
 20
180.0
 30
0.0
 11
385.428507
 21
177.650529
 31
0.0
  0
LINE
  8
LC-006-003-----0
  6
CONTINUOUS
  5
2EB
 10
385.428507
 20
177.650529
 30
0.0
 11
385.428507
 21
182.349471
 31
0.0
  0
LINE
  8
LC-006-003-----0
  6
CONTINUOUS
  5
2EC
 10
385.468545
 20
181.738609
 30
0.0
 11
372.262499
 21
180.0
 31
0.0
  0
LINE
  8
LC-006-003-----0
  6
CONTINUOUS
  5
2ED
 10
372.262499
 20
180.0
 30
0.0
 11
385.468545
 21
178.261391
 31
0.0
  0
LINE
  8
LC-006-003-----0
  6
CONTINUOUS
  5
2EE
 10
385.508583
 20
181.127746
 30
0.0
 11
376.942499
 21
180.0
 31
0.0
  0
LINE
  8
LC-006-003-----0
  6
CONTINUOUS
  5
2EF
 10
376.942499
 20
180.0
 30
0.0
 11
385.508583
 21
178.872254
 31
0.0
  0
LINE
  8
LC-006-003-----0
  6
CONTINUOUS
  5
2F0
 10
385.548621
 20
180.516884
 30
0.0
 11
381.622499
 21
180.0
 31
0.0
  0
LINE
  8
LC-006-003-----0
  6
CONTINUOUS
  5
2F1
 10
381.622499
 20
180.0
 30
0.0
 11
385.548621
 21
179.483116
 31
0.0
  0
LINE
  8
LC-006-003-----0
  6
CONTINUOUS
  5
2F2
 10
459.736492
 20
177.650529
 30
0.0
 11
477.582499
 21
180.0
 31
0.0
  0
LINE
  8
LC-006-003-----0
  6
CONTINUOUS
  5
2F3
 10
477.582499
 20
180.0
 30
0.0
 11
459.736492
 21
182.349471
 31
0.0
  0
LINE
  8
LC-006-003-----0
  6
CONTINUOUS
  5
2F4
 10
459.736492
 20
182.349471
 30
0.0
 11
459.736492
 21
177.650529
 31
0.0
  0
LINE
  8
LC-006-003-----0
  6
CONTINUOUS
  5
2F5
 10
459.696453
 20
178.261391
 30
0.0
 11
472.902499
 21
180.0
 31
0.0
  0
LINE
  8
LC-006-003-----0
  6
CONTINUOUS
  5
2F6
 10
472.902499
 20
180.0
 30
0.0
 11
459.696453
 21
181.738609
 31
0.0
  0
LINE
  8
LC-006-003-----0
  6
CONTINUOUS
  5
2F7
 10
459.656415
 20
178.872254
 30
0.0
 11
468.222499
 21
180.0
 31
0.0
  0
LINE
  8
LC-006-003-----0
  6
CONTINUOUS
  5
2F8
 10
468.222499
 20
180.0
 30
0.0
 11
459.656415
 21
181.127746
 31
0.0
  0
LINE
  8
LC-006-003-----0
  6
CONTINUOUS
  5
2F9
 10
459.616377
 20
179.483116
 30
0.0
 11
463.542499
 21
180.0
 31
0.0
  0
LINE
  8
LC-006-003-----0
  6
CONTINUOUS
  5
2FA
 10
463.542499
 20
180.0
 30
0.0
 11
459.616377
 21
180.516884
 31
0.0
  0
TEXT
  8
LC-006-003-----0
  6
CONTINUOUS
 62
     6
  5
2FC
 10
391.702154
 20
190.431999
 30
0.0
 40
18.0
  1
DN100
 41
0.9
 51
15.0
  7
LC-TXTSTYLE-150-400-0-0-D0
 72
     1
 11
425.377745
 21
190.431999
 31
0.0
  0
ENDBLK
  8
0
  5
2FD
  0
BLOCK
  8
0
  5
2FF
  2
*D29
 70
    65
 10
0.0
 20
0.0
 30
0.0
  3
*D29
  0
LINE
  8
LC-007-003-MTH-0
  6
CONTINUOUS
  5
300
 10
328.582499
 20
433.861947
 30
0.0
 11
328.582499
 21
97.2
 31
0.0
  0
LINE
  8
LC-007-003-MTH-0
  6
CONTINUOUS
  5
301
 10
516.582499
 20
433.861947
 30
0.0
 11
516.582499
 21
97.2
 31
0.0
  0
LINE
  8
LC-008-003-MTG-0
  6
CONTINUOUS
  5
302
 10
328.582499
 20
108.0
 30
0.0
 11
516.582499
 21
108.0
 31
0.0
  0
LINE
  8
LC-006-003-----0
  6
CONTINUOUS
  5
303
 10
346.428507
 20
110.349471
 30
0.0
 11
328.582499
 21
108.0
 31
0.0
  0
LINE
  8
LC-006-003-----0
  6
CONTINUOUS
  5
304
 10
328.582499
 20
108.0
 30
0.0
 11
346.428507
 21
105.650529
 31
0.0
  0
LINE
  8
LC-006-003-----0
  6
CONTINUOUS
  5
305
 10
346.428507
 20
105.650529
 30
0.0
 11
346.428507
 21
110.349471
 31
0.0
  0
LINE
  8
LC-006-003-----0
  6
CONTINUOUS
  5
306
 10
346.468545
 20
109.738609
 30
0.0
 11
333.262499
 21
108.0
 31
0.0
  0
LINE
  8
LC-006-003-----0
  6
CONTINUOUS
  5
307
 10
333.262499
 20
108.0
 30
0.0
 11
346.468545
 21
106.261391
 31
0.0
  0
LINE
  8
LC-006-003-----0
  6
CONTINUOUS
  5
308
 10
346.508583
 20
109.127746
 30
0.0
 11
337.942499
 21
108.0
 31
0.0
  0
LINE
  8
LC-006-003-----0
  6
CONTINUOUS
  5
309
 10
337.942499
 20
108.0
 30
0.0
 11
346.508583
 21
106.872254
 31
0.0
  0
LINE
  8
LC-006-003-----0
  6
CONTINUOUS
  5
30A
 10
346.548621
 20
108.516884
 30
0.0
 11
342.622499
 21
108.0
 31
0.0
  0
LINE
  8
LC-006-003-----0
  6
CONTINUOUS
  5
30B
 10
342.622499
 20
108.0
 30
0.0
 11
346.548621
 21
107.483116
 31
0.0
  0
LINE
  8
LC-006-003-----0
  6
CONTINUOUS
  5
30C
 10
498.736492
 20
105.650529
 30
0.0
 11
516.582499
 21
108.0
 31
0.0
  0
LINE
  8
LC-006-003-----0
  6
CONTINUOUS
  5
30D
 10
516.582499
 20
108.0
 30
0.0
 11
498.736492
 21
110.349471
 31
0.0
  0
LINE
  8
LC-006-003-----0
  6
CONTINUOUS
  5
30E
 10
498.736492
 20
110.349471
 30
0.0
 11
498.736492
 21
105.650529
 31
0.0
  0
LINE
  8
LC-006-003-----0
  6
CONTINUOUS
  5
30F
 10
498.696453
 20
106.261391
 30
0.0
 11
511.902499
 21
108.0
 31
0.0
  0
LINE
  8
LC-006-003-----0
  6
CONTINUOUS
  5
310
 10
511.902499
 20
108.0
 30
0.0
 11
498.696453
 21
109.738609
 31
0.0
  0
LINE
  8
LC-006-003-----0
  6
CONTINUOUS
  5
311
 10
498.656415
 20
106.872254
 30
0.0
 11
507.222499
 21
108.0
 31
0.0
  0
LINE
  8
LC-006-003-----0
  6
CONTINUOUS
  5
312
 10
507.222499
 20
108.0
 30
0.0
 11
498.656415
 21
109.127746
 31
0.0
  0
LINE
  8
LC-006-003-----0
  6
CONTINUOUS
  5
313
 10
498.616377
 20
107.483116
 30
0.0
 11
502.542499
 21
108.0
 31
0.0
  0
LINE
  8
LC-006-003-----0
  6
CONTINUOUS
  5
314
 10
502.542499
 20
108.0
 30
0.0
 11
498.616377
 21
108.516884
 31
0.0
  0
TEXT
  8
LC-006-003-----0
  6
CONTINUOUS
 62
     6
  5
315
 10
400.886406
 20
118.431999
 30
0.0
 40
18.0
  1
Ø188
 51
15.0
  7
LC-TXTSTYLE-150-400-0-0-D0
 72
     1
 11
425.377745
 21
118.431999
 31
0.0
  0
ENDBLK
  8
0
  5
316
  0
BLOCK
  8
0
  5
318
  2
*D30
 70
    65
 10
0.0
 20
0.0
 30
0.0
  3
*D30
  0
LINE
  8
LC-007-003-MTH-0
  6
CONTINUOUS
  5
319
 10
320.082499
 20
466.161947
 30
0.0
 11
320.082499
 21
61.2
 31
0.0
  0
LINE
  8
LC-007-003-MTH-0
  6
CONTINUOUS
  5
31A
 10
525.082499
 20
466.161947
 30
0.0
 11
525.082499
 21
61.2
 31
0.0
  0
LINE
  8
LC-008-003-MTG-0
  6
CONTINUOUS
  5
31B
 10
320.082499
 20
72.0
 30
0.0
 11
525.082499
 21
72.0
 31
0.0
  0
LINE
  8
LC-006-003-----0
  6
CONTINUOUS
  5
31C
 10
337.928507
 20
74.349471
 30
0.0
 11
320.082499
 21
72.0
 31
0.0
  0
LINE
  8
LC-006-003-----0
  6
CONTINUOUS
  5
31D
 10
320.082499
 20
72.0
 30
0.0
 11
337.928507
 21
69.650529
 31
0.0
  0
LINE
  8
LC-006-003-----0
  6
CONTINUOUS
  5
31E
 10
337.928507
 20
69.650529
 30
0.0
 11
337.928507
 21
74.349471
 31
0.0
  0
LINE
  8
LC-006-003-----0
  6
CONTINUOUS
  5
31F
 10
337.968545
 20
73.738609
 30
0.0
 11
324.762499
 21
72.0
 31
0.0
  0
LINE
  8
LC-006-003-----0
  6
CONTINUOUS
  5
320
 10
324.762499
 20
72.0
 30
0.0
 11
337.968545
 21
70.261391
 31
0.0
  0
LINE
  8
LC-006-003-----0
  6
CONTINUOUS
  5
321
 10
338.008583
 20
73.127746
 30
0.0
 11
329.442499
 21
72.0
 31
0.0
  0
LINE
  8
LC-006-003-----0
  6
CONTINUOUS
  5
322
 10
329.442499
 20
72.0
 30
0.0
 11
338.008583
 21
70.872254
 31
0.0
  0
LINE
  8
LC-006-003-----0
  6
CONTINUOUS
  5
323
 10
338.048621
 20
72.516884
 30
0.0
 11
334.122499
 21
72.0
 31
0.0
  0
LINE
  8
LC-006-003-----0
  6
CONTINUOUS
  5
324
 10
334.122499
 20
72.0
 30
0.0
 11
338.048621
 21
71.483116
 31
0.0
  0
LINE
  8
LC-006-003-----0
  6
CONTINUOUS
  5
325
 10
507.236492
 20
69.650529
 30
0.0
 11
525.082499
 21
72.0
 31
0.0
  0
LINE
  8
LC-006-003-----0
  6
CONTINUOUS
  5
326
 10
525.082499
 20
72.0
 30
0.0
 11
507.236492
 21
74.349471
 31
0.0
  0
LINE
  8
LC-006-003-----0
  6
CONTINUOUS
  5
327
 10
507.236492
 20
74.349471
 30
0.0
 11
507.236492
 21
69.650529
 31
0.0
  0
LINE
  8
LC-006-003-----0
  6
CONTINUOUS
  5
328
 10
507.196453
 20
70.261391
 30
0.0
 11
520.402499
 21
72.0
 31
0.0
  0
LINE
  8
LC-006-003-----0
  6
CONTINUOUS
  5
329
 10
520.402499
 20
72.0
 30
0.0
 11
507.196453
 21
73.738609
 31
0.0
  0
LINE
  8
LC-006-003-----0
  6
CONTINUOUS
  5
32A
 10
507.156415
 20
70.872254
 30
0.0
 11
515.722499
 21
72.0
 31
0.0
  0
LINE
  8
LC-006-003-----0
  6
CONTINUOUS
  5
32B
 10
515.722499
 20
72.0
 30
0.0
 11
507.156415
 21
73.127746
 31
0.0
  0
LINE
  8
LC-006-003-----0
  6
CONTINUOUS
  5
32C
 10
507.116377
 20
71.483116
 30
0.0
 11
511.042499
 21
72.0
 31
0.0
  0
LINE
  8
LC-006-003-----0
  6
CONTINUOUS
  5
32D
 10
511.042499
 20
72.0
 30
0.0
 11
507.116377
 21
72.516884
 31
0.0
  0
TEXT
  8
LC-006-003-----0
  6
CONTINUOUS
 62
     6
  5
32E
 10
400.886406
 20
82.431999
 30
0.0
 40
18.0
  1
Ø205
 51
15.0
  7
LC-TXTSTYLE-150-400-0-0-D0
 72
     1
 11
425.377745
 21
82.431999
 31
0.0
  0
ENDBLK
  8
0
  5
32F
  0
BLOCK
  8
0
  5
331
  2
*D31
 70
    65
 10
0.0
 20
0.0
 30
0.0
  3
*D31
  0
LINE
  8
LC-007-003-MTH-0
  6
CONTINUOUS
  5
332
 10
292.582499
 20
590.58443
 30
0.0
 11
292.582499
 21
690.8
 31
0.0
  0
LINE
  8
LC-007-003-MTH-0
  6
CONTINUOUS
  5
333
 10
552.582499
 20
596.08443
 30
0.0
 11
552.582499
 21
690.8
 31
0.0
  0
LINE
  8
LC-008-003-MTG-0
  6
CONTINUOUS
  5
334
 10
292.582499
 20
680.0
 30
0.0
 11
552.582499
 21
680.0
 31
0.0
  0
LINE
  8
LC-006-003-----0
  6
CONTINUOUS
  5
335
 10
310.428507
 20
682.349471
 30
0.0
 11
292.582499
 21
680.0
 31
0.0
  0
LINE
  8
LC-006-003-----0
  6
CONTINUOUS
  5
336
 10
292.582499
 20
680.0
 30
0.0
 11
310.428507
 21
677.650529
 31
0.0
  0
LINE
  8
LC-006-003-----0
  6
CONTINUOUS
  5
337
 10
310.428507
 20
677.650529
 30
0.0
 11
310.428507
 21
682.349471
 31
0.0
  0
LINE
  8
LC-006-003-----0
  6
CONTINUOUS
  5
338
 10
310.468545
 20
681.738609
 30
0.0
 11
297.262499
 21
680.0
 31
0.0
  0
LINE
  8
LC-006-003-----0
  6
CONTINUOUS
  5
339
 10
297.262499
 20
680.0
 30
0.0
 11
310.468545
 21
678.261391
 31
0.0
  0
LINE
  8
LC-006-003-----0
  6
CONTINUOUS
  5
33A
 10
310.508583
 20
681.127746
 30
0.0
 11
301.942499
 21
680.0
 31
0.0
  0
LINE
  8
LC-006-003-----0
  6
CONTINUOUS
  5
33B
 10
301.942499
 20
680.0
 30
0.0
 11
310.508583
 21
678.872254
 31
0.0
  0
LINE
  8
LC-006-003-----0
  6
CONTINUOUS
  5
33C
 10
310.548621
 20
680.516884
 30
0.0
 11
306.622499
 21
680.0
 31
0.0
  0
LINE
  8
LC-006-003-----0
  6
CONTINUOUS
  5
33D
 10
306.622499
 20
680.0
 30
0.0
 11
310.548621
 21
679.483116
 31
0.0
  0
LINE
  8
LC-006-003-----0
  6
CONTINUOUS
  5
33E
 10
534.736492
 20
677.650529
 30
0.0
 11
552.582499
 21
680.0
 31
0.0
  0
LINE
  8
LC-006-003-----0
  6
CONTINUOUS
  5
33F
 10
552.582499
 20
680.0
 30
0.0
 11
534.736492
 21
682.349471
 31
0.0
  0
LINE
  8
LC-006-003-----0
  6
CONTINUOUS
  5
340
 10
534.736492
 20
682.349471
 30
0.0
 11
534.736492
 21
677.650529
 31
0.0
  0
LINE
  8
LC-006-003-----0
  6
CONTINUOUS
  5
341
 10
534.696453
 20
678.261391
 30
0.0
 11
547.902499
 21
680.0
 31
0.0
  0
LINE
  8
LC-006-003-----0
  6
CONTINUOUS
  5
342
 10
547.902499
 20
680.0
 30
0.0
 11
534.696453
 21
681.738609
 31
0.0
  0
LINE
  8
LC-006-003-----0
  6
CONTINUOUS
  5
343
 10
534.656415
 20
678.872254
 30
0.0
 11
543.222499
 21
680.0
 31
0.0
  0
LINE
  8
LC-006-003-----0
  6
CONTINUOUS
  5
344
 10
543.222499
 20
680.0
 30
0.0
 11
534.656415
 21
681.127746
 31
0.0
  0
LINE
  8
LC-006-003-----0
  6
CONTINUOUS
  5
345
 10
534.616377
 20
679.483116
 30
0.0
 11
538.542499
 21
680.0
 31
0.0
  0
LINE
  8
LC-006-003-----0
  6
CONTINUOUS
  5
346
 10
538.542499
 20
680.0
 30
0.0
 11
534.616377
 21
680.516884
 31
0.0
  0
TEXT
  8
LC-006-003-----0
  6
CONTINUOUS
 62
     6
  5
347
 10
406.909904
 20
690.431999
 30
0.0
 40
18.0
  1
260
 51
15.0
  7
LC-TXTSTYLE-150-400-0-0-D0
 72
     1
 11
426.043762
 21
690.431999
 31
0.0
  0
ENDBLK
  8
0
  5
348
  0
BLOCK
  8
0
  5
34A
  2
*D32
 70
    65
 10
0.0
 20
0.0
 30
0.0
  3
*D32
  0
LINE
  8
LC-007-003-MTH-0
  6
CONTINUOUS
  5
34B
 10
339.461809
 20
303.161947
 30
0.0
 11
339.461809
 21
133.2
 31
0.0
  0
LINE
  8
LC-007-003-MTH-0
  6
CONTINUOUS
  5
34C
 10
505.703189
 20
303.161947
 30
0.0
 11
505.703189
 21
133.2
 31
0.0
  0
LINE
  8
LC-008-003-MTG-0
  6
CONTINUOUS
  5
34D
 10
339.461809
 20
144.0
 30
0.0
 11
505.703189
 21
144.0
 31
0.0
  0
LINE
  8
LC-006-003-----0
  6
CONTINUOUS
  5
34E
 10
357.307817
 20
146.349471
 30
0.0
 11
339.461809
 21
144.0
 31
0.0
  0
LINE
  8
LC-006-003-----0
  6
CONTINUOUS
  5
34F
 10
339.461809
 20
144.0
 30
0.0
 11
357.307817
 21
141.650529
 31
0.0
  0
LINE
  8
LC-006-003-----0
  6
CONTINUOUS
  5
350
 10
357.307817
 20
141.650529
 30
0.0
 11
357.307817
 21
146.349471
 31
0.0
  0
LINE
  8
LC-006-003-----0
  6
CONTINUOUS
  5
351
 10
357.347855
 20
145.738609
 30
0.0
 11
344.141809
 21
144.0
 31
0.0
  0
LINE
  8
LC-006-003-----0
  6
CONTINUOUS
  5
352
 10
344.141809
 20
144.0
 30
0.0
 11
357.347855
 21
142.261391
 31
0.0
  0
LINE
  8
LC-006-003-----0
  6
CONTINUOUS
  5
353
 10
357.387893
 20
145.127746
 30
0.0
 11
348.821809
 21
144.0
 31
0.0
  0
LINE
  8
LC-006-003-----0
  6
CONTINUOUS
  5
354
 10
348.821809
 20
144.0
 30
0.0
 11
357.387893
 21
142.872254
 31
0.0
  0
LINE
  8
LC-006-003-----0
  6
CONTINUOUS
  5
355
 10
357.427931
 20
144.516884
 30
0.0
 11
353.501809
 21
144.0
 31
0.0
  0
LINE
  8
LC-006-003-----0
  6
CONTINUOUS
  5
356
 10
353.501809
 20
144.0
 30
0.0
 11
357.427931
 21
143.483116
 31
0.0
  0
LINE
  8
LC-006-003-----0
  6
CONTINUOUS
  5
357
 10
487.857181
 20
141.650529
 30
0.0
 11
505.703189
 21
144.0
 31
0.0
  0
LINE
  8
LC-006-003-----0
  6
CONTINUOUS
  5
358
 10
505.703189
 20
144.0
 30
0.0
 11
487.857181
 21
146.349471
 31
0.0
  0
LINE
  8
LC-006-003-----0
  6
CONTINUOUS
  5
359
 10
487.857181
 20
146.349471
 30
0.0
 11
487.857181
 21
141.650529
 31
0.0
  0
LINE
  8
LC-006-003-----0
  6
CONTINUOUS
  5
35A
 10
487.817143
 20
142.261391
 30
0.0
 11
501.023189
 21
144.0
 31
0.0
  0
LINE
  8
LC-006-003-----0
  6
CONTINUOUS
  5
35B
 10
501.023189
 20
144.0
 30
0.0
 11
487.817143
 21
145.738609
 31
0.0
  0
LINE
  8
LC-006-003-----0
  6
CONTINUOUS
  5
35C
 10
487.777105
 20
142.872254
 30
0.0
 11
496.343189
 21
144.0
 31
0.0
  0
LINE
  8
LC-006-003-----0
  6
CONTINUOUS
  5
35D
 10
496.343189
 20
144.0
 30
0.0
 11
487.777105
 21
145.127746
 31
0.0
  0
LINE
  8
LC-006-003-----0
  6
CONTINUOUS
  5
35E
 10
487.737067
 20
143.483116
 30
0.0
 11
491.663189
 21
144.0
 31
0.0
  0
LINE
  8
LC-006-003-----0
  6
CONTINUOUS
  5
35F
 10
491.663189
 20
144.0
 30
0.0
 11
487.737067
 21
144.516884
 31
0.0
  0
TEXT
  8
LC-006-003-----0
  6
CONTINUOUS
 62
     6
  5
360
 10
400.886406
 20
154.431999
 30
0.0
 40
18.0
  1
Ø166
 51
15.0
  7
LC-TXTSTYLE-150-400-0-0-D0
 72
     1
 11
425.377745
 21
154.431999
 31
0.0
  0
ENDBLK
  8
0
  5
361
  0
BLOCK
  8
0
  5
363
  2
*D33
 70
    65
 10
0.0
 20
0.0
 30
0.0
  3
*D33
  0
LINE
  8
LC-007-003-MTH-0
  6
CONTINUOUS
  5
364
 10
295.582499
 20
587.58443
 30
0.0
 11
227.2
 21
587.58443
 31
0.0
  0
LINE
  8
LC-007-003-MTH-0
  6
CONTINUOUS
  5
365
 10
306.582499
 20
617.58443
 30
0.0
 11
227.2
 21
617.58443
 31
0.0
  0
LINE
  8
LC-006-003-----0
  6
CONTINUOUS
  5
366
 10
240.349471
 20
569.738422
 30
0.0
 11
238.0
 21
587.58443
 31
0.0
  0
LINE
  8
LC-006-003-----0
  6
CONTINUOUS
  5
367
 10
238.0
 20
587.58443
 30
0.0
 11
235.650529
 21
569.738422
 31
0.0
  0
LINE
  8
LC-006-003-----0
  6
CONTINUOUS
  5
368
 10
235.650529
 20
569.738422
 30
0.0
 11
240.349471
 21
569.738422
 31
0.0
  0
LINE
  8
LC-006-003-----0
  6
CONTINUOUS
  5
369
 10
239.738609
 20
569.698384
 30
0.0
 11
238.0
 21
582.90443
 31
0.0
  0
LINE
  8
LC-006-003-----0
  6
CONTINUOUS
  5
36A
 10
238.0
 20
582.90443
 30
0.0
 11
236.261391
 21
569.698384
 31
0.0
  0
LINE
  8
LC-006-003-----0
  6
CONTINUOUS
  5
36B
 10
239.127746
 20
569.658346
 30
0.0
 11
238.0
 21
578.22443
 31
0.0
  0
LINE
  8
LC-006-003-----0
  6
CONTINUOUS
  5
36C
 10
238.0
 20
578.22443
 30
0.0
 11
236.872254
 21
569.658346
 31
0.0
  0
LINE
  8
LC-006-003-----0
  6
CONTINUOUS
  5
36D
 10
238.516884
 20
569.618308
 30
0.0
 11
238.0
 21
573.54443
 31
0.0
  0
LINE
  8
LC-006-003-----0
  6
CONTINUOUS
  5
36E
 10
238.0
 20
573.54443
 30
0.0
 11
237.483116
 21
569.618308
 31
0.0
  0
LINE
  8
LC-006-003-----0
  6
CONTINUOUS
  5
36F
 10
235.650529
 20
635.430437
 30
0.0
 11
238.0
 21
617.58443
 31
0.0
  0
LINE
  8
LC-006-003-----0
  6
CONTINUOUS
  5
370
 10
238.0
 20
617.58443
 30
0.0
 11
240.349471
 21
635.430437
 31
0.0
  0
LINE
  8
LC-006-003-----0
  6
CONTINUOUS
  5
371
 10
240.349471
 20
635.430437
 30
0.0
 11
235.650529
 21
635.430437
 31
0.0
  0
LINE
  8
LC-006-003-----0
  6
CONTINUOUS
  5
372
 10
236.261391
 20
635.470475
 30
0.0
 11
238.0
 21
622.26443
 31
0.0
  0
LINE
  8
LC-006-003-----0
  6
CONTINUOUS
  5
373
 10
238.0
 20
622.26443
 30
0.0
 11
239.738609
 21
635.470475
 31
0.0
  0
LINE
  8
LC-006-003-----0
  6
CONTINUOUS
  5
374
 10
236.872254
 20
635.510513
 30
0.0
 11
238.0
 21
626.94443
 31
0.0
  0
LINE
  8
LC-006-003-----0
  6
CONTINUOUS
  5
375
 10
238.0
 20
626.94443
 30
0.0
 11
239.127746
 21
635.510513
 31
0.0
  0
LINE
  8
LC-006-003-----0
  6
CONTINUOUS
  5
376
 10
237.483116
 20
635.550551
 30
0.0
 11
238.0
 21
631.62443
 31
0.0
  0
LINE
  8
LC-006-003-----0
  6
CONTINUOUS
  5
377
 10
238.0
 20
631.62443
 30
0.0
 11
238.516884
 21
635.550551
 31
0.0
  0
LINE
  8
LC-008-003-MTG-0
  6
CONTINUOUS
  5
378
 10
238.0
 20
562.38443
 30
0.0
 11
238.0
 21
675.586949
 31
0.0
  0
TEXT
  8
LC-006-003-----0
  6
CONTINUOUS
 62
     6
  5
379
 10
227.568001
 20
644.859675
 30
0.0
 40
18.0
  1
28
 50
90.0
 51
15.0
  7
LC-TXTSTYLE-150-400-0-0-D0
  0
ENDBLK
  8
0
  5
37A
  0
BLOCK
  8
0
  5
37C
  2
*X34
 70
    65
 10
623.282499
 20
494.789769
 30
0.0
  3
*X34
  0
LINE
  8
LC-004-005-----0
  6
CONTINUOUS
  5
37D
 10
633.099855
 20
494.789769
 30
0.0
 11
633.282499
 21
494.972413
 31
0.0
  0
LINE
  8
LC-004-005-----0
  6
CONTINUOUS
  5
37E
 10
632.817012
 20
494.789769
 30
0.0
 11
633.282499
 21
495.255255
 31
0.0
  0
LINE
  8
LC-004-005-----0
  6
CONTINUOUS
  5
37F
 10
632.534169
 20
494.789769
 30
0.0
 11
633.282499
 21
495.538098
 31
0.0
  0
LINE
  8
LC-004-005-----0
  6
CONTINUOUS
  5
380
 10
632.251327
 20
494.789769
 30
0.0
 11
633.282499
 21
495.820941
 31
0.0
  0
LINE
  8
LC-004-005-----0
  6
CONTINUOUS
  5
381
 10
631.968484
 20
494.789769
 30
0.0
 11
633.282499
 21
496.103783
 31
0.0
  0
LINE
  8
LC-004-005-----0
  6
CONTINUOUS
  5
382
 10
631.685641
 20
494.789769
 30
0.0
 11
633.282499
 21
496.386626
 31
0.0
  0
LINE
  8
LC-004-005-----0
  6
CONTINUOUS
  5
383
 10
631.402799
 20
494.789769
 30
0.0
 11
633.282499
 21
496.669469
 31
0.0
  0
LINE
  8
LC-004-005-----0
  6
CONTINUOUS
  5
384
 10
631.119956
 20
494.789769
 30
0.0
 11
633.282499
 21
496.952312
 31
0.0
  0
LINE
  8
LC-004-005-----0
  6
CONTINUOUS
  5
385
 10
630.837113
 20
494.789769
 30
0.0
 11
633.282499
 21
497.235154
 31
0.0
  0
LINE
  8
LC-004-005-----0
  6
CONTINUOUS
  5
386
 10
630.554271
 20
494.789769
 30
0.0
 11
633.282499
 21
497.517997
 31
0.0
  0
LINE
  8
LC-004-005-----0
  6
CONTINUOUS
  5
387
 10
630.271428
 20
494.789769
 30
0.0
 11
633.282499
 21
497.80084
 31
0.0
  0
LINE
  8
LC-004-005-----0
  6
CONTINUOUS
  5
388
 10
629.988585
 20
494.789769
 30
0.0
 11
633.282499
 21
498.083682
 31
0.0
  0
LINE
  8
LC-004-005-----0
  6
CONTINUOUS
  5
389
 10
629.705742
 20
494.789769
 30
0.0
 11
633.205742
 21
498.289769
 31
0.0
  0
LINE
  8
LC-004-005-----0
  6
CONTINUOUS
  5
38A
 10
629.4229
 20
494.789769
 30
0.0
 11
632.9229
 21
498.289769
 31
0.0
  0
LINE
  8
LC-004-005-----0
  6
CONTINUOUS
  5
38B
 10
629.140057
 20
494.789769
 30
0.0
 11
632.640057
 21
498.289769
 31
0.0
  0
LINE
  8
LC-004-005-----0
  6
CONTINUOUS
  5
38C
 10
628.857214
 20
494.789769
 30
0.0
 11
632.357214
 21
498.289769
 31
0.0
  0
LINE
  8
LC-004-005-----0
  6
CONTINUOUS
  5
38D
 10
628.574372
 20
494.789769
 30
0.0
 11
632.074372
 21
498.289769
 31
0.0
  0
LINE
  8
LC-004-005-----0
  6
CONTINUOUS
  5
38E
 10
628.291529
 20
494.789769
 30
0.0
 11
631.791529
 21
498.289769
 31
0.0
  0
LINE
  8
LC-004-005-----0
  6
CONTINUOUS
  5
38F
 10
628.008686
 20
494.789769
 30
0.0
 11
631.508686
 21
498.289769
 31
0.0
  0
LINE
  8
LC-004-005-----0
  6
CONTINUOUS
  5
390
 10
627.725843
 20
494.789769
 30
0.0
 11
631.225843
 21
498.289769
 31
0.0
  0
LINE
  8
LC-004-005-----0
  6
CONTINUOUS
  5
391
 10
627.443001
 20
494.789769
 30
0.0
 11
630.943001
 21
498.289769
 31
0.0
  0
LINE
  8
LC-004-005-----0
  6
CONTINUOUS
  5
392
 10
627.160158
 20
494.789769
 30
0.0
 11
630.660158
 21
498.289769
 31
0.0
  0
LINE
  8
LC-004-005-----0
  6
CONTINUOUS
  5
393
 10
626.877315
 20
494.789769
 30
0.0
 11
630.377315
 21
498.289769
 31
0.0
  0
LINE
  8
LC-004-005-----0
  6
CONTINUOUS
  5
394
 10
626.594473
 20
494.789769
 30
0.0
 11
630.094473
 21
498.289769
 31
0.0
  0
LINE
  8
LC-004-005-----0
  6
CONTINUOUS
  5
395
 10
626.31163
 20
494.789769
 30
0.0
 11
629.81163
 21
498.289769
 31
0.0
  0
LINE
  8
LC-004-005-----0
  6
CONTINUOUS
  5
396
 10
626.028787
 20
494.789769
 30
0.0
 11
629.528787
 21
498.289769
 31
0.0
  0
LINE
  8
LC-004-005-----0
  6
CONTINUOUS
  5
397
 10
625.745944
 20
494.789769
 30
0.0
 11
629.245944
 21
498.289769
 31
0.0
  0
LINE
  8
LC-004-005-----0
  6
CONTINUOUS
  5
398
 10
625.463102
 20
494.789769
 30
0.0
 11
628.963102
 21
498.289769
 31
0.0
  0
LINE
  8
LC-004-005-----0
  6
CONTINUOUS
  5
399
 10
625.180259
 20
494.789769
 30
0.0
 11
628.680259
 21
498.289769
 31
0.0
  0
LINE
  8
LC-004-005-----0
  6
CONTINUOUS
  5
39A
 10
624.897416
 20
494.789769
 30
0.0
 11
628.397416
 21
498.289769
 31
0.0
  0
LINE
  8
LC-004-005-----0
  6
CONTINUOUS
  5
39B
 10
624.614574
 20
494.789769
 30
0.0
 11
628.114574
 21
498.289769
 31
0.0
  0
LINE
  8
LC-004-005-----0
  6
CONTINUOUS
  5
39C
 10
624.331731
 20
494.789769
 30
0.0
 11
627.831731
 21
498.289769
 31
0.0
  0
LINE
  8
LC-004-005-----0
  6
CONTINUOUS
  5
39D
 10
624.048888
 20
494.789769
 30
0.0
 11
627.548888
 21
498.289769
 31
0.0
  0
LINE
  8
LC-004-005-----0
  6
CONTINUOUS
  5
39E
 10
623.766045
 20
494.789769
 30
0.0
 11
627.266045
 21
498.289769
 31
0.0
  0
LINE
  8
LC-004-005-----0
  6
CONTINUOUS
  5
39F
 10
623.483203
 20
494.789769
 30
0.0
 11
626.983203
 21
498.289769
 31
0.0
  0
LINE
  8
LC-004-005-----0
  6
CONTINUOUS
  5
3A0
 10
623.282499
 20
494.871908
 30
0.0
 11
626.70036
 21
498.289769
 31
0.0
  0
LINE
  8
LC-004-005-----0
  6
CONTINUOUS
  5
3A1
 10
623.282499
 20
495.15475
 30
0.0
 11
626.417517
 21
498.289769
 31
0.0
  0
LINE
  8
LC-004-005-----0
  6
CONTINUOUS
  5
3A2
 10
623.282499
 20
495.437593
 30
0.0
 11
626.134675
 21
498.289769
 31
0.0
  0
LINE
  8
LC-004-005-----0
  6
CONTINUOUS
  5
3A3
 10
623.282499
 20
495.720436
 30
0.0
 11
625.851832
 21
498.289769
 31
0.0
  0
LINE
  8
LC-004-005-----0
  6
CONTINUOUS
  5
3A4
 10
623.282499
 20
496.003278
 30
0.0
 11
625.568989
 21
498.289769
 31
0.0
  0
LINE
  8
LC-004-005-----0
  6
CONTINUOUS
  5
3A5
 10
623.282499
 20
496.286121
 30
0.0
 11
625.286146
 21
498.289769
 31
0.0
  0
LINE
  8
LC-004-005-----0
  6
CONTINUOUS
  5
3A6
 10
623.282499
 20
496.568964
 30
0.0
 11
625.003304
 21
498.289769
 31
0.0
  0
LINE
  8
LC-004-005-----0
  6
CONTINUOUS
  5
3A7
 10
623.282499
 20
496.851807
 30
0.0
 11
624.720461
 21
498.289769
 31
0.0
  0
LINE
  8
LC-004-005-----0
  6
CONTINUOUS
  5
3A8
 10
623.282499
 20
497.134649
 30
0.0
 11
624.437618
 21
498.289769
 31
0.0
  0
LINE
  8
LC-004-005-----0
  6
CONTINUOUS
  5
3A9
 10
623.282499
 20
497.417492
 30
0.0
 11
624.154776
 21
498.289769
 31
0.0
  0
LINE
  8
LC-004-005-----0
  6
CONTINUOUS
  5
3AA
 10
623.282499
 20
497.700335
 30
0.0
 11
623.871933
 21
498.289769
 31
0.0
  0
LINE
  8
LC-004-005-----0
  6
CONTINUOUS
  5
3AB
 10
623.282499
 20
497.983177
 30
0.0
 11
623.58909
 21
498.289769
 31
0.0
  0
LINE
  8
LC-004-005-----0
  6
CONTINUOUS
  5
3AC
 10
623.282499
 20
498.26602
 30
0.0
 11
623.306247
 21
498.289769
 31
0.0
  0
ENDBLK
  8
0
  5
3AD
  0
BLOCK
  8
0
  5
3AF
  2
*X35
 70
    65
 10
603.282499
 20
494.368657
 30
0.0
  3
*X35
  0
LINE
  8
LC-004-005-----0
  6
CONTINUOUS
  5
3B0
 10
613.018022
 20
494.789769
 30
0.0
 11
613.282499
 21
495.054245
 31
0.0
  0
LINE
  8
LC-004-005-----0
  6
CONTINUOUS
  5
3B1
 10
612.73518
 20
494.789769
 30
0.0
 11
613.282499
 21
495.337088
 31
0.0
  0
LINE
  8
LC-004-005-----0
  6
CONTINUOUS
  5
3B2
 10
612.452337
 20
494.789769
 30
0.0
 11
613.282499
 21
495.619931
 31
0.0
  0
LINE
  8
LC-004-005-----0
  6
CONTINUOUS
  5
3B3
 10
612.169494
 20
494.789769
 30
0.0
 11
613.282499
 21
495.902773
 31
0.0
  0
LINE
  8
LC-004-005-----0
  6
CONTINUOUS
  5
3B4
 10
611.886651
 20
494.789769
 30
0.0
 11
613.282499
 21
496.185616
 31
0.0
  0
LINE
  8
LC-004-005-----0
  6
CONTINUOUS
  5
3B5
 10
611.603809
 20
494.789769
 30
0.0
 11
613.282499
 21
496.468459
 31
0.0
  0
LINE
  8
LC-004-005-----0
  6
CONTINUOUS
  5
3B6
 10
611.320966
 20
494.789769
 30
0.0
 11
613.282499
 21
496.751302
 31
0.0
  0
LINE
  8
LC-004-005-----0
  6
CONTINUOUS
  5
3B7
 10
611.038123
 20
494.789769
 30
0.0
 11
613.282499
 21
497.034144
 31
0.0
  0
LINE
  8
LC-004-005-----0
  6
CONTINUOUS
  5
3B8
 10
610.755281
 20
494.789769
 30
0.0
 11
613.282499
 21
497.316987
 31
0.0
  0
LINE
  8
LC-004-005-----0
  6
CONTINUOUS
  5
3B9
 10
610.472438
 20
494.789769
 30
0.0
 11
613.282499
 21
497.59983
 31
0.0
  0
LINE
  8
LC-004-005-----0
  6
CONTINUOUS
  5
3BA
 10
610.189595
 20
494.789769
 30
0.0
 11
613.282499
 21
497.882672
 31
0.0
  0
LINE
  8
LC-004-005-----0
  6
CONTINUOUS
  5
3BB
 10
609.906752
 20
494.789769
 30
0.0
 11
613.282499
 21
498.165515
 31
0.0
  0
LINE
  8
LC-004-005-----0
  6
CONTINUOUS
  5
3BC
 10
609.62391
 20
494.789769
 30
0.0
 11
613.12391
 21
498.289769
 31
0.0
  0
LINE
  8
LC-004-005-----0
  6
CONTINUOUS
  5
3BD
 10
609.341067
 20
494.789769
 30
0.0
 11
612.841067
 21
498.289769
 31
0.0
  0
LINE
  8
LC-004-005-----0
  6
CONTINUOUS
  5
3BE
 10
609.058224
 20
494.789769
 30
0.0
 11
612.558224
 21
498.289769
 31
0.0
  0
LINE
  8
LC-004-005-----0
  6
CONTINUOUS
  5
3BF
 10
608.775382
 20
494.789769
 30
0.0
 11
612.275382
 21
498.289769
 31
0.0
  0
LINE
  8
LC-004-005-----0
  6
CONTINUOUS
  5
3C0
 10
608.492539
 20
494.789769
 30
0.0
 11
611.992539
 21
498.289769
 31
0.0
  0
LINE
  8
LC-004-005-----0
  6
CONTINUOUS
  5
3C1
 10
608.209696
 20
494.789769
 30
0.0
 11
611.709696
 21
498.289769
 31
0.0
  0
LINE
  8
LC-004-005-----0
  6
CONTINUOUS
  5
3C2
 10
607.926854
 20
494.789769
 30
0.0
 11
611.426854
 21
498.289769
 31
0.0
  0
LINE
  8
LC-004-005-----0
  6
CONTINUOUS
  5
3C3
 10
607.644011
 20
494.789769
 30
0.0
 11
611.144011
 21
498.289769
 31
0.0
  0
LINE
  8
LC-004-005-----0
  6
CONTINUOUS
  5
3C4
 10
607.361168
 20
494.789769
 30
0.0
 11
610.861168
 21
498.289769
 31
0.0
  0
LINE
  8
LC-004-005-----0
  6
CONTINUOUS
  5
3C5
 10
607.078325
 20
494.789769
 30
0.0
 11
610.578325
 21
498.289769
 31
0.0
  0
LINE
  8
LC-004-005-----0
  6
CONTINUOUS
  5
3C6
 10
606.795483
 20
494.789769
 30
0.0
 11
610.295483
 21
498.289769
 31
0.0
  0
LINE
  8
LC-004-005-----0
  6
CONTINUOUS
  5
3C7
 10
606.51264
 20
494.789769
 30
0.0
 11
610.01264
 21
498.289769
 31
0.0
  0
LINE
  8
LC-004-005-----0
  6
CONTINUOUS
  5
3C8
 10
606.229797
 20
494.789769
 30
0.0
 11
609.729797
 21
498.289769
 31
0.0
  0
LINE
  8
LC-004-005-----0
  6
CONTINUOUS
  5
3C9
 10
605.946955
 20
494.789769
 30
0.0
 11
609.446955
 21
498.289769
 31
0.0
  0
LINE
  8
LC-004-005-----0
  6
CONTINUOUS
  5
3CA
 10
605.662693
 20
494.788349
 30
0.0
 11
609.164112
 21
498.289769
 31
0.0
  0
LINE
  8
LC-004-005-----0
  6
CONTINUOUS
  5
3CB
 10
605.319301
 20
494.7278
 30
0.0
 11
608.881269
 21
498.289769
 31
0.0
  0
LINE
  8
LC-004-005-----0
  6
CONTINUOUS
  5
3CC
 10
604.975909
 20
494.667251
 30
0.0
 11
608.598426
 21
498.289769
 31
0.0
  0
LINE
  8
LC-004-005-----0
  6
CONTINUOUS
  5
3CD
 10
604.632517
 20
494.606702
 30
0.0
 11
608.315584
 21
498.289769
 31
0.0
  0
LINE
  8
LC-004-005-----0
  6
CONTINUOUS
  5
3CE
 10
604.289125
 20
494.546152
 30
0.0
 11
608.032741
 21
498.289769
 31
0.0
  0
LINE
  8
LC-004-005-----0
  6
CONTINUOUS
  5
3CF
 10
603.945733
 20
494.485603
 30
0.0
 11
607.749898
 21
498.289769
 31
0.0
  0
LINE
  8
LC-004-005-----0
  6
CONTINUOUS
  5
3D0
 10
603.602341
 20
494.425054
 30
0.0
 11
607.467056
 21
498.289769
 31
0.0
  0
LINE
  8
LC-004-005-----0
  6
CONTINUOUS
  5
3D1
 10
603.282499
 20
494.388055
 30
0.0
 11
607.184213
 21
498.289769
 31
0.0
  0
LINE
  8
LC-004-005-----0
  6
CONTINUOUS
  5
3D2
 10
603.282499
 20
494.670897
 30
0.0
 11
606.90137
 21
498.289769
 31
0.0
  0
LINE
  8
LC-004-005-----0
  6
CONTINUOUS
  5
3D3
 10
603.282499
 20
494.95374
 30
0.0
 11
606.618527
 21
498.289769
 31
0.0
  0
LINE
  8
LC-004-005-----0
  6
CONTINUOUS
  5
3D4
 10
603.282499
 20
495.236583
 30
0.0
 11
606.335685
 21
498.289769
 31
0.0
  0
LINE
  8
LC-004-005-----0
  6
CONTINUOUS
  5
3D5
 10
603.282499
 20
495.519426
 30
0.0
 11
606.052842
 21
498.289769
 31
0.0
  0
LINE
  8
LC-004-005-----0
  6
CONTINUOUS
  5
3D6
 10
603.282499
 20
495.802268
 30
0.0
 11
605.769999
 21
498.289769
 31
0.0
  0
LINE
  8
LC-004-005-----0
  6
CONTINUOUS
  5
3D7
 10
603.282499
 20
496.085111
 30
0.0
 11
605.487157
 21
498.289769
 31
0.0
  0
LINE
  8
LC-004-005-----0
  6
CONTINUOUS
  5
3D8
 10
603.282499
 20
496.367954
 30
0.0
 11
605.170016
 21
498.25547
 31
0.0
  0
LINE
  8
LC-004-005-----0
  6
CONTINUOUS
  5
3D9
 10
603.282499
 20
496.650796
 30
0.0
 11
604.826624
 21
498.194921
 31
0.0
  0
LINE
  8
LC-004-005-----0
  6
CONTINUOUS
  5
3DA
 10
603.282499
 20
496.933639
 30
0.0
 11
604.483232
 21
498.134372
 31
0.0
  0
LINE
  8
LC-004-005-----0
  6
CONTINUOUS
  5
3DB
 10
603.282499
 20
497.216482
 30
0.0
 11
604.13984
 21
498.073822
 31
0.0
  0
LINE
  8
LC-004-005-----0
  6
CONTINUOUS
  5
3DC
 10
603.282499
 20
497.499325
 30
0.0
 11
603.796448
 21
498.013273
 31
0.0
  0
LINE
  8
LC-004-005-----0
  6
CONTINUOUS
  5
3DD
 10
603.282499
 20
497.782167
 30
0.0
 11
603.453056
 21
497.952724
 31
0.0
  0
ENDBLK
  8
0
  5
3DE
  0
BLOCK
  8
0
  5
3E0
  2
*X36
 70
    65
 10
583.282499
 20
490.842117
 30
0.0
  3
*X36
  0
LINE
  8
LC-004-005-----0
  6
CONTINUOUS
  5
3E1
 10
592.957189
 20
492.548026
 30
0.0
 11
593.282499
 21
492.873336
 31
0.0
  0
LINE
  8
LC-004-005-----0
  6
CONTINUOUS
  5
3E2
 10
592.613797
 20
492.487477
 30
0.0
 11
593.282499
 21
493.156179
 31
0.0
  0
LINE
  8
LC-004-005-----0
  6
CONTINUOUS
  5
3E3
 10
592.270405
 20
492.426928
 30
0.0
 11
593.282499
 21
493.439022
 31
0.0
  0
LINE
  8
LC-004-005-----0
  6
CONTINUOUS
  5
3E4
 10
591.927013
 20
492.366379
 30
0.0
 11
593.282499
 21
493.721864
 31
0.0
  0
LINE
  8
LC-004-005-----0
  6
CONTINUOUS
  5
3E5
 10
591.583621
 20
492.305829
 30
0.0
 11
593.282499
 21
494.004707
 31
0.0
  0
LINE
  8
LC-004-005-----0
  6
CONTINUOUS
  5
3E6
 10
591.240229
 20
492.24528
 30
0.0
 11
593.282499
 21
494.28755
 31
0.0
  0
LINE
  8
LC-004-005-----0
  6
CONTINUOUS
  5
3E7
 10
590.896837
 20
492.184731
 30
0.0
 11
593.282499
 21
494.570392
 31
0.0
  0
LINE
  8
LC-004-005-----0
  6
CONTINUOUS
  5
3E8
 10
590.553445
 20
492.124181
 30
0.0
 11
593.282499
 21
494.853235
 31
0.0
  0
LINE
  8
LC-004-005-----0
  6
CONTINUOUS
  5
3E9
 10
590.210053
 20
492.063632
 30
0.0
 11
593.282499
 21
495.136078
 31
0.0
  0
LINE
  8
LC-004-005-----0
  6
CONTINUOUS
  5
3EA
 10
589.866661
 20
492.003083
 30
0.0
 11
593.282499
 21
495.418921
 31
0.0
  0
LINE
  8
LC-004-005-----0
  6
CONTINUOUS
  5
3EB
 10
589.523269
 20
491.942534
 30
0.0
 11
593.282499
 21
495.701763
 31
0.0
  0
LINE
  8
LC-004-005-----0
  6
CONTINUOUS
  5
3EC
 10
589.179877
 20
491.881984
 30
0.0
 11
593.282499
 21
495.984606
 31
0.0
  0
LINE
  8
LC-004-005-----0
  6
CONTINUOUS
  5
3ED
 10
588.836485
 20
491.821435
 30
0.0
 11
593.151296
 21
496.136246
 31
0.0
  0
LINE
  8
LC-004-005-----0
  6
CONTINUOUS
  5
3EE
 10
588.493093
 20
491.760886
 30
0.0
 11
592.807904
 21
496.075697
 31
0.0
  0
LINE
  8
LC-004-005-----0
  6
CONTINUOUS
  5
3EF
 10
588.149702
 20
491.700337
 30
0.0
 11
592.464512
 21
496.015147
 31
0.0
  0
LINE
  8
LC-004-005-----0
  6
CONTINUOUS
  5
3F0
 10
587.80631
 20
491.639787
 30
0.0
 11
592.12112
 21
495.954598
 31
0.0
  0
LINE
  8
LC-004-005-----0
  6
CONTINUOUS
  5
3F1
 10
587.462918
 20
491.579238
 30
0.0
 11
591.777728
 21
495.894049
 31
0.0
  0
LINE
  8
LC-004-005-----0
  6
CONTINUOUS
  5
3F2
 10
587.119526
 20
491.518689
 30
0.0
 11
591.434336
 21
495.833499
 31
0.0
  0
LINE
  8
LC-004-005-----0
  6
CONTINUOUS
  5
3F3
 10
586.776134
 20
491.458139
 30
0.0
 11
591.090944
 21
495.77295
 31
0.0
  0
LINE
  8
LC-004-005-----0
  6
CONTINUOUS
  5
3F4
 10
586.432742
 20
491.39759
 30
0.0
 11
590.747552
 21
495.712401
 31
0.0
  0
LINE
  8
LC-004-005-----0
  6
CONTINUOUS
  5
3F5
 10
586.08935
 20
491.337041
 30
0.0
 11
590.40416
 21
495.651852
 31
0.0
  0
LINE
  8
LC-004-005-----0
  6
CONTINUOUS
  5
3F6
 10
585.745958
 20
491.276492
 30
0.0
 11
590.060768
 21
495.591302
 31
0.0
  0
LINE
  8
LC-004-005-----0
  6
CONTINUOUS
  5
3F7
 10
585.402566
 20
491.215942
 30
0.0
 11
589.717376
 21
495.530753
 31
0.0
  0
LINE
  8
LC-004-005-----0
  6
CONTINUOUS
  5
3F8
 10
585.059174
 20
491.155393
 30
0.0
 11
589.373984
 21
495.470204
 31
0.0
  0
LINE
  8
LC-004-005-----0
  6
CONTINUOUS
  5
3F9
 10
584.715782
 20
491.094844
 30
0.0
 11
589.030592
 21
495.409655
 31
0.0
  0
LINE
  8
LC-004-005-----0
  6
CONTINUOUS
  5
3FA
 10
584.37239
 20
491.034295
 30
0.0
 11
588.6872
 21
495.349105
 31
0.0
  0
LINE
  8
LC-004-005-----0
  6
CONTINUOUS
  5
3FB
 10
584.028998
 20
490.973745
 30
0.0
 11
588.343808
 21
495.288556
 31
0.0
  0
LINE
  8
LC-004-005-----0
  6
CONTINUOUS
  5
3FC
 10
583.685606
 20
490.913196
 30
0.0
 11
588.000416
 21
495.228007
 31
0.0
  0
LINE
  8
LC-004-005-----0
  6
CONTINUOUS
  5
3FD
 10
583.342214
 20
490.852647
 30
0.0
 11
587.657024
 21
495.167457
 31
0.0
  0
LINE
  8
LC-004-005-----0
  6
CONTINUOUS
  5
3FE
 10
583.282499
 20
491.075775
 30
0.0
 11
587.313632
 21
495.106908
 31
0.0
  0
LINE
  8
LC-004-005-----0
  6
CONTINUOUS
  5
3FF
 10
583.282499
 20
491.358617
 30
0.0
 11
586.97024
 21
495.046359
 31
0.0
  0
LINE
  8
LC-004-005-----0
  6
CONTINUOUS
  5
400
 10
583.282499
 20
491.64146
 30
0.0
 11
586.626848
 21
494.98581
 31
0.0
  0
LINE
  8
LC-004-005-----0
  6
CONTINUOUS
  5
401
 10
583.282499
 20
491.924303
 30
0.0
 11
586.283456
 21
494.92526
 31
0.0
  0
LINE
  8
LC-004-005-----0
  6
CONTINUOUS
  5
402
 10
583.282499
 20
492.207146
 30
0.0
 11
585.940064
 21
494.864711
 31
0.0
  0
LINE
  8
LC-004-005-----0
  6
CONTINUOUS
  5
403
 10
583.282499
 20
492.489988
 30
0.0
 11
585.596673
 21
494.804162
 31
0.0
  0
LINE
  8
LC-004-005-----0
  6
CONTINUOUS
  5
404
 10
583.282499
 20
492.772831
 30
0.0
 11
585.253281
 21
494.743613
 31
0.0
  0
LINE
  8
LC-004-005-----0
  6
CONTINUOUS
  5
405
 10
583.282499
 20
493.055674
 30
0.0
 11
584.909889
 21
494.683063
 31
0.0
  0
LINE
  8
LC-004-005-----0
  6
CONTINUOUS
  5
406
 10
583.282499
 20
493.338516
 30
0.0
 11
584.566497
 21
494.622514
 31
0.0
  0
LINE
  8
LC-004-005-----0
  6
CONTINUOUS
  5
407
 10
583.282499
 20
493.621359
 30
0.0
 11
584.223105
 21
494.561965
 31
0.0
  0
LINE
  8
LC-004-005-----0
  6
CONTINUOUS
  5
408
 10
583.282499
 20
493.904202
 30
0.0
 11
583.879713
 21
494.501415
 31
0.0
  0
LINE
  8
LC-004-005-----0
  6
CONTINUOUS
  5
409
 10
583.282499
 20
494.187045
 30
0.0
 11
583.536321
 21
494.440866
 31
0.0
  0
ENDBLK
  8
0
  5
40A
  0
BLOCK
  8
0
  5
40C
  2
*X37
 70
    65
 10
563.282499
 20
488.161947
 30
0.0
  3
*X37
  0
LINE
  8
LC-004-005-----0
  6
CONTINUOUS
  5
40D
 10
573.040454
 20
489.036169
 30
0.0
 11
573.282499
 21
489.278213
 31
0.0
  0
LINE
  8
LC-004-005-----0
  6
CONTINUOUS
  5
40E
 10
572.697062
 20
488.975619
 30
0.0
 11
573.282499
 21
489.561056
 31
0.0
  0
LINE
  8
LC-004-005-----0
  6
CONTINUOUS
  5
40F
 10
572.35367
 20
488.91507
 30
0.0
 11
573.282499
 21
489.843899
 31
0.0
  0
LINE
  8
LC-004-005-----0
  6
CONTINUOUS
  5
410
 10
572.010278
 20
488.854521
 30
0.0
 11
573.282499
 21
490.126742
 31
0.0
  0
LINE
  8
LC-004-005-----0
  6
CONTINUOUS
  5
411
 10
571.666886
 20
488.793972
 30
0.0
 11
573.282499
 21
490.409584
 31
0.0
  0
LINE
  8
LC-004-005-----0
  6
CONTINUOUS
  5
412
 10
571.323494
 20
488.733422
 30
0.0
 11
573.282499
 21
490.692427
 31
0.0
  0
LINE
  8
LC-004-005-----0
  6
CONTINUOUS
  5
413
 10
570.980102
 20
488.672873
 30
0.0
 11
573.282499
 21
490.97527
 31
0.0
  0
LINE
  8
LC-004-005-----0
  6
CONTINUOUS
  5
414
 10
570.63671
 20
488.612324
 30
0.0
 11
573.282499
 21
491.258112
 31
0.0
  0
LINE
  8
LC-004-005-----0
  6
CONTINUOUS
  5
415
 10
570.293318
 20
488.551774
 30
0.0
 11
573.282499
 21
491.540955
 31
0.0
  0
LINE
  8
LC-004-005-----0
  6
CONTINUOUS
  5
416
 10
569.949926
 20
488.491225
 30
0.0
 11
573.282499
 21
491.823798
 31
0.0
  0
LINE
  8
LC-004-005-----0
  6
CONTINUOUS
  5
417
 10
569.606534
 20
488.430676
 30
0.0
 11
573.282499
 21
492.106641
 31
0.0
  0
LINE
  8
LC-004-005-----0
  6
CONTINUOUS
  5
418
 10
569.263142
 20
488.370127
 30
0.0
 11
573.282499
 21
492.389483
 31
0.0
  0
LINE
  8
LC-004-005-----0
  6
CONTINUOUS
  5
419
 10
568.91975
 20
488.309577
 30
0.0
 11
573.234561
 21
492.624388
 31
0.0
  0
LINE
  8
LC-004-005-----0
  6
CONTINUOUS
  5
41A
 10
568.576358
 20
488.249028
 30
0.0
 11
572.891169
 21
492.563839
 31
0.0
  0
LINE
  8
LC-004-005-----0
  6
CONTINUOUS
  5
41B
 10
568.232966
 20
488.188479
 30
0.0
 11
572.547777
 21
492.503289
 31
0.0
  0
LINE
  8
LC-004-005-----0
  6
CONTINUOUS
  5
41C
 10
567.923592
 20
488.161947
 30
0.0
 11
572.204385
 21
492.44274
 31
0.0
  0
LINE
  8
LC-004-005-----0
  6
CONTINUOUS
  5
41D
 10
567.64075
 20
488.161947
 30
0.0
 11
571.860993
 21
492.382191
 31
0.0
  0
LINE
  8
LC-004-005-----0
  6
CONTINUOUS
  5
41E
 10
567.357907
 20
488.161947
 30
0.0
 11
571.517601
 21
492.321642
 31
0.0
  0
LINE
  8
LC-004-005-----0
  6
CONTINUOUS
  5
41F
 10
567.075064
 20
488.161947
 30
0.0
 11
571.174209
 21
492.261092
 31
0.0
  0
LINE
  8
LC-004-005-----0
  6
CONTINUOUS
  5
420
 10
566.792221
 20
488.161947
 30
0.0
 11
570.830817
 21
492.200543
 31
0.0
  0
LINE
  8
LC-004-005-----0
  6
CONTINUOUS
  5
421
 10
566.509379
 20
488.161947
 30
0.0
 11
570.487425
 21
492.139994
 31
0.0
  0
LINE
  8
LC-004-005-----0
  6
CONTINUOUS
  5
422
 10
566.226536
 20
488.161947
 30
0.0
 11
570.144033
 21
492.079445
 31
0.0
  0
LINE
  8
LC-004-005-----0
  6
CONTINUOUS
  5
423
 10
565.943693
 20
488.161947
 30
0.0
 11
569.800641
 21
492.018895
 31
0.0
  0
LINE
  8
LC-004-005-----0
  6
CONTINUOUS
  5
424
 10
565.660851
 20
488.161947
 30
0.0
 11
569.457249
 21
491.958346
 31
0.0
  0
LINE
  8
LC-004-005-----0
  6
CONTINUOUS
  5
425
 10
565.378008
 20
488.161947
 30
0.0
 11
569.113857
 21
491.897797
 31
0.0
  0
LINE
  8
LC-004-005-----0
  6
CONTINUOUS
  5
426
 10
565.095165
 20
488.161947
 30
0.0
 11
568.770465
 21
491.837247
 31
0.0
  0
LINE
  8
LC-004-005-----0
  6
CONTINUOUS
  5
427
 10
564.812322
 20
488.161947
 30
0.0
 11
568.427073
 21
491.776698
 31
0.0
  0
LINE
  8
LC-004-005-----0
  6
CONTINUOUS
  5
428
 10
564.52948
 20
488.161947
 30
0.0
 11
568.083681
 21
491.716149
 31
0.0
  0
LINE
  8
LC-004-005-----0
  6
CONTINUOUS
  5
429
 10
564.246637
 20
488.161947
 30
0.0
 11
567.746637
 21
491.661947
 31
0.0
  0
LINE
  8
LC-004-005-----0
  6
CONTINUOUS
  5
42A
 10
563.963794
 20
488.161947
 30
0.0
 11
567.463794
 21
491.661947
 31
0.0
  0
LINE
  8
LC-004-005-----0
  6
CONTINUOUS
  5
42B
 10
563.680952
 20
488.161947
 30
0.0
 11
567.180952
 21
491.661947
 31
0.0
  0
LINE
  8
LC-004-005-----0
  6
CONTINUOUS
  5
42C
 10
563.398109
 20
488.161947
 30
0.0
 11
566.898109
 21
491.661947
 31
0.0
  0
LINE
  8
LC-004-005-----0
  6
CONTINUOUS
  5
42D
 10
563.282499
 20
488.32918
 30
0.0
 11
566.615266
 21
491.661947
 31
0.0
  0
LINE
  8
LC-004-005-----0
  6
CONTINUOUS
  5
42E
 10
563.282499
 20
488.612023
 30
0.0
 11
566.332423
 21
491.661947
 31
0.0
  0
LINE
  8
LC-004-005-----0
  6
CONTINUOUS
  5
42F
 10
563.282499
 20
488.894866
 30
0.0
 11
566.049581
 21
491.661947
 31
0.0
  0
LINE
  8
LC-004-005-----0
  6
CONTINUOUS
  5
430
 10
563.282499
 20
489.177708
 30
0.0
 11
565.766738
 21
491.661947
 31
0.0
  0
LINE
  8
LC-004-005-----0
  6
CONTINUOUS
  5
431
 10
563.282499
 20
489.460551
 30
0.0
 11
565.483895
 21
491.661947
 31
0.0
  0
LINE
  8
LC-004-005-----0
  6
CONTINUOUS
  5
432
 10
563.282499
 20
489.743394
 30
0.0
 11
565.201053
 21
491.661947
 31
0.0
  0
LINE
  8
LC-004-005-----0
  6
CONTINUOUS
  5
433
 10
563.282499
 20
490.026237
 30
0.0
 11
564.91821
 21
491.661947
 31
0.0
  0
LINE
  8
LC-004-005-----0
  6
CONTINUOUS
  5
434
 10
563.282499
 20
490.309079
 30
0.0
 11
564.635367
 21
491.661947
 31
0.0
  0
LINE
  8
LC-004-005-----0
  6
CONTINUOUS
  5
435
 10
563.282499
 20
490.591922
 30
0.0
 11
564.352524
 21
491.661947
 31
0.0
  0
LINE
  8
LC-004-005-----0
  6
CONTINUOUS
  5
436
 10
563.282499
 20
490.874765
 30
0.0
 11
564.069682
 21
491.661947
 31
0.0
  0
LINE
  8
LC-004-005-----0
  6
CONTINUOUS
  5
437
 10
563.282499
 20
491.157607
 30
0.0
 11
563.786839
 21
491.661947
 31
0.0
  0
LINE
  8
LC-004-005-----0
  6
CONTINUOUS
  5
438
 10
563.282499
 20
491.44045
 30
0.0
 11
563.503996
 21
491.661947
 31
0.0
  0
ENDBLK
  8
0
  5
439
  0
BLOCK
  8
0
  5
43B
  2
*X38
 70
    65
 10
543.282499
 20
488.161947
 30
0.0
  3
*X38
  0
LINE
  8
LC-004-005-----0
  6
CONTINUOUS
  5
43C
 10
553.215771
 20
488.161947
 30
0.0
 11
553.282499
 21
488.228675
 31
0.0
  0
LINE
  8
LC-004-005-----0
  6
CONTINUOUS
  5
43D
 10
552.932928
 20
488.161947
 30
0.0
 11
553.282499
 21
488.511518
 31
0.0
  0
LINE
  8
LC-004-005-----0
  6
CONTINUOUS
  5
43E
 10
552.650086
 20
488.161947
 30
0.0
 11
553.282499
 21
488.794361
 31
0.0
  0
LINE
  8
LC-004-005-----0
  6
CONTINUOUS
  5
43F
 10
552.367243
 20
488.161947
 30
0.0
 11
553.282499
 21
489.077203
 31
0.0
  0
LINE
  8
LC-004-005-----0
  6
CONTINUOUS
  5
440
 10
552.0844
 20
488.161947
 30
0.0
 11
553.282499
 21
489.360046
 31
0.0
  0
LINE
  8
LC-004-005-----0
  6
CONTINUOUS
  5
441
 10
551.801558
 20
488.161947
 30
0.0
 11
553.282499
 21
489.642889
 31
0.0
  0
LINE
  8
LC-004-005-----0
  6
CONTINUOUS
  5
442
 10
551.518715
 20
488.161947
 30
0.0
 11
553.282499
 21
489.925731
 31
0.0
  0
LINE
  8
LC-004-005-----0
  6
CONTINUOUS
  5
443
 10
551.235872
 20
488.161947
 30
0.0
 11
553.282499
 21
490.208574
 31
0.0
  0
LINE
  8
LC-004-005-----0
  6
CONTINUOUS
  5
444
 10
550.953029
 20
488.161947
 30
0.0
 11
553.282499
 21
490.491417
 31
0.0
  0
LINE
  8
LC-004-005-----0
  6
CONTINUOUS
  5
445
 10
550.670187
 20
488.161947
 30
0.0
 11
553.282499
 21
490.77426
 31
0.0
  0
LINE
  8
LC-004-005-----0
  6
CONTINUOUS
  5
446
 10
550.387344
 20
488.161947
 30
0.0
 11
553.213926
 21
490.988529
 31
0.0
  0
LINE
  8
LC-004-005-----0
  6
CONTINUOUS
  5
447
 10
550.104501
 20
488.161947
 30
0.0
 11
552.97756
 21
491.035006
 31
0.0
  0
LINE
  8
LC-004-005-----0
  6
CONTINUOUS
  5
448
 10
549.821659
 20
488.161947
 30
0.0
 11
552.759335
 21
491.099624
 31
0.0
  0
LINE
  8
LC-004-005-----0
  6
CONTINUOUS
  5
449
 10
549.538816
 20
488.161947
 30
0.0
 11
552.55672
 21
491.179851
 31
0.0
  0
LINE
  8
LC-004-005-----0
  6
CONTINUOUS
  5
44A
 10
549.255973
 20
488.161947
 30
0.0
 11
552.368025
 21
491.273999
 31
0.0
  0
LINE
  8
LC-004-005-----0
  6
CONTINUOUS
  5
44B
 10
548.973131
 20
488.161947
 30
0.0
 11
552.192112
 21
491.380928
 31
0.0
  0
LINE
  8
LC-004-005-----0
  6
CONTINUOUS
  5
44C
 10
548.690288
 20
488.161947
 30
0.0
 11
552.028226
 21
491.499886
 31
0.0
  0
LINE
  8
LC-004-005-----0
  6
CONTINUOUS
  5
44D
 10
548.407445
 20
488.161947
 30
0.0
 11
551.87591
 21
491.630413
 31
0.0
  0
LINE
  8
LC-004-005-----0
  6
CONTINUOUS
  5
44E
 10
548.124602
 20
488.161947
 30
0.0
 11
551.624602
 21
491.661947
 31
0.0
  0
LINE
  8
LC-004-005-----0
  6
CONTINUOUS
  5
44F
 10
547.84176
 20
488.161947
 30
0.0
 11
551.34176
 21
491.661947
 31
0.0
  0
LINE
  8
LC-004-005-----0
  6
CONTINUOUS
  5
450
 10
547.558917
 20
488.161947
 30
0.0
 11
551.058917
 21
491.661947
 31
0.0
  0
LINE
  8
LC-004-005-----0
  6
CONTINUOUS
  5
451
 10
547.276074
 20
488.161947
 30
0.0
 11
550.776074
 21
491.661947
 31
0.0
  0
LINE
  8
LC-004-005-----0
  6
CONTINUOUS
  5
452
 10
546.993232
 20
488.161947
 30
0.0
 11
550.493232
 21
491.661947
 31
0.0
  0
LINE
  8
LC-004-005-----0
  6
CONTINUOUS
  5
453
 10
546.710389
 20
488.161947
 30
0.0
 11
550.210389
 21
491.661947
 31
0.0
  0
LINE
  8
LC-004-005-----0
  6
CONTINUOUS
  5
454
 10
546.427546
 20
488.161947
 30
0.0
 11
549.927546
 21
491.661947
 31
0.0
  0
LINE
  8
LC-004-005-----0
  6
CONTINUOUS
  5
455
 10
546.144703
 20
488.161947
 30
0.0
 11
549.644703
 21
491.661947
 31
0.0
  0
LINE
  8
LC-004-005-----0
  6
CONTINUOUS
  5
456
 10
545.861861
 20
488.161947
 30
0.0
 11
549.361861
 21
491.661947
 31
0.0
  0
LINE
  8
LC-004-005-----0
  6
CONTINUOUS
  5
457
 10
545.579018
 20
488.161947
 30
0.0
 11
549.079018
 21
491.661947
 31
0.0
  0
LINE
  8
LC-004-005-----0
  6
CONTINUOUS
  5
458
 10
545.296175
 20
488.161947
 30
0.0
 11
548.796175
 21
491.661947
 31
0.0
  0
LINE
  8
LC-004-005-----0
  6
CONTINUOUS
  5
459
 10
545.013333
 20
488.161947
 30
0.0
 11
548.513333
 21
491.661947
 31
0.0
  0
LINE
  8
LC-004-005-----0
  6
CONTINUOUS
  5
45A
 10
544.73049
 20
488.161947
 30
0.0
 11
548.23049
 21
491.661947
 31
0.0
  0
LINE
  8
LC-004-005-----0
  6
CONTINUOUS
  5
45B
 10
544.447647
 20
488.161947
 30
0.0
 11
547.947647
 21
491.661947
 31
0.0
  0
LINE
  8
LC-004-005-----0
  6
CONTINUOUS
  5
45C
 10
544.164804
 20
488.161947
 30
0.0
 11
547.664804
 21
491.661947
 31
0.0
  0
LINE
  8
LC-004-005-----0
  6
CONTINUOUS
  5
45D
 10
543.881962
 20
488.161947
 30
0.0
 11
547.381962
 21
491.661947
 31
0.0
  0
LINE
  8
LC-004-005-----0
  6
CONTINUOUS
  5
45E
 10
543.599119
 20
488.161947
 30
0.0
 11
547.099119
 21
491.661947
 31
0.0
  0
LINE
  8
LC-004-005-----0
  6
CONTINUOUS
  5
45F
 10
543.316276
 20
488.161947
 30
0.0
 11
546.816276
 21
491.661947
 31
0.0
  0
LINE
  8
LC-004-005-----0
  6
CONTINUOUS
  5
460
 10
543.282499
 20
488.411013
 30
0.0
 11
546.533434
 21
491.661947
 31
0.0
  0
LINE
  8
LC-004-005-----0
  6
CONTINUOUS
  5
461
 10
543.282499
 20
488.693856
 30
0.0
 11
546.250591
 21
491.661947
 31
0.0
  0
LINE
  8
LC-004-005-----0
  6
CONTINUOUS
  5
462
 10
543.282499
 20
488.976698
 30
0.0
 11
545.967748
 21
491.661947
 31
0.0
  0
LINE
  8
LC-004-005-----0
  6
CONTINUOUS
  5
463
 10
543.282499
 20
489.259541
 30
0.0
 11
545.684905
 21
491.661947
 31
0.0
  0
LINE
  8
LC-004-005-----0
  6
CONTINUOUS
  5
464
 10
543.282499
 20
489.542384
 30
0.0
 11
545.402063
 21
491.661947
 31
0.0
  0
LINE
  8
LC-004-005-----0
  6
CONTINUOUS
  5
465
 10
543.282499
 20
489.825226
 30
0.0
 11
545.11922
 21
491.661947
 31
0.0
  0
LINE
  8
LC-004-005-----0
  6
CONTINUOUS
  5
466
 10
543.282499
 20
490.108069
 30
0.0
 11
544.836377
 21
491.661947
 31
0.0
  0
LINE
  8
LC-004-005-----0
  6
CONTINUOUS
  5
467
 10
543.282499
 20
490.390912
 30
0.0
 11
544.553535
 21
491.661947
 31
0.0
  0
LINE
  8
LC-004-005-----0
  6
CONTINUOUS
  5
468
 10
543.282499
 20
490.673755
 30
0.0
 11
544.270692
 21
491.661947
 31
0.0
  0
LINE
  8
LC-004-005-----0
  6
CONTINUOUS
  5
469
 10
543.282499
 20
490.956597
 30
0.0
 11
543.987849
 21
491.661947
 31
0.0
  0
LINE
  8
LC-004-005-----0
  6
CONTINUOUS
  5
46A
 10
543.282499
 20
491.23944
 30
0.0
 11
543.705006
 21
491.661947
 31
0.0
  0
LINE
  8
LC-004-005-----0
  6
CONTINUOUS
  5
46B
 10
543.282499
 20
491.522283
 30
0.0
 11
543.422164
 21
491.661947
 31
0.0
  0
ENDBLK
  8
0
  5
46C
  0
BLOCK
  8
0
  5
46E
  2
*X39
 70
    65
 10
523.282499
 20
488.161947
 30
0.0
  3
*X39
  0
LINE
  8
LC-004-005-----0
  6
CONTINUOUS
  5
46F
 10
533.133939
 20
488.161947
 30
0.0
 11
533.282499
 21
488.310508
 31
0.0
  0
LINE
  8
LC-004-005-----0
  6
CONTINUOUS
  5
470
 10
532.851096
 20
488.161947
 30
0.0
 11
533.282499
 21
488.59335
 31
0.0
  0
LINE
  8
LC-004-005-----0
  6
CONTINUOUS
  5
471
 10
532.568253
 20
488.161947
 30
0.0
 11
533.282499
 21
488.876193
 31
0.0
  0
LINE
  8
LC-004-005-----0
  6
CONTINUOUS
  5
472
 10
532.28541
 20
488.161947
 30
0.0
 11
533.282499
 21
489.159036
 31
0.0
  0
LINE
  8
LC-004-005-----0
  6
CONTINUOUS
  5
473
 10
532.002568
 20
488.161947
 30
0.0
 11
533.282499
 21
489.441879
 31
0.0
  0
LINE
  8
LC-004-005-----0
  6
CONTINUOUS
  5
474
 10
531.719725
 20
488.161947
 30
0.0
 11
533.282499
 21
489.724721
 31
0.0
  0
LINE
  8
LC-004-005-----0
  6
CONTINUOUS
  5
475
 10
531.436882
 20
488.161947
 30
0.0
 11
533.282499
 21
490.007564
 31
0.0
  0
LINE
  8
LC-004-005-----0
  6
CONTINUOUS
  5
476
 10
531.15404
 20
488.161947
 30
0.0
 11
533.282499
 21
490.290407
 31
0.0
  0
LINE
  8
LC-004-005-----0
  6
CONTINUOUS
  5
477
 10
530.871197
 20
488.161947
 30
0.0
 11
533.282499
 21
490.573249
 31
0.0
  0
LINE
  8
LC-004-005-----0
  6
CONTINUOUS
  5
478
 10
530.588354
 20
488.161947
 30
0.0
 11
533.282499
 21
490.856092
 31
0.0
  0
LINE
  8
LC-004-005-----0
  6
CONTINUOUS
  5
479
 10
530.305511
 20
488.161947
 30
0.0
 11
533.282499
 21
491.138935
 31
0.0
  0
LINE
  8
LC-004-005-----0
  6
CONTINUOUS
  5
47A
 10
530.022669
 20
488.161947
 30
0.0
 11
533.282499
 21
491.421778
 31
0.0
  0
LINE
  8
LC-004-005-----0
  6
CONTINUOUS
  5
47B
 10
529.739826
 20
488.161947
 30
0.0
 11
533.239826
 21
491.661947
 31
0.0
  0
LINE
  8
LC-004-005-----0
  6
CONTINUOUS
  5
47C
 10
529.456983
 20
488.161947
 30
0.0
 11
532.956983
 21
491.661947
 31
0.0
  0
LINE
  8
LC-004-005-----0
  6
CONTINUOUS
  5
47D
 10
529.174141
 20
488.161947
 30
0.0
 11
532.674141
 21
491.661947
 31
0.0
  0
LINE
  8
LC-004-005-----0
  6
CONTINUOUS
  5
47E
 10
528.891298
 20
488.161947
 30
0.0
 11
532.391298
 21
491.661947
 31
0.0
  0
LINE
  8
LC-004-005-----0
  6
CONTINUOUS
  5
47F
 10
528.608455
 20
488.161947
 30
0.0
 11
532.108455
 21
491.661947
 31
0.0
  0
LINE
  8
LC-004-005-----0
  6
CONTINUOUS
  5
480
 10
528.325613
 20
488.161947
 30
0.0
 11
531.825613
 21
491.661947
 31
0.0
  0
LINE
  8
LC-004-005-----0
  6
CONTINUOUS
  5
481
 10
528.04277
 20
488.161947
 30
0.0
 11
531.54277
 21
491.661947
 31
0.0
  0
LINE
  8
LC-004-005-----0
  6
CONTINUOUS
  5
482
 10
527.759927
 20
488.161947
 30
0.0
 11
531.259927
 21
491.661947
 31
0.0
  0
LINE
  8
LC-004-005-----0
  6
CONTINUOUS
  5
483
 10
527.477084
 20
488.161947
 30
0.0
 11
530.977084
 21
491.661947
 31
0.0
  0
LINE
  8
LC-004-005-----0
  6
CONTINUOUS
  5
484
 10
527.194242
 20
488.161947
 30
0.0
 11
530.694242
 21
491.661947
 31
0.0
  0
LINE
  8
LC-004-005-----0
  6
CONTINUOUS
  5
485
 10
526.911399
 20
488.161947
 30
0.0
 11
530.411399
 21
491.661947
 31
0.0
  0
LINE
  8
LC-004-005-----0
  6
CONTINUOUS
  5
486
 10
526.628556
 20
488.161947
 30
0.0
 11
530.128556
 21
491.661947
 31
0.0
  0
LINE
  8
LC-004-005-----0
  6
CONTINUOUS
  5
487
 10
526.345714
 20
488.161947
 30
0.0
 11
529.845714
 21
491.661947
 31
0.0
  0
LINE
  8
LC-004-005-----0
  6
CONTINUOUS
  5
488
 10
526.062871
 20
488.161947
 30
0.0
 11
529.562871
 21
491.661947
 31
0.0
  0
LINE
  8
LC-004-005-----0
  6
CONTINUOUS
  5
489
 10
525.780028
 20
488.161947
 30
0.0
 11
529.280028
 21
491.661947
 31
0.0
  0
LINE
  8
LC-004-005-----0
  6
CONTINUOUS
  5
48A
 10
525.497185
 20
488.161947
 30
0.0
 11
528.997185
 21
491.661947
 31
0.0
  0
LINE
  8
LC-004-005-----0
  6
CONTINUOUS
  5
48B
 10
525.214343
 20
488.161947
 30
0.0
 11
528.714343
 21
491.661947
 31
0.0
  0
LINE
  8
LC-004-005-----0
  6
CONTINUOUS
  5
48C
 10
524.9315
 20
488.161947
 30
0.0
 11
528.4315
 21
491.661947
 31
0.0
  0
LINE
  8
LC-004-005-----0
  6
CONTINUOUS
  5
48D
 10
524.648657
 20
488.161947
 30
0.0
 11
528.148657
 21
491.661947
 31
0.0
  0
LINE
  8
LC-004-005-----0
  6
CONTINUOUS
  5
48E
 10
524.365815
 20
488.161947
 30
0.0
 11
527.865815
 21
491.661947
 31
0.0
  0
LINE
  8
LC-004-005-----0
  6
CONTINUOUS
  5
48F
 10
524.082972
 20
488.161947
 30
0.0
 11
527.582972
 21
491.661947
 31
0.0
  0
LINE
  8
LC-004-005-----0
  6
CONTINUOUS
  5
490
 10
523.800129
 20
488.161947
 30
0.0
 11
527.300129
 21
491.661947
 31
0.0
  0
LINE
  8
LC-004-005-----0
  6
CONTINUOUS
  5
491
 10
523.517286
 20
488.161947
 30
0.0
 11
527.017286
 21
491.661947
 31
0.0
  0
LINE
  8
LC-004-005-----0
  6
CONTINUOUS
  5
492
 10
523.282499
 20
488.210003
 30
0.0
 11
526.734444
 21
491.661947
 31
0.0
  0
LINE
  8
LC-004-005-----0
  6
CONTINUOUS
  5
493
 10
523.282499
 20
488.492845
 30
0.0
 11
526.451601
 21
491.661947
 31
0.0
  0
LINE
  8
LC-004-005-----0
  6
CONTINUOUS
  5
494
 10
523.282499
 20
488.775688
 30
0.0
 11
526.168758
 21
491.661947
 31
0.0
  0
LINE
  8
LC-004-005-----0
  6
CONTINUOUS
  5
495
 10
523.282499
 20
489.058531
 30
0.0
 11
525.885916
 21
491.661947
 31
0.0
  0
LINE
  8
LC-004-005-----0
  6
CONTINUOUS
  5
496
 10
523.282499
 20
489.341374
 30
0.0
 11
525.603073
 21
491.661947
 31
0.0
  0
LINE
  8
LC-004-005-----0
  6
CONTINUOUS
  5
497
 10
523.282499
 20
489.624216
 30
0.0
 11
525.32023
 21
491.661947
 31
0.0
  0
LINE
  8
LC-004-005-----0
  6
CONTINUOUS
  5
498
 10
523.282499
 20
489.907059
 30
0.0
 11
525.037387
 21
491.661947
 31
0.0
  0
LINE
  8
LC-004-005-----0
  6
CONTINUOUS
  5
499
 10
523.282499
 20
490.189902
 30
0.0
 11
524.754545
 21
491.661947
 31
0.0
  0
LINE
  8
LC-004-005-----0
  6
CONTINUOUS
  5
49A
 10
523.282499
 20
490.472744
 30
0.0
 11
524.471702
 21
491.661947
 31
0.0
  0
LINE
  8
LC-004-005-----0
  6
CONTINUOUS
  5
49B
 10
523.282499
 20
490.755587
 30
0.0
 11
524.188859
 21
491.661947
 31
0.0
  0
LINE
  8
LC-004-005-----0
  6
CONTINUOUS
  5
49C
 10
523.282499
 20
491.03843
 30
0.0
 11
523.906017
 21
491.661947
 31
0.0
  0
LINE
  8
LC-004-005-----0
  6
CONTINUOUS
  5
49D
 10
523.282499
 20
491.321273
 30
0.0
 11
523.623174
 21
491.661947
 31
0.0
  0
LINE
  8
LC-004-005-----0
  6
CONTINUOUS
  5
49E
 10
523.282499
 20
491.604115
 30
0.0
 11
523.340331
 21
491.661947
 31
0.0
  0
ENDBLK
  8
0
  5
49F
  0
BLOCK
  8
0
  5
4A1
  2
*X40
 70
    65
 10
311.882499
 20
488.161947
 30
0.0
  3
*X40
  0
LINE
  8
LC-004-005-----0
  6
CONTINUOUS
  5
4A2
 10
321.850432
 20
488.161947
 30
0.0
 11
321.882499
 21
488.194014
 31
0.0
  0
LINE
  8
LC-004-005-----0
  6
CONTINUOUS
  5
4A3
 10
321.56759
 20
488.161947
 30
0.0
 11
321.882499
 21
488.476857
 31
0.0
  0
LINE
  8
LC-004-005-----0
  6
CONTINUOUS
  5
4A4
 10
321.284747
 20
488.161947
 30
0.0
 11
321.882499
 21
488.759699
 31
0.0
  0
LINE
  8
LC-004-005-----0
  6
CONTINUOUS
  5
4A5
 10
321.001904
 20
488.161947
 30
0.0
 11
321.882499
 21
489.042542
 31
0.0
  0
LINE
  8
LC-004-005-----0
  6
CONTINUOUS
  5
4A6
 10
320.719062
 20
488.161947
 30
0.0
 11
321.882499
 21
489.325385
 31
0.0
  0
LINE
  8
LC-004-005-----0
  6
CONTINUOUS
  5
4A7
 10
320.436219
 20
488.161947
 30
0.0
 11
321.882499
 21
489.608228
 31
0.0
  0
LINE
  8
LC-004-005-----0
  6
CONTINUOUS
  5
4A8
 10
320.153376
 20
488.161947
 30
0.0
 11
321.882499
 21
489.89107
 31
0.0
  0
LINE
  8
LC-004-005-----0
  6
CONTINUOUS
  5
4A9
 10
319.870533
 20
488.161947
 30
0.0
 11
321.882499
 21
490.173913
 31
0.0
  0
LINE
  8
LC-004-005-----0
  6
CONTINUOUS
  5
4AA
 10
319.587691
 20
488.161947
 30
0.0
 11
321.882499
 21
490.456756
 31
0.0
  0
LINE
  8
LC-004-005-----0
  6
CONTINUOUS
  5
4AB
 10
319.304848
 20
488.161947
 30
0.0
 11
321.882499
 21
490.739598
 31
0.0
  0
LINE
  8
LC-004-005-----0
  6
CONTINUOUS
  5
4AC
 10
319.022005
 20
488.161947
 30
0.0
 11
321.882499
 21
491.022441
 31
0.0
  0
LINE
  8
LC-004-005-----0
  6
CONTINUOUS
  5
4AD
 10
318.739163
 20
488.161947
 30
0.0
 11
321.882499
 21
491.305284
 31
0.0
  0
LINE
  8
LC-004-005-----0
  6
CONTINUOUS
  5
4AE
 10
318.45632
 20
488.161947
 30
0.0
 11
321.882499
 21
491.588127
 31
0.0
  0
LINE
  8
LC-004-005-----0
  6
CONTINUOUS
  5
4AF
 10
318.173477
 20
488.161947
 30
0.0
 11
321.673477
 21
491.661947
 31
0.0
  0
LINE
  8
LC-004-005-----0
  6
CONTINUOUS
  5
4B0
 10
317.890634
 20
488.161947
 30
0.0
 11
321.390634
 21
491.661947
 31
0.0
  0
LINE
  8
LC-004-005-----0
  6
CONTINUOUS
  5
4B1
 10
317.607792
 20
488.161947
 30
0.0
 11
321.107792
 21
491.661947
 31
0.0
  0
LINE
  8
LC-004-005-----0
  6
CONTINUOUS
  5
4B2
 10
317.324949
 20
488.161947
 30
0.0
 11
320.824949
 21
491.661947
 31
0.0
  0
LINE
  8
LC-004-005-----0
  6
CONTINUOUS
  5
4B3
 10
317.042106
 20
488.161947
 30
0.0
 11
320.542106
 21
491.661947
 31
0.0
  0
LINE
  8
LC-004-005-----0
  6
CONTINUOUS
  5
4B4
 10
316.759264
 20
488.161947
 30
0.0
 11
320.259264
 21
491.661947
 31
0.0
  0
LINE
  8
LC-004-005-----0
  6
CONTINUOUS
  5
4B5
 10
316.476421
 20
488.161947
 30
0.0
 11
319.976421
 21
491.661947
 31
0.0
  0
LINE
  8
LC-004-005-----0
  6
CONTINUOUS
  5
4B6
 10
316.193578
 20
488.161947
 30
0.0
 11
319.693578
 21
491.661947
 31
0.0
  0
LINE
  8
LC-004-005-----0
  6
CONTINUOUS
  5
4B7
 10
315.910735
 20
488.161947
 30
0.0
 11
319.410735
 21
491.661947
 31
0.0
  0
LINE
  8
LC-004-005-----0
  6
CONTINUOUS
  5
4B8
 10
315.627893
 20
488.161947
 30
0.0
 11
319.127893
 21
491.661947
 31
0.0
  0
LINE
  8
LC-004-005-----0
  6
CONTINUOUS
  5
4B9
 10
315.34505
 20
488.161947
 30
0.0
 11
318.84505
 21
491.661947
 31
0.0
  0
LINE
  8
LC-004-005-----0
  6
CONTINUOUS
  5
4BA
 10
315.062207
 20
488.161947
 30
0.0
 11
318.562207
 21
491.661947
 31
0.0
  0
LINE
  8
LC-004-005-----0
  6
CONTINUOUS
  5
4BB
 10
314.779365
 20
488.161947
 30
0.0
 11
318.279365
 21
491.661947
 31
0.0
  0
LINE
  8
LC-004-005-----0
  6
CONTINUOUS
  5
4BC
 10
314.496522
 20
488.161947
 30
0.0
 11
317.996522
 21
491.661947
 31
0.0
  0
LINE
  8
LC-004-005-----0
  6
CONTINUOUS
  5
4BD
 10
314.213679
 20
488.161947
 30
0.0
 11
317.713679
 21
491.661947
 31
0.0
  0
LINE
  8
LC-004-005-----0
  6
CONTINUOUS
  5
4BE
 10
313.930836
 20
488.161947
 30
0.0
 11
317.430836
 21
491.661947
 31
0.0
  0
LINE
  8
LC-004-005-----0
  6
CONTINUOUS
  5
4BF
 10
313.647994
 20
488.161947
 30
0.0
 11
317.147994
 21
491.661947
 31
0.0
  0
LINE
  8
LC-004-005-----0
  6
CONTINUOUS
  5
4C0
 10
313.365151
 20
488.161947
 30
0.0
 11
316.865151
 21
491.661947
 31
0.0
  0
LINE
  8
LC-004-005-----0
  6
CONTINUOUS
  5
4C1
 10
313.082308
 20
488.161947
 30
0.0
 11
316.582308
 21
491.661947
 31
0.0
  0
LINE
  8
LC-004-005-----0
  6
CONTINUOUS
  5
4C2
 10
312.799466
 20
488.161947
 30
0.0
 11
316.299466
 21
491.661947
 31
0.0
  0
LINE
  8
LC-004-005-----0
  6
CONTINUOUS
  5
4C3
 10
312.516623
 20
488.161947
 30
0.0
 11
316.016623
 21
491.661947
 31
0.0
  0
LINE
  8
LC-004-005-----0
  6
CONTINUOUS
  5
4C4
 10
312.23378
 20
488.161947
 30
0.0
 11
315.73378
 21
491.661947
 31
0.0
  0
LINE
  8
LC-004-005-----0
  6
CONTINUOUS
  5
4C5
 10
311.950937
 20
488.161947
 30
0.0
 11
315.450937
 21
491.661947
 31
0.0
  0
LINE
  8
LC-004-005-----0
  6
CONTINUOUS
  5
4C6
 10
311.882499
 20
488.376352
 30
0.0
 11
315.168095
 21
491.661947
 31
0.0
  0
LINE
  8
LC-004-005-----0
  6
CONTINUOUS
  5
4C7
 10
311.882499
 20
488.659194
 30
0.0
 11
314.885252
 21
491.661947
 31
0.0
  0
LINE
  8
LC-004-005-----0
  6
CONTINUOUS
  5
4C8
 10
311.882499
 20
488.942037
 30
0.0
 11
314.602409
 21
491.661947
 31
0.0
  0
LINE
  8
LC-004-005-----0
  6
CONTINUOUS
  5
4C9
 10
311.882499
 20
489.22488
 30
0.0
 11
314.319567
 21
491.661947
 31
0.0
  0
LINE
  8
LC-004-005-----0
  6
CONTINUOUS
  5
4CA
 10
311.882499
 20
489.507722
 30
0.0
 11
314.036724
 21
491.661947
 31
0.0
  0
LINE
  8
LC-004-005-----0
  6
CONTINUOUS
  5
4CB
 10
311.882499
 20
489.790565
 30
0.0
 11
313.753881
 21
491.661947
 31
0.0
  0
LINE
  8
LC-004-005-----0
  6
CONTINUOUS
  5
4CC
 10
311.882499
 20
490.073408
 30
0.0
 11
313.471038
 21
491.661947
 31
0.0
  0
LINE
  8
LC-004-005-----0
  6
CONTINUOUS
  5
4CD
 10
311.882499
 20
490.356251
 30
0.0
 11
313.188196
 21
491.661947
 31
0.0
  0
LINE
  8
LC-004-005-----0
  6
CONTINUOUS
  5
4CE
 10
311.882499
 20
490.639093
 30
0.0
 11
312.905353
 21
491.661947
 31
0.0
  0
LINE
  8
LC-004-005-----0
  6
CONTINUOUS
  5
4CF
 10
311.882499
 20
490.921936
 30
0.0
 11
312.62251
 21
491.661947
 31
0.0
  0
LINE
  8
LC-004-005-----0
  6
CONTINUOUS
  5
4D0
 10
311.882499
 20
491.204779
 30
0.0
 11
312.339668
 21
491.661947
 31
0.0
  0
LINE
  8
LC-004-005-----0
  6
CONTINUOUS
  5
4D1
 10
311.882499
 20
491.487621
 30
0.0
 11
312.056825
 21
491.661947
 31
0.0
  0
ENDBLK
  8
0
  5
4D2
  0
BLOCK
  8
0
  5
4D4
  2
*X41
 70
    65
 10
289.087477
 20
488.161947
 30
0.0
  3
*X41
  0
LINE
  8
LC-004-005-----0
  6
CONTINUOUS
  5
4D5
 10
301.7686
 20
488.161947
 30
0.0
 11
301.882499
 21
488.275847
 31
0.0
  0
LINE
  8
LC-004-005-----0
  6
CONTINUOUS
  5
4D6
 10
301.485757
 20
488.161947
 30
0.0
 11
301.882499
 21
488.558689
 31
0.0
  0
LINE
  8
LC-004-005-----0
  6
CONTINUOUS
  5
4D7
 10
301.202914
 20
488.161947
 30
0.0
 11
301.882499
 21
488.841532
 31
0.0
  0
LINE
  8
LC-004-005-----0
  6
CONTINUOUS
  5
4D8
 10
300.920072
 20
488.161947
 30
0.0
 11
301.882499
 21
489.124375
 31
0.0
  0
LINE
  8
LC-004-005-----0
  6
CONTINUOUS
  5
4D9
 10
300.637229
 20
488.161947
 30
0.0
 11
301.882499
 21
489.407217
 31
0.0
  0
LINE
  8
LC-004-005-----0
  6
CONTINUOUS
  5
4DA
 10
300.354386
 20
488.161947
 30
0.0
 11
301.882499
 21
489.69006
 31
0.0
  0
LINE
  8
LC-004-005-----0
  6
CONTINUOUS
  5
4DB
 10
300.071544
 20
488.161947
 30
0.0
 11
301.882499
 21
489.972903
 31
0.0
  0
LINE
  8
LC-004-005-----0
  6
CONTINUOUS
  5
4DC
 10
299.788701
 20
488.161947
 30
0.0
 11
301.882499
 21
490.255746
 31
0.0
  0
LINE
  8
LC-004-005-----0
  6
CONTINUOUS
  5
4DD
 10
299.505858
 20
488.161947
 30
0.0
 11
301.882499
 21
490.538588
 31
0.0
  0
LINE
  8
LC-004-005-----0
  6
CONTINUOUS
  5
4DE
 10
299.223015
 20
488.161947
 30
0.0
 11
301.882499
 21
490.821431
 31
0.0
  0
LINE
  8
LC-004-005-----0
  6
CONTINUOUS
  5
4DF
 10
298.940173
 20
488.161947
 30
0.0
 11
301.882499
 21
491.104274
 31
0.0
  0
LINE
  8
LC-004-005-----0
  6
CONTINUOUS
  5
4E0
 10
298.65733
 20
488.161947
 30
0.0
 11
301.882499
 21
491.387116
 31
0.0
  0
LINE
  8
LC-004-005-----0
  6
CONTINUOUS
  5
4E1
 10
298.374487
 20
488.161947
 30
0.0
 11
301.874487
 21
491.661947
 31
0.0
  0
LINE
  8
LC-004-005-----0
  6
CONTINUOUS
  5
4E2
 10
298.091645
 20
488.161947
 30
0.0
 11
301.591645
 21
491.661947
 31
0.0
  0
LINE
  8
LC-004-005-----0
  6
CONTINUOUS
  5
4E3
 10
297.808802
 20
488.161947
 30
0.0
 11
301.308802
 21
491.661947
 31
0.0
  0
LINE
  8
LC-004-005-----0
  6
CONTINUOUS
  5
4E4
 10
297.525959
 20
488.161947
 30
0.0
 11
301.025959
 21
491.661947
 31
0.0
  0
LINE
  8
LC-004-005-----0
  6
CONTINUOUS
  5
4E5
 10
297.243116
 20
488.161947
 30
0.0
 11
300.743116
 21
491.661947
 31
0.0
  0
LINE
  8
LC-004-005-----0
  6
CONTINUOUS
  5
4E6
 10
296.960274
 20
488.161947
 30
0.0
 11
300.460274
 21
491.661947
 31
0.0
  0
LINE
  8
LC-004-005-----0
  6
CONTINUOUS
  5
4E7
 10
296.677431
 20
488.161947
 30
0.0
 11
300.177431
 21
491.661947
 31
0.0
  0
LINE
  8
LC-004-005-----0
  6
CONTINUOUS
  5
4E8
 10
296.394588
 20
488.161947
 30
0.0
 11
299.894588
 21
491.661947
 31
0.0
  0
LINE
  8
LC-004-005-----0
  6
CONTINUOUS
  5
4E9
 10
296.111746
 20
488.161947
 30
0.0
 11
299.611746
 21
491.661947
 31
0.0
  0
LINE
  8
LC-004-005-----0
  6
CONTINUOUS
  5
4EA
 10
295.828903
 20
488.161947
 30
0.0
 11
299.328903
 21
491.661947
 31
0.0
  0
LINE
  8
LC-004-005-----0
  6
CONTINUOUS
  5
4EB
 10
295.54606
 20
488.161947
 30
0.0
 11
299.04606
 21
491.661947
 31
0.0
  0
LINE
  8
LC-004-005-----0
  6
CONTINUOUS
  5
4EC
 10
295.263217
 20
488.161947
 30
0.0
 11
298.763217
 21
491.661947
 31
0.0
  0
LINE
  8
LC-004-005-----0
  6
CONTINUOUS
  5
4ED
 10
294.980375
 20
488.161947
 30
0.0
 11
298.480375
 21
491.661947
 31
0.0
  0
LINE
  8
LC-004-005-----0
  6
CONTINUOUS
  5
4EE
 10
294.697532
 20
488.161947
 30
0.0
 11
298.197532
 21
491.661947
 31
0.0
  0
LINE
  8
LC-004-005-----0
  6
CONTINUOUS
  5
4EF
 10
294.414689
 20
488.161947
 30
0.0
 11
297.914689
 21
491.661947
 31
0.0
  0
LINE
  8
LC-004-005-----0
  6
CONTINUOUS
  5
4F0
 10
294.131847
 20
488.161947
 30
0.0
 11
297.631847
 21
491.661947
 31
0.0
  0
LINE
  8
LC-004-005-----0
  6
CONTINUOUS
  5
4F1
 10
293.849004
 20
488.161947
 30
0.0
 11
297.349004
 21
491.661947
 31
0.0
  0
LINE
  8
LC-004-005-----0
  6
CONTINUOUS
  5
4F2
 10
293.566161
 20
488.161947
 30
0.0
 11
297.066161
 21
491.661947
 31
0.0
  0
LINE
  8
LC-004-005-----0
  6
CONTINUOUS
  5
4F3
 10
293.283318
 20
488.161947
 30
0.0
 11
296.783318
 21
491.661947
 31
0.0
  0
LINE
  8
LC-004-005-----0
  6
CONTINUOUS
  5
4F4
 10
293.000476
 20
488.161947
 30
0.0
 11
296.500476
 21
491.661947
 31
0.0
  0
LINE
  8
LC-004-005-----0
  6
CONTINUOUS
  5
4F5
 10
292.717633
 20
488.161947
 30
0.0
 11
296.217633
 21
491.661947
 31
0.0
  0
LINE
  8
LC-004-005-----0
  6
CONTINUOUS
  5
4F6
 10
292.43479
 20
488.161947
 30
0.0
 11
295.93479
 21
491.661947
 31
0.0
  0
LINE
  8
LC-004-005-----0
  6
CONTINUOUS
  5
4F7
 10
292.151948
 20
488.161947
 30
0.0
 11
295.651948
 21
491.661947
 31
0.0
  0
LINE
  8
LC-004-005-----0
  6
CONTINUOUS
  5
4F8
 10
291.882499
 20
488.175341
 30
0.0
 11
295.369105
 21
491.661947
 31
0.0
  0
LINE
  8
LC-004-005-----0
  6
CONTINUOUS
  5
4F9
 10
291.882499
 20
488.458184
 30
0.0
 11
295.086262
 21
491.661947
 31
0.0
  0
LINE
  8
LC-004-005-----0
  6
CONTINUOUS
  5
4FA
 10
291.882499
 20
488.741027
 30
0.0
 11
294.803419
 21
491.661947
 31
0.0
  0
LINE
  8
LC-004-005-----0
  6
CONTINUOUS
  5
4FB
 10
291.882499
 20
489.02387
 30
0.0
 11
294.520577
 21
491.661947
 31
0.0
  0
LINE
  8
LC-004-005-----0
  6
CONTINUOUS
  5
4FC
 10
291.882499
 20
489.306712
 30
0.0
 11
294.237734
 21
491.661947
 31
0.0
  0
LINE
  8
LC-004-005-----0
  6
CONTINUOUS
  5
4FD
 10
291.882499
 20
489.589555
 30
0.0
 11
293.954891
 21
491.661947
 31
0.0
  0
LINE
  8
LC-004-005-----0
  6
CONTINUOUS
  5
4FE
 10
291.882499
 20
489.872398
 30
0.0
 11
293.672049
 21
491.661947
 31
0.0
  0
LINE
  8
LC-004-005-----0
  6
CONTINUOUS
  5
4FF
 10
291.882499
 20
490.15524
 30
0.0
 11
293.389206
 21
491.661947
 31
0.0
  0
LINE
  8
LC-004-005-----0
  6
CONTINUOUS
  5
500
 10
291.882499
 20
490.438083
 30
0.0
 11
292.637619
 21
491.193203
 31
0.0
  0
LINE
  8
LC-004-005-----0
  6
CONTINUOUS
  5
501
 10
291.882499
 20
490.720926
 30
0.0
 11
292.199624
 21
491.03805
 31
0.0
  0
ENDBLK
  8
0
  5
502
  0
BLOCK
  8
0
  5
504
  2
*X42
 70
    65
 10
271.882499
 20
488.161947
 30
0.0
  3
*X42
  0
LINE
  8
LC-004-005-----0
  6
CONTINUOUS
  5
505
 10
281.686767
 20
488.161947
 30
0.0
 11
281.882499
 21
488.357679
 31
0.0
  0
LINE
  8
LC-004-005-----0
  6
CONTINUOUS
  5
506
 10
281.403925
 20
488.161947
 30
0.0
 11
281.882499
 21
488.640522
 31
0.0
  0
LINE
  8
LC-004-005-----0
  6
CONTINUOUS
  5
507
 10
281.121082
 20
488.161947
 30
0.0
 11
281.882499
 21
488.923365
 31
0.0
  0
LINE
  8
LC-004-005-----0
  6
CONTINUOUS
  5
508
 10
280.838239
 20
488.161947
 30
0.0
 11
281.882499
 21
489.206207
 31
0.0
  0
LINE
  8
LC-004-005-----0
  6
CONTINUOUS
  5
509
 10
280.555396
 20
488.161947
 30
0.0
 11
281.882499
 21
489.48905
 31
0.0
  0
LINE
  8
LC-004-005-----0
  6
CONTINUOUS
  5
50A
 10
280.272554
 20
488.161947
 30
0.0
 11
281.882499
 21
489.771893
 31
0.0
  0
LINE
  8
LC-004-005-----0
  6
CONTINUOUS
  5
50B
 10
279.989711
 20
488.161947
 30
0.0
 11
281.882499
 21
490.054735
 31
0.0
  0
LINE
  8
LC-004-005-----0
  6
CONTINUOUS
  5
50C
 10
279.706868
 20
488.161947
 30
0.0
 11
281.882499
 21
490.337578
 31
0.0
  0
LINE
  8
LC-004-005-----0
  6
CONTINUOUS
  5
50D
 10
279.424026
 20
488.161947
 30
0.0
 11
281.882499
 21
490.620421
 31
0.0
  0
LINE
  8
LC-004-005-----0
  6
CONTINUOUS
  5
50E
 10
279.141183
 20
488.161947
 30
0.0
 11
281.882499
 21
490.903264
 31
0.0
  0
LINE
  8
LC-004-005-----0
  6
CONTINUOUS
  5
50F
 10
278.85834
 20
488.161947
 30
0.0
 11
281.882499
 21
491.186106
 31
0.0
  0
LINE
  8
LC-004-005-----0
  6
CONTINUOUS
  5
510
 10
278.575497
 20
488.161947
 30
0.0
 11
281.882499
 21
491.468949
 31
0.0
  0
LINE
  8
LC-004-005-----0
  6
CONTINUOUS
  5
511
 10
278.292655
 20
488.161947
 30
0.0
 11
281.792655
 21
491.661947
 31
0.0
  0
LINE
  8
LC-004-005-----0
  6
CONTINUOUS
  5
512
 10
278.009812
 20
488.161947
 30
0.0
 11
281.509812
 21
491.661947
 31
0.0
  0
LINE
  8
LC-004-005-----0
  6
CONTINUOUS
  5
513
 10
277.726969
 20
488.161947
 30
0.0
 11
281.226969
 21
491.661947
 31
0.0
  0
LINE
  8
LC-004-005-----0
  6
CONTINUOUS
  5
514
 10
277.444127
 20
488.161947
 30
0.0
 11
280.944127
 21
491.661947
 31
0.0
  0
LINE
  8
LC-004-005-----0
  6
CONTINUOUS
  5
515
 10
277.161284
 20
488.161947
 30
0.0
 11
280.661284
 21
491.661947
 31
0.0
  0
LINE
  8
LC-004-005-----0
  6
CONTINUOUS
  5
516
 10
276.909029
 20
488.192535
 30
0.0
 11
280.378441
 21
491.661947
 31
0.0
  0
LINE
  8
LC-004-005-----0
  6
CONTINUOUS
  5
517
 10
276.668583
 20
488.234932
 30
0.0
 11
280.095598
 21
491.661947
 31
0.0
  0
LINE
  8
LC-004-005-----0
  6
CONTINUOUS
  5
518
 10
276.428137
 20
488.277329
 30
0.0
 11
279.812756
 21
491.661947
 31
0.0
  0
LINE
  8
LC-004-005-----0
  6
CONTINUOUS
  5
519
 10
276.187692
 20
488.319726
 30
0.0
 11
279.529913
 21
491.661947
 31
0.0
  0
LINE
  8
LC-004-005-----0
  6
CONTINUOUS
  5
51A
 10
275.947246
 20
488.362123
 30
0.0
 11
279.24707
 21
491.661947
 31
0.0
  0
LINE
  8
LC-004-005-----0
  6
CONTINUOUS
  5
51B
 10
275.7068
 20
488.40452
 30
0.0
 11
278.964228
 21
491.661947
 31
0.0
  0
LINE
  8
LC-004-005-----0
  6
CONTINUOUS
  5
51C
 10
275.466355
 20
488.446917
 30
0.0
 11
278.681385
 21
491.661947
 31
0.0
  0
LINE
  8
LC-004-005-----0
  6
CONTINUOUS
  5
51D
 10
275.225909
 20
488.489314
 30
0.0
 11
278.398542
 21
491.661947
 31
0.0
  0
LINE
  8
LC-004-005-----0
  6
CONTINUOUS
  5
51E
 10
274.985463
 20
488.531711
 30
0.0
 11
278.115699
 21
491.661947
 31
0.0
  0
LINE
  8
LC-004-005-----0
  6
CONTINUOUS
  5
51F
 10
274.745018
 20
488.574108
 30
0.0
 11
277.832857
 21
491.661947
 31
0.0
  0
LINE
  8
LC-004-005-----0
  6
CONTINUOUS
  5
520
 10
274.504572
 20
488.616505
 30
0.0
 11
277.550014
 21
491.661947
 31
0.0
  0
LINE
  8
LC-004-005-----0
  6
CONTINUOUS
  5
521
 10
274.264126
 20
488.658902
 30
0.0
 11
277.285389
 21
491.680165
 31
0.0
  0
LINE
  8
LC-004-005-----0
  6
CONTINUOUS
  5
522
 10
274.023681
 20
488.7013
 30
0.0
 11
277.044944
 21
491.722562
 31
0.0
  0
LINE
  8
LC-004-005-----0
  6
CONTINUOUS
  5
523
 10
273.783235
 20
488.743697
 30
0.0
 11
276.804498
 21
491.76496
 31
0.0
  0
LINE
  8
LC-004-005-----0
  6
CONTINUOUS
  5
524
 10
273.542789
 20
488.786094
 30
0.0
 11
276.564052
 21
491.807357
 31
0.0
  0
LINE
  8
LC-004-005-----0
  6
CONTINUOUS
  5
525
 10
273.302344
 20
488.828491
 30
0.0
 11
276.323607
 21
491.849754
 31
0.0
  0
LINE
  8
LC-004-005-----0
  6
CONTINUOUS
  5
526
 10
273.061898
 20
488.870888
 30
0.0
 11
276.083161
 21
491.892151
 31
0.0
  0
LINE
  8
LC-004-005-----0
  6
CONTINUOUS
  5
527
 10
272.821452
 20
488.913285
 30
0.0
 11
275.842715
 21
491.934548
 31
0.0
  0
LINE
  8
LC-004-005-----0
  6
CONTINUOUS
  5
528
 10
272.581007
 20
488.955682
 30
0.0
 11
275.60227
 21
491.976945
 31
0.0
  0
LINE
  8
LC-004-005-----0
  6
CONTINUOUS
  5
529
 10
272.340561
 20
488.998079
 30
0.0
 11
275.361824
 21
492.019342
 31
0.0
  0
LINE
  8
LC-004-005-----0
  6
CONTINUOUS
  5
52A
 10
272.100116
 20
489.040476
 30
0.0
 11
275.121378
 21
492.061739
 31
0.0
  0
LINE
  8
LC-004-005-----0
  6
CONTINUOUS
  5
52B
 10
271.882499
 20
489.105702
 30
0.0
 11
274.880933
 21
492.104136
 31
0.0
  0
LINE
  8
LC-004-005-----0
  6
CONTINUOUS
  5
52C
 10
271.882499
 20
489.388545
 30
0.0
 11
274.640487
 21
492.146533
 31
0.0
  0
LINE
  8
LC-004-005-----0
  6
CONTINUOUS
  5
52D
 10
271.882499
 20
489.671388
 30
0.0
 11
274.400042
 21
492.18893
 31
0.0
  0
LINE
  8
LC-004-005-----0
  6
CONTINUOUS
  5
52E
 10
271.882499
 20
489.95423
 30
0.0
 11
274.159596
 21
492.231327
 31
0.0
  0
LINE
  8
LC-004-005-----0
  6
CONTINUOUS
  5
52F
 10
271.882499
 20
490.237073
 30
0.0
 11
273.91915
 21
492.273724
 31
0.0
  0
LINE
  8
LC-004-005-----0
  6
CONTINUOUS
  5
530
 10
271.882499
 20
490.519916
 30
0.0
 11
273.678705
 21
492.316121
 31
0.0
  0
LINE
  8
LC-004-005-----0
  6
CONTINUOUS
  5
531
 10
271.882499
 20
490.802758
 30
0.0
 11
273.438259
 21
492.358518
 31
0.0
  0
LINE
  8
LC-004-005-----0
  6
CONTINUOUS
  5
532
 10
271.882499
 20
491.085601
 30
0.0
 11
273.197813
 21
492.400915
 31
0.0
  0
LINE
  8
LC-004-005-----0
  6
CONTINUOUS
  5
533
 10
271.882499
 20
491.368444
 30
0.0
 11
272.957368
 21
492.443312
 31
0.0
  0
LINE
  8
LC-004-005-----0
  6
CONTINUOUS
  5
534
 10
271.882499
 20
491.651287
 30
0.0
 11
272.716922
 21
492.48571
 31
0.0
  0
LINE
  8
LC-004-005-----0
  6
CONTINUOUS
  5
535
 10
271.882499
 20
491.934129
 30
0.0
 11
272.476476
 21
492.528107
 31
0.0
  0
LINE
  8
LC-004-005-----0
  6
CONTINUOUS
  5
536
 10
271.882499
 20
492.216972
 30
0.0
 11
272.236031
 21
492.570504
 31
0.0
  0
LINE
  8
LC-004-005-----0
  6
CONTINUOUS
  5
537
 10
271.882499
 20
492.499815
 30
0.0
 11
271.995585
 21
492.612901
 31
0.0
  0
ENDBLK
  8
0
  5
538
  0
BLOCK
  8
0
  5
53A
  2
*X43
 70
    65
 10
251.882499
 20
490.842117
 30
0.0
  3
*X43
  0
LINE
  8
LC-004-005-----0
  6
CONTINUOUS
  5
53B
 10
261.760952
 20
490.863549
 30
0.0
 11
261.882499
 21
490.985096
 31
0.0
  0
LINE
  8
LC-004-005-----0
  6
CONTINUOUS
  5
53C
 10
261.520507
 20
490.905946
 30
0.0
 11
261.882499
 21
491.267939
 31
0.0
  0
LINE
  8
LC-004-005-----0
  6
CONTINUOUS
  5
53D
 10
261.280061
 20
490.948344
 30
0.0
 11
261.882499
 21
491.550782
 31
0.0
  0
LINE
  8
LC-004-005-----0
  6
CONTINUOUS
  5
53E
 10
261.039615
 20
490.990741
 30
0.0
 11
261.882499
 21
491.833624
 31
0.0
  0
LINE
  8
LC-004-005-----0
  6
CONTINUOUS
  5
53F
 10
260.79917
 20
491.033138
 30
0.0
 11
261.882499
 21
492.116467
 31
0.0
  0
LINE
  8
LC-004-005-----0
  6
CONTINUOUS
  5
540
 10
260.558724
 20
491.075535
 30
0.0
 11
261.882499
 21
492.39931
 31
0.0
  0
LINE
  8
LC-004-005-----0
  6
CONTINUOUS
  5
541
 10
260.318278
 20
491.117932
 30
0.0
 11
261.882499
 21
492.682152
 31
0.0
  0
LINE
  8
LC-004-005-----0
  6
CONTINUOUS
  5
542
 10
260.077833
 20
491.160329
 30
0.0
 11
261.882499
 21
492.964995
 31
0.0
  0
LINE
  8
LC-004-005-----0
  6
CONTINUOUS
  5
543
 10
259.837387
 20
491.202726
 30
0.0
 11
261.882499
 21
493.247838
 31
0.0
  0
LINE
  8
LC-004-005-----0
  6
CONTINUOUS
  5
544
 10
259.596941
 20
491.245123
 30
0.0
 11
261.882499
 21
493.530681
 31
0.0
  0
LINE
  8
LC-004-005-----0
  6
CONTINUOUS
  5
545
 10
259.356496
 20
491.28752
 30
0.0
 11
261.882499
 21
493.813523
 31
0.0
  0
LINE
  8
LC-004-005-----0
  6
CONTINUOUS
  5
546
 10
259.11605
 20
491.329917
 30
0.0
 11
261.882499
 21
494.096366
 31
0.0
  0
LINE
  8
LC-004-005-----0
  6
CONTINUOUS
  5
547
 10
258.875604
 20
491.372314
 30
0.0
 11
261.882499
 21
494.379209
 31
0.0
  0
LINE
  8
LC-004-005-----0
  6
CONTINUOUS
  5
548
 10
258.635159
 20
491.414711
 30
0.0
 11
261.656422
 21
494.435974
 31
0.0
  0
LINE
  8
LC-004-005-----0
  6
CONTINUOUS
  5
549
 10
258.394713
 20
491.457108
 30
0.0
 11
261.415976
 21
494.478371
 31
0.0
  0
LINE
  8
LC-004-005-----0
  6
CONTINUOUS
  5
54A
 10
258.154267
 20
491.499505
 30
0.0
 11
261.17553
 21
494.520768
 31
0.0
  0
LINE
  8
LC-004-005-----0
  6
CONTINUOUS
  5
54B
 10
257.913822
 20
491.541902
 30
0.0
 11
260.935085
 21
494.563165
 31
0.0
  0
LINE
  8
LC-004-005-----0
  6
CONTINUOUS
  5
54C
 10
257.673376
 20
491.584299
 30
0.0
 11
260.694639
 21
494.605562
 31
0.0
  0
LINE
  8
LC-004-005-----0
  6
CONTINUOUS
  5
54D
 10
257.43293
 20
491.626696
 30
0.0
 11
260.454193
 21
494.647959
 31
0.0
  0
LINE
  8
LC-004-005-----0
  6
CONTINUOUS
  5
54E
 10
257.192485
 20
491.669093
 30
0.0
 11
260.213748
 21
494.690356
 31
0.0
  0
LINE
  8
LC-004-005-----0
  6
CONTINUOUS
  5
54F
 10
256.952039
 20
491.711491
 30
0.0
 11
259.973302
 21
494.732754
 31
0.0
  0
LINE
  8
LC-004-005-----0
  6
CONTINUOUS
  5
550
 10
256.711594
 20
491.753888
 30
0.0
 11
259.732856
 21
494.775151
 31
0.0
  0
LINE
  8
LC-004-005-----0
  6
CONTINUOUS
  5
551
 10
256.471148
 20
491.796285
 30
0.0
 11
259.492411
 21
494.817548
 31
0.0
  0
LINE
  8
LC-004-005-----0
  6
CONTINUOUS
  5
552
 10
256.230702
 20
491.838682
 30
0.0
 11
259.251965
 21
494.859945
 31
0.0
  0
LINE
  8
LC-004-005-----0
  6
CONTINUOUS
  5
553
 10
255.990257
 20
491.881079
 30
0.0
 11
259.01152
 21
494.902342
 31
0.0
  0
LINE
  8
LC-004-005-----0
  6
CONTINUOUS
  5
554
 10
255.749811
 20
491.923476
 30
0.0
 11
258.771074
 21
494.944739
 31
0.0
  0
LINE
  8
LC-004-005-----0
  6
CONTINUOUS
  5
555
 10
255.509365
 20
491.965873
 30
0.0
 11
258.530628
 21
494.987136
 31
0.0
  0
LINE
  8
LC-004-005-----0
  6
CONTINUOUS
  5
556
 10
255.26892
 20
492.00827
 30
0.0
 11
258.290183
 21
495.029533
 31
0.0
  0
LINE
  8
LC-004-005-----0
  6
CONTINUOUS
  5
557
 10
255.028474
 20
492.050667
 30
0.0
 11
258.049737
 21
495.07193
 31
0.0
  0
LINE
  8
LC-004-005-----0
  6
CONTINUOUS
  5
558
 10
254.788028
 20
492.093064
 30
0.0
 11
257.809291
 21
495.114327
 31
0.0
  0
LINE
  8
LC-004-005-----0
  6
CONTINUOUS
  5
559
 10
254.547583
 20
492.135461
 30
0.0
 11
257.568846
 21
495.156724
 31
0.0
  0
LINE
  8
LC-004-005-----0
  6
CONTINUOUS
  5
55A
 10
254.307137
 20
492.177858
 30
0.0
 11
257.3284
 21
495.199121
 31
0.0
  0
LINE
  8
LC-004-005-----0
  6
CONTINUOUS
  5
55B
 10
254.066691
 20
492.220255
 30
0.0
 11
257.087954
 21
495.241518
 31
0.0
  0
LINE
  8
LC-004-005-----0
  6
CONTINUOUS
  5
55C
 10
253.826246
 20
492.262652
 30
0.0
 11
256.847509
 21
495.283915
 31
0.0
  0
LINE
  8
LC-004-005-----0
  6
CONTINUOUS
  5
55D
 10
253.5858
 20
492.305049
 30
0.0
 11
256.607063
 21
495.326312
 31
0.0
  0
LINE
  8
LC-004-005-----0
  6
CONTINUOUS
  5
55E
 10
253.345354
 20
492.347446
 30
0.0
 11
256.366617
 21
495.368709
 31
0.0
  0
LINE
  8
LC-004-005-----0
  6
CONTINUOUS
  5
55F
 10
253.104909
 20
492.389843
 30
0.0
 11
256.126172
 21
495.411106
 31
0.0
  0
LINE
  8
LC-004-005-----0
  6
CONTINUOUS
  5
560
 10
252.864463
 20
492.43224
 30
0.0
 11
255.885726
 21
495.453503
 31
0.0
  0
LINE
  8
LC-004-005-----0
  6
CONTINUOUS
  5
561
 10
252.624017
 20
492.474638
 30
0.0
 11
255.64528
 21
495.495901
 31
0.0
  0
LINE
  8
LC-004-005-----0
  6
CONTINUOUS
  5
562
 10
252.383572
 20
492.517035
 30
0.0
 11
255.404835
 21
495.538298
 31
0.0
  0
LINE
  8
LC-004-005-----0
  6
CONTINUOUS
  5
563
 10
252.143126
 20
492.559432
 30
0.0
 11
255.164389
 21
495.580695
 31
0.0
  0
LINE
  8
LC-004-005-----0
  6
CONTINUOUS
  5
564
 10
251.90268
 20
492.601829
 30
0.0
 11
254.923943
 21
495.623092
 31
0.0
  0
LINE
  8
LC-004-005-----0
  6
CONTINUOUS
  5
565
 10
251.882499
 20
492.86449
 30
0.0
 11
254.683498
 21
495.665489
 31
0.0
  0
LINE
  8
LC-004-005-----0
  6
CONTINUOUS
  5
566
 10
251.882499
 20
493.147333
 30
0.0
 11
254.443052
 21
495.707886
 31
0.0
  0
LINE
  8
LC-004-005-----0
  6
CONTINUOUS
  5
567
 10
251.882499
 20
493.430175
 30
0.0
 11
254.202606
 21
495.750283
 31
0.0
  0
LINE
  8
LC-004-005-----0
  6
CONTINUOUS
  5
568
 10
251.882499
 20
493.713018
 30
0.0
 11
253.962161
 21
495.79268
 31
0.0
  0
LINE
  8
LC-004-005-----0
  6
CONTINUOUS
  5
569
 10
251.882499
 20
493.995861
 30
0.0
 11
253.721715
 21
495.835077
 31
0.0
  0
LINE
  8
LC-004-005-----0
  6
CONTINUOUS
  5
56A
 10
251.882499
 20
494.278704
 30
0.0
 11
253.481269
 21
495.877474
 31
0.0
  0
LINE
  8
LC-004-005-----0
  6
CONTINUOUS
  5
56B
 10
251.882499
 20
494.561546
 30
0.0
 11
253.240824
 21
495.919871
 31
0.0
  0
LINE
  8
LC-004-005-----0
  6
CONTINUOUS
  5
56C
 10
251.882499
 20
494.844389
 30
0.0
 11
253.000378
 21
495.962268
 31
0.0
  0
LINE
  8
LC-004-005-----0
  6
CONTINUOUS
  5
56D
 10
251.882499
 20
495.127232
 30
0.0
 11
252.759932
 21
496.004665
 31
0.0
  0
LINE
  8
LC-004-005-----0
  6
CONTINUOUS
  5
56E
 10
251.882499
 20
495.410074
 30
0.0
 11
252.519487
 21
496.047062
 31
0.0
  0
LINE
  8
LC-004-005-----0
  6
CONTINUOUS
  5
56F
 10
251.882499
 20
495.692917
 30
0.0
 11
252.279041
 21
496.089459
 31
0.0
  0
LINE
  8
LC-004-005-----0
  6
CONTINUOUS
  5
570
 10
251.882499
 20
495.97576
 30
0.0
 11
252.038596
 21
496.131856
 31
0.0
  0
ENDBLK
  8
0
  5
571
  0
BLOCK
  8
0
  5
573
  2
*X44
 70
    65
 10
231.882499
 20
494.368657
 30
0.0
  3
*X44
  0
LINE
  8
LC-004-005-----0
  6
CONTINUOUS
  5
574
 10
241.803963
 20
494.382505
 30
0.0
 11
241.882499
 21
494.461041
 31
0.0
  0
LINE
  8
LC-004-005-----0
  6
CONTINUOUS
  5
575
 10
241.563517
 20
494.424902
 30
0.0
 11
241.882499
 21
494.743884
 31
0.0
  0
LINE
  8
LC-004-005-----0
  6
CONTINUOUS
  5
576
 10
241.323072
 20
494.467299
 30
0.0
 11
241.882499
 21
495.026727
 31
0.0
  0
LINE
  8
LC-004-005-----0
  6
CONTINUOUS
  5
577
 10
241.082626
 20
494.509696
 30
0.0
 11
241.882499
 21
495.309569
 31
0.0
  0
LINE
  8
LC-004-005-----0
  6
CONTINUOUS
  5
578
 10
240.84218
 20
494.552093
 30
0.0
 11
241.882499
 21
495.592412
 31
0.0
  0
LINE
  8
LC-004-005-----0
  6
CONTINUOUS
  5
579
 10
240.601735
 20
494.59449
 30
0.0
 11
241.882499
 21
495.875255
 31
0.0
  0
LINE
  8
LC-004-005-----0
  6
CONTINUOUS
  5
57A
 10
240.361289
 20
494.636887
 30
0.0
 11
241.882499
 21
496.158098
 31
0.0
  0
LINE
  8
LC-004-005-----0
  6
CONTINUOUS
  5
57B
 10
240.120843
 20
494.679284
 30
0.0
 11
241.882499
 21
496.44094
 31
0.0
  0
LINE
  8
LC-004-005-----0
  6
CONTINUOUS
  5
57C
 10
239.880398
 20
494.721682
 30
0.0
 11
241.882499
 21
496.723783
 31
0.0
  0
LINE
  8
LC-004-005-----0
  6
CONTINUOUS
  5
57D
 10
239.639952
 20
494.764079
 30
0.0
 11
241.882499
 21
497.006626
 31
0.0
  0
LINE
  8
LC-004-005-----0
  6
CONTINUOUS
  5
57E
 10
239.382799
 20
494.789769
 30
0.0
 11
241.882499
 21
497.289468
 31
0.0
  0
LINE
  8
LC-004-005-----0
  6
CONTINUOUS
  5
57F
 10
239.099956
 20
494.789769
 30
0.0
 11
241.882499
 21
497.572311
 31
0.0
  0
LINE
  8
LC-004-005-----0
  6
CONTINUOUS
  5
580
 10
238.817114
 20
494.789769
 30
0.0
 11
241.882499
 21
497.855154
 31
0.0
  0
LINE
  8
LC-004-005-----0
  6
CONTINUOUS
  5
581
 10
238.534271
 20
494.789769
 30
0.0
 11
241.699432
 21
497.95493
 31
0.0
  0
LINE
  8
LC-004-005-----0
  6
CONTINUOUS
  5
582
 10
238.251428
 20
494.789769
 30
0.0
 11
241.458987
 21
497.997327
 31
0.0
  0
LINE
  8
LC-004-005-----0
  6
CONTINUOUS
  5
583
 10
237.968586
 20
494.789769
 30
0.0
 11
241.218541
 21
498.039724
 31
0.0
  0
LINE
  8
LC-004-005-----0
  6
CONTINUOUS
  5
584
 10
237.685743
 20
494.789769
 30
0.0
 11
240.978095
 21
498.082121
 31
0.0
  0
LINE
  8
LC-004-005-----0
  6
CONTINUOUS
  5
585
 10
237.4029
 20
494.789769
 30
0.0
 11
240.73765
 21
498.124518
 31
0.0
  0
LINE
  8
LC-004-005-----0
  6
CONTINUOUS
  5
586
 10
237.120057
 20
494.789769
 30
0.0
 11
240.497204
 21
498.166915
 31
0.0
  0
LINE
  8
LC-004-005-----0
  6
CONTINUOUS
  5
587
 10
236.837215
 20
494.789769
 30
0.0
 11
240.256758
 21
498.209312
 31
0.0
  0
LINE
  8
LC-004-005-----0
  6
CONTINUOUS
  5
588
 10
236.554372
 20
494.789769
 30
0.0
 11
240.016313
 21
498.251709
 31
0.0
  0
LINE
  8
LC-004-005-----0
  6
CONTINUOUS
  5
589
 10
236.271529
 20
494.789769
 30
0.0
 11
239.771529
 21
498.289769
 31
0.0
  0
LINE
  8
LC-004-005-----0
  6
CONTINUOUS
  5
58A
 10
235.988687
 20
494.789769
 30
0.0
 11
239.488687
 21
498.289769
 31
0.0
  0
LINE
  8
LC-004-005-----0
  6
CONTINUOUS
  5
58B
 10
235.705844
 20
494.789769
 30
0.0
 11
239.205844
 21
498.289769
 31
0.0
  0
LINE
  8
LC-004-005-----0
  6
CONTINUOUS
  5
58C
 10
235.423001
 20
494.789769
 30
0.0
 11
238.923001
 21
498.289769
 31
0.0
  0
LINE
  8
LC-004-005-----0
  6
CONTINUOUS
  5
58D
 10
235.140158
 20
494.789769
 30
0.0
 11
238.640158
 21
498.289769
 31
0.0
  0
LINE
  8
LC-004-005-----0
  6
CONTINUOUS
  5
58E
 10
234.857316
 20
494.789769
 30
0.0
 11
238.357316
 21
498.289769
 31
0.0
  0
LINE
  8
LC-004-005-----0
  6
CONTINUOUS
  5
58F
 10
234.574473
 20
494.789769
 30
0.0
 11
238.074473
 21
498.289769
 31
0.0
  0
LINE
  8
LC-004-005-----0
  6
CONTINUOUS
  5
590
 10
234.29163
 20
494.789769
 30
0.0
 11
237.79163
 21
498.289769
 31
0.0
  0
LINE
  8
LC-004-005-----0
  6
CONTINUOUS
  5
591
 10
234.008788
 20
494.789769
 30
0.0
 11
237.508788
 21
498.289769
 31
0.0
  0
LINE
  8
LC-004-005-----0
  6
CONTINUOUS
  5
592
 10
233.725945
 20
494.789769
 30
0.0
 11
237.225945
 21
498.289769
 31
0.0
  0
LINE
  8
LC-004-005-----0
  6
CONTINUOUS
  5
593
 10
233.443102
 20
494.789769
 30
0.0
 11
236.943102
 21
498.289769
 31
0.0
  0
LINE
  8
LC-004-005-----0
  6
CONTINUOUS
  5
594
 10
233.160259
 20
494.789769
 30
0.0
 11
236.660259
 21
498.289769
 31
0.0
  0
LINE
  8
LC-004-005-----0
  6
CONTINUOUS
  5
595
 10
232.877417
 20
494.789769
 30
0.0
 11
236.377417
 21
498.289769
 31
0.0
  0
LINE
  8
LC-004-005-----0
  6
CONTINUOUS
  5
596
 10
232.594574
 20
494.789769
 30
0.0
 11
236.094574
 21
498.289769
 31
0.0
  0
LINE
  8
LC-004-005-----0
  6
CONTINUOUS
  5
597
 10
232.311731
 20
494.789769
 30
0.0
 11
235.811731
 21
498.289769
 31
0.0
  0
LINE
  8
LC-004-005-----0
  6
CONTINUOUS
  5
598
 10
232.028889
 20
494.789769
 30
0.0
 11
235.528889
 21
498.289769
 31
0.0
  0
LINE
  8
LC-004-005-----0
  6
CONTINUOUS
  5
599
 10
231.882499
 20
494.926222
 30
0.0
 11
235.246046
 21
498.289769
 31
0.0
  0
LINE
  8
LC-004-005-----0
  6
CONTINUOUS
  5
59A
 10
231.882499
 20
495.209064
 30
0.0
 11
234.963203
 21
498.289769
 31
0.0
  0
LINE
  8
LC-004-005-----0
  6
CONTINUOUS
  5
59B
 10
231.882499
 20
495.491907
 30
0.0
 11
234.68036
 21
498.289769
 31
0.0
  0
LINE
  8
LC-004-005-----0
  6
CONTINUOUS
  5
59C
 10
231.882499
 20
495.77475
 30
0.0
 11
234.397518
 21
498.289769
 31
0.0
  0
LINE
  8
LC-004-005-----0
  6
CONTINUOUS
  5
59D
 10
231.882499
 20
496.057592
 30
0.0
 11
234.114675
 21
498.289769
 31
0.0
  0
LINE
  8
LC-004-005-----0
  6
CONTINUOUS
  5
59E
 10
231.882499
 20
496.340435
 30
0.0
 11
233.831832
 21
498.289769
 31
0.0
  0
LINE
  8
LC-004-005-----0
  6
CONTINUOUS
  5
59F
 10
231.882499
 20
496.623278
 30
0.0
 11
233.54899
 21
498.289769
 31
0.0
  0
LINE
  8
LC-004-005-----0
  6
CONTINUOUS
  5
5A0
 10
231.882499
 20
496.906121
 30
0.0
 11
233.266147
 21
498.289769
 31
0.0
  0
LINE
  8
LC-004-005-----0
  6
CONTINUOUS
  5
5A1
 10
231.882499
 20
497.188963
 30
0.0
 11
232.983304
 21
498.289769
 31
0.0
  0
LINE
  8
LC-004-005-----0
  6
CONTINUOUS
  5
5A2
 10
231.882499
 20
497.471806
 30
0.0
 11
232.700462
 21
498.289769
 31
0.0
  0
LINE
  8
LC-004-005-----0
  6
CONTINUOUS
  5
5A3
 10
231.882499
 20
497.754649
 30
0.0
 11
232.417619
 21
498.289769
 31
0.0
  0
LINE
  8
LC-004-005-----0
  6
CONTINUOUS
  5
5A4
 10
231.882499
 20
498.037491
 30
0.0
 11
232.134776
 21
498.289769
 31
0.0
  0
ENDBLK
  8
0
  5
5A5
  0
BLOCK
  8
0
  5
5A7
  2
*X45
 70
    65
 10
211.882499
 20
494.789769
 30
0.0
  3
*X45
  0
LINE
  8
LC-004-005-----0
  6
CONTINUOUS
  5
5A8
 10
221.846551
 20
494.789769
 30
0.0
 11
221.882499
 21
494.825717
 31
0.0
  0
LINE
  8
LC-004-005-----0
  6
CONTINUOUS
  5
5A9
 10
221.563708
 20
494.789769
 30
0.0
 11
221.882499
 21
495.108559
 31
0.0
  0
LINE
  8
LC-004-005-----0
  6
CONTINUOUS
  5
5AA
 10
221.280866
 20
494.789769
 30
0.0
 11
221.882499
 21
495.391402
 31
0.0
  0
LINE
  8
LC-004-005-----0
  6
CONTINUOUS
  5
5AB
 10
220.998023
 20
494.789769
 30
0.0
 11
221.882499
 21
495.674245
 31
0.0
  0
LINE
  8
LC-004-005-----0
  6
CONTINUOUS
  5
5AC
 10
220.71518
 20
494.789769
 30
0.0
 11
221.882499
 21
495.957087
 31
0.0
  0
LINE
  8
LC-004-005-----0
  6
CONTINUOUS
  5
5AD
 10
220.432337
 20
494.789769
 30
0.0
 11
221.882499
 21
496.23993
 31
0.0
  0
LINE
  8
LC-004-005-----0
  6
CONTINUOUS
  5
5AE
 10
220.149495
 20
494.789769
 30
0.0
 11
221.882499
 21
496.522773
 31
0.0
  0
LINE
  8
LC-004-005-----0
  6
CONTINUOUS
  5
5AF
 10
219.866652
 20
494.789769
 30
0.0
 11
221.882499
 21
496.805616
 31
0.0
  0
LINE
  8
LC-004-005-----0
  6
CONTINUOUS
  5
5B0
 10
219.583809
 20
494.789769
 30
0.0
 11
221.882499
 21
497.088458
 31
0.0
  0
LINE
  8
LC-004-005-----0
  6
CONTINUOUS
  5
5B1
 10
219.300967
 20
494.789769
 30
0.0
 11
221.882499
 21
497.371301
 31
0.0
  0
LINE
  8
LC-004-005-----0
  6
CONTINUOUS
  5
5B2
 10
219.018124
 20
494.789769
 30
0.0
 11
221.882499
 21
497.654144
 31
0.0
  0
LINE
  8
LC-004-005-----0
  6
CONTINUOUS
  5
5B3
 10
218.735281
 20
494.789769
 30
0.0
 11
221.882499
 21
497.936986
 31
0.0
  0
LINE
  8
LC-004-005-----0
  6
CONTINUOUS
  5
5B4
 10
218.452438
 20
494.789769
 30
0.0
 11
221.882499
 21
498.219829
 31
0.0
  0
LINE
  8
LC-004-005-----0
  6
CONTINUOUS
  5
5B5
 10
218.169596
 20
494.789769
 30
0.0
 11
221.669596
 21
498.289769
 31
0.0
  0
LINE
  8
LC-004-005-----0
  6
CONTINUOUS
  5
5B6
 10
217.886753
 20
494.789769
 30
0.0
 11
221.386753
 21
498.289769
 31
0.0
  0
LINE
  8
LC-004-005-----0
  6
CONTINUOUS
  5
5B7
 10
217.60391
 20
494.789769
 30
0.0
 11
221.10391
 21
498.289769
 31
0.0
  0
LINE
  8
LC-004-005-----0
  6
CONTINUOUS
  5
5B8
 10
217.321068
 20
494.789769
 30
0.0
 11
220.821068
 21
498.289769
 31
0.0
  0
LINE
  8
LC-004-005-----0
  6
CONTINUOUS
  5
5B9
 10
217.038225
 20
494.789769
 30
0.0
 11
220.538225
 21
498.289769
 31
0.0
  0
LINE
  8
LC-004-005-----0
  6
CONTINUOUS
  5
5BA
 10
216.755382
 20
494.789769
 30
0.0
 11
220.255382
 21
498.289769
 31
0.0
  0
LINE
  8
LC-004-005-----0
  6
CONTINUOUS
  5
5BB
 10
216.472539
 20
494.789769
 30
0.0
 11
219.972539
 21
498.289769
 31
0.0
  0
LINE
  8
LC-004-005-----0
  6
CONTINUOUS
  5
5BC
 10
216.189697
 20
494.789769
 30
0.0
 11
219.689697
 21
498.289769
 31
0.0
  0
LINE
  8
LC-004-005-----0
  6
CONTINUOUS
  5
5BD
 10
215.906854
 20
494.789769
 30
0.0
 11
219.406854
 21
498.289769
 31
0.0
  0
LINE
  8
LC-004-005-----0
  6
CONTINUOUS
  5
5BE
 10
215.624011
 20
494.789769
 30
0.0
 11
219.124011
 21
498.289769
 31
0.0
  0
LINE
  8
LC-004-005-----0
  6
CONTINUOUS
  5
5BF
 10
215.341169
 20
494.789769
 30
0.0
 11
218.841169
 21
498.289769
 31
0.0
  0
LINE
  8
LC-004-005-----0
  6
CONTINUOUS
  5
5C0
 10
215.058326
 20
494.789769
 30
0.0
 11
218.558326
 21
498.289769
 31
0.0
  0
LINE
  8
LC-004-005-----0
  6
CONTINUOUS
  5
5C1
 10
214.775483
 20
494.789769
 30
0.0
 11
218.275483
 21
498.289769
 31
0.0
  0
LINE
  8
LC-004-005-----0
  6
CONTINUOUS
  5
5C2
 10
214.49264
 20
494.789769
 30
0.0
 11
217.99264
 21
498.289769
 31
0.0
  0
LINE
  8
LC-004-005-----0
  6
CONTINUOUS
  5
5C3
 10
214.209798
 20
494.789769
 30
0.0
 11
217.709798
 21
498.289769
 31
0.0
  0
LINE
  8
LC-004-005-----0
  6
CONTINUOUS
  5
5C4
 10
213.926955
 20
494.789769
 30
0.0
 11
217.426955
 21
498.289769
 31
0.0
  0
LINE
  8
LC-004-005-----0
  6
CONTINUOUS
  5
5C5
 10
213.644112
 20
494.789769
 30
0.0
 11
217.144112
 21
498.289769
 31
0.0
  0
LINE
  8
LC-004-005-----0
  6
CONTINUOUS
  5
5C6
 10
213.36127
 20
494.789769
 30
0.0
 11
216.86127
 21
498.289769
 31
0.0
  0
LINE
  8
LC-004-005-----0
  6
CONTINUOUS
  5
5C7
 10
213.078427
 20
494.789769
 30
0.0
 11
216.578427
 21
498.289769
 31
0.0
  0
LINE
  8
LC-004-005-----0
  6
CONTINUOUS
  5
5C8
 10
212.795584
 20
494.789769
 30
0.0
 11
216.295584
 21
498.289769
 31
0.0
  0
LINE
  8
LC-004-005-----0
  6
CONTINUOUS
  5
5C9
 10
212.512741
 20
494.789769
 30
0.0
 11
216.012741
 21
498.289769
 31
0.0
  0
LINE
  8
LC-004-005-----0
  6
CONTINUOUS
  5
5CA
 10
212.229899
 20
494.789769
 30
0.0
 11
215.729899
 21
498.289769
 31
0.0
  0
LINE
  8
LC-004-005-----0
  6
CONTINUOUS
  5
5CB
 10
211.947056
 20
494.789769
 30
0.0
 11
215.447056
 21
498.289769
 31
0.0
  0
LINE
  8
LC-004-005-----0
  6
CONTINUOUS
  5
5CC
 10
211.882499
 20
495.008054
 30
0.0
 11
215.164213
 21
498.289769
 31
0.0
  0
LINE
  8
LC-004-005-----0
  6
CONTINUOUS
  5
5CD
 10
211.882499
 20
495.290897
 30
0.0
 11
214.881371
 21
498.289769
 31
0.0
  0
LINE
  8
LC-004-005-----0
  6
CONTINUOUS
  5
5CE
 10
211.882499
 20
495.57374
 30
0.0
 11
214.598528
 21
498.289769
 31
0.0
  0
LINE
  8
LC-004-005-----0
  6
CONTINUOUS
  5
5CF
 10
211.882499
 20
495.856582
 30
0.0
 11
214.315685
 21
498.289769
 31
0.0
  0
LINE
  8
LC-004-005-----0
  6
CONTINUOUS
  5
5D0
 10
211.882499
 20
496.139425
 30
0.0
 11
214.032842
 21
498.289769
 31
0.0
  0
LINE
  8
LC-004-005-----0
  6
CONTINUOUS
  5
5D1
 10
211.882499
 20
496.422268
 30
0.0
 11
213.75
 21
498.289769
 31
0.0
  0
LINE
  8
LC-004-005-----0
  6
CONTINUOUS
  5
5D2
 10
211.882499
 20
496.705111
 30
0.0
 11
213.467157
 21
498.289769
 31
0.0
  0
LINE
  8
LC-004-005-----0
  6
CONTINUOUS
  5
5D3
 10
211.882499
 20
496.987953
 30
0.0
 11
213.184314
 21
498.289769
 31
0.0
  0
LINE
  8
LC-004-005-----0
  6
CONTINUOUS
  5
5D4
 10
211.882499
 20
497.270796
 30
0.0
 11
212.901472
 21
498.289769
 31
0.0
  0
LINE
  8
LC-004-005-----0
  6
CONTINUOUS
  5
5D5
 10
211.882499
 20
497.553639
 30
0.0
 11
212.618629
 21
498.289769
 31
0.0
  0
LINE
  8
LC-004-005-----0
  6
CONTINUOUS
  5
5D6
 10
211.882499
 20
497.836481
 30
0.0
 11
212.335786
 21
498.289769
 31
0.0
  0
LINE
  8
LC-004-005-----0
  6
CONTINUOUS
  5
5D7
 10
211.882499
 20
498.119324
 30
0.0
 11
212.052943
 21
498.289769
 31
0.0
  0
ENDBLK
  8
0
  5
5D8
  0
BLOCK
  8
0
  5
5DA
  2
*D46
 70
    65
 10
0.0
 20
0.0
 30
0.0
  3
*D46
  0
LINE
  8
LC-007-003-MTH-0
  6
CONTINUOUS
  5
5DB
 10
264.582499
 20
486.977871
 30
0.0
 11
264.582499
 21
730.8
 31
0.0
  0
LINE
  8
LC-007-003-MTH-0
  6
CONTINUOUS
  5
5DC
 10
580.582499
 20
639.605904
 30
0.0
 11
580.582499
 21
730.8
 31
0.0
  0
LINE
  8
LC-008-003-MTG-0
  6
CONTINUOUS
  5
5DD
 10
264.582499
 20
720.0
 30
0.0
 11
580.582499
 21
720.0
 31
0.0
  0
LINE
  8
LC-006-003-----0
  6
CONTINUOUS
  5
5DE
 10
282.428507
 20
722.349471
 30
0.0
 11
264.582499
 21
720.0
 31
0.0
  0
LINE
  8
LC-006-003-----0
  6
CONTINUOUS
  5
5DF
 10
264.582499
 20
720.0
 30
0.0
 11
282.428507
 21
717.650529
 31
0.0
  0
LINE
  8
LC-006-003-----0
  6
CONTINUOUS
  5
5E0
 10
282.428507
 20
717.650529
 30
0.0
 11
282.428507
 21
722.349471
 31
0.0
  0
LINE
  8
LC-006-003-----0
  6
CONTINUOUS
  5
5E1
 10
282.468545
 20
721.738609
 30
0.0
 11
269.262499
 21
720.0
 31
0.0
  0
LINE
  8
LC-006-003-----0
  6
CONTINUOUS
  5
5E2
 10
269.262499
 20
720.0
 30
0.0
 11
282.468545
 21
718.261391
 31
0.0
  0
LINE
  8
LC-006-003-----0
  6
CONTINUOUS
  5
5E3
 10
282.508583
 20
721.127746
 30
0.0
 11
273.942499
 21
720.0
 31
0.0
  0
LINE
  8
LC-006-003-----0
  6
CONTINUOUS
  5
5E4
 10
273.942499
 20
720.0
 30
0.0
 11
282.508583
 21
718.872254
 31
0.0
  0
LINE
  8
LC-006-003-----0
  6
CONTINUOUS
  5
5E5
 10
282.548621
 20
720.516884
 30
0.0
 11
278.622499
 21
720.0
 31
0.0
  0
LINE
  8
LC-006-003-----0
  6
CONTINUOUS
  5
5E6
 10
278.622499
 20
720.0
 30
0.0
 11
282.548621
 21
719.483116
 31
0.0
  0
LINE
  8
LC-006-003-----0
  6
CONTINUOUS
  5
5E7
 10
562.736492
 20
717.650529
 30
0.0
 11
580.582499
 21
720.0
 31
0.0
  0
LINE
  8
LC-006-003-----0
  6
CONTINUOUS
  5
5E8
 10
580.582499
 20
720.0
 30
0.0
 11
562.736492
 21
722.349471
 31
0.0
  0
LINE
  8
LC-006-003-----0
  6
CONTINUOUS
  5
5E9
 10
562.736492
 20
722.349471
 30
0.0
 11
562.736492
 21
717.650529
 31
0.0
  0
LINE
  8
LC-006-003-----0
  6
CONTINUOUS
  5
5EA
 10
562.696453
 20
718.261391
 30
0.0
 11
575.902499
 21
720.0
 31
0.0
  0
LINE
  8
LC-006-003-----0
  6
CONTINUOUS
  5
5EB
 10
575.902499
 20
720.0
 30
0.0
 11
562.696453
 21
721.738609
 31
0.0
  0
LINE
  8
LC-006-003-----0
  6
CONTINUOUS
  5
5EC
 10
562.656415
 20
718.872254
 30
0.0
 11
571.222499
 21
720.0
 31
0.0
  0
LINE
  8
LC-006-003-----0
  6
CONTINUOUS
  5
5ED
 10
571.222499
 20
720.0
 30
0.0
 11
562.656415
 21
721.127746
 31
0.0
  0
LINE
  8
LC-006-003-----0
  6
CONTINUOUS
  5
5EE
 10
562.616377
 20
719.483116
 30
0.0
 11
566.542499
 21
720.0
 31
0.0
  0
LINE
  8
LC-006-003-----0
  6
CONTINUOUS
  5
5EF
 10
566.542499
 20
720.0
 30
0.0
 11
562.616377
 21
720.516884
 31
0.0
  0
TEXT
  8
LC-006-003-----0
  6
CONTINUOUS
 62
     6
  5
5F0
 10
400.886406
 20
730.431999
 30
0.0
 40
18.0
  1
Ø315
 51
15.0
  7
LC-TXTSTYLE-150-400-0-0-D0
 72
     1
 11
425.377745
 21
730.431999
 31
0.0
  0
ENDBLK
  8
0
  5
5F1
  0
BLOCK
  8
0
  5
5F3
  2
*D47
 70
    65
 10
0.0
 20
0.0
 30
0.0
  3
*D47
  0
LINE
  8
LC-007-003-MTH-0
  6
CONTINUOUS
  5
5F4
 10
580.582499
 20
490.366035
 30
0.0
 11
668.8
 21
490.366035
 31
0.0
  0
LINE
  8
LC-007-003-MTH-0
  6
CONTINUOUS
  5
5F5
 10
545.286937
 20
617.58443
 30
0.0
 11
668.8
 21
617.58443
 31
0.0
  0
LINE
  8
LC-008-003-MTG-0
  6
CONTINUOUS
  5
5F6
 10
658.0
 20
490.366035
 30
0.0
 11
658.0
 21
617.58443
 31
0.0
  0
LINE
  8
LC-006-003-----0
  6
CONTINUOUS
  5
5F7
 10
655.650529
 20
508.212042
 30
0.0
 11
658.0
 21
490.366035
 31
0.0
  0
LINE
  8
LC-006-003-----0
  6
CONTINUOUS
  5
5F8
 10
658.0
 20
490.366035
 30
0.0
 11
660.349471
 21
508.212042
 31
0.0
  0
LINE
  8
LC-006-003-----0
  6
CONTINUOUS
  5
5F9
 10
660.349471
 20
508.212042
 30
0.0
 11
655.650529
 21
508.212042
 31
0.0
  0
LINE
  8
LC-006-003-----0
  6
CONTINUOUS
  5
5FA
 10
656.261391
 20
508.25208
 30
0.0
 11
658.0
 21
495.046035
 31
0.0
  0
LINE
  8
LC-006-003-----0
  6
CONTINUOUS
  5
5FB
 10
658.0
 20
495.046035
 30
0.0
 11
659.738609
 21
508.25208
 31
0.0
  0
LINE
  8
LC-006-003-----0
  6
CONTINUOUS
  5
5FC
 10
656.872254
 20
508.292118
 30
0.0
 11
658.0
 21
499.726035
 31
0.0
  0
LINE
  8
LC-006-003-----0
  6
CONTINUOUS
  5
5FD
 10
658.0
 20
499.726035
 30
0.0
 11
659.127746
 21
508.292118
 31
0.0
  0
LINE
  8
LC-006-003-----0
  6
CONTINUOUS
  5
5FE
 10
657.483116
 20
508.332156
 30
0.0
 11
658.0
 21
504.406035
 31
0.0
  0
LINE
  8
LC-006-003-----0
  6
CONTINUOUS
  5
5FF
 10
658.0
 20
504.406035
 30
0.0
 11
658.516884
 21
508.332156
 31
0.0
  0
LINE
  8
LC-006-003-----0
  6
CONTINUOUS
  5
600
 10
660.349471
 20
599.738422
 30
0.0
 11
658.0
 21
617.58443
 31
0.0
  0
LINE
  8
LC-006-003-----0
  6
CONTINUOUS
  5
601
 10
658.0
 20
617.58443
 30
0.0
 11
655.650529
 21
599.738422
 31
0.0
  0
LINE
  8
LC-006-003-----0
  6
CONTINUOUS
  5
602
 10
655.650529
 20
599.738422
 30
0.0
 11
660.349471
 21
599.738422
 31
0.0
  0
LINE
  8
LC-006-003-----0
  6
CONTINUOUS
  5
603
 10
659.738609
 20
599.698384
 30
0.0
 11
658.0
 21
612.90443
 31
0.0
  0
LINE
  8
LC-006-003-----0
  6
CONTINUOUS
  5
604
 10
658.0
 20
612.90443
 30
0.0
 11
656.261391
 21
599.698384
 31
0.0
  0
LINE
  8
LC-006-003-----0
  6
CONTINUOUS
  5
605
 10
659.127746
 20
599.658346
 30
0.0
 11
658.0
 21
608.22443
 31
0.0
  0
LINE
  8
LC-006-003-----0
  6
CONTINUOUS
  5
606
 10
658.0
 20
608.22443
 30
0.0
 11
656.872254
 21
599.658346
 31
0.0
  0
LINE
  8
LC-006-003-----0
  6
CONTINUOUS
  5
607
 10
658.516884
 20
599.618308
 30
0.0
 11
658.0
 21
603.54443
 31
0.0
  0
LINE
  8
LC-006-003-----0
  6
CONTINUOUS
  5
608
 10
658.0
 20
603.54443
 30
0.0
 11
657.483116
 21
599.618308
 31
0.0
  0
TEXT
  8
LC-006-003-----0
  6
CONTINUOUS
 62
     6
  5
609
 10
647.568001
 20
514.994887
 30
0.0
 40
18.0
  1
55-135
 50
90.0
 51
15.0
  7
LC-TXTSTYLE-150-400-0-0-D0
 72
     1
 11
647.568001
 21
556.770478
 31
0.0
  0
ENDBLK
  8
0
  5
60A
  0
BLOCK
  8
0
  5
60C
  2
*D48
 70
    65
 10
0.0
 20
0.0
 30
0.0
  3
*D48
  0
LINE
  8
LC-007-003-MTH-0
  6
CONTINUOUS
  5
60D
 10
502.239087
 20
297.161947
 30
0.0
 11
668.8
 21
297.161947
 31
0.0
  0
LINE
  8
LC-007-003-MTH-0
  6
CONTINUOUS
  5
60E
 10
580.582499
 20
490.366035
 30
0.0
 11
668.8
 21
490.366035
 31
0.0
  0
LINE
  8
LC-008-003-MTG-0
  6
CONTINUOUS
  5
60F
 10
658.0
 20
297.161947
 30
0.0
 11
658.0
 21
490.366035
 31
0.0
  0
LINE
  8
LC-006-003-----0
  6
CONTINUOUS
  5
610
 10
655.650529
 20
315.007955
 30
0.0
 11
658.0
 21
297.161947
 31
0.0
  0
LINE
  8
LC-006-003-----0
  6
CONTINUOUS
  5
611
 10
658.0
 20
297.161947
 30
0.0
 11
660.349471
 21
315.007955
 31
0.0
  0
LINE
  8
LC-006-003-----0
  6
CONTINUOUS
  5
612
 10
660.349471
 20
315.007955
 30
0.0
 11
655.650529
 21
315.007955
 31
0.0
  0
LINE
  8
LC-006-003-----0
  6
CONTINUOUS
  5
613
 10
656.261391
 20
315.047993
 30
0.0
 11
658.0
 21
301.841947
 31
0.0
  0
LINE
  8
LC-006-003-----0
  6
CONTINUOUS
  5
614
 10
658.0
 20
301.841947
 30
0.0
 11
659.738609
 21
315.047993
 31
0.0
  0
LINE
  8
LC-006-003-----0
  6
CONTINUOUS
  5
615
 10
656.872254
 20
315.088031
 30
0.0
 11
658.0
 21
306.521947
 31
0.0
  0
LINE
  8
LC-006-003-----0
  6
CONTINUOUS
  5
616
 10
658.0
 20
306.521947
 30
0.0
 11
659.127746
 21
315.088031
 31
0.0
  0
LINE
  8
LC-006-003-----0
  6
CONTINUOUS
  5
617
 10
657.483116
 20
315.128069
 30
0.0
 11
658.0
 21
311.201947
 31
0.0
  0
LINE
  8
LC-006-003-----0
  6
CONTINUOUS
  5
618
 10
658.0
 20
311.201947
 30
0.0
 11
658.516884
 21
315.128069
 31
0.0
  0
LINE
  8
LC-006-003-----0
  6
CONTINUOUS
  5
619
 10
660.349471
 20
472.520027
 30
0.0
 11
658.0
 21
490.366035
 31
0.0
  0
LINE
  8
LC-006-003-----0
  6
CONTINUOUS
  5
61A
 10
658.0
 20
490.366035
 30
0.0
 11
655.650529
 21
472.520027
 31
0.0
  0
LINE
  8
LC-006-003-----0
  6
CONTINUOUS
  5
61B
 10
655.650529
 20
472.520027
 30
0.0
 11
660.349471
 21
472.520027
 31
0.0
  0
LINE
  8
LC-006-003-----0
  6
CONTINUOUS
  5
61C
 10
659.738609
 20
472.479989
 30
0.0
 11
658.0
 21
485.686035
 31
0.0
  0
LINE
  8
LC-006-003-----0
  6
CONTINUOUS
  5
61D
 10
658.0
 20
485.686035
 30
0.0
 11
656.261391
 21
472.479989
 31
0.0
  0
LINE
  8
LC-006-003-----0
  6
CONTINUOUS
  5
61E
 10
659.127746
 20
472.439951
 30
0.0
 11
658.0
 21
481.006035
 31
0.0
  0
LINE
  8
LC-006-003-----0
  6
CONTINUOUS
  5
61F
 10
658.0
 20
481.006035
 30
0.0
 11
656.872254
 21
472.439951
 31
0.0
  0
LINE
  8
LC-006-003-----0
  6
CONTINUOUS
  5
620
 10
658.516884
 20
472.399913
 30
0.0
 11
658.0
 21
476.326035
 31
0.0
  0
LINE
  8
LC-006-003-----0
  6
CONTINUOUS
  5
621
 10
658.0
 20
476.326035
 30
0.0
 11
657.483116
 21
472.399913
 31
0.0
  0
TEXT
  8
LC-006-003-----0
  6
CONTINUOUS
 62
     6
  5
622
 10
647.568001
 20
377.425378
 30
0.0
 40
18.0
  1
197
 50
90.0
 51
15.0
  7
LC-TXTSTYLE-150-400-0-0-D0
 72
     1
 11
647.568001
 21
396.559237
 31
0.0
  0
ENDBLK
  8
0
  5
623
  0
BLOCK
  8
0
  5
625
  2
*D49
 70
    65
 10
0.0
 20
0.0
 30
0.0
  3
*D49
  0
LINE
  8
LC-007-003-MTH-0
  6
CONTINUOUS
  5
626
 10
476.376728
 20
235.161947
 30
0.0
 11
668.8
 21
235.161947
 31
0.0
  0
LINE
  8
LC-007-003-MTH-0
  6
CONTINUOUS
  5
627
 10
502.239087
 20
297.161947
 30
0.0
 11
668.8
 21
297.161947
 31
0.0
  0
LINE
  8
LC-008-003-MTG-0
  6
CONTINUOUS
  5
628
 10
658.0
 20
235.161947
 30
0.0
 11
658.0
 21
297.161947
 31
0.0
  0
LINE
  8
LC-006-003-----0
  6
CONTINUOUS
  5
629
 10
655.650529
 20
253.007955
 30
0.0
 11
658.0
 21
235.161947
 31
0.0
  0
LINE
  8
LC-006-003-----0
  6
CONTINUOUS
  5
62A
 10
658.0
 20
235.161947
 30
0.0
 11
660.349471
 21
253.007955
 31
0.0
  0
LINE
  8
LC-006-003-----0
  6
CONTINUOUS
  5
62B
 10
660.349471
 20
253.007955
 30
0.0
 11
655.650529
 21
253.007955
 31
0.0
  0
LINE
  8
LC-006-003-----0
  6
CONTINUOUS
  5
62C
 10
656.261391
 20
253.047993
 30
0.0
 11
658.0
 21
239.841947
 31
0.0
  0
LINE
  8
LC-006-003-----0
  6
CONTINUOUS
  5
62D
 10
658.0
 20
239.841947
 30
0.0
 11
659.738609
 21
253.047993
 31
0.0
  0
LINE
  8
LC-006-003-----0
  6
CONTINUOUS
  5
62E
 10
656.872254
 20
253.088031
 30
0.0
 11
658.0
 21
244.521947
 31
0.0
  0
LINE
  8
LC-006-003-----0
  6
CONTINUOUS
  5
62F
 10
658.0
 20
244.521947
 30
0.0
 11
659.127746
 21
253.088031
 31
0.0
  0
LINE
  8
LC-006-003-----0
  6
CONTINUOUS
  5
630
 10
657.483116
 20
253.128069
 30
0.0
 11
658.0
 21
249.201947
 31
0.0
  0
LINE
  8
LC-006-003-----0
  6
CONTINUOUS
  5
631
 10
658.0
 20
249.201947
 30
0.0
 11
658.516884
 21
253.128069
 31
0.0
  0
LINE
  8
LC-006-003-----0
  6
CONTINUOUS
  5
632
 10
660.349471
 20
279.31594
 30
0.0
 11
658.0
 21
297.161947
 31
0.0
  0
LINE
  8
LC-006-003-----0
  6
CONTINUOUS
  5
633
 10
658.0
 20
297.161947
 30
0.0
 11
655.650529
 21
279.31594
 31
0.0
  0
LINE
  8
LC-006-003-----0
  6
CONTINUOUS
  5
634
 10
655.650529
 20
279.31594
 30
0.0
 11
660.349471
 21
279.31594
 31
0.0
  0
LINE
  8
LC-006-003-----0
  6
CONTINUOUS
  5
635
 10
659.738609
 20
279.275902
 30
0.0
 11
658.0
 21
292.481947
 31
0.0
  0
LINE
  8
LC-006-003-----0
  6
CONTINUOUS
  5
636
 10
658.0
 20
292.481947
 30
0.0
 11
656.261391
 21
279.275902
 31
0.0
  0
LINE
  8
LC-006-003-----0
  6
CONTINUOUS
  5
637
 10
659.127746
 20
279.235864
 30
0.0
 11
658.0
 21
287.801947
 31
0.0
  0
LINE
  8
LC-006-003-----0
  6
CONTINUOUS
  5
638
 10
658.0
 20
287.801947
 30
0.0
 11
656.872254
 21
279.235864
 31
0.0
  0
LINE
  8
LC-006-003-----0
  6
CONTINUOUS
  5
639
 10
658.516884
 20
279.195826
 30
0.0
 11
658.0
 21
283.121947
 31
0.0
  0
LINE
  8
LC-006-003-----0
  6
CONTINUOUS
  5
63A
 10
658.0
 20
283.121947
 30
0.0
 11
657.483116
 21
279.195826
 31
0.0
  0
TEXT
  8
LC-006-003-----0
  6
CONTINUOUS
 62
     6
  5
63B
 10
647.568001
 20
257.094201
 30
0.0
 40
18.0
  1
62
 50
90.0
 51
15.0
  7
LC-TXTSTYLE-150-400-0-0-D0
 72
     1
 11
647.568001
 21
268.957193
 31
0.0
  0
ENDBLK
  8
0
  5
63C
  0
BLOCK
  8
0
  5
63E
  2
BLK3
 70
    64
 10
0.0
 20
0.0
 30
0.0
  3
BLK3
  0
ENDBLK
  8
0
  5
63F
  0
BLOCK
  8
0
  5
641
  2
*X51
 70
    65
 10
517.584758
 20
597.58443
 30
0.0
  3
*X51
  0
LINE
  8
LC-004-005-----0
  6
CONTINUOUS
  5
642
 10
533.883
 20
611.629985
 30
0.0
 11
527.928556
 21
617.58443
 31
0.0
  0
LINE
  8
LC-004-005-----0
  6
CONTINUOUS
  5
643
 10
533.74215
 20
608.942408
 30
0.0
 11
525.100129
 21
617.58443
 31
0.0
  0
LINE
  8
LC-004-005-----0
  6
CONTINUOUS
  5
644
 10
533.46045
 20
603.567254
 30
0.0
 11
519.447959
 21
617.579746
 31
0.0
  0
LINE
  8
LC-004-005-----0
  6
CONTINUOUS
  5
645
 10
533.3196
 20
600.879677
 30
0.0
 11
517.771338
 21
616.427939
 31
0.0
  0
LINE
  8
LC-004-005-----0
  6
CONTINUOUS
  5
646
 10
530.957993
 20
597.58443
 30
0.0
 11
517.837751
 21
610.704672
 31
0.0
  0
LINE
  8
LC-004-005-----0
  6
CONTINUOUS
  5
647
 10
528.129566
 20
597.58443
 30
0.0
 11
517.99418
 21
607.719815
 31
0.0
  0
LINE
  8
LC-004-005-----0
  6
CONTINUOUS
  5
648
 10
522.472712
 20
597.58443
 30
0.0
 11
518.30704
 21
601.750102
 31
0.0
  0
LINE
  8
LC-004-005-----0
  6
CONTINUOUS
  5
649
 10
519.297019
 20
597.931695
 30
0.0
 11
518.770549
 21
598.458166
 31
0.0
  0
ENDBLK
  8
0
  5
64A
  0
BLOCK
  8
0
  5
64C
  2
*X52
 70
    65
 10
357.58024
 20
583.58443
 30
0.0
  3
*X52
  0
LINE
  8
LC-004-005-----0
  6
CONTINUOUS
  5
64D
 10
487.442402
 20
612.815749
 30
0.0
 11
482.673722
 21
617.58443
 31
0.0
  0
LINE
  8
LC-004-005-----0
  6
CONTINUOUS
  5
64E
 10
487.301552
 20
610.128172
 30
0.0
 11
479.845295
 21
617.58443
 31
0.0
  0
LINE
  8
LC-004-005-----0
  6
CONTINUOUS
  5
64F
 10
487.019853
 20
604.753018
 30
0.0
 11
474.188441
 21
617.58443
 31
0.0
  0
LINE
  8
LC-004-005-----0
  6
CONTINUOUS
  5
650
 10
486.879003
 20
602.06544
 30
0.0
 11
471.360013
 21
617.58443
 31
0.0
  0
LINE
  8
LC-004-005-----0
  6
CONTINUOUS
  5
651
 10
485.53923
 20
597.748359
 30
0.0
 11
465.703159
 21
617.58443
 31
0.0
  0
LINE
  8
LC-004-005-----0
  6
CONTINUOUS
  5
652
 10
484.742631
 20
595.71653
 30
0.0
 11
462.874732
 21
617.58443
 31
0.0
  0
LINE
  8
LC-004-005-----0
  6
CONTINUOUS
  5
653
 10
480.146807
 20
594.6555
 30
0.0
 11
457.217878
 21
617.58443
 31
0.0
  0
LINE
  8
LC-004-005-----0
  6
CONTINUOUS
  5
654
 10
477.848895
 20
594.124986
 30
0.0
 11
454.389451
 21
617.58443
 31
0.0
  0
LINE
  8
LC-004-005-----0
  6
CONTINUOUS
  5
655
 10
473.25307
 20
593.063956
 30
0.0
 11
448.732596
 21
617.58443
 31
0.0
  0
LINE
  8
LC-004-005-----0
  6
CONTINUOUS
  5
656
 10
470.955158
 20
592.533441
 30
0.0
 11
445.904169
 21
617.58443
 31
0.0
  0
LINE
  8
LC-004-005-----0
  6
CONTINUOUS
  5
657
 10
466.359333
 20
591.472411
 30
0.0
 11
440.247315
 21
617.58443
 31
0.0
  0
LINE
  8
LC-004-005-----0
  6
CONTINUOUS
  5
658
 10
464.061421
 20
590.941897
 30
0.0
 11
437.418888
 21
617.58443
 31
0.0
  0
LINE
  8
LC-004-005-----0
  6
CONTINUOUS
  5
659
 10
459.465596
 20
589.880867
 30
0.0
 11
431.762034
 21
617.58443
 31
0.0
  0
LINE
  8
LC-004-005-----0
  6
CONTINUOUS
  5
65A
 10
457.167684
 20
589.350352
 30
0.0
 11
428.933607
 21
617.58443
 31
0.0
  0
LINE
  8
LC-004-005-----0
  6
CONTINUOUS
  5
65B
 10
452.57186
 20
588.289322
 30
0.0
 11
423.276752
 21
617.58443
 31
0.0
  0
LINE
  8
LC-004-005-----0
  6
CONTINUOUS
  5
65C
 10
450.273947
 20
587.758807
 30
0.0
 11
420.448325
 21
617.58443
 31
0.0
  0
LINE
  8
LC-004-005-----0
  6
CONTINUOUS
  5
65D
 10
445.678123
 20
586.697778
 30
0.0
 11
414.791471
 21
617.58443
 31
0.0
  0
LINE
  8
LC-004-005-----0
  6
CONTINUOUS
  5
65E
 10
443.380211
 20
586.167263
 30
0.0
 11
411.963044
 21
617.58443
 31
0.0
  0
LINE
  8
LC-004-005-----0
  6
CONTINUOUS
  5
65F
 10
438.784386
 20
585.106233
 30
0.0
 11
406.30619
 21
617.58443
 31
0.0
  0
LINE
  8
LC-004-005-----0
  6
CONTINUOUS
  5
660
 10
436.486474
 20
584.575718
 30
0.0
 11
403.477762
 21
617.58443
 31
0.0
  0
LINE
  8
LC-004-005-----0
  6
CONTINUOUS
  5
661
 10
431.820908
 20
583.58443
 30
0.0
 11
397.820908
 21
617.58443
 31
0.0
  0
LINE
  8
LC-004-005-----0
  6
CONTINUOUS
  5
662
 10
428.992481
 20
583.58443
 30
0.0
 11
394.992481
 21
617.58443
 31
0.0
  0
LINE
  8
LC-004-005-----0
  6
CONTINUOUS
  5
663
 10
423.335627
 20
583.58443
 30
0.0
 11
389.335627
 21
617.58443
 31
0.0
  0
LINE
  8
LC-004-005-----0
  6
CONTINUOUS
  5
664
 10
420.5072
 20
583.58443
 30
0.0
 11
386.5072
 21
617.58443
 31
0.0
  0
LINE
  8
LC-004-005-----0
  6
CONTINUOUS
  5
665
 10
414.850345
 20
583.58443
 30
0.0
 11
380.850345
 21
617.58443
 31
0.0
  0
LINE
  8
LC-004-005-----0
  6
CONTINUOUS
  5
666
 10
411.734476
 20
583.871872
 30
0.0
 11
378.021918
 21
617.58443
 31
0.0
  0
LINE
  8
LC-004-005-----0
  6
CONTINUOUS
  5
667
 10
404.379619
 20
585.569875
 30
0.0
 11
372.365064
 21
617.58443
 31
0.0
  0
LINE
  8
LC-004-005-----0
  6
CONTINUOUS
  5
668
 10
400.702191
 20
586.418876
 30
0.0
 11
369.536637
 21
617.58443
 31
0.0
  0
LINE
  8
LC-004-005-----0
  6
CONTINUOUS
  5
669
 10
393.347334
 20
588.116878
 30
0.0
 11
363.879783
 21
617.58443
 31
0.0
  0
LINE
  8
LC-004-005-----0
  6
CONTINUOUS
  5
66A
 10
389.669906
 20
588.96588
 30
0.0
 11
361.051356
 21
617.58443
 31
0.0
  0
LINE
  8
LC-004-005-----0
  6
CONTINUOUS
  5
66B
 10
382.315049
 20
590.663882
 30
0.0
 11
357.587616
 21
615.391315
 31
0.0
  0
LINE
  8
LC-004-005-----0
  6
CONTINUOUS
  5
66C
 10
378.63762
 20
591.512883
 30
0.0
 11
357.744046
 21
612.406458
 31
0.0
  0
LINE
  8
LC-004-005-----0
  6
CONTINUOUS
  5
66D
 10
371.282764
 20
593.210886
 30
0.0
 11
358.056905
 21
606.436744
 31
0.0
  0
LINE
  8
LC-004-005-----0
  6
CONTINUOUS
  5
66E
 10
367.605335
 20
594.059887
 30
0.0
 11
358.213335
 21
603.451888
 31
0.0
  0
ENDBLK
  8
0
  5
66F
  0
BLOCK
  8
0
  5
671
  2
*X53
 70
    65
 10
311.084758
 20
597.58443
 30
0.0
  3
*X53
  0
LINE
  8
LC-004-005-----0
  6
CONTINUOUS
  5
672
 10
323.440889
 20
612.768489
 30
0.0
 11
318.624949
 21
617.58443
 31
0.0
  0
LINE
  8
LC-004-005-----0
  6
CONTINUOUS
  5
673
 10
323.300039
 20
610.080912
 30
0.0
 11
315.796522
 21
617.58443
 31
0.0
  0
LINE
  8
LC-004-005-----0
  6
CONTINUOUS
  5
674
 10
323.018339
 20
604.705757
 30
0.0
 11
311.279283
 21
616.444814
 31
0.0
  0
LINE
  8
LC-004-005-----0
  6
CONTINUOUS
  5
675
 10
322.87749
 20
602.01818
 30
0.0
 11
311.179948
 21
613.715722
 31
0.0
  0
LINE
  8
LC-004-005-----0
  6
CONTINUOUS
  5
676
 10
321.505185
 20
597.733631
 30
0.0
 11
311.492808
 21
607.746008
 31
0.0
  0
LINE
  8
LC-004-005-----0
  6
CONTINUOUS
  5
677
 10
318.825959
 20
597.58443
 30
0.0
 11
311.649237
 21
604.761151
 31
0.0
  0
LINE
  8
LC-004-005-----0
  6
CONTINUOUS
  5
678
 10
312.868103
 20
597.885431
 30
0.0
 11
312.224284
 21
598.52925
 31
0.0
  0
ENDBLK
  8
0
  5
679
  0
BLOCK
  8
0
  5
67B
  2
*D54
 70
    65
 10
0.0
 20
0.0
 30
0.0
  3
*D54
  0
LINE
  8
LC-007-003-MTH-0
  6
CONTINUOUS
  5
67C
 10
311.087499
 20
615.479758
 30
0.0
 11
311.087499
 21
654.8
 31
0.0
  0
LINE
  8
LC-007-003-MTH-0
  6
CONTINUOUS
  5
67D
 10
534.084758
 20
615.479758
 30
0.0
 11
534.084758
 21
654.8
 31
0.0
  0
LINE
  8
LC-008-003-MTG-0
  6
CONTINUOUS
  5
67E
 10
311.087499
 20
644.0
 30
0.0
 11
534.084758
 21
644.0
 31
0.0
  0
LINE
  8
LC-006-003-----0
  6
CONTINUOUS
  5
67F
 10
328.933507
 20
646.349471
 30
0.0
 11
311.087499
 21
644.0
 31
0.0
  0
LINE
  8
LC-006-003-----0
  6
CONTINUOUS
  5
680
 10
311.087499
 20
644.0
 30
0.0
 11
328.933507
 21
641.650529
 31
0.0
  0
LINE
  8
LC-006-003-----0
  6
CONTINUOUS
  5
681
 10
328.933507
 20
641.650529
 30
0.0
 11
328.933507
 21
646.349471
 31
0.0
  0
LINE
  8
LC-006-003-----0
  6
CONTINUOUS
  5
682
 10
328.973545
 20
645.738609
 30
0.0
 11
315.767499
 21
644.0
 31
0.0
  0
LINE
  8
LC-006-003-----0
  6
CONTINUOUS
  5
683
 10
315.767499
 20
644.0
 30
0.0
 11
328.973545
 21
642.261391
 31
0.0
  0
LINE
  8
LC-006-003-----0
  6
CONTINUOUS
  5
684
 10
329.013583
 20
645.127746
 30
0.0
 11
320.447499
 21
644.0
 31
0.0
  0
LINE
  8
LC-006-003-----0
  6
CONTINUOUS
  5
685
 10
320.447499
 20
644.0
 30
0.0
 11
329.013583
 21
642.872254
 31
0.0
  0
LINE
  8
LC-006-003-----0
  6
CONTINUOUS
  5
686
 10
329.053621
 20
644.516884
 30
0.0
 11
325.127499
 21
644.0
 31
0.0
  0
LINE
  8
LC-006-003-----0
  6
CONTINUOUS
  5
687
 10
325.127499
 20
644.0
 30
0.0
 11
329.053621
 21
643.483116
 31
0.0
  0
LINE
  8
LC-006-003-----0
  6
CONTINUOUS
  5
688
 10
516.238751
 20
641.650529
 30
0.0
 11
534.084758
 21
644.0
 31
0.0
  0
LINE
  8
LC-006-003-----0
  6
CONTINUOUS
  5
689
 10
534.084758
 20
644.0
 30
0.0
 11
516.238751
 21
646.349471
 31
0.0
  0
LINE
  8
LC-006-003-----0
  6
CONTINUOUS
  5
68A
 10
516.238751
 20
646.349471
 30
0.0
 11
516.238751
 21
641.650529
 31
0.0
  0
LINE
  8
LC-006-003-----0
  6
CONTINUOUS
  5
68B
 10
516.198713
 20
642.261391
 30
0.0
 11
529.404758
 21
644.0
 31
0.0
  0
LINE
  8
LC-006-003-----0
  6
CONTINUOUS
  5
68C
 10
529.404758
 20
644.0
 30
0.0
 11
516.198713
 21
645.738609
 31
0.0
  0
LINE
  8
LC-006-003-----0
  6
CONTINUOUS
  5
68D
 10
516.158675
 20
642.872254
 30
0.0
 11
524.724758
 21
644.0
 31
0.0
  0
LINE
  8
LC-006-003-----0
  6
CONTINUOUS
  5
68E
 10
524.724758
 20
644.0
 30
0.0
 11
516.158675
 21
645.127746
 31
0.0
  0
LINE
  8
LC-006-003-----0
  6
CONTINUOUS
  5
68F
 10
516.118636
 20
643.483116
 30
0.0
 11
520.044758
 21
644.0
 31
0.0
  0
LINE
  8
LC-006-003-----0
  6
CONTINUOUS
  5
690
 10
520.044758
 20
644.0
 30
0.0
 11
516.118636
 21
644.516884
 31
0.0
  0
TEXT
  8
LC-006-003-----0
  6
CONTINUOUS
 62
     6
  5
691
 10
406.247516
 20
654.431999
 30
0.0
 40
18.0
  1
226
 51
15.0
  7
LC-TXTSTYLE-150-400-0-0-D0
 72
     1
 11
425.381374
 21
654.431999
 31
0.0
  0
ENDBLK
  8
0
  5
692
  0
ENDSEC
  0
SECTION
  2
ENTITIES
  0
VIEWPORT
  8
LC-000
  5
963
 67
     1
 68
     1
 10
594.0
 20
420.0
 30
0.0
 40
1188.0
 41
840.0
 69
     1
1001
ACAD
1000
MVIEW
1002
{
1070
    16
1010
0.0
1020
0.0
1030
0.0
1010
0.0
1020
0.0
1030
1.0
1040
0.0
1040
840.0
1040
594.0
1040
420.0
1040
50.0
1040
0.0
1040
0.0
1070
     0
1070
   100
1070
     1
1070
     1
1070
     0
1070
     0
1070
     0
1070
     0
1040
0.0
1040
0.0
1040
0.0
1040
1.0
1040
1.0
1040
0.0
1040
0.0
1070
     0
1002
{
1002
}
1002
}
  0
VIEWPORT
  8
0
  5
964
 67
     1
 68
     1
 10
0.0
 20
0.0
 30
0.0
 40
0.0
 41
0.0
 69
     1
1001
ACAD
1000
MVIEW
1002
{
1070
    16
1010
0.0
1020
0.0
1030
0.0
1010
0.0
1020
0.0
1030
1.0
1040
0.0
1040
840.0
1040
0.0
1040
0.0
1040
50.0
1040
0.0
1040
0.0
1070
     0
1070
   100
1070
     0
1070
     1
1070
     0
1070
     0
1070
     0
1070
     0
1040
0.0
1040
0.0
1040
0.0
1040
0.5
1040
0.5
1040
0.5
1040
0.5
1070
     0
1002
{
1002
}
1002
}
  0
INSERT
  8
0
  5
694
  2
BLK1
 10
0.0
 20
0.0
 30
0.0
  0
INSERT
  8
0
  5
695
  2
BLK2
 10
0.0
 20
0.0
 30
0.0
  0
INSERT
  8
0
  5
696
  2
*X2
 10
325.582499
 20
577.194179
 30
0.0
  0
INSERT
  8
0
  5
697
  2
*X3
 10
349.838597
 20
529.519753
 30
0.0
  0
INSERT
  8
0
  5
698
  2
*X4
 10
409.582499
 20
527.628479
 30
0.0
  0
INSERT
  8
0
  5
699
  2
*X5
 10
422.582499
 20
527.628479
 30
0.0
  0
INSERT
  8
0
  5
69A
  2
*X6
 10
439.582499
 20
529.519753
 30
0.0
  0
INSERT
  8
0
  5
69B
  2
*X7
 10
494.712002
 20
577.194179
 30
0.0
  0
INSERT
  8
0
  5
69C
  2
*X8
 10
333.582499
 20
323.39747
 30
0.0
  0
INSERT
  8
0
  5
69D
  2
*X9
 10
407.70462
 20
384.235389
 30
0.0
  0
INSERT
  8
0
  5
69E
  2
*X10
 10
411.932373
 20
397.337261
 30
0.0
  0
INSERT
  8
0
  5
69F
  2
*X11
 10
407.70462
 20
405.339254
 30
0.0
  0
INSERT
  8
0
  5
6A0
  2
*X12
 10
422.582499
 20
321.537645
 30
0.0
  0
INSERT
  8
0
  5
6A1
  2
*X13
 10
422.582499
 20
321.24072
 30
0.0
  0
INSERT
  8
0
  5
6A2
  2
*X14
 10
336.582499
 20
421.309293
 30
0.0
  0
INSERT
  8
0
  5
6A3
  2
*X15
 10
422.582499
 20
414.334189
 30
0.0
  0
INSERT
  8
0
  5
6A4
  2
*X16
 10
486.881993
 20
583.536161
 30
0.0
  0
INSERT
  8
0
  5
6A5
  2
*X17
 10
292.582499
 20
560.58443
 30
0.0
  0
INSERT
  8
0
  5
6A6
  2
*X18
 10
321.127499
 20
466.161947
 30
0.0
  0
INSERT
  8
0
  5
6A7
  2
*X19
 10
522.582499
 20
560.58443
 30
0.0
  0
INSERT
  8
0
  5
6A8
  2
*X20
 10
513.694999
 20
466.161947
 30
0.0
  0
INSERT
  8
0
  5
6A9
  2
*X21
 10
524.082499
 20
582.756806
 30
0.0
  0
INSERT
  8
0
  5
6AA
  2
*X22
 10
316.582499
 20
582.756806
 30
0.0
  0
INSERT
  8
0
  5
6AB
  2
*X23
 10
504.582499
 20
421.309293
 30
0.0
  0
INSERT
  8
0
  5
6AC
  2
*X24
 10
264.582499
 20
235.161947
 30
0.0
  0
INSERT
  8
0
  5
6AD
  2
*X25
 10
473.582499
 20
235.161947
 30
0.0
  0
INSERT
  8
0
  5
6AE
  2
*X26
 10
324.261469
 20
470.212604
 30
0.0
  0
INSERT
  8
0
  5
6AF
  2
*X27
 10
516.903529
 20
470.212604
 30
0.0
  0
DIMENSION
  8
0
  5
6B0
  2
*D28
 10
422.582499
 20
180.0
 30
0.0
 11
422.582499
 21
180.0
 31
0.0
  1
DN100
 13
367.582499
 23
239.661947
 33
0.0
 14
477.582499
 24
239.661947
 34
0.0
  3
LC-DIM-L-0090-02-02
  0
DIMENSION
  8
0
  5
6B1
  2
*D29
 10
422.582499
 20
108.0
 30
0.0
 11
422.582499
 21
108.0
 31
0.0
  1
%%c<>
 13
328.582499
 23
433.861947
 33
0.0
 14
516.582499
 24
433.861947
 34
0.0
  3
LC-DIM-L-0090-02-02
  0
DIMENSION
  8
0
  5
6B2
  2
*D30
 10
422.582499
 20
72.0
 30
0.0
 11
422.582499
 21
72.0
 31
0.0
  1
%%c<>
 13
320.082499
 23
466.161947
 33
0.0
 14
525.082499
 24
466.161947
 34
0.0
  3
LC-DIM-L-0090-02-02
  0
DIMENSION
  8
0
  5
6B3
  2
*D31
 10
423.248517
 20
680.0
 30
0.0
 11
423.248517
 21
680.0
 31
0.0
 13
292.582499
 23
590.58443
 33
0.0
 14
552.582499
 24
596.08443
 34
0.0
  3
LC-DIM-L-0090-02-02
  0
DIMENSION
  8
0
  5
6B4
  2
*D32
 10
422.582499
 20
144.0
 30
0.0
 11
422.582499
 21
144.0
 31
0.0
  1
%%c166
 13
339.461809
 23
303.161947
 33
0.0
 14
505.703189
 24
303.161947
 34
0.0
  3
LC-DIM-L-0090-02-02
  0
DIMENSION
  8
0
  5
6B5
  2
*D33
 10
238.0
 20
602.58443
 30
0.0
 11
238.0
 21
602.58443
 31
0.0
  1
28
 13
306.582499
 23
617.58443
 33
0.0
 14
295.582499
 24
587.58443
 34
0.0
 50
90.0
  3
LC-DIM-L-0090-02-02
  0
INSERT
  8
0
  5
6B6
  2
*X34
 10
623.282499
 20
494.789769
 30
0.0
  0
INSERT
  8
0
  5
6B7
  2
*X35
 10
603.282499
 20
494.368657
 30
0.0
  0
INSERT
  8
0
  5
6B8
  2
*X36
 10
583.282499
 20
490.842117
 30
0.0
  0
INSERT
  8
0
  5
6B9
  2
*X37
 10
563.282499
 20
488.161947
 30
0.0
  0
INSERT
  8
0
  5
6BA
  2
*X38
 10
543.282499
 20
488.161947
 30
0.0
  0
INSERT
  8
0
  5
6BB
  2
*X39
 10
523.282499
 20
488.161947
 30
0.0
  0
INSERT
  8
0
  5
6BC
  2
*X40
 10
311.882499
 20
488.161947
 30
0.0
  0
INSERT
  8
0
  5
6BD
  2
*X41
 10
289.087477
 20
488.161947
 30
0.0
  0
INSERT
  8
0
  5
6BE
  2
*X42
 10
271.882499
 20
488.161947
 30
0.0
  0
INSERT
  8
0
  5
6BF
  2
*X43
 10
251.882499
 20
490.842117
 30
0.0
  0
INSERT
  8
0
  5
6C0
  2
*X44
 10
231.882499
 20
494.368657
 30
0.0
  0
INSERT
  8
0
  5
6C1
  2
*X45
 10
211.882499
 20
494.789769
 30
0.0
  0
DIMENSION
  8
0
  5
6C2
  2
*D46
 10
422.582499
 20
720.0
 30
0.0
 11
422.582499
 21
720.0
 31
0.0
  1
%%c315
 13
264.582499
 23
486.977871
 33
0.0
 14
580.582499
 24
639.605904
 34
0.0
  3
LC-DIM-L-0090-02-02
  0
DIMENSION
  8
0
  5
6C3
  2
*D47
 10
658.0
 20
553.975232
 30
0.0
 11
658.0
 21
553.975232
 31
0.0
  1
55-135
 13
545.286937
 23
617.58443
 33
0.0
 14
580.582499
 24
490.366035
 34
0.0
 50
90.0
  3
LC-DIM-L-0090-02-02
  0
DIMENSION
  8
0
  5
6C4
  2
*D48
 10
658.0
 20
393.763991
 30
0.0
 11
658.0
 21
393.763991
 31
0.0
  1
197
 13
580.582499
 23
490.366035
 33
0.0
 14
502.239087
 24
297.161947
 34
0.0
 50
90.0
  3
LC-DIM-L-0090-02-02
  0
DIMENSION
  8
0
  5
6C5
  2
*D49
 10
658.0
 20
266.161947
 30
0.0
 11
658.0
 21
266.161947
 31
0.0
 13
502.239087
 23
297.161947
 33
0.0
 14
476.376728
 24
235.161947
 34
0.0
 50
90.0
  3
LC-DIM-L-0090-02-02
  0
INSERT
  8
0
  5
6C7
  2
BLK3
 10
0.0
 20
0.0
 30
0.0
  0
INSERT
  8
0
  5
6C8
  2
*X51
 10
517.584758
 20
597.58443
 30
0.0
  0
INSERT
  8
0
  5
6C9
  2
*X52
 10
357.58024
 20
583.58443
 30
0.0
  0
INSERT
  8
0
  5
6CA
  2
*X53
 10
311.084758
 20
597.58443
 30
0.0
  0
DIMENSION
  8
0
  5
6CB
  2
*D54
 10
422.586129
 20
644.0
 30
0.0
 11
422.586129
 21
644.0
 31
0.0
  1
226
 13
311.087499
 23
615.479758
 33
0.0
 14
534.084758
 24
615.479758
 34
0.0
  3
LC-DIM-L-0090-02-02
  0
LINE
  8
LC-001-002-----0
  6
CONTINUOUS
  5
6CD
 10
328.613499
 20
563.67893
 30
0.0
 11
328.613499
 21
559.866905
 31
0.0
  0
ARC
  8
LC-003-002-RND-0
  6
CONTINUOUS
  5
6CF
 10
327.628499
 20
563.67893
 30
0.0
 40
0.985
 50
0.0
 51
90.0
  0
LINE
  8
LC-001-002-----0
  6
CONTINUOUS
  5
6D0
 10
324.821249
 20
548.244958
 30
0.0
 11
324.821249
 21
545.782458
 31
0.0
  0
ARC
  8
LC-003-002-RND-0
  6
CONTINUOUS
  5
6D1
 10
324.821249
 20
568.60393
 30
0.0
 40
0.985
 50
180.0
 51
270.0
  0
LINE
  8
LC-001-002-----0
  6
CONTINUOUS
  5
6D2
 10
328.613499
 20
553.86051
 30
0.0
 11
328.613499
 21
550.016905
 31
0.0
  0
ARC
  8
LC-003-002-RND-0
  6
CONTINUOUS
  5
6D3
 10
327.628499
 20
553.86051
 30
0.0
 40
0.985
 50
0.0
 51
75.0
  0
ARC
  8
LC-003-002-RND-0
  6
CONTINUOUS
  5
6D4
 10
327.628499
 20
559.866905
 30
0.0
 40
0.985
 50
285.0
 51
0.0
  0
LINE
  8
LC-001-002-----0
  6
CONTINUOUS
  5
6D5
 10
324.082499
 20
466.161947
 30
0.0
 11
422.582499
 21
466.161947
 31
0.0
  0
LINE
  8
LC-001-002-----0
  6
CONTINUOUS
  5
6D6
 10
328.613499
 20
540.166905
 30
0.0
 11
328.613499
 21
544.01051
 31
0.0
  0
LINE
  8
LC-001-002-----0
  6
CONTINUOUS
  5
6D7
 10
324.821249
 20
538.394958
 30
0.0
 11
327.883436
 21
539.215468
 31
0.0
  0
LINE
  8
LC-001-002-----0
  6
CONTINUOUS
  5
6D8
 10
324.821249
 20
535.932458
 30
0.0
 11
324.821249
 21
538.394958
 31
0.0
  0
LINE
  8
LC-001-002-----0
  6
CONTINUOUS
  5
6D9
 10
324.821249
 20
535.932458
 30
0.0
 11
327.883436
 21
535.111947
 31
0.0
  0
ARC
  8
LC-003-002-RND-0
  6
CONTINUOUS
  5
6DA
 10
327.628499
 20
534.16051
 30
0.0
 40
0.985
 50
0.0
 51
75.0
  0
ARC
  8
LC-003-002-RND-0
  6
CONTINUOUS
  5
6DB
 10
327.628499
 20
540.166905
 30
0.0
 40
0.985
 50
285.0
 51
0.0
  0
LINE
  8
LC-001-002-----0
  6
CONTINUOUS
  5
6DC
 10
328.613499
 20
530.316905
 30
0.0
 11
328.613499
 21
534.16051
 31
0.0
  0
ARC
  8
LC-003-002-RND-0
  6
CONTINUOUS
  5
6DD
 10
327.628499
 20
530.316905
 30
0.0
 40
0.985
 50
285.0
 51
0.0
  0
LINE
  8
LC-001-002-----0
  6
CONTINUOUS
  5
6DE
 10
324.821249
 20
528.544958
 30
0.0
 11
327.883436
 21
529.365468
 31
0.0
  0
LINE
  8
LC-001-002-----0
  6
CONTINUOUS
  5
6DF
 10
324.821249
 20
526.082458
 30
0.0
 11
324.821249
 21
528.544958
 31
0.0
  0
LINE
  8
LC-001-002-----0
  6
CONTINUOUS
  5
6E0
 10
324.821249
 20
558.094958
 30
0.0
 11
327.883436
 21
558.915468
 31
0.0
  0
LINE
  8
LC-001-002-----0
  6
CONTINUOUS
  5
6E1
 10
324.821249
 20
526.082458
 30
0.0
 11
327.883436
 21
525.261947
 31
0.0
  0
ARC
  8
LC-003-002-RND-0
  6
CONTINUOUS
  5
6E2
 10
327.628499
 20
550.016905
 30
0.0
 40
0.985
 50
285.0
 51
0.0
  0
ARC
  8
LC-003-002-RND-0
  6
CONTINUOUS
  5
6E3
 10
327.628499
 20
544.01051
 30
0.0
 40
0.985
 50
0.0
 51
75.0
  0
LINE
  8
LC-001-002-----0
  6
CONTINUOUS
  5
6E4
 10
324.821249
 20
555.632458
 30
0.0
 11
327.883436
 21
554.811947
 31
0.0
  0
ARC
  8
LC-003-002-RND-0
  6
CONTINUOUS
  5
6E5
 10
327.628499
 20
524.31051
 30
0.0
 40
0.985
 50
0.0
 51
75.0
  0
LINE
  8
LC-001-002-----0
  6
CONTINUOUS
  5
6E6
 10
324.821249
 20
548.244958
 30
0.0
 11
327.883436
 21
549.065468
 31
0.0
  0
LINE
  8
LC-001-002-----0
  6
CONTINUOUS
  5
6E7
 10
324.821249
 20
545.782458
 30
0.0
 11
327.883436
 21
544.961947
 31
0.0
  0
LINE
  8
LC-001-002-----0
  6
CONTINUOUS
  5
6E8
 10
328.613499
 20
520.466905
 30
0.0
 11
328.613499
 21
524.31051
 31
0.0
  0
ARC
  8
LC-003-002-RND-0
  6
CONTINUOUS
  5
6E9
 10
327.628499
 20
520.466905
 30
0.0
 40
0.985
 50
285.0
 51
0.0
  0
LINE
  8
LC-001-002-----0
  6
CONTINUOUS
  5
6EA
 10
324.821249
 20
518.694958
 30
0.0
 11
327.883436
 21
519.515468
 31
0.0
  0
LINE
  8
LC-001-002-----0
  6
CONTINUOUS
  5
6EB
 10
324.821249
 20
516.232458
 30
0.0
 11
324.821249
 21
518.694958
 31
0.0
  0
LINE
  8
LC-001-002-----0
  6
CONTINUOUS
  5
6EC
 10
324.821249
 20
516.232458
 30
0.0
 11
327.883436
 21
515.411947
 31
0.0
  0
ARC
  8
LC-003-002-RND-0
  6
CONTINUOUS
  5
6ED
 10
327.628499
 20
514.46051
 30
0.0
 40
0.985
 50
0.0
 51
75.0
  0
LINE
  8
LC-001-002-----0
  6
CONTINUOUS
  5
6EE
 10
328.613499
 20
510.616905
 30
0.0
 11
328.613499
 21
514.46051
 31
0.0
  0
ARC
  8
LC-003-002-RND-0
  6
CONTINUOUS
  5
6EF
 10
329.499999
 20
565.64893
 30
0.0
 40
1.97
 50
0.0
 51
90.0
  0
ARC
  8
LC-003-002-RND-0
  6
CONTINUOUS
  5
6F0
 10
327.628499
 20
510.616905
 30
0.0
 40
0.985
 50
285.0
 51
0.0
  0
LINE
  8
LC-001-002-----0
  6
CONTINUOUS
  5
6F1
 10
324.821249
 20
508.844958
 30
0.0
 11
327.883436
 21
509.665468
 31
0.0
  0
LINE
  8
LC-001-002-----0
  6
CONTINUOUS
  5
6F2
 10
324.821249
 20
508.844958
 30
0.0
 11
324.821249
 21
506.382458
 31
0.0
  0
LINE
  8
LC-001-002-----0
  6
CONTINUOUS
  5
6F3
 10
324.821249
 20
506.382458
 30
0.0
 11
327.883436
 21
505.561947
 31
0.0
  0
ARC
  8
LC-003-002-RND-0
  6
CONTINUOUS
  5
6F4
 10
327.628499
 20
504.61051
 30
0.0
 40
0.985
 50
0.0
 51
75.0
  0
LINE
  8
LC-001-002-----0
  6
CONTINUOUS
  5
6F5
 10
328.613499
 20
504.61051
 30
0.0
 11
328.613499
 21
500.766905
 31
0.0
  0
ARC
  8
LC-003-002-RND-0
  6
CONTINUOUS
  5
6F6
 10
327.628499
 20
500.766905
 30
0.0
 40
0.985
 50
285.0
 51
0.0
  0
LINE
  8
LC-001-002-----0
  6
CONTINUOUS
  5
6F7
 10
324.821249
 20
498.994958
 30
0.0
 11
327.883436
 21
499.815468
 31
0.0
  0
LINE
  8
LC-001-002-----0
  6
CONTINUOUS
  5
6F8
 10
324.821249
 20
498.994958
 30
0.0
 11
324.821249
 21
496.532458
 31
0.0
  0
LINE
  8
LC-001-002-----0
  6
CONTINUOUS
  5
6F9
 10
324.821249
 20
496.532458
 30
0.0
 11
327.883436
 21
495.711947
 31
0.0
  0
ARC
  8
LC-003-002-RND-0
  6
CONTINUOUS
  5
6FA
 10
327.628499
 20
494.76051
 30
0.0
 40
0.985
 50
0.0
 51
75.0
  0
LINE
  8
LC-001-002-----0
  6
CONTINUOUS
  5
6FB
 10
328.613499
 20
494.76051
 30
0.0
 11
328.613499
 21
490.916905
 31
0.0
  0
LINE
  8
LC-001-002-----0
  6
CONTINUOUS
  5
6FC
 10
516.551499
 20
563.67893
 30
0.0
 11
516.551499
 21
559.866905
 31
0.0
  0
ARC
  8
LC-003-002-RND-0
  6
CONTINUOUS
  5
6FD
 10
517.536499
 20
563.67893
 30
0.0
 40
0.985
 50
90.0
 51
180.0
  0
LINE
  8
LC-001-002-----0
  6
CONTINUOUS
  5
6FE
 10
520.343749
 20
548.244958
 30
0.0
 11
520.343749
 21
545.782458
 31
0.0
  0
LINE
  8
LC-001-002-----0
  6
CONTINUOUS
  5
6FF
 10
521.574999
 20
564.66393
 30
0.0
 11
517.536499
 21
564.66393
 31
0.0
  0
ARC
  8
LC-003-002-RND-0
  6
CONTINUOUS
  5
700
 10
521.574999
 20
567.12643
 30
0.0
 40
2.4625
 50
270.0
 51
0.0
  0
ARC
  8
LC-003-002-RND-0
  6
CONTINUOUS
  5
701
 10
520.343749
 20
568.60393
 30
0.0
 40
0.985
 50
270.0
 51
0.0
  0
LINE
  8
LC-001-002-----0
  6
CONTINUOUS
  5
702
 10
516.551499
 20
553.86051
 30
0.0
 11
516.551499
 21
550.016905
 31
0.0
  0
LINE
  8
LC-001-002-----0
  6
CONTINUOUS
  5
703
 10
324.821249
 20
558.094958
 30
0.0
 11
324.821249
 21
555.632458
 31
0.0
  0
ARC
  8
LC-003-002-RND-0
  6
CONTINUOUS
  5
704
 10
517.536499
 20
553.86051
 30
0.0
 40
0.985
 50
105.0
 51
180.0
  0
ARC
  8
LC-003-002-RND-0
  6
CONTINUOUS
  5
705
 10
517.536499
 20
559.866905
 30
0.0
 40
0.985
 50
180.0
 51
255.0
  0
LINE
  8
LC-001-002-----0
  6
CONTINUOUS
  5
706
 10
517.281562
 20
466.161947
 30
0.0
 11
422.582499
 21
466.161947
 31
0.0
  0
LINE
  8
LC-001-002-----0
  6
CONTINUOUS
  5
707
 10
516.551499
 20
540.166905
 30
0.0
 11
516.551499
 21
544.01051
 31
0.0
  0
LINE
  8
LC-001-002-----0
  6
CONTINUOUS
  5
708
 10
520.343749
 20
538.394958
 30
0.0
 11
517.281562
 21
539.215468
 31
0.0
  0
LINE
  8
LC-001-002-----0
  6
CONTINUOUS
  5
709
 10
520.343749
 20
535.932458
 30
0.0
 11
520.343749
 21
538.394958
 31
0.0
  0
LINE
  8
LC-001-002-----0
  6
CONTINUOUS
  5
70A
 10
520.343749
 20
535.932458
 30
0.0
 11
517.281562
 21
535.111947
 31
0.0
  0
ARC
  8
LC-003-002-RND-0
  6
CONTINUOUS
  5
70B
 10
517.536499
 20
534.16051
 30
0.0
 40
0.985
 50
105.0
 51
180.0
  0
ARC
  8
LC-003-002-RND-0
  6
CONTINUOUS
  5
70C
 10
517.536499
 20
540.166905
 30
0.0
 40
0.985
 50
180.0
 51
255.0
  0
LINE
  8
LC-001-002-----0
  6
CONTINUOUS
  5
70D
 10
516.551499
 20
530.316905
 30
0.0
 11
516.551499
 21
534.16051
 31
0.0
  0
ARC
  8
LC-003-002-RND-0
  6
CONTINUOUS
  5
70E
 10
517.536499
 20
530.316905
 30
0.0
 40
0.985
 50
180.0
 51
255.0
  0
LINE
  8
LC-001-002-----0
  6
CONTINUOUS
  5
70F
 10
520.343749
 20
528.544958
 30
0.0
 11
517.281562
 21
529.365468
 31
0.0
  0
LINE
  8
LC-001-002-----0
  6
CONTINUOUS
  5
710
 10
520.343749
 20
526.082458
 30
0.0
 11
520.343749
 21
528.544958
 31
0.0
  0
LINE
  8
LC-001-002-----0
  6
CONTINUOUS
  5
711
 10
520.343749
 20
558.094958
 30
0.0
 11
517.281562
 21
558.915468
 31
0.0
  0
LINE
  8
LC-001-002-----0
  6
CONTINUOUS
  5
712
 10
520.343749
 20
526.082458
 30
0.0
 11
517.281562
 21
525.261947
 31
0.0
  0
ARC
  8
LC-003-002-RND-0
  6
CONTINUOUS
  5
713
 10
517.536499
 20
550.016905
 30
0.0
 40
0.985
 50
180.0
 51
255.0
  0
ARC
  8
LC-003-002-RND-0
  6
CONTINUOUS
  5
714
 10
517.536499
 20
544.01051
 30
0.0
 40
0.985
 50
105.0
 51
180.0
  0
LINE
  8
LC-001-002-----0
  6
CONTINUOUS
  5
715
 10
520.343749
 20
555.632458
 30
0.0
 11
517.281562
 21
554.811947
 31
0.0
  0
ARC
  8
LC-003-002-RND-0
  6
CONTINUOUS
  5
716
 10
517.536499
 20
524.31051
 30
0.0
 40
0.985
 50
105.0
 51
180.0
  0
LINE
  8
LC-001-002-----0
  6
CONTINUOUS
  5
717
 10
520.343749
 20
548.244958
 30
0.0
 11
517.281562
 21
549.065468
 31
0.0
  0
LINE
  8
LC-001-002-----0
  6
CONTINUOUS
  5
718
 10
520.343749
 20
545.782458
 30
0.0
 11
517.281562
 21
544.961947
 31
0.0
  0
LINE
  8
LC-001-002-----0
  6
CONTINUOUS
  5
719
 10
516.551499
 20
520.466905
 30
0.0
 11
516.551499
 21
524.31051
 31
0.0
  0
ARC
  8
LC-003-002-RND-0
  6
CONTINUOUS
  5
71A
 10
517.536499
 20
520.466905
 30
0.0
 40
0.985
 50
180.0
 51
255.0
  0
LINE
  8
LC-001-002-----0
  6
CONTINUOUS
  5
71B
 10
520.343749
 20
518.694958
 30
0.0
 11
517.281562
 21
519.515468
 31
0.0
  0
LINE
  8
LC-001-002-----0
  6
CONTINUOUS
  5
71C
 10
520.343749
 20
516.232458
 30
0.0
 11
520.343749
 21
518.694958
 31
0.0
  0
LINE
  8
LC-001-002-----0
  6
CONTINUOUS
  5
71D
 10
520.343749
 20
516.232458
 30
0.0
 11
517.281562
 21
515.411947
 31
0.0
  0
LINE
  8
LC-001-002-----0
  6
CONTINUOUS
  5
71E
 10
513.694999
 20
565.64893
 30
0.0
 11
513.694999
 21
466.161947
 31
0.0
  0
ARC
  8
LC-003-002-RND-0
  6
CONTINUOUS
  5
71F
 10
517.536499
 20
514.46051
 30
0.0
 40
0.985
 50
105.0
 51
180.0
  0
LINE
  8
LC-001-002-----0
  6
CONTINUOUS
  5
720
 10
516.551499
 20
510.616905
 30
0.0
 11
516.551499
 21
514.46051
 31
0.0
  0
ARC
  8
LC-003-002-RND-0
  6
CONTINUOUS
  5
721
 10
515.664999
 20
565.64893
 30
0.0
 40
1.97
 50
90.0
 51
180.0
  0
ARC
  8
LC-003-002-RND-0
  6
CONTINUOUS
  5
722
 10
517.536499
 20
510.616905
 30
0.0
 40
0.985
 50
180.0
 51
255.0
  0
LINE
  8
LC-001-002-----0
  6
CONTINUOUS
  5
723
 10
520.343749
 20
508.844958
 30
0.0
 11
517.281562
 21
509.665468
 31
0.0
  0
LINE
  8
LC-001-002-----0
  6
CONTINUOUS
  5
724
 10
520.343749
 20
508.844958
 30
0.0
 11
520.343749
 21
506.382458
 31
0.0
  0
LINE
  8
LC-001-002-----0
  6
CONTINUOUS
  5
725
 10
520.343749
 20
506.382458
 30
0.0
 11
517.281562
 21
505.561947
 31
0.0
  0
ARC
  8
LC-003-002-RND-0
  6
CONTINUOUS
  5
726
 10
517.536499
 20
504.61051
 30
0.0
 40
0.985
 50
105.0
 51
180.0
  0
LINE
  8
LC-001-002-----0
  6
CONTINUOUS
  5
727
 10
516.551499
 20
504.61051
 30
0.0
 11
516.551499
 21
500.766905
 31
0.0
  0
ARC
  8
LC-003-002-RND-0
  6
CONTINUOUS
  5
728
 10
517.536499
 20
500.766905
 30
0.0
 40
0.985
 50
180.0
 51
255.0
  0
LINE
  8
LC-001-002-----0
  6
CONTINUOUS
  5
729
 10
520.343749
 20
498.994958
 30
0.0
 11
517.281562
 21
499.815468
 31
0.0
  0
LINE
  8
LC-001-002-----0
  6
CONTINUOUS
  5
72A
 10
520.343749
 20
498.994958
 30
0.0
 11
520.343749
 21
496.532458
 31
0.0
  0
LINE
  8
LC-001-002-----0
  6
CONTINUOUS
  5
72B
 10
520.343749
 20
496.532458
 30
0.0
 11
517.281562
 21
495.711947
 31
0.0
  0
ARC
  8
LC-003-002-RND-0
  6
CONTINUOUS
  5
72C
 10
517.536499
 20
494.76051
 30
0.0
 40
0.985
 50
105.0
 51
180.0
  0
LINE
  8
LC-001-002-----0
  6
CONTINUOUS
  5
72D
 10
516.551499
 20
494.76051
 30
0.0
 11
516.551499
 21
490.916905
 31
0.0
  0
LINE
  8
LC-001-002-----0
  6
CONTINUOUS
  5
72E
 10
520.343749
 20
558.094958
 30
0.0
 11
520.343749
 21
555.632458
 31
0.0
  0
LINE
  8
LC-001-002-----0
  6
CONTINUOUS
  5
72F
 10
520.343749
 20
489.144958
 30
0.0
 11
517.281562
 21
489.965468
 31
0.0
  0
LINE
  8
LC-001-002-----0
  6
CONTINUOUS
  5
730
 10
520.343749
 20
567.61893
 30
0.0
 11
515.664999
 21
567.61893
 31
0.0
  0
LINE
  8
LC-001-002-----0
  6
CONTINUOUS
  5
731
 10
324.821249
 20
489.144958
 30
0.0
 11
327.883436
 21
489.965468
 31
0.0
  0
LINE
  8
LC-001-002-----0
  6
CONTINUOUS
  5
732
 10
520.343749
 20
486.682458
 30
0.0
 11
520.343749
 21
489.144958
 31
0.0
  0
LINE
  8
LC-001-002-----0
  6
CONTINUOUS
  5
733
 10
324.821249
 20
567.61893
 30
0.0
 11
329.499999
 21
567.61893
 31
0.0
  0
LINE
  8
LC-001-002-----0
  6
CONTINUOUS
  5
734
 10
324.821249
 20
486.682458
 30
0.0
 11
324.821249
 21
489.144958
 31
0.0
  0
LINE
  8
LC-001-002-----0
  6
CONTINUOUS
  5
735
 10
324.821249
 20
486.682458
 30
0.0
 11
327.883436
 21
485.861947
 31
0.0
  0
ARC
  8
LC-003-002-RND-0
  6
CONTINUOUS
  5
736
 10
327.628499
 20
484.91051
 30
0.0
 40
0.985
 50
0.0
 51
75.0
  0
LINE
  8
LC-001-002-----0
  6
CONTINUOUS
  5
737
 10
328.613499
 20
481.066905
 30
0.0
 11
328.613499
 21
484.91051
 31
0.0
  0
ARC
  8
LC-003-002-RND-0
  6
CONTINUOUS
  5
738
 10
327.628499
 20
490.916905
 30
0.0
 40
0.985
 50
285.0
 51
0.0
  0
LINE
  8
LC-001-002-----0
  6
CONTINUOUS
  5
739
 10
324.821249
 20
479.294958
 30
0.0
 11
327.883436
 21
480.115468
 31
0.0
  0
LINE
  8
LC-001-002-----0
  6
CONTINUOUS
  5
73A
 10
324.821249
 20
476.832458
 30
0.0
 11
324.821249
 21
479.294958
 31
0.0
  0
ARC
  8
LC-003-002-RND-0
  6
CONTINUOUS
  5
73B
 10
327.628499
 20
481.066905
 30
0.0
 40
0.985
 50
285.0
 51
0.0
  0
LINE
  8
LC-001-002-----0
  6
CONTINUOUS
  5
73C
 10
520.343749
 20
486.682458
 30
0.0
 11
517.281562
 21
485.861947
 31
0.0
  0
LINE
  8
LC-001-002-----0
  6
CONTINUOUS
  5
73D
 10
324.821249
 20
469.444958
 30
0.0
 11
324.821249
 21
466.982458
 31
0.0
  0
LINE
  8
LC-001-002-----0
  6
CONTINUOUS
  5
73E
 10
324.821249
 20
466.982458
 30
0.0
 11
327.883436
 21
466.161947
 31
0.0
  0
ARC
  8
LC-003-002-RND-0
  6
CONTINUOUS
  5
73F
 10
517.536499
 20
484.91051
 30
0.0
 40
0.985
 50
105.0
 51
180.0
  0
LINE
  8
LC-001-002-----0
  6
CONTINUOUS
  5
740
 10
516.551499
 20
481.066905
 30
0.0
 11
516.551499
 21
484.91051
 31
0.0
  0
LINE
  8
LC-001-002-----0
  6
CONTINUOUS
  5
741
 10
520.343749
 20
479.294958
 30
0.0
 11
517.281562
 21
480.115468
 31
0.0
  0
ARC
  8
LC-003-002-RND-0
  6
CONTINUOUS
  5
742
 10
517.536499
 20
490.916905
 30
0.0
 40
0.985
 50
180.0
 51
255.0
  0
LINE
  8
LC-001-002-----0
  6
CONTINUOUS
  5
743
 10
520.343749
 20
476.832458
 30
0.0
 11
520.343749
 21
479.294958
 31
0.0
  0
LINE
  8
LC-001-002-----0
  6
CONTINUOUS
  5
744
 10
520.343749
 20
476.832458
 30
0.0
 11
517.281562
 21
476.011947
 31
0.0
  0
LINE
  8
LC-001-002-----0
  6
CONTINUOUS
  5
745
 10
520.343749
 20
469.444958
 30
0.0
 11
517.281562
 21
470.265468
 31
0.0
  0
ARC
  8
LC-003-002-RND-0
  6
CONTINUOUS
  5
746
 10
517.536499
 20
475.06051
 30
0.0
 40
0.985
 50
105.0
 51
180.0
  0
LINE
  8
LC-001-002-----0
  6
CONTINUOUS
  5
747
 10
520.343749
 20
469.444958
 30
0.0
 11
520.343749
 21
466.982458
 31
0.0
  0
ARC
  8
LC-003-002-RND-0
  6
CONTINUOUS
  5
748
 10
517.536499
 20
481.066905
 30
0.0
 40
0.985
 50
180.0
 51
255.0
  0
ARC
  8
LC-003-002-RND-0
  6
CONTINUOUS
  5
749
 10
517.536499
 20
471.216905
 30
0.0
 40
0.985
 50
180.0
 51
255.0
  0
LINE
  8
LC-001-002-----0
  6
CONTINUOUS
  5
74A
 10
322.851249
 20
589.58443
 30
0.0
 11
386.990672
 21
589.58443
 31
0.0
  0
LINE
  8
LC-001-002-----0
  6
CONTINUOUS
  5
74B
 10
520.343749
 20
466.982458
 30
0.0
 11
517.281562
 21
466.161947
 31
0.0
  0
LINE
  8
LC-001-002-----0
  6
CONTINUOUS
  5
74C
 10
331.469999
 20
565.64893
 30
0.0
 11
331.469999
 21
466.161947
 31
0.0
  0
LINE
  8
LC-001-002-----0
  6
CONTINUOUS
  5
74D
 10
325.582499
 20
587.628479
 30
0.0
 11
395.462824
 21
587.628479
 31
0.0
  0
LINE
  8
LC-001-002-----0
  6
CONTINUOUS
  5
74E
 10
349.946733
 20
585.496885
 30
0.0
 11
404.695773
 21
585.496885
 31
0.0
  0
LINE
  8
LC-001-002-----0
  6
CONTINUOUS
  5
74F
 10
325.582499
 20
587.628479
 30
0.0
 11
349.946733
 21
585.496885
 31
0.0
  0
LINE
  8
LC-001-002-----0
  6
CONTINUOUS
  5
750
 10
325.582499
 20
585.11893
 30
0.0
 11
347.582499
 21
583.194179
 31
0.0
  0
LINE
  8
LC-001-002-----0
  6
CONTINUOUS
  5
751
 10
336.582499
 20
584.156554
 30
0.0
 11
332.583129
 21
569.230701
 31
0.0
  0
ARC
  8
LC-003-002-RND-0
  6
CONTINUOUS
  5
752
 10
331.13424
 20
569.61893
 30
0.0
 40
1.5
 50
270.0
 51
345.0
  0
ARC
  8
LC-003-002-RND-0
  6
CONTINUOUS
  5
753
 10
327.082499
 20
569.61893
 30
0.0
 40
1.5
 50
180.0
 51
270.0
  0
LINE
  8
LC-001-002-----0
  6
CONTINUOUS
  5
754
 10
325.582499
 20
587.628479
 30
0.0
 11
325.582499
 21
569.61893
 31
0.0
  0
LINE
  8
LC-001-002-----0
  6
CONTINUOUS
  5
755
 10
347.582499
 20
583.194179
 30
0.0
 11
349.91986
 21
544.861461
 31
0.0
  0
LINE
  8
LC-001-002-----0
  6
CONTINUOUS
  5
756
 10
349.946733
 20
585.496885
 30
0.0
 11
352.34324
 21
546.194179
 31
0.0
  0
LINE
  8
LC-001-002-----0
  6
CONTINUOUS
  5
757
 10
349.838597
 20
546.194179
 30
0.0
 11
352.34324
 21
546.194179
 31
0.0
  0
LINE
  8
LC-001-002-----0
  6
CONTINUOUS
  5
758
 10
352.34324
 20
546.194179
 30
0.0
 11
355.010522
 21
543.526897
 31
0.0
  0
ARC
  8
LC-003-002-RND-0
  6
CONTINUOUS
  5
759
 10
360.105078
 20
542.128479
 30
0.0
 40
5.0
 50
183.489325
 51
263.635301
  0
ARC
  8
LC-003-002-RND-0
  6
CONTINUOUS
  5
75A
 10
360.077864
 20
542.128479
 30
0.0
 40
7.5
 50
179.430039
 51
263.651867
  0
LINE
  8
LC-001-002-----0
  6
CONTINUOUS
  5
75B
 10
359.550795
 20
537.159297
 30
0.0
 11
422.582499
 21
530.128479
 31
0.0
  0
LINE
  8
LC-001-002-----0
  6
CONTINUOUS
  5
75C
 10
359.248595
 20
534.674466
 30
0.0
 11
422.582499
 21
527.628479
 31
0.0
  0
LINE
  8
LC-001-002-----0
  6
CONTINUOUS
  5
75D
 10
405.582499
 20
532.02473
 30
0.0
 11
405.582499
 21
529.519753
 31
0.0
  0
LINE
  8
LC-001-002-----0
  6
CONTINUOUS
  5
75E
 10
409.582499
 20
531.578553
 30
0.0
 11
409.582499
 21
529.074748
 31
0.0
  0
LINE
  8
LC-001-002-----0
  6
CONTINUOUS
  5
75F
 10
354.582499
 20
577.194179
 30
0.0
 11
356.472743
 21
546.194179
 31
0.0
  0
LINE
  8
LC-001-002-----0
  6
CONTINUOUS
  5
760
 10
362.582499
 20
577.194179
 30
0.0
 11
362.582499
 21
546.194179
 31
0.0
  0
LINE
  8
LC-001-002-----0
  6
CONTINUOUS
  5
761
 10
361.582499
 20
577.194179
 30
0.0
 11
361.582499
 21
546.194179
 31
0.0
  0
LINE
  8
LC-001-002-----0
  6
CONTINUOUS
  5
762
 10
356.472743
 20
546.194179
 30
0.0
 11
362.582499
 21
546.194179
 31
0.0
  0
LINE
  8
LC-001-002-----0
  6
CONTINUOUS
  5
763
 10
371.582499
 20
546.194179
 30
0.0
 11
381.582499
 21
546.194179
 31
0.0
  0
LINE
  8
LC-001-002-----0
  6
CONTINUOUS
  5
764
 10
371.582499
 20
577.194179
 30
0.0
 11
371.582499
 21
546.194179
 31
0.0
  0
LINE
  8
LC-001-002-----0
  6
CONTINUOUS
  5
765
 10
380.082499
 20
577.194179
 30
0.0
 11
380.082499
 21
546.194179
 31
0.0
  0
LINE
  8
LC-001-002-----0
  6
CONTINUOUS
  5
766
 10
381.582499
 20
577.194179
 30
0.0
 11
381.582499
 21
546.194179
 31
0.0
  0
LINE
  8
LC-001-002-----0
  6
CONTINUOUS
  5
767
 10
371.582499
 20
577.194179
 30
0.0
 11
381.582499
 21
577.194179
 31
0.0
  0
LINE
  8
LC-001-002-----0
  6
CONTINUOUS
  5
768
 10
391.582499
 20
577.194179
 30
0.0
 11
391.582499
 21
546.194179
 31
0.0
  0
LINE
  8
LC-001-002-----0
  6
CONTINUOUS
  5
769
 10
391.582499
 20
577.194179
 30
0.0
 11
403.582499
 21
577.194179
 31
0.0
  0
LINE
  8
LC-001-002-----0
  6
CONTINUOUS
  5
76A
 10
401.582499
 20
577.194179
 30
0.0
 11
401.582499
 21
546.194179
 31
0.0
  0
LINE
  8
LC-001-002-----0
  6
CONTINUOUS
  5
76B
 10
403.582499
 20
577.194179
 30
0.0
 11
403.582499
 21
546.194179
 31
0.0
  0
LINE
  8
LC-001-002-----0
  6
CONTINUOUS
  5
76C
 10
391.582499
 20
546.194179
 30
0.0
 11
403.582499
 21
546.194179
 31
0.0
  0
LINE
  8
LC-001-002-----0
  6
CONTINUOUS
  5
76D
 10
415.582499
 20
577.194179
 30
0.0
 11
415.582499
 21
546.194179
 31
0.0
  0
LINE
  8
LC-001-002-----0
  6
CONTINUOUS
  5
76E
 10
415.582499
 20
546.194179
 30
0.0
 11
422.582499
 21
546.194179
 31
0.0
  0
LINE
  8
LC-001-002-----0
  6
CONTINUOUS
  5
76F
 10
415.582499
 20
577.194179
 30
0.0
 11
422.582499
 21
577.194179
 31
0.0
  0
LINE
  8
LC-001-002-----0
  6
CONTINUOUS
  5
770
 10
327.082499
 20
568.11893
 30
0.0
 11
331.13424
 21
568.11893
 31
0.0
  0
LINE
  8
LC-001-002-----0
  6
CONTINUOUS
  5
771
 10
354.582499
 20
577.194179
 30
0.0
 11
362.582499
 21
577.194179
 31
0.0
  0
LINE
  8
LC-001-002-----0
  6
CONTINUOUS
  5
772
 10
347.948353
 20
577.194179
 30
0.0
 11
350.452996
 21
577.194179
 31
0.0
  0
LINE
  8
LC-001-002-----0
  6
CONTINUOUS
  5
773
 10
485.916403
 20
534.674466
 30
0.0
 11
422.582499
 21
527.628479
 31
0.0
  0
LINE
  8
LC-001-002-----0
  6
CONTINUOUS
  5
774
 10
485.614203
 20
537.159297
 30
0.0
 11
422.582499
 21
530.128479
 31
0.0
  0
LINE
  8
LC-001-002-----0
  6
CONTINUOUS
  5
775
 10
435.582499
 20
531.578553
 30
0.0
 11
435.582499
 21
529.074748
 31
0.0
  0
LINE
  8
LC-001-002-----0
  6
CONTINUOUS
  5
776
 10
439.582499
 20
532.02473
 30
0.0
 11
439.582499
 21
529.519753
 31
0.0
  0
ARC
  8
LC-003-002-RND-0
  6
CONTINUOUS
  5
777
 10
485.087134
 20
542.128479
 30
0.0
 40
7.5
 50
276.348133
 51
0.569961
  0
ARC
  8
LC-003-002-RND-0
  6
CONTINUOUS
  5
778
 10
485.05992
 20
542.128479
 30
0.0
 40
5.0
 50
276.364699
 51
356.510675
  0
LINE
  8
LC-001-002-----0
  6
CONTINUOUS
  5
779
 10
492.821758
 20
546.194179
 30
0.0
 11
490.154476
 21
543.526897
 31
0.0
  0
LINE
  8
LC-001-002-----0
  6
CONTINUOUS
  5
77A
 10
497.582499
 20
583.194179
 30
0.0
 11
495.245138
 21
544.861461
 31
0.0
  0
LINE
  8
LC-001-002-----0
  6
CONTINUOUS
  5
77B
 10
495.218265
 20
585.496885
 30
0.0
 11
492.821758
 21
546.194179
 31
0.0
  0
LINE
  8
LC-001-002-----0
  6
CONTINUOUS
  5
77C
 10
495.326401
 20
546.194179
 30
0.0
 11
492.821758
 21
546.194179
 31
0.0
  0
LINE
  8
LC-001-002-----0
  6
CONTINUOUS
  5
77D
 10
497.216645
 20
577.194179
 30
0.0
 11
494.712002
 21
577.194179
 31
0.0
  0
LINE
  8
LC-001-002-----0
  6
CONTINUOUS
  5
77E
 10
519.582499
 20
587.628479
 30
0.0
 11
495.218265
 21
585.496885
 31
0.0
  0
LINE
  8
LC-001-002-----0
  6
CONTINUOUS
  5
77F
 10
519.582499
 20
585.11893
 30
0.0
 11
497.582499
 21
583.194179
 31
0.0
  0
LINE
  8
LC-001-002-----0
  6
CONTINUOUS
  5
780
 10
519.582499
 20
587.628479
 30
0.0
 11
519.582499
 21
569.61893
 31
0.0
  0
LINE
  8
LC-001-002-----0
  6
CONTINUOUS
  5
781
 10
508.582499
 20
584.156554
 30
0.0
 11
512.581869
 21
569.230701
 31
0.0
  0
ARC
  8
LC-003-002-RND-0
  6
CONTINUOUS
  5
782
 10
514.030758
 20
569.61893
 30
0.0
 40
1.5
 50
195.0
 51
270.0
  0
LINE
  8
LC-001-002-----0
  6
CONTINUOUS
  5
783
 10
518.082499
 20
568.11893
 30
0.0
 11
514.030758
 21
568.11893
 31
0.0
  0
ARC
  8
LC-003-002-RND-0
  6
CONTINUOUS
  5
784
 10
518.082499
 20
569.61893
 30
0.0
 40
1.5
 50
270.0
 51
0.0
  0
LINE
  8
LC-001-002-----0
  6
CONTINUOUS
  5
785
 10
490.582499
 20
577.194179
 30
0.0
 11
482.582499
 21
577.194179
 31
0.0
  0
LINE
  8
LC-001-002-----0
  6
CONTINUOUS
  5
786
 10
490.582499
 20
577.194179
 30
0.0
 11
488.692255
 21
546.194179
 31
0.0
  0
LINE
  8
LC-001-002-----0
  6
CONTINUOUS
  5
787
 10
483.582499
 20
577.194179
 30
0.0
 11
483.582499
 21
546.194179
 31
0.0
  0
LINE
  8
LC-001-002-----0
  6
CONTINUOUS
  5
788
 10
482.582499
 20
577.194179
 30
0.0
 11
482.582499
 21
546.194179
 31
0.0
  0
LINE
  8
LC-001-002-----0
  6
CONTINUOUS
  5
789
 10
488.692255
 20
546.194179
 30
0.0
 11
482.582499
 21
546.194179
 31
0.0
  0
LINE
  8
LC-001-002-----0
  6
CONTINUOUS
  5
78A
 10
473.582499
 20
577.194179
 30
0.0
 11
473.582499
 21
546.194179
 31
0.0
  0
LINE
  8
LC-001-002-----0
  6
CONTINUOUS
  5
78B
 10
473.582499
 20
546.194179
 30
0.0
 11
463.582499
 21
546.194179
 31
0.0
  0
LINE
  8
LC-001-002-----0
  6
CONTINUOUS
  5
78C
 10
465.082499
 20
577.194179
 30
0.0
 11
465.082499
 21
546.194179
 31
0.0
  0
LINE
  8
LC-001-002-----0
  6
CONTINUOUS
  5
78D
 10
463.582499
 20
577.194179
 30
0.0
 11
463.582499
 21
546.194179
 31
0.0
  0
LINE
  8
LC-001-002-----0
  6
CONTINUOUS
  5
78E
 10
473.582499
 20
577.194179
 30
0.0
 11
463.582499
 21
577.194179
 31
0.0
  0
LINE
  8
LC-001-002-----0
  6
CONTINUOUS
  5
78F
 10
453.582499
 20
577.194179
 30
0.0
 11
453.582499
 21
546.194179
 31
0.0
  0
LINE
  8
LC-001-002-----0
  6
CONTINUOUS
  5
790
 10
453.582499
 20
546.194179
 30
0.0
 11
441.582499
 21
546.194179
 31
0.0
  0
LINE
  8
LC-001-002-----0
  6
CONTINUOUS
  5
791
 10
429.582499
 20
546.194179
 30
0.0
 11
422.582499
 21
546.194179
 31
0.0
  0
LINE
  8
LC-001-002-----0
  6
CONTINUOUS
  5
792
 10
429.582499
 20
577.194179
 30
0.0
 11
429.582499
 21
546.194179
 31
0.0
  0
LINE
  8
LC-001-002-----0
  6
CONTINUOUS
  5
793
 10
429.582499
 20
577.194179
 30
0.0
 11
422.582499
 21
577.194179
 31
0.0
  0
LINE
  8
LC-001-002-----0
  6
CONTINUOUS
  5
794
 10
368.78827
 20
235.161947
 30
0.0
 11
476.376728
 21
235.161947
 31
0.0
  0
LINE
  8
LC-001-002-----0
  6
CONTINUOUS
  5
795
 10
367.582499
 20
239.661947
 30
0.0
 11
368.78827
 21
235.161947
 31
0.0
  0
LINE
  8
LC-001-002-----0
  6
CONTINUOUS
  5
796
 10
332.582499
 20
427.161947
 30
0.0
 11
332.582499
 21
417.161947
 31
0.0
  0
LINE
  8
LC-001-002-----0
  6
CONTINUOUS
  5
797
 10
336.582499
 20
431.161947
 30
0.0
 11
336.582499
 21
417.161947
 31
0.0
  0
LINE
  8
LC-001-002-----0
  6
CONTINUOUS
  5
798
 10
343.082499
 20
429.661947
 30
0.0
 11
343.082499
 21
418.79293
 31
0.0
  0
LINE
  8
LC-001-002-----0
  6
CONTINUOUS
  5
799
 10
340.082499
 20
418.661947
 30
0.0
 11
345.583089
 21
355.789915
 31
0.0
  0
LINE
  8
LC-001-002-----0
  6
CONTINUOUS
  5
79A
 10
343.082499
 20
418.79293
 30
0.0
 11
348.571673
 21
356.051382
 31
0.0
  0
ARC
  8
LC-003-002-RND-0
  6
CONTINUOUS
  5
79B
 10
370.487957
 20
357.968809
 30
0.0
 40
25.0
 50
185.0
 51
260.0
  0
ARC
  8
LC-003-002-RND-0
  6
CONTINUOUS
  5
79C
 10
370.487957
 20
357.968809
 30
0.0
 40
22.0
 50
185.0
 51
260.0
  0
LINE
  8
LC-001-002-----0
  6
CONTINUOUS
  5
79D
 10
366.146752
 20
333.348615
 30
0.0
 11
433.13009
 21
321.537645
 31
0.0
  0
LINE
  8
LC-001-002-----0
  6
CONTINUOUS
  5
79E
 10
366.667697
 20
336.303038
 30
0.0
 11
432.575712
 21
324.681677
 31
0.0
  0
ARC
  8
LC-003-002-RND-0
  6
CONTINUOUS
  5
79F
 10
422.824419
 20
407.337261
 30
0.0
 40
10.0
 50
93.0
 51
170.0
  0
LINE
  8
LC-001-002-----0
  6
CONTINUOUS
  5
7A0
 10
411.932373
 20
403.153105
 30
0.0
 11
412.976341
 21
409.073742
 31
0.0
  0
ARC
  8
LC-003-002-RND-0
  6
CONTINUOUS
  5
7A1
 10
422.824419
 20
407.337261
 30
0.0
 40
7.0
 50
93.0
 51
170.0
  0
LINE
  8
LC-001-002-----0
  6
CONTINUOUS
  5
7A2
 10
415.405575
 20
405.574299
 30
0.0
 11
415.930765
 21
408.552798
 31
0.0
  0
LINE
  8
LC-001-002-----0
  6
CONTINUOUS
  5
7A3
 10
411.944262
 20
403.151009
 30
0.0
 11
419.481507
 21
401.821989
 31
0.0
  0
ARC
  8
LC-001-002-----0
  6
CONTINUOUS
  5
7A4
 10
418.210087
 20
416.572866
 30
0.0
 40
8.333581
 50
254.215261
 51
270.960321
  0
ARC
  8
LC-001-002-----0
  6
CONTINUOUS
  5
7A5
 10
417.604728
 20
415.239362
 30
0.0
 40
9.900108
 50
257.247905
 51
277.211487
  0
ARC
  8
LC-001-002-----0
  6
DASHED
 62
     2
  5
7A6
 10
417.604728
 20
415.239362
 30
0.0
 40
9.900108
 50
277.211487
 51
297.751064
  0
ARC
  8
LC-001-002-----0
  6
DASHED
 62
     2
  5
7A7
 10
418.210087
 20
416.572866
 30
0.0
 40
8.333581
 50
270.960321
 51
295.240372
  0
CIRCLE
  8
LC-001-002-----0
  6
CONTINUOUS
  5
7A8
 10
419.785236
 20
410.177302
 30
0.0
 40
1.75
  0
LINE
  8
LC-001-002-----0
  6
DASHDOT
 62
     2
  5
7AA
 10
418.094866
 20
409.724369
 30
0.0
 11
421.475607
 21
410.630235
 31
0.0
  0
LINE
  8
LC-001-002-----0
  6
DASHDOT
 62
     2
  5
7AB
 10
419.332303
 20
411.867672
 30
0.0
 11
420.23817
 21
408.486932
 31
0.0
  0
LINE
  8
LC-001-002-----0
  6
CONTINUOUS
  5
7AC
 10
415.405575
 20
405.574299
 30
0.0
 11
418.929435
 21
404.952947
 31
0.0
  0
LINE
  8
LC-001-002-----0
  6
CONTINUOUS
  5
7AD
 10
477.582499
 20
239.661947
 30
0.0
 11
476.376728
 21
235.161947
 31
0.0
  0
LINE
  8
LC-001-002-----0
  6
CONTINUOUS
  5
7AE
 10
437.136986
 20
321.848488
 30
0.0
 11
421.50865
 21
410.481186
 31
0.0
  0
LINE
  8
LC-001-002-----0
  6
CONTINUOUS
  5
7AF
 10
433.690159
 20
321.24072
 30
0.0
 11
437.136986
 21
321.848488
 31
0.0
  0
ARC
  8
LC-003-002-RND-0
  6
CONTINUOUS
  5
7B0
 10
328.082499
 20
466.161947
 30
0.0
 40
4.0
 50
180.0
 51
270.0
  0
ARC
  8
LC-003-002-RND-0
  6
CONTINUOUS
  5
7B1
 10
328.082499
 20
466.161947
 30
0.0
 40
8.0
 50
180.0
 51
273.583322
  0
LINE
  8
LC-001-002-----0
  6
CONTINUOUS
  5
7B2
 10
328.082499
 20
462.161947
 30
0.0
 11
332.582499
 21
462.161947
 31
0.0
  0
LINE
  8
LC-001-002-----0
  6
CONTINUOUS
  5
7B3
 10
332.582499
 20
431.161947
 30
0.0
 11
336.582499
 21
431.161947
 31
0.0
  0
ARC
  8
LC-003-002-RND-0
  6
CONTINUOUS
  5
7B4
 10
332.582499
 20
431.161947
 30
0.0
 40
4.0
 50
180.0
 51
270.0
  0
LINE
  8
LC-001-002-----0
  6
CONTINUOUS
  5
7B5
 10
335.082499
 20
434.661947
 30
0.0
 11
491.956822
 21
434.661947
 31
0.0
  0
ARC
  8
LC-003-002-RND-0
  6
CONTINUOUS
  5
7B6
 10
335.082499
 20
433.161947
 30
0.0
 40
1.5
 50
90.0
 51
180.0
  0
ARC
  8
LC-003-002-RND-0
  6
CONTINUOUS
  5
7B7
 10
335.082499
 20
433.161947
 30
0.0
 40
1.5
 50
180.0
 51
270.0
  0
LINE
  8
LC-001-002-----0
  6
CONTINUOUS
  5
7B8
 10
335.082499
 20
431.661947
 30
0.0
 11
337.332499
 21
431.661947
 31
0.0
  0
LINE
  8
LC-001-002-----0
  6
CONTINUOUS
  5
7B9
 10
337.332499
 20
431.661947
 30
0.0
 11
337.332499
 21
427.23501
 31
0.0
  0
LINE
  8
LC-001-002-----0
  6
CONTINUOUS
  5
7BA
 10
340.582499
 20
426.661947
 30
0.0
 11
337.332499
 21
427.23501
 31
0.0
  0
LINE
  8
LC-001-002-----0
  6
CONTINUOUS
  5
7BB
 10
340.582499
 20
426.661947
 30
0.0
 11
340.582499
 21
421.661947
 31
0.0
  0
LINE
  8
LC-001-002-----0
  6
CONTINUOUS
  5
7BC
 10
340.582499
 20
421.661947
 30
0.0
 11
337.332499
 21
421.088885
 31
0.0
  0
LINE
  8
LC-001-002-----0
  6
CONTINUOUS
  5
7BD
 10
337.332499
 20
421.088885
 30
0.0
 11
337.332499
 21
418.661947
 31
0.0
  0
LINE
  8
LC-001-002-----0
  6
CONTINUOUS
  5
7BE
 10
337.332499
 20
418.661947
 30
0.0
 11
340.082499
 21
418.661947
 31
0.0
  0
ARC
  8
LC-001-002-----0
  6
CONTINUOUS
  5
7BF
 10
338.582499
 20
423.309293
 30
0.0
 40
2.0
 50
180.0
 51
0.0
  0
ARC
  8
LC-001-002-----0
  6
CONTINUOUS
  5
7C0
 10
338.582499
 20
425.014601
 30
0.0
 40
2.0
 50
0.0
 51
180.0
  0
LINE
  8
LC-001-002-----0
  6
CONTINUOUS
  5
7C1
 10
343.082499
 20
429.661947
 30
0.0
 11
338.082499
 21
434.661947
 31
0.0
  0
LINE
  8
LC-001-002-----0
  6
CONTINUOUS
  5
7C2
 10
343.082499
 20
429.661947
 30
0.0
 11
480.922881
 21
429.661947
 31
0.0
  0
LINE
  8
LC-001-002-----0
  6
CONTINUOUS
  5
7C3
 10
505.239507
 20
418.666059
 30
0.0
 11
422.458067
 21
414.327667
 31
0.0
  0
LINE
  8
LC-001-002-----0
  6
CONTINUOUS
  5
7C4
 10
502.082499
 20
421.504724
 30
0.0
 11
422.301059
 21
417.323556
 31
0.0
  0
LINE
  8
LC-001-002-----0
  6
CONTINUOUS
  5
7C5
 10
502.082499
 20
429.661947
 30
0.0
 11
502.082499
 21
421.504724
 31
0.0
  0
LINE
  8
LC-001-002-----0
  6
CONTINUOUS
  5
7C6
 10
480.922881
 20
429.661947
 30
0.0
 11
502.082499
 21
429.661947
 31
0.0
  0
LINE
  8
LC-001-002-----0
  6
CONTINUOUS
  5
7C7
 10
491.956822
 20
434.661947
 30
0.0
 11
503.082499
 21
434.661947
 31
0.0
  0
LINE
  8
LC-001-002-----0
  6
CONTINUOUS
  5
7C8
 10
502.082499
 20
429.661947
 30
0.0
 11
507.082499
 21
434.661947
 31
0.0
  0
LINE
  8
LC-001-002-----0
  6
CONTINUOUS
  5
7C9
 10
510.082499
 20
434.661947
 30
0.0
 11
503.082499
 21
434.661947
 31
0.0
  0
ARC
  8
LC-003-002-RND-0
  6
CONTINUOUS
  5
7CA
 10
510.082499
 20
433.161947
 30
0.0
 40
1.5
 50
0.0
 51
90.0
  0
ARC
  8
LC-003-002-RND-0
  6
CONTINUOUS
  5
7CB
 10
510.082499
 20
433.161947
 30
0.0
 40
1.5
 50
270.0
 51
0.0
  0
LINE
  8
LC-001-002-----0
  6
CONTINUOUS
  5
7CC
 10
507.832499
 20
431.661947
 30
0.0
 11
510.082499
 21
431.661947
 31
0.0
  0
LINE
  8
LC-001-002-----0
  6
CONTINUOUS
  5
7CD
 10
507.832499
 20
431.661947
 30
0.0
 11
507.832499
 21
427.23501
 31
0.0
  0
LINE
  8
LC-001-002-----0
  6
CONTINUOUS
  5
7CE
 10
504.582499
 20
426.661947
 30
0.0
 11
507.832499
 21
427.23501
 31
0.0
  0
LINE
  8
LC-001-002-----0
  6
CONTINUOUS
  5
7CF
 10
504.582499
 20
426.661947
 30
0.0
 11
504.582499
 21
421.661947
 31
0.0
  0
LINE
  8
LC-001-002-----0
  6
CONTINUOUS
  5
7D0
 10
504.582499
 20
421.661947
 30
0.0
 11
507.832499
 21
421.088885
 31
0.0
  0
LINE
  8
LC-001-002-----0
  6
CONTINUOUS
  5
7D1
 10
507.832499
 20
421.088885
 30
0.0
 11
507.832499
 21
418.661947
 31
0.0
  0
LINE
  8
LC-001-002-----0
  6
CONTINUOUS
  5
7D2
 10
507.832499
 20
418.661947
 30
0.0
 11
505.161057
 21
418.661947
 31
0.0
  0
ARC
  8
LC-001-002-----0
  6
CONTINUOUS
  5
7D3
 10
506.582499
 20
425.014601
 30
0.0
 40
2.0
 50
0.0
 51
180.0
  0
ARC
  8
LC-001-002-----0
  6
CONTINUOUS
  5
7D4
 10
506.582499
 20
423.309293
 30
0.0
 40
2.0
 50
180.0
 51
0.0
  0
ARC
  8
LC-003-002-RND-0
  6
CONTINUOUS
  5
7D5
 10
512.582499
 20
431.161947
 30
0.0
 40
4.0
 50
270.0
 51
0.0
  0
LINE
  8
LC-001-002-----0
  6
CONTINUOUS
  5
7D6
 10
512.582499
 20
431.161947
 30
0.0
 11
508.582499
 21
431.161947
 31
0.0
  0
LINE
  8
LC-001-002-----0
  6
CONTINUOUS
  5
7D7
 10
512.582499
 20
427.161947
 30
0.0
 11
512.582499
 21
417.161947
 31
0.0
  0
LINE
  8
LC-001-002-----0
  6
CONTINUOUS
  5
7D8
 10
508.582499
 20
431.161947
 30
0.0
 11
508.582499
 21
417.161947
 31
0.0
  0
LINE
  8
LC-001-002-----0
  6
CONTINUOUS
  5
7D9
 10
328.082499
 20
458.161947
 30
0.0
 11
328.582499
 21
458.161947
 31
0.0
  0
ARC
  8
LC-001-002-----0
  6
CONTINUOUS
  5
7DA
 10
318.832499
 20
585.006806
 30
0.0
 40
2.25
 50
180.0
 51
0.0
  0
ARC
  8
LC-001-002-----0
  6
CONTINUOUS
  5
7DB
 10
318.832499
 20
587.08443
 30
0.0
 40
2.25
 50
0.0
 51
180.0
  0
LINE
  8
LC-001-002-----0
  6
CONTINUOUS
  5
7DC
 10
324.082499
 20
475.67752
 30
0.0
 11
324.082499
 21
473.599896
 31
0.0
  0
LINE
  8
LC-001-002-----0
  6
CONTINUOUS
  5
7DD
 10
321.082499
 20
587.08443
 30
0.0
 11
321.082499
 21
585.006806
 31
0.0
  0
LINE
  8
LC-001-002-----0
  6
CONTINUOUS
  5
7DE
 10
327.883436
 20
476.011947
 30
0.0
 11
324.821249
 21
476.832458
 31
0.0
  0
LINE
  8
LC-001-002-----0
  6
CONTINUOUS
  5
7DF
 10
324.821249
 20
469.444958
 30
0.0
 11
327.883436
 21
470.265468
 31
0.0
  0
LINE
  8
LC-001-002-----0
  6
CONTINUOUS
  5
7E0
 10
516.551499
 20
471.216905
 30
0.0
 11
516.551499
 21
475.06051
 31
0.0
  0
LINE
  8
LC-001-002-----0
  6
CONTINUOUS
  5
7E1
 10
505.703189
 20
303.161947
 30
0.0
 11
502.239087
 21
297.161947
 31
0.0
  0
LINE
  8
LC-001-002-----0
  6
CONTINUOUS
  5
7E2
 10
501.76729
 20
304.34477
 30
0.0
 11
499.929686
 21
301.161947
 31
0.0
  0
LINE
  8
LC-001-002-----0
  6
CONTINUOUS
  5
7E3
 10
342.925911
 20
297.161947
 30
0.0
 11
367.582499
 21
297.161947
 31
0.0
  0
LINE
  8
LC-001-002-----0
  6
CONTINUOUS
  5
7E4
 10
477.582499
 20
297.161947
 30
0.0
 11
502.239087
 21
297.161947
 31
0.0
  0
LINE
  8
LC-001-002-----0
  6
CONTINUOUS
  5
7E5
 10
433.690159
 20
321.24072
 30
0.0
 11
418.061823
 21
409.873418
 31
0.0
  0
LINE
  8
LC-001-002-----0
  6
CONTINUOUS
  5
7E6
 10
345.235312
 20
301.161947
 30
0.0
 11
499.929686
 21
301.161947
 31
0.0
  0
LINE
  8
LC-001-002-----0
  6
CONTINUOUS
  5
7E7
 10
432.575712
 20
324.681677
 30
0.0
 11
433.13009
 21
321.537645
 31
0.0
  0
ARC
  8
LC-001-002-----0
  6
CONTINUOUS
  5
7E8
 10
418.210087
 20
416.572866
 30
0.0
 40
8.333581
 50
295.240372
 51
330.42979
  0
ARC
  8
LC-001-002-----0
  6
CONTINUOUS
  5
7E9
 10
417.604728
 20
415.239362
 30
0.0
 40
9.900108
 50
297.751064
 51
340.960298
  0
ARC
  8
LC-003-002-RND-0
  6
CONTINUOUS
  5
7EA
 10
426.193193
 20
412.082982
 30
0.0
 40
0.75
 50
339.820923
 51
85.0
  0
LINE
  8
LC-001-002-----0
  6
CONTINUOUS
  5
7EB
 10
426.110547
 20
412.840213
 30
0.0
 11
426.25856
 21
412.830128
 31
0.0
  0
ARC
  8
LC-003-002-RND-0
  6
CONTINUOUS
  5
7EC
 10
426.110547
 20
412.090213
 30
0.0
 40
0.75
 50
85.0
 51
150.42979
  0
CIRCLE
  8
LC-001-002-----0
  6
CONTINUOUS
  5
7ED
 10
435.10647
 20
577.58791
 30
0.0
 40
2.0
  0
ARC
  8
LC-001-002-----0
  6
CONTINUOUS
  5
7EE
 10
435.10647
 20
577.58791
 30
0.0
 40
4.0
 50
38.137308
 51
338.862692
  0
ARC
  8
LC-001-002-----0
  6
CONTINUOUS
  5
7EF
 10
435.10647
 20
577.58791
 30
0.0
 40
4.5
 50
34.575977
 51
342.424023
  0
LINE
  8
LC-001-002-----0
  6
CONTINUOUS
  5
7F0
 10
435.10647
 20
575.58791
 30
0.0
 11
493.772504
 21
584.355607
 31
0.0
  0
LINE
  8
LC-001-002-----0
  6
CONTINUOUS
  5
7F1
 10
435.10647
 20
579.58791
 30
0.0
 11
493.187761
 21
588.268217
 31
0.0
  0
LINE
  8
LC-001-002-----0
  6
CONTINUOUS
  5
7F2
 10
494.299612
 20
587.44549
 30
0.0
 11
496.772152
 21
587.815014
 31
0.0
  0
LINE
  8
LC-001-002-----0
  6
CONTINUOUS
  5
7F3
 10
494.595231
 20
585.467458
 30
0.0
 11
497.067771
 21
585.836982
 31
0.0
  0
LINE
  8
LC-001-002-----0
  6
CONTINUOUS
  5
7F4
 10
494.299612
 20
587.44549
 30
0.0
 11
493.187761
 21
588.268217
 31
0.0
  0
LINE
  8
LC-001-002-----0
  6
CONTINUOUS
  5
7F5
 10
494.595231
 20
585.467458
 30
0.0
 11
493.772504
 21
584.355607
 31
0.0
  0
LINE
  8
LC-001-002-----0
  6
CONTINUOUS
  5
7F6
 10
487.177612
 20
584.358888
 30
0.0
 11
486.881993
 21
586.33692
 31
0.0
  0
LINE
  8
LC-001-002-----0
  6
CONTINUOUS
  5
7F7
 10
486.881993
 20
586.33692
 30
0.0
 11
487.70472
 21
587.448771
 31
0.0
  0
LINE
  8
LC-001-002-----0
  6
CONTINUOUS
  5
7F8
 10
487.177612
 20
584.358888
 30
0.0
 11
488.289463
 21
583.536161
 31
0.0
  0
LINE
  8
LC-001-002-----0
  6
CONTINUOUS
  5
7F9
 10
496.772152
 20
587.815014
 30
0.0
 11
497.908977
 21
586.973807
 31
0.0
  0
LINE
  8
LC-001-002-----0
  6
CONTINUOUS
  5
7FA
 10
497.067771
 20
585.836982
 30
0.0
 11
497.908977
 21
586.973807
 31
0.0
  0
LINE
  8
LC-001-002-----0
  6
CONTINUOUS
  5
7FB
 10
453.582499
 20
577.194179
 30
0.0
 11
445.854269
 21
577.194179
 31
0.0
  0
LINE
  8
LC-001-002-----0
  6
CONTINUOUS
  5
7FC
 10
443.582499
 20
576.854661
 30
0.0
 11
443.582499
 21
546.194179
 31
0.0
  0
LINE
  8
LC-001-002-----0
  6
CONTINUOUS
  5
7FD
 10
441.582499
 20
576.555759
 30
0.0
 11
441.582499
 21
546.194179
 31
0.0
  0
LINE
  8
LC-001-002-----0
  6
CONTINUOUS
  5
7FE
 10
474.644346
 20
585.496885
 30
0.0
 11
440.476484
 21
585.496885
 31
0.0
  0
LINE
  8
LC-001-002-----0
  6
CONTINUOUS
  5
7FF
 10
488.907177
 20
587.628479
 30
0.0
 11
449.709434
 21
587.628479
 31
0.0
  0
LINE
  8
LC-001-002-----0
  6
CONTINUOUS
  5
800
 10
519.582499
 20
587.628479
 30
0.0
 11
497.024239
 21
587.628479
 31
0.0
  0
LINE
  8
LC-001-002-----0
  6
CONTINUOUS
  5
801
 10
355.010522
 20
543.526897
 30
0.0
 11
490.154476
 21
543.526897
 31
0.0
  0
LINE
  8
LC-001-002-----0
  6
CONTINUOUS
  5
802
 10
309.082499
 20
473.890374
 30
0.0
 11
306.882499
 21
471.690374
 31
0.0
  0
LINE
  8
LC-001-002-----0
  6
CONTINUOUS
  5
803
 10
304.682499
 20
473.890374
 30
0.0
 11
306.882499
 21
471.690374
 31
0.0
  0
LINE
  8
LC-001-002-----0
  6
CONTINUOUS
  5
804
 10
277.082499
 20
488.161947
 30
0.0
 11
304.682499
 21
488.161947
 31
0.0
  0
ARC
  8
LC-003-002-RND-0
  6
CONTINUOUS
  5
805
 10
296.18307
 20
480.361947
 30
0.0
 40
1.5
 50
270.0
 51
355.0
  0
LINE
  8
LC-001-002-----0
  6
CONTINUOUS
  5
806
 10
297.962704
 20
483.492681
 30
0.0
 11
297.677362
 21
480.231214
 31
0.0
  0
ARC
  8
LC-003-002-RND-0
  6
CONTINUOUS
  5
807
 10
299.456996
 20
483.361947
 30
0.0
 40
1.5
 50
90.0
 51
175.0
  0
ARC
  8
LC-003-002-RND-0
  6
CONTINUOUS
  5
808
 10
306.882499
 20
468.861947
 30
0.0
 40
1.0
 50
225.0
 51
315.0
  0
ARC
  8
LC-003-002-RND-0
  6
CONTINUOUS
  5
809
 10
318.582499
 20
483.361947
 30
0.0
 40
1.5
 50
0.0
 51
90.0
  0
LINE
  8
LC-001-002-----0
  6
CONTINUOUS
  5
80A
 10
320.082499
 20
483.361947
 30
0.0
 11
320.082499
 21
466.161947
 31
0.0
  0
LINE
  8
LC-001-002-----0
  6
CONTINUOUS
  5
80B
 10
277.388709
 20
491.661947
 30
0.0
 11
239.800468
 21
498.289769
 31
0.0
  0
LINE
  8
LC-001-002-----0
  6
CONTINUOUS
  5
80C
 10
239.800468
 20
498.289769
 30
0.0
 11
202.875789
 21
498.289769
 31
0.0
  0
LINE
  8
LC-001-002-----0
  6
CONTINUOUS
  5
80D
 10
277.082499
 20
488.161947
 30
0.0
 11
239.494257
 21
494.789769
 31
0.0
  0
LINE
  8
LC-001-002-----0
  6
CONTINUOUS
  5
80E
 10
239.494257
 20
494.789769
 30
0.0
 11
202.875789
 21
494.789769
 31
0.0
  0
LINE
  8
LC-001-002-----0
  6
CONTINUOUS
  5
80F
 10
306.382499
 20
495.461947
 30
0.0
 11
307.382499
 21
495.461947
 31
0.0
  0
LINE
  8
LC-001-002-----0
  6
CONTINUOUS
  5
810
 10
306.382499
 20
497.461947
 30
0.0
 11
306.382499
 21
495.461947
 31
0.0
  0
LINE
  8
LC-001-002-----0
  6
CONTINUOUS
  5
811
 10
307.382499
 20
497.461947
 30
0.0
 11
307.382499
 21
495.461947
 31
0.0
  0
ARC
  8
LC-003-002-RND-0
  6
CONTINUOUS
  5
812
 10
302.882499
 20
495.461947
 30
0.0
 40
2.0
 50
90.0
 51
180.0
  0
LINE
  8
LC-001-002-----0
  6
CONTINUOUS
  5
813
 10
300.882499
 20
495.461947
 30
0.0
 11
300.882499
 21
493.461947
 31
0.0
  0
LINE
  8
LC-001-002-----0
  6
CONTINUOUS
  5
814
 10
312.882499
 20
495.461947
 30
0.0
 11
312.882499
 21
493.461947
 31
0.0
  0
ARC
  8
LC-003-002-RND-0
  6
CONTINUOUS
  5
815
 10
310.882499
 20
495.461947
 30
0.0
 40
2.0
 50
0.0
 51
90.0
  0
LINE
  8
LC-001-002-----0
  6
CONTINUOUS
 62
     2
  5
816
 10
202.875789
 20
498.289769
 30
0.0
 11
202.819067
 21
497.969617
 31
0.0
  0
LINE
  8
LC-001-002-----0
  6
CONTINUOUS
 62
     2
  5
817
 10
202.819067
 20
497.969617
 30
0.0
 11
202.991107
 21
497.466648
 31
0.0
  0
LINE
  8
LC-001-002-----0
  6
CONTINUOUS
 62
     2
  5
818
 10
202.991107
 20
497.466648
 30
0.0
 11
202.701876
 21
497.080869
 31
0.0
  0
LINE
  8
LC-001-002-----0
  6
CONTINUOUS
 62
     2
  5
819
 10
202.701876
 20
497.080869
 30
0.0
 11
202.958293
 21
496.512273
 31
0.0
  0
LINE
  8
LC-001-002-----0
  6
CONTINUOUS
 62
     2
  5
81A
 10
202.958293
 20
496.512273
 30
0.0
 11
202.73469
 21
496.060867
 31
0.0
  0
LINE
  8
LC-001-002-----0
  6
CONTINUOUS
 62
     2
  5
81B
 10
202.73469
 20
496.060867
 30
0.0
 11
202.92548
 21
495.726653
 31
0.0
  0
LINE
  8
LC-001-002-----0
  6
CONTINUOUS
 62
     2
  5
81C
 10
202.92548
 20
495.726653
 30
0.0
 11
202.767503
 21
495.209621
 31
0.0
  0
LINE
  8
LC-001-002-----0
  6
CONTINUOUS
 62
     2
  5
81D
 10
202.767503
 20
495.209621
 30
0.0
 11
202.875789
 21
494.789769
 31
0.0
  0
ARC
  8
LC-003-002-RND-0
  6
CONTINUOUS
  5
81E
 10
283.708002
 20
483.361947
 30
0.0
 40
1.5
 50
5.0
 51
90.0
  0
LINE
  8
LC-001-002-----0
  6
CONTINUOUS
  5
81F
 10
324.082499
 20
466.161947
 30
0.0
 11
324.082499
 21
491.661947
 31
0.0
  0
LINE
  8
LC-001-002-----0
  6
CONTINUOUS
  5
820
 10
328.582499
 20
458.177588
 30
0.0
 11
328.582499
 21
431.161947
 31
0.0
  0
LINE
  8
LC-001-002-----0
  6
CONTINUOUS
  5
821
 10
332.582499
 20
466.161947
 30
0.0
 11
332.582499
 21
431.161947
 31
0.0
  0
LINE
  8
LC-001-002-----0
  6
CONTINUOUS
  5
822
 10
367.582499
 20
297.161947
 30
0.0
 11
367.582499
 21
239.661947
 31
0.0
  0
LINE
  8
LC-001-002-----0
  6
CONTINUOUS
  5
823
 10
371.582499
 20
301.161947
 30
0.0
 11
371.582499
 21
235.161947
 31
0.0
  0
LINE
  8
LC-001-002-----0
  6
CONTINUOUS
  5
824
 10
477.582499
 20
297.161947
 30
0.0
 11
477.582499
 21
239.661947
 31
0.0
  0
LINE
  8
LC-001-002-----0
  6
CONTINUOUS
  5
825
 10
473.582499
 20
301.161947
 30
0.0
 11
473.582499
 21
235.161947
 31
0.0
  0
LINE
  8
LC-001-002-----0
  6
CONTINUOUS
  5
826
 10
343.397709
 20
304.34477
 30
0.0
 11
336.589749
 21
417.162385
 31
0.0
  0
LINE
  8
LC-001-002-----0
  6
CONTINUOUS
  5
827
 10
343.397709
 20
304.34477
 30
0.0
 11
345.235312
 21
301.161947
 31
0.0
  0
LINE
  8
LC-001-002-----0
  6
CONTINUOUS
  5
828
 10
339.461809
 20
303.161947
 30
0.0
 11
342.925911
 21
297.161947
 31
0.0
  0
LINE
  8
LC-001-002-----0
  6
CONTINUOUS
  5
829
 10
501.76729
 20
304.34477
 30
0.0
 11
508.589762
 21
417.402888
 31
0.0
  0
LINE
  8
LC-001-002-----0
  6
CONTINUOUS
  5
82A
 10
505.703189
 20
303.161947
 30
0.0
 11
512.582499
 21
417.161947
 31
0.0
  0
ARC
  8
LC-003-002-RND-0
  6
CONTINUOUS
  5
82B
 10
300.382499
 20
483.861947
 30
0.0
 40
1.0
 50
0.0
 51
90.0
  0
LINE
  8
LC-001-002-----0
  6
CONTINUOUS
  5
82C
 10
301.675392
 20
472.654841
 30
0.0
 11
306.175392
 21
468.154841
 31
0.0
  0
ARC
  8
LC-003-002-RND-0
  6
CONTINUOUS
  5
82D
 10
302.382499
 20
473.361947
 30
0.0
 40
1.0
 50
180.0
 51
225.0
  0
LINE
  8
LC-001-002-----0
  6
CONTINUOUS
  5
82E
 10
301.382499
 20
483.861947
 30
0.0
 11
301.382499
 21
473.361947
 31
0.0
  0
ARC
  8
LC-003-002-RND-0
  6
CONTINUOUS
  5
82F
 10
311.382499
 20
473.361947
 30
0.0
 40
1.0
 50
315.0
 51
0.0
  0
LINE
  8
LC-001-002-----0
  6
CONTINUOUS
  5
830
 10
312.089606
 20
472.654841
 30
0.0
 11
307.589606
 21
468.154841
 31
0.0
  0
LINE
  8
LC-001-002-----0
  6
CONTINUOUS
  5
831
 10
312.382499
 20
483.861947
 30
0.0
 11
312.382499
 21
473.361947
 31
0.0
  0
ARC
  8
LC-003-002-RND-0
  6
CONTINUOUS
  5
832
 10
313.382499
 20
483.861947
 30
0.0
 40
1.0
 50
90.0
 51
180.0
  0
LINE
  8
LC-001-002-----0
  6
CONTINUOUS
  5
833
 10
295.082499
 20
482.661947
 30
0.0
 11
288.082499
 21
482.661947
 31
0.0
  0
LINE
  8
LC-001-002-----0
  6
CONTINUOUS
  5
834
 10
288.082499
 20
488.161947
 30
0.0
 11
288.082499
 21
482.661947
 31
0.0
  0
LINE
  8
LC-001-002-----0
  6
CONTINUOUS
  5
835
 10
295.082499
 20
488.161947
 30
0.0
 11
295.082499
 21
482.661947
 31
0.0
  0
LINE
  8
LC-001-002-----0
  6
CONTINUOUS
  5
836
 10
277.582499
 20
484.861947
 30
0.0
 11
328.582499
 21
433.861947
 31
0.0
  0
LINE
  8
LC-001-002-----0
  6
CONTINUOUS
  5
837
 10
567.582499
 20
484.861947
 30
0.0
 11
516.582499
 21
433.861947
 31
0.0
  0
LINE
  8
LC-001-002-----0
  6
CONTINUOUS
  5
838
 10
512.582499
 20
466.161947
 30
0.0
 11
512.582499
 21
431.161947
 31
0.0
  0
LINE
  8
LC-001-002-----0
  6
CONTINUOUS
  5
839
 10
516.582499
 20
458.177588
 30
0.0
 11
516.582499
 21
431.161947
 31
0.0
  0
LINE
  8
LC-001-002-----0
  6
CONTINUOUS
  5
83A
 10
264.582499
 20
486.977871
 30
0.0
 11
264.582499
 21
490.366035
 31
0.0
  0
LINE
  8
LC-001-002-----0
  6
CONTINUOUS
  5
83B
 10
276.582499
 20
484.861947
 30
0.0
 11
264.582499
 21
486.977871
 31
0.0
  0
LINE
  8
LC-001-002-----0
  6
CONTINUOUS
  5
83C
 10
323.836249
 20
589.58443
 30
0.0
 11
323.836249
 21
568.60393
 31
0.0
  0
LINE
  8
LC-001-002-----0
  6
CONTINUOUS
  5
83D
 10
316.582499
 20
560.58443
 30
0.0
 11
316.582499
 21
587.58443
 31
0.0
  0
ARC
  8
LC-003-002-RND-0
  6
CONTINUOUS
  5
83E
 10
318.582499
 20
587.58443
 30
0.0
 40
2.0
 50
90.0
 51
180.0
  0
LINE
  8
LC-001-002-----0
  6
CONTINUOUS
  5
83F
 10
318.582499
 20
589.58443
 30
0.0
 11
322.851249
 21
589.58443
 31
0.0
  0
ARC
  8
LC-003-002-RND-0
  6
CONTINUOUS
  5
840
 10
302.582499
 20
584.58443
 30
0.0
 40
3.0
 50
0.0
 51
90.0
  0
LINE
  8
LC-001-002-----0
  6
CONTINUOUS
  5
841
 10
305.582499
 20
563.58443
 30
0.0
 11
305.582499
 21
584.58443
 31
0.0
  0
ARC
  8
LC-003-002-RND-0
  6
CONTINUOUS
  5
842
 10
308.582499
 20
563.58443
 30
0.0
 40
3.0
 50
180.0
 51
270.0
  0
LINE
  8
LC-001-002-----0
  6
CONTINUOUS
  5
843
 10
292.582499
 20
590.58443
 30
0.0
 11
292.582499
 21
596.08443
 31
0.0
  0
ARC
  8
LC-003-002-RND-0
  6
CONTINUOUS
  5
844
 10
295.582499
 20
590.58443
 30
0.0
 40
3.0
 50
180.0
 51
270.0
  0
LINE
  8
LC-001-002-----0
  6
CONTINUOUS
  5
845
 10
295.582499
 20
587.58443
 30
0.0
 11
302.582499
 21
587.58443
 31
0.0
  0
LINE
  8
LC-001-002-----0
  6
CONTINUOUS
  5
846
 10
322.582499
 20
589.58443
 30
0.0
 11
322.582499
 21
594.58443
 31
0.0
  0
ARC
  8
LC-003-002-RND-0
  6
CONTINUOUS
  5
847
 10
319.582499
 20
594.58443
 30
0.0
 40
3.0
 50
0.0
 51
90.0
  0
LINE
  8
LC-001-002-----0
  6
CONTINUOUS
  5
848
 10
292.582499
 20
596.08443
 30
0.0
 11
297.946209
 21
616.102068
 31
0.0
  0
ARC
  8
LC-003-002-RND-0
  6
CONTINUOUS
  5
849
 10
299.878061
 20
615.58443
 30
0.0
 40
2.0
 50
90.0
 51
165.0
  0
LINE
  8
LC-001-002-----0
  6
CONTINUOUS
  5
84A
 10
308.582499
 20
600.58443
 30
0.0
 11
308.582499
 21
615.58443
 31
0.0
  0
LINE
  8
LC-001-002-----0
  6
CONTINUOUS
  5
84B
 10
299.878061
 20
617.58443
 30
0.0
 11
306.582499
 21
617.58443
 31
0.0
  0
LINE
  8
LC-001-002-----0
  6
CONTINUOUS
  5
84C
 10
323.589999
 20
564.66393
 30
0.0
 11
327.628499
 21
564.66393
 31
0.0
  0
ARC
  8
LC-003-002-RND-0
  6
CONTINUOUS
  5
84D
 10
323.589999
 20
567.12643
 30
0.0
 40
2.4625
 50
180.0
 51
270.0
  0
LINE
  8
LC-001-002-----0
  6
CONTINUOUS
  5
84E
 10
321.127499
 20
589.58443
 30
0.0
 11
321.127499
 21
567.12643
 31
0.0
  0
LINE
  8
LC-001-002-----0
  6
CONTINUOUS
  5
84F
 10
328.613499
 20
471.216905
 30
0.0
 11
328.613499
 21
475.06051
 31
0.0
  0
ARC
  8
LC-003-002-RND-0
  6
CONTINUOUS
  5
850
 10
327.628499
 20
475.06051
 30
0.0
 40
0.985
 50
0.0
 51
75.0
  0
ARC
  8
LC-003-002-RND-0
  6
CONTINUOUS
  5
851
 10
327.628499
 20
471.216905
 30
0.0
 40
0.985
 50
285.0
 51
0.0
  0
LINE
  8
LC-001-002-----0
  6
CONTINUOUS
  5
852
 10
528.582499
 20
560.58443
 30
0.0
 11
528.582499
 21
587.58443
 31
0.0
  0
LINE
  8
LC-001-002-----0
  6
CONTINUOUS
  5
853
 10
552.582499
 20
590.58443
 30
0.0
 11
552.582499
 21
596.08443
 31
0.0
  0
LINE
  8
LC-001-002-----0
  6
CONTINUOUS
  5
854
 10
552.582499
 20
596.08443
 30
0.0
 11
547.218789
 21
616.102068
 31
0.0
  0
LINE
  8
LC-001-002-----0
  6
CONTINUOUS
  5
855
 10
522.582499
 20
589.58443
 30
0.0
 11
522.582499
 21
594.58443
 31
0.0
  0
ARC
  8
LC-003-002-RND-0
  6
CONTINUOUS
  5
856
 10
549.582499
 20
590.58443
 30
0.0
 40
3.0
 50
270.0
 51
0.0
  0
LINE
  8
LC-001-002-----0
  6
CONTINUOUS
  5
857
 10
539.582499
 20
563.58443
 30
0.0
 11
539.582499
 21
584.58443
 31
0.0
  0
ARC
  8
LC-003-002-RND-0
  6
CONTINUOUS
  5
858
 10
542.582499
 20
584.58443
 30
0.0
 40
3.0
 50
90.0
 51
180.0
  0
ARC
  8
LC-003-002-RND-0
  6
CONTINUOUS
  5
859
 10
536.582499
 20
563.58443
 30
0.0
 40
3.0
 50
270.0
 51
0.0
  0
ARC
  8
LC-003-002-RND-0
  6
CONTINUOUS
  5
85A
 10
533.582499
 20
600.58443
 30
0.0
 40
3.0
 50
270.0
 51
0.0
  0
LINE
  8
LC-001-002-----0
  6
CONTINUOUS
  5
85B
 10
536.582499
 20
600.58443
 30
0.0
 11
536.582499
 21
615.58443
 31
0.0
  0
ARC
  8
LC-003-002-RND-0
  6
CONTINUOUS
  5
85C
 10
545.286937
 20
615.58443
 30
0.0
 40
2.0
 50
15.0
 51
90.0
  0
LINE
  8
LC-001-002-----0
  6
CONTINUOUS
  5
85D
 10
549.582499
 20
587.58443
 30
0.0
 11
542.582499
 21
587.58443
 31
0.0
  0
ARC
  8
LC-003-002-RND-0
  6
CONTINUOUS
  5
85E
 10
526.582499
 20
587.58443
 30
0.0
 40
2.0
 50
0.0
 51
90.0
  0
LINE
  8
LC-001-002-----0
  6
CONTINUOUS
  5
85F
 10
526.582499
 20
589.58443
 30
0.0
 11
522.313749
 21
589.58443
 31
0.0
  0
LINE
  8
LC-001-002-----0
  6
CONTINUOUS
  5
860
 10
524.082499
 20
587.08443
 30
0.0
 11
524.082499
 21
585.006806
 31
0.0
  0
ARC
  8
LC-001-002-----0
  6
CONTINUOUS
  5
861
 10
526.332499
 20
587.08443
 30
0.0
 40
2.25
 50
0.0
 51
180.0
  0
ARC
  8
LC-001-002-----0
  6
CONTINUOUS
  5
862
 10
526.332499
 20
585.006806
 30
0.0
 40
2.25
 50
180.0
 51
0.0
  0
ARC
  8
LC-003-002-RND-0
  6
CONTINUOUS
  5
863
 10
538.582499
 20
615.58443
 30
0.0
 40
2.0
 50
90.0
 51
180.0
  0
LINE
  8
LC-001-002-----0
  6
CONTINUOUS
  5
864
 10
545.286937
 20
617.58443
 30
0.0
 11
538.582499
 21
617.58443
 31
0.0
  0
ARC
  8
LC-003-002-RND-0
  6
CONTINUOUS
  5
865
 10
311.582499
 20
600.58443
 30
0.0
 40
3.0
 50
180.0
 51
270.0
  0
ARC
  8
LC-003-002-RND-0
  6
CONTINUOUS
  5
866
 10
306.582499
 20
615.58443
 30
0.0
 40
2.0
 50
0.0
 51
90.0
  0
LINE
  8
LC-001-002-----0
  6
CONTINUOUS
  5
867
 10
308.582499
 20
560.58443
 30
0.0
 11
328.613499
 21
560.58443
 31
0.0
  0
LINE
  8
LC-001-002-----0
  6
CONTINUOUS
  5
868
 10
536.582499
 20
560.58443
 30
0.0
 11
516.551499
 21
560.58443
 31
0.0
  0
LINE
  8
LC-001-002-----0
  6
CONTINUOUS
  5
869
 10
524.037499
 20
589.58443
 30
0.0
 11
524.037499
 21
567.12643
 31
0.0
  0
LINE
  8
LC-001-002-----0
  6
CONTINUOUS
  5
86A
 10
521.328749
 20
589.58443
 30
0.0
 11
521.328749
 21
568.60393
 31
0.0
  0
LINE
  8
LC-001-002-----0
  6
CONTINUOUS
  5
86B
 10
355.114347
 20
541.824166
 30
0.0
 11
355.010522
 21
543.526897
 31
0.0
  0
LINE
  8
LC-001-002-----0
  6
CONTINUOUS
  5
86C
 10
490.050651
 20
541.824166
 30
0.0
 11
490.154476
 21
543.526897
 31
0.0
  0
LINE
  8
LC-001-002-----0
  6
CONTINUOUS
  5
86D
 10
332.582499
 20
462.161947
 30
0.0
 11
512.582499
 21
462.161947
 31
0.0
  0
LINE
  8
LC-001-002-----0
  6
CONTINUOUS
  5
86E
 10
313.382499
 20
484.861947
 30
0.0
 11
318.582499
 21
484.861947
 31
0.0
  0
LINE
  8
LC-001-002-----0
  6
CONTINUOUS
  5
86F
 10
309.082499
 20
488.161947
 30
0.0
 11
324.082499
 21
488.161947
 31
0.0
  0
LINE
  8
LC-001-002-----0
  6
CONTINUOUS
  5
870
 10
309.082499
 20
491.661947
 30
0.0
 11
324.082499
 21
491.661947
 31
0.0
  0
ARC
  8
LC-001-002-----0
  6
CONTINUOUS
  5
871
 10
320.630824
 20
492.661947
 30
0.0
 40
0.2
 50
212.089799
 51
270.0
  0
ARC
  8
LC-001-002-----0
  6
CONTINUOUS
  5
872
 10
317.919736
 20
490.961947
 30
0.0
 40
2.2
 50
26.3878
 51
32.08995
  0
ARC
  8
LC-001-002-----0
  6
CONTINUOUS
  5
873
 10
320.338413
 20
492.161947
 30
0.0
 40
0.5
 50
206.387648
 51
270.0
  0
LINE
  8
LC-001-002-----0
  6
CONTINUOUS
  5
874
 10
323.407551
 20
491.661947
 30
0.0
 11
320.338413
 21
491.661947
 31
0.0
  0
ARC
  8
LC-001-002-----0
  6
CONTINUOUS
  5
875
 10
285.350605
 20
492.661947
 30
0.0
 40
0.2
 50
270.0
 51
333.612258
  0
LINE
  8
LC-001-002-----0
  6
CONTINUOUS
  5
876
 10
283.407551
 20
491.661947
 30
0.0
 11
285.350605
 21
491.661947
 31
0.0
  0
ARC
  8
LC-001-002-----0
  6
CONTINUOUS
  5
877
 10
285.350605
 20
492.661947
 30
0.0
 40
1.0
 50
270.0
 51
333.612258
  0
LINE
  8
LC-001-002-----0
  6
CONTINUOUS
  5
878
 10
303.632499
 20
492.661947
 30
0.0
 11
303.632499
 21
493.461947
 31
0.0
  0
LINE
  8
LC-001-002-----0
  6
CONTINUOUS
  5
879
 10
310.132499
 20
492.661947
 30
0.0
 11
310.132499
 21
493.461947
 31
0.0
  0
LINE
  8
LC-001-002-----0
  6
CONTINUOUS
  5
87A
 10
304.682499
 20
493.461947
 30
0.0
 11
304.682499
 21
473.890374
 31
0.0
  0
LINE
  8
LC-001-002-----0
  6
CONTINUOUS
  5
87B
 10
309.082499
 20
493.461947
 30
0.0
 11
309.082499
 21
473.890374
 31
0.0
  0
LINE
  8
LC-001-002-----0
  6
CONTINUOUS
  5
87C
 10
283.582499
 20
492.461947
 30
0.0
 11
283.582499
 21
491.661947
 31
0.0
  0
LINE
  8
LC-001-002-----0
  6
CONTINUOUS
  5
87D
 10
285.350605
 20
492.461947
 30
0.0
 11
283.582499
 21
492.461947
 31
0.0
  0
LINE
  8
LC-001-002-----0
  6
CONTINUOUS
  5
87E
 10
322.582499
 20
492.461947
 30
0.0
 11
320.630824
 21
492.461947
 31
0.0
  0
LINE
  8
LC-001-002-----0
  6
CONTINUOUS
  5
87F
 10
322.582499
 20
492.461947
 30
0.0
 11
322.582499
 21
491.661947
 31
0.0
  0
ARC
  8
LC-001-002-----0
  6
CONTINUOUS
  5
880
 10
287.769282
 20
491.461947
 30
0.0
 40
1.7
 50
39.179551
 51
153.6122
  0
LINE
  8
LC-001-002-----0
  6
CONTINUOUS
  5
881
 10
276.582499
 20
484.861947
 30
0.0
 11
283.708002
 21
484.861947
 31
0.0
  0
LINE
  8
LC-001-002-----0
  6
CONTINUOUS
  5
882
 10
300.382499
 20
484.861947
 30
0.0
 11
299.456996
 21
484.861947
 31
0.0
  0
LINE
  8
LC-001-002-----0
  6
CONTINUOUS
  5
883
 10
296.18307
 20
478.861947
 30
0.0
 11
286.981928
 21
478.861947
 31
0.0
  0
ARC
  8
LC-003-002-RND-0
  6
CONTINUOUS
  5
884
 10
286.981928
 20
480.361947
 30
0.0
 40
1.5
 50
185.0
 51
270.0
  0
LINE
  8
LC-001-002-----0
  6
CONTINUOUS
  5
885
 10
285.202294
 20
483.492681
 30
0.0
 11
285.487636
 21
480.231214
 31
0.0
  0
LINE
  8
LC-001-002-----0
  6
CONTINUOUS
  5
886
 10
289.666462
 20
493.090048
 30
0.0
 11
290.297395
 21
492.354839
 31
0.0
  0
LINE
  8
LC-001-002-----0
  6
CONTINUOUS
  5
887
 10
289.059364
 20
492.569055
 30
0.0
 11
289.690297
 21
491.833847
 31
0.0
  0
ARC
  8
LC-001-002-----0
  6
CONTINUOUS
  5
888
 10
287.769282
 20
491.461947
 30
0.0
 40
2.5
 50
40.635165
 51
153.6122
  0
LINE
  8
LC-001-002-----0
  6
CONTINUOUS
  5
889
 10
294.105634
 20
492.569055
 30
0.0
 11
293.474701
 21
491.833847
 31
0.0
  0
ARC
  8
LC-001-002-----0
  6
CONTINUOUS
  5
88A
 10
291.587477
 20
493.461947
 30
0.0
 40
2.5
 50
220.635165
 51
319.2158
  0
LINE
  8
LC-001-002-----0
  6
CONTINUOUS
  5
88B
 10
289.666462
 20
493.090048
 30
0.0
 11
290.297395
 21
492.354839
 31
0.0
  0
ARC
  8
LC-001-002-----0
  6
CONTINUOUS
  5
88C
 10
291.587477
 20
493.461947
 30
0.0
 40
1.7
 50
220.635165
 51
324.768438
  0
LINE
  8
LC-001-002-----0
  6
CONTINUOUS
  5
88D
 10
293.498536
 20
493.090048
 30
0.0
 11
292.976083
 21
492.481247
 31
0.0
  0
ARC
  8
LC-001-002-----0
  6
CONTINUOUS
  5
88E
 10
295.395716
 20
491.461947
 30
0.0
 40
2.5
 50
53.130102
 51
139.364835
  0
LINE
  8
LC-001-002-----0
  6
CONTINUOUS
  5
88F
 10
316.261423
 20
493.461947
 30
0.0
 11
296.895716
 21
493.461947
 31
0.0
  0
ARC
  8
LC-001-002-----0
  6
CONTINUOUS
  5
890
 10
295.395716
 20
491.461947
 30
0.0
 40
1.7
 50
44.900872
 51
140.820449
  0
LINE
  8
LC-001-002-----0
  6
DASHDOT
 62
     2
  5
891
 10
291.582499
 20
495.854719
 30
0.0
 11
291.582499
 21
481.090966
 31
0.0
  0
ARC
  8
LC-001-002-----0
  6
CONTINUOUS
  5
892
 10
317.919736
 20
490.961947
 30
0.0
 40
2.2
 50
32.089951
 51
129.40055
  0
ARC
  8
LC-001-002-----0
  6
CONTINUOUS
  5
893
 10
317.919736
 20
490.961947
 30
0.0
 40
3.0
 50
32.089951
 51
123.557272
  0
LINE
  8
LC-001-002-----0
  6
CONTINUOUS
  5
894
 10
543.489606
 20
472.654841
 30
0.0
 11
538.989606
 21
468.154841
 31
0.0
  0
LINE
  8
LC-001-002-----0
  6
CONTINUOUS
  5
895
 10
532.782499
 20
483.861947
 30
0.0
 11
532.782499
 21
473.361947
 31
0.0
  0
LINE
  8
LC-001-002-----0
  6
CONTINUOUS
  5
896
 10
521.082499
 20
475.67752
 30
0.0
 11
521.082499
 21
473.599896
 31
0.0
  0
LINE
  8
LC-001-002-----0
  6
CONTINUOUS
  5
897
 10
521.082499
 20
466.161947
 30
0.0
 11
512.582499
 21
466.161947
 31
0.0
  0
LINE
  8
LC-001-002-----0
  6
CONTINUOUS
  5
898
 10
536.082499
 20
493.461947
 30
0.0
 11
536.082499
 21
473.890374
 31
0.0
  0
ARC
  8
LC-003-002-RND-0
  6
CONTINUOUS
  5
899
 10
544.782499
 20
483.861947
 30
0.0
 40
1.0
 50
90.0
 51
180.0
  0
LINE
  8
LC-001-002-----0
  6
CONTINUOUS
  5
89A
 10
540.482499
 20
493.461947
 30
0.0
 11
540.482499
 21
473.890374
 31
0.0
  0
ARC
  8
LC-003-002-RND-0
  6
CONTINUOUS
  5
89B
 10
542.782499
 20
473.361947
 30
0.0
 40
1.0
 50
315.0
 51
0.0
  0
LINE
  8
LC-001-002-----0
  6
CONTINUOUS
  5
89C
 10
540.482499
 20
473.890374
 30
0.0
 11
538.282499
 21
471.690374
 31
0.0
  0
LINE
  8
LC-001-002-----0
  6
CONTINUOUS
  5
89D
 10
544.782499
 20
484.861947
 30
0.0
 11
545.708002
 21
484.861947
 31
0.0
  0
ARC
  8
LC-003-002-RND-0
  6
CONTINUOUS
  5
89E
 10
538.282499
 20
468.861947
 30
0.0
 40
1.0
 50
225.0
 51
315.0
  0
LINE
  8
LC-001-002-----0
  6
CONTINUOUS
  5
89F
 10
536.082499
 20
473.890374
 30
0.0
 11
538.282499
 21
471.690374
 31
0.0
  0
LINE
  8
LC-001-002-----0
  6
CONTINUOUS
  5
8A0
 10
547.202294
 20
483.492681
 30
0.0
 11
547.487636
 21
480.231214
 31
0.0
  0
ARC
  8
LC-003-002-RND-0
  6
CONTINUOUS
  5
8A1
 10
531.782499
 20
483.861947
 30
0.0
 40
1.0
 50
0.0
 51
90.0
  0
ARC
  8
LC-003-002-RND-0
  6
CONTINUOUS
  5
8A2
 10
517.082499
 20
466.161947
 30
0.0
 40
8.0
 50
266.416678
 51
0.0
  0
ARC
  8
LC-003-002-RND-0
  6
CONTINUOUS
  5
8A3
 10
545.708002
 20
483.361947
 30
0.0
 40
1.5
 50
5.0
 51
90.0
  0
LINE
  8
LC-001-002-----0
  6
CONTINUOUS
  5
8A4
 10
548.981928
 20
478.861947
 30
0.0
 11
558.18307
 21
478.861947
 31
0.0
  0
ARC
  8
LC-003-002-RND-0
  6
CONTINUOUS
  5
8A5
 10
561.456996
 20
483.361947
 30
0.0
 40
1.5
 50
90.0
 51
175.0
  0
LINE
  8
LC-001-002-----0
  6
CONTINUOUS
  5
8A6
 10
517.082499
 20
458.161947
 30
0.0
 11
516.582499
 21
458.161947
 31
0.0
  0
LINE
  8
LC-001-002-----0
  6
CONTINUOUS
  5
8A7
 10
580.582499
 20
486.977871
 30
0.0
 11
580.582499
 21
490.366035
 31
0.0
  0
LINE
  8
LC-001-002-----0
  6
DASHDOT
 62
     2
  5
8A8
 10
553.582499
 20
495.854719
 30
0.0
 11
553.582499
 21
481.090966
 31
0.0
  0
LINE
  8
LC-001-002-----0
  6
CONTINUOUS
  5
8A9
 10
550.082499
 20
482.661947
 30
0.0
 11
557.082499
 21
482.661947
 31
0.0
  0
LINE
  8
LC-001-002-----0
  6
CONTINUOUS
  5
8AA
 10
557.082499
 20
488.161947
 30
0.0
 11
557.082499
 21
482.661947
 31
0.0
  0
LINE
  8
LC-001-002-----0
  6
CONTINUOUS
  5
8AB
 10
550.082499
 20
488.161947
 30
0.0
 11
550.082499
 21
482.661947
 31
0.0
  0
LINE
  8
LC-001-002-----0
  6
CONTINUOUS
  5
8AC
 10
568.082499
 20
488.161947
 30
0.0
 11
563.282499
 21
488.161947
 31
0.0
  0
LINE
  8
LC-001-002-----0
  6
CONTINUOUS
  5
8AD
 10
568.582499
 20
484.861947
 30
0.0
 11
561.456996
 21
484.861947
 31
0.0
  0
LINE
  8
LC-001-002-----0
  6
CONTINUOUS
  5
8AE
 10
568.082499
 20
488.161947
 30
0.0
 11
573.282499
 21
489.078848
 31
0.0
  0
ARC
  8
LC-003-002-RND-0
  6
CONTINUOUS
  5
8AF
 10
558.18307
 20
480.361947
 30
0.0
 40
1.5
 50
270.0
 51
355.0
  0
LINE
  8
LC-001-002-----0
  6
CONTINUOUS
  5
8B0
 10
543.782499
 20
483.861947
 30
0.0
 11
543.782499
 21
473.361947
 31
0.0
  0
LINE
  8
LC-001-002-----0
  6
CONTINUOUS
  5
8B1
 10
559.962704
 20
483.492681
 30
0.0
 11
559.677362
 21
480.231214
 31
0.0
  0
ARC
  8
LC-003-002-RND-0
  6
CONTINUOUS
  5
8B2
 10
533.782499
 20
473.361947
 30
0.0
 40
1.0
 50
180.0
 51
225.0
  0
ARC
  8
LC-003-002-RND-0
  6
CONTINUOUS
  5
8B3
 10
548.981928
 20
480.361947
 30
0.0
 40
1.5
 50
185.0
 51
270.0
  0
LINE
  8
LC-001-002-----0
  6
CONTINUOUS
  5
8B4
 10
533.075392
 20
472.654841
 30
0.0
 11
537.575392
 21
468.154841
 31
0.0
  0
LINE
  8
LC-001-002-----0
  6
CONTINUOUS
  5
8B5
 10
531.782499
 20
484.861947
 30
0.0
 11
526.582499
 21
484.861947
 31
0.0
  0
ARC
  8
LC-003-002-RND-0
  6
CONTINUOUS
  5
8B6
 10
526.582499
 20
483.361947
 30
0.0
 40
1.5
 50
90.0
 51
180.0
  0
LINE
  8
LC-001-002-----0
  6
CONTINUOUS
  5
8B7
 10
525.082499
 20
483.361947
 30
0.0
 11
525.082499
 21
466.161947
 31
0.0
  0
LINE
  8
LC-001-002-----0
  6
CONTINUOUS
  5
8B8
 10
567.776289
 20
491.661947
 30
0.0
 11
573.282499
 21
492.632841
 31
0.0
  0
LINE
  8
LC-001-002-----0
  6
CONTINUOUS
  5
8B9
 10
605.364531
 20
498.289769
 30
0.0
 11
613.282499
 21
498.289769
 31
0.0
  0
LINE
  8
LC-001-002-----0
  6
CONTINUOUS
  5
8BA
 10
605.670741
 20
494.789769
 30
0.0
 11
613.282499
 21
494.789769
 31
0.0
  0
LINE
  8
LC-001-002-----0
  6
CONTINUOUS
  5
8BB
 10
528.903575
 20
493.461947
 30
0.0
 11
548.269282
 21
493.461947
 31
0.0
  0
ARC
  8
LC-001-002-----0
  6
CONTINUOUS
  5
8BC
 10
549.769282
 20
491.461947
 30
0.0
 40
2.5
 50
40.635165
 51
126.869898
  0
LINE
  8
LC-001-002-----0
  6
CONTINUOUS
  5
8BD
 10
522.582499
 20
492.461947
 30
0.0
 11
524.534174
 21
492.461947
 31
0.0
  0
ARC
  8
LC-001-002-----0
  6
CONTINUOUS
  5
8BE
 10
524.534174
 20
492.661947
 30
0.0
 40
0.2
 50
270.0
 51
327.910201
  0
ARC
  8
LC-001-002-----0
  6
CONTINUOUS
  5
8BF
 10
527.245262
 20
490.961947
 30
0.0
 40
3.0
 50
56.442728
 51
147.910049
  0
ARC
  8
LC-001-002-----0
  6
CONTINUOUS
  5
8C0
 10
527.245262
 20
490.961947
 30
0.0
 40
2.2
 50
50.59945
 51
147.910049
  0
ARC
  8
LC-001-002-----0
  6
CONTINUOUS
  5
8C1
 10
527.245262
 20
490.961947
 30
0.0
 40
2.2
 50
147.91005
 51
153.6122
  0
ARC
  8
LC-001-002-----0
  6
CONTINUOUS
  5
8C2
 10
524.826585
 20
492.161947
 30
0.0
 40
0.5
 50
270.0
 51
333.612352
  0
LINE
  8
LC-001-002-----0
  6
CONTINUOUS
  5
8C3
 10
521.082499
 20
491.661947
 30
0.0
 11
524.826585
 21
491.661947
 31
0.0
  0
ARC
  8
LC-001-002-----0
  6
CONTINUOUS
  5
8C4
 10
553.577521
 20
493.461947
 30
0.0
 40
2.5
 50
220.7842
 51
319.364835
  0
ARC
  8
LC-001-002-----0
  6
CONTINUOUS
  5
8C5
 10
553.577521
 20
493.461947
 30
0.0
 40
1.7
 50
215.231562
 51
319.364835
  0
LINE
  8
LC-001-002-----0
  6
CONTINUOUS
  5
8C6
 10
559.814393
 20
492.461947
 30
0.0
 11
561.582499
 21
492.461947
 31
0.0
  0
ARC
  8
LC-001-002-----0
  6
CONTINUOUS
  5
8C7
 10
559.814393
 20
492.661947
 30
0.0
 40
0.2
 50
206.387742
 51
270.0
  0
ARC
  8
LC-001-002-----0
  6
CONTINUOUS
  5
8C8
 10
557.395716
 20
491.461947
 30
0.0
 40
2.5
 50
26.3878
 51
139.364835
  0
LINE
  8
LC-001-002-----0
  6
CONTINUOUS
  5
8C9
 10
561.582499
 20
492.461947
 30
0.0
 11
561.582499
 21
491.661947
 31
0.0
  0
LINE
  8
LC-001-002-----0
  6
CONTINUOUS
  5
8CA
 10
522.582499
 20
492.461947
 30
0.0
 11
522.582499
 21
491.661947
 31
0.0
  0
LINE
  8
LC-001-002-----0
  6
CONTINUOUS
  5
8CB
 10
532.282499
 20
495.461947
 30
0.0
 11
532.282499
 21
493.461947
 31
0.0
  0
ARC
  8
LC-003-002-RND-0
  6
CONTINUOUS
  5
8CC
 10
534.282499
 20
495.461947
 30
0.0
 40
2.0
 50
90.0
 51
180.0
  0
ARC
  8
LC-003-002-RND-0
  6
CONTINUOUS
  5
8CD
 10
542.282499
 20
495.461947
 30
0.0
 40
2.0
 50
0.0
 51
90.0
  0
LINE
  8
LC-001-002-----0
  6
CONTINUOUS
  5
8CE
 10
537.782499
 20
497.461947
 30
0.0
 11
537.782499
 21
495.461947
 31
0.0
  0
LINE
  8
LC-001-002-----0
  6
CONTINUOUS
  5
8CF
 10
538.782499
 20
497.461947
 30
0.0
 11
538.782499
 21
495.461947
 31
0.0
  0
LINE
  8
LC-001-002-----0
  6
CONTINUOUS
  5
8D0
 10
538.782499
 20
495.461947
 30
0.0
 11
537.782499
 21
495.461947
 31
0.0
  0
LINE
  8
LC-001-002-----0
  6
CONTINUOUS
  5
8D1
 10
544.282499
 20
495.461947
 30
0.0
 11
544.282499
 21
493.461947
 31
0.0
  0
LINE
  8
LC-001-002-----0
  6
CONTINUOUS
  5
8D2
 10
536.082499
 20
488.161947
 30
0.0
 11
521.082499
 21
488.161947
 31
0.0
  0
LINE
  8
LC-001-002-----0
  6
CONTINUOUS
  5
8D3
 10
536.082499
 20
491.661947
 30
0.0
 11
523.282499
 21
491.661947
 31
0.0
  0
LINE
  8
LC-001-002-----0
  6
CONTINUOUS
 62
     2
  5
8D4
 10
642.289209
 20
498.289769
 30
0.0
 11
642.345931
 21
497.969617
 31
0.0
  0
LINE
  8
LC-001-002-----0
  6
CONTINUOUS
 62
     2
  5
8D5
 10
642.345931
 20
497.969617
 30
0.0
 11
642.173891
 21
497.466648
 31
0.0
  0
LINE
  8
LC-001-002-----0
  6
CONTINUOUS
 62
     2
  5
8D6
 10
642.173891
 20
497.466648
 30
0.0
 11
642.463122
 21
497.080869
 31
0.0
  0
LINE
  8
LC-001-002-----0
  6
CONTINUOUS
 62
     2
  5
8D7
 10
642.463122
 20
497.080869
 30
0.0
 11
642.206705
 21
496.512273
 31
0.0
  0
LINE
  8
LC-001-002-----0
  6
CONTINUOUS
 62
     2
  5
8D8
 10
642.206705
 20
496.512273
 30
0.0
 11
642.430309
 21
496.060867
 31
0.0
  0
LINE
  8
LC-001-002-----0
  6
CONTINUOUS
 62
     2
  5
8D9
 10
642.430309
 20
496.060867
 30
0.0
 11
642.239518
 21
495.726653
 31
0.0
  0
LINE
  8
LC-001-002-----0
  6
CONTINUOUS
 62
     2
  5
8DA
 10
642.239518
 20
495.726653
 30
0.0
 11
642.397495
 21
495.209621
 31
0.0
  0
LINE
  8
LC-001-002-----0
  6
CONTINUOUS
 62
     2
  5
8DB
 10
642.397495
 20
495.209621
 30
0.0
 11
642.289209
 21
494.789769
 31
0.0
  0
LINE
  8
LC-001-002-----0
  6
CONTINUOUS
  5
8DC
 10
568.582499
 20
484.861947
 30
0.0
 11
580.582499
 21
486.977871
 31
0.0
  0
LINE
  8
LC-001-002-----0
  6
CONTINUOUS
  5
8DD
 10
561.757447
 20
491.661947
 30
0.0
 11
559.814393
 21
491.661947
 31
0.0
  0
ARC
  8
LC-001-002-----0
  6
CONTINUOUS
  5
8DE
 10
559.814393
 20
492.661947
 30
0.0
 40
1.0
 50
206.387742
 51
270.0
  0
ARC
  8
LC-001-002-----0
  6
CONTINUOUS
  5
8DF
 10
557.395716
 20
491.461947
 30
0.0
 40
1.7
 50
26.3878
 51
140.820449
  0
LINE
  8
LC-001-002-----0
  6
CONTINUOUS
  5
8E0
 10
541.532499
 20
492.661947
 30
0.0
 11
541.532499
 21
493.461947
 31
0.0
  0
LINE
  8
LC-001-002-----0
  6
CONTINUOUS
  5
8E1
 10
535.032499
 20
492.661947
 30
0.0
 11
535.032499
 21
493.461947
 31
0.0
  0
ARC
  8
LC-001-002-----0
  6
CONTINUOUS
  5
8E2
 10
549.769282
 20
491.461947
 30
0.0
 40
1.7
 50
39.179551
 51
135.099128
  0
LINE
  8
LC-001-002-----0
  6
CONTINUOUS
  5
8E3
 10
555.498536
 20
493.090048
 30
0.0
 11
554.867603
 21
492.354839
 31
0.0
  0
LINE
  8
LC-001-002-----0
  6
CONTINUOUS
  5
8E4
 10
556.105634
 20
492.569055
 30
0.0
 11
555.474701
 21
491.833847
 31
0.0
  0
LINE
  8
LC-001-002-----0
  6
CONTINUOUS
  5
8E5
 10
551.666462
 20
493.090048
 30
0.0
 11
552.188915
 21
492.481247
 31
0.0
  0
LINE
  8
LC-001-002-----0
  6
CONTINUOUS
  5
8E6
 10
551.059364
 20
492.569055
 30
0.0
 11
551.690297
 21
491.833847
 31
0.0
  0
LINE
  8
LC-001-002-----0
  6
CONTINUOUS
  5
8E7
 10
555.498536
 20
493.090048
 30
0.0
 11
554.867603
 21
492.354839
 31
0.0
  0
LINE
  8
LC-005-061-----0
  5
8E9
 10
306.882499
 20
497.461947
 30
0.0
 11
306.882499
 21
471.690374
 31
0.0
  0
LINE
  8
LC-001-002-----0
  6
CONTINUOUS
  5
8EA
 10
309.082499
 20
491.661947
 30
0.0
 11
316.523312
 21
491.661947
 31
0.0
  0
LINE
  8
LC-001-002-----0
  6
CONTINUOUS
  5
8EB
 10
277.388709
 20
491.661947
 30
0.0
 11
304.682499
 21
491.661947
 31
0.0
  0
LINE
  8
LC-001-002-----0
  6
CONTINUOUS
  5
8EC
 10
304.682499
 20
492.661947
 30
0.0
 11
296.599875
 21
492.661947
 31
0.0
  0
LINE
  8
LC-001-002-----0
  6
CONTINUOUS
  5
8ED
 10
316.523312
 20
492.661947
 30
0.0
 11
309.082499
 21
492.661947
 31
0.0
  0
LINE
  8
LC-001-002-----0
  6
CONTINUOUS
  5
8EE
 10
536.082499
 20
491.661947
 30
0.0
 11
530.985854
 21
491.661947
 31
0.0
  0
LINE
  8
LC-001-002-----0
  6
CONTINUOUS
  5
8EF
 10
567.776289
 20
491.661947
 30
0.0
 11
563.282499
 21
491.661947
 31
0.0
  0
LINE
  8
LC-001-002-----0
  6
CONTINUOUS
  5
8F0
 10
540.482499
 20
492.661947
 30
0.0
 11
548.565123
 21
492.661947
 31
0.0
  0
LINE
  8
LC-001-002-----0
  6
CONTINUOUS
  5
8F1
 10
528.641686
 20
492.661947
 30
0.0
 11
536.082499
 21
492.661947
 31
0.0
  0
LINE
  8
LC-001-002-----0
  6
DASHDOT
 62
     2
  5
8F2
 10
538.282499
 20
497.461947
 30
0.0
 11
538.282499
 21
467.861947
 31
0.0
  0
ARC
  8
LC-001-002-----0
  6
CONTINUOUS
  5
8F3
 10
326.261469
 20
472.212604
 30
0.0
 40
2.0
 50
180.0
 51
0.0
  0
ARC
  8
LC-001-002-----0
  6
CONTINUOUS
  5
8F4
 10
326.261469
 20
473.917912
 30
0.0
 40
2.0
 50
0.0
 51
180.0
  0
LINE
  8
LC-001-002-----0
  6
CONTINUOUS
  5
8F5
 10
328.261469
 20
473.917912
 30
0.0
 11
328.261469
 21
472.212604
 31
0.0
  0
LINE
  8
LC-001-002-----0
  6
CONTINUOUS
  5
8F6
 10
324.261469
 20
473.917912
 30
0.0
 11
324.261469
 21
472.212604
 31
0.0
  0
ARC
  8
LC-001-002-----0
  6
CONTINUOUS
  5
8F7
 10
518.903529
 20
473.917912
 30
0.0
 40
2.0
 50
0.0
 51
180.0
  0
LINE
  8
LC-001-002-----0
  6
CONTINUOUS
  5
8F8
 10
520.903529
 20
473.917912
 30
0.0
 11
520.903529
 21
472.212604
 31
0.0
  0
ARC
  8
LC-001-002-----0
  6
CONTINUOUS
  5
8F9
 10
518.903529
 20
472.212604
 30
0.0
 40
2.0
 50
180.0
 51
0.0
  0
LINE
  8
LC-001-002-----0
  6
CONTINUOUS
  5
8FA
 10
516.903529
 20
473.917912
 30
0.0
 11
516.903529
 21
472.212604
 31
0.0
  0
LINE
  8
LC-001-002-----0
  6
CONTINUOUS
  5
8FB
 10
239.494257
 20
494.789769
 30
0.0
 11
202.875789
 21
494.789769
 31
0.0
  0
LINE
  8
LC-001-002-----0
  6
DASHDOT
 62
     2
  5
8FC
 10
422.582499
 20
617.58443
 30
0.0
 11
422.582499
 21
235.161947
 31
0.0
  0
LINE
  8
LC-001-002-----0
  6
CONTINUOUS
  5
8FD
 10
517.082499
 20
462.161947
 30
0.0
 11
512.582499
 21
462.161947
 31
0.0
  0
ARC
  8
LC-003-002-RND-0
  6
CONTINUOUS
  5
8FE
 10
517.082499
 20
466.161947
 30
0.0
 40
4.0
 50
270.0
 51
0.0
  0
LINE
  8
LC-001-002-----0
  6
CONTINUOUS
  5
8FF
 10
521.082499
 20
466.161947
 30
0.0
 11
521.082499
 21
491.661947
 31
0.0
  0
LINE
  8
LC-001-002-----0
  6
CONTINUOUS
 62
     2
  5
900
 10
580.582499
 20
486.977871
 30
0.0
 11
580.582499
 21
509.725
 31
0.0
  0
LINE
  8
LC-001-002-----0
  6
CONTINUOUS
 62
     2
  5
901
 10
366.97532
 20
707.772733
 30
0.0
 11
381.97532
 21
707.772733
 31
0.0
  0
LINE
  8
LC-001-002-----0
  6
CONTINUOUS
 62
     2
  5
902
 10
366.97532
 20
707.772733
 30
0.0
 11
366.97532
 21
692.772733
 31
0.0
  0
LINE
  8
LC-001-002-----0
  6
CONTINUOUS
 62
     2
  5
903
 10
366.97532
 20
692.772733
 30
0.0
 11
381.793619
 21
692.772733
 31
0.0
  0
LINE
  8
LC-001-002-----0
  6
CONTINUOUS
 62
     2
  5
904
 10
381.97532
 20
707.772733
 30
0.0
 11
381.97532
 21
692.772733
 31
0.0
  0
LINE
  8
LC-001-002-----0
  6
CONTINUOUS
 62
     2
  5
905
 10
366.97532
 20
669.594087
 30
0.0
 11
366.97532
 21
654.594087
 31
0.0
  0
LINE
  8
LC-001-002-----0
  6
CONTINUOUS
 62
     2
  5
906
 10
366.97532
 20
654.594087
 30
0.0
 11
381.793619
 21
654.594087
 31
0.0
  0
ARC
  8
LC-003-002-RND-0
  6
CONTINUOUS
  5
907
 10
525.582499
 20
594.58443
 30
0.0
 40
3.0
 50
90.0
 51
180.0
  0
LINE
  8
LC-001-002-----0
  6
CONTINUOUS
  5
908
 10
311.582499
 20
597.58443
 30
0.0
 11
319.582499
 21
597.58443
 31
0.0
  0
LINE
  8
LC-001-002-----0
  6
CONTINUOUS
  5
909
 10
537.782499
 20
497.461947
 30
0.0
 11
534.282499
 21
497.461947
 31
0.0
  0
LINE
  8
LC-001-002-----0
  6
CONTINUOUS
  5
90A
 10
542.282499
 20
497.461947
 30
0.0
 11
538.782499
 21
497.461947
 31
0.0
  0
LINE
  8
LC-001-002-----0
  6
CONTINUOUS
  5
90B
 10
307.382499
 20
497.461947
 30
0.0
 11
310.882499
 21
497.461947
 31
0.0
  0
LINE
  8
LC-001-002-----0
  6
CONTINUOUS
  5
90C
 10
302.882499
 20
497.461947
 30
0.0
 11
306.382499
 21
497.461947
 31
0.0
  0
LINE
  8
LC-001-002-----0
  6
CONTINUOUS
  5
90D
 10
492.586763
 20
542.203086
 30
0.0
 11
495.245138
 21
544.861461
 31
0.0
  0
LINE
  8
LC-001-002-----0
  6
CONTINUOUS
  5
90E
 10
352.578236
 20
542.203086
 30
0.0
 11
349.91986
 21
544.861461
 31
0.0
  0
LINE
  8
LC-001-002-----0
  6
CONTINUOUS
 62
     2
  5
90F
 10
381.97532
 20
669.594087
 30
0.0
 11
381.97532
 21
654.594087
 31
0.0
  0
LINE
  8
LC-001-002-----0
  6
CONTINUOUS
 62
     2
  5
910
 10
366.97532
 20
669.594087
 30
0.0
 11
381.97532
 21
669.594087
 31
0.0
  0
LINE
  8
LC-001-002-----0
  6
CONTINUOUS
  5
911
 10
543.282499
 20
491.661947
 30
0.0
 11
543.282499
 21
488.161947
 31
0.0
  0
LINE
  8
LC-001-002-----0
  6
CONTINUOUS
  5
912
 10
533.282499
 20
491.661947
 30
0.0
 11
533.282499
 21
488.161947
 31
0.0
  0
LINE
  8
LC-001-002-----0
  6
CONTINUOUS
  5
913
 10
523.282499
 20
491.661947
 30
0.0
 11
523.282499
 21
488.161947
 31
0.0
  0
LINE
  8
LC-001-002-----0
  6
CONTINUOUS
  5
914
 10
553.282499
 20
490.979416
 30
0.0
 11
553.282499
 21
488.161947
 31
0.0
  0
LINE
  8
LC-001-002-----0
  6
CONTINUOUS
  5
915
 10
563.282499
 20
491.661947
 30
0.0
 11
563.282499
 21
488.161947
 31
0.0
  0
LINE
  8
LC-001-002-----0
  6
CONTINUOUS
  5
916
 10
573.282499
 20
492.632841
 30
0.0
 11
573.282499
 21
489.078848
 31
0.0
  0
LINE
  8
LC-001-002-----0
  6
CONTINUOUS
  5
917
 10
583.282499
 20
494.396111
 30
0.0
 11
583.282499
 21
490.842117
 31
0.0
  0
LINE
  8
LC-001-002-----0
  6
CONTINUOUS
  5
918
 10
593.282499
 20
496.15938
 30
0.0
 11
593.282499
 21
492.605387
 31
0.0
  0
LINE
  8
LC-001-002-----0
  6
CONTINUOUS
  5
919
 10
603.282499
 20
497.92265
 30
0.0
 11
603.282499
 21
494.368657
 31
0.0
  0
LINE
  8
LC-001-002-----0
  6
CONTINUOUS
  5
91A
 10
613.282499
 20
498.289769
 30
0.0
 11
613.282499
 21
494.789769
 31
0.0
  0
LINE
  8
LC-001-002-----0
  6
CONTINUOUS
  5
91B
 10
623.282499
 20
498.289769
 30
0.0
 11
623.282499
 21
494.789769
 31
0.0
  0
LINE
  8
LC-001-002-----0
  6
CONTINUOUS
  5
91C
 10
633.282499
 20
498.289769
 30
0.0
 11
633.282499
 21
494.789769
 31
0.0
  0
LINE
  8
LC-001-002-----0
  6
CONTINUOUS
  5
91D
 10
623.282499
 20
494.789769
 30
0.0
 11
633.282499
 21
494.789769
 31
0.0
  0
LINE
  8
LC-001-002-----0
  6
CONTINUOUS
  5
91E
 10
633.282499
 20
494.789769
 30
0.0
 11
642.289209
 21
494.789769
 31
0.0
  0
LINE
  8
LC-001-002-----0
  6
CONTINUOUS
  5
91F
 10
623.282499
 20
498.289769
 30
0.0
 11
633.282499
 21
498.289769
 31
0.0
  0
LINE
  8
LC-001-002-----0
  6
CONTINUOUS
  5
920
 10
633.282499
 20
498.289769
 30
0.0
 11
642.289209
 21
498.289769
 31
0.0
  0
LINE
  8
LC-001-002-----0
  6
CONTINUOUS
  5
921
 10
603.282499
 20
497.92265
 30
0.0
 11
605.364531
 21
498.289769
 31
0.0
  0
LINE
  8
LC-001-002-----0
  6
CONTINUOUS
  5
922
 10
603.282499
 20
494.368657
 30
0.0
 11
605.670741
 21
494.789769
 31
0.0
  0
LINE
  8
LC-001-002-----0
  6
CONTINUOUS
  5
923
 10
613.282499
 20
498.289769
 30
0.0
 11
623.282499
 21
498.289769
 31
0.0
  0
LINE
  8
LC-001-002-----0
  6
CONTINUOUS
  5
924
 10
613.282499
 20
494.789769
 30
0.0
 11
623.282499
 21
494.789769
 31
0.0
  0
LINE
  8
LC-001-002-----0
  6
CONTINUOUS
  5
925
 10
583.282499
 20
494.396111
 30
0.0
 11
593.282499
 21
496.15938
 31
0.0
  0
LINE
  8
LC-001-002-----0
  6
CONTINUOUS
  5
926
 10
583.282499
 20
490.842117
 30
0.0
 11
593.282499
 21
492.605387
 31
0.0
  0
LINE
  8
LC-001-002-----0
  6
CONTINUOUS
  5
927
 10
593.282499
 20
496.15938
 30
0.0
 11
603.282499
 21
497.92265
 31
0.0
  0
LINE
  8
LC-001-002-----0
  6
CONTINUOUS
  5
928
 10
593.282499
 20
492.605387
 30
0.0
 11
603.282499
 21
494.368657
 31
0.0
  0
LINE
  8
LC-001-002-----0
  6
CONTINUOUS
  5
929
 10
573.282499
 20
492.632841
 30
0.0
 11
583.282499
 21
494.396111
 31
0.0
  0
LINE
  8
LC-001-002-----0
  6
CONTINUOUS
  5
92A
 10
573.282499
 20
489.078848
 30
0.0
 11
583.282499
 21
490.842117
 31
0.0
  0
LINE
  8
LC-001-002-----0
  6
CONTINUOUS
  5
92B
 10
563.282499
 20
488.161947
 30
0.0
 11
553.582499
 21
488.161947
 31
0.0
  0
LINE
  8
LC-001-002-----0
  6
CONTINUOUS
  5
92C
 10
563.282499
 20
491.661947
 30
0.0
 11
540.482499
 21
491.661947
 31
0.0
  0
LINE
  8
LC-001-002-----0
  6
CONTINUOUS
  5
92D
 10
553.582499
 20
488.161947
 30
0.0
 11
540.482499
 21
488.161947
 31
0.0
  0
LINE
  8
LC-001-002-----0
  6
CONTINUOUS
  5
92E
 10
321.882499
 20
491.661947
 30
0.0
 11
321.882499
 21
488.161947
 31
0.0
  0
LINE
  8
LC-001-002-----0
  6
CONTINUOUS
  5
92F
 10
311.882499
 20
491.661947
 30
0.0
 11
311.882499
 21
488.161947
 31
0.0
  0
LINE
  8
LC-001-002-----0
  6
CONTINUOUS
  5
930
 10
301.882499
 20
491.661947
 30
0.0
 11
301.882499
 21
488.161947
 31
0.0
  0
LINE
  8
LC-001-002-----0
  6
CONTINUOUS
  5
931
 10
291.882499
 20
490.979416
 30
0.0
 11
291.882499
 21
488.161947
 31
0.0
  0
LINE
  8
LC-001-002-----0
  6
CONTINUOUS
  5
932
 10
281.882499
 20
491.661947
 30
0.0
 11
281.882499
 21
488.161947
 31
0.0
  0
LINE
  8
LC-001-002-----0
  6
CONTINUOUS
  5
933
 10
271.882499
 20
492.632841
 30
0.0
 11
271.882499
 21
489.078848
 31
0.0
  0
LINE
  8
LC-001-002-----0
  6
CONTINUOUS
  5
934
 10
261.882499
 20
494.396111
 30
0.0
 11
261.882499
 21
490.842117
 31
0.0
  0
LINE
  8
LC-001-002-----0
  6
CONTINUOUS
  5
935
 10
251.882499
 20
496.15938
 30
0.0
 11
251.882499
 21
492.605387
 31
0.0
  0
LINE
  8
LC-001-002-----0
  6
CONTINUOUS
  5
936
 10
241.882499
 20
497.92265
 30
0.0
 11
241.882499
 21
494.368657
 31
0.0
  0
LINE
  8
LC-001-002-----0
  6
CONTINUOUS
  5
937
 10
231.882499
 20
498.289769
 30
0.0
 11
231.882499
 21
494.789769
 31
0.0
  0
LINE
  8
LC-001-002-----0
  6
CONTINUOUS
  5
938
 10
221.882499
 20
498.289769
 30
0.0
 11
221.882499
 21
494.789769
 31
0.0
  0
LINE
  8
LC-001-002-----0
  6
CONTINUOUS
  5
939
 10
211.882499
 20
498.289769
 30
0.0
 11
211.882499
 21
494.789769
 31
0.0
  0
LINE
  8
LC-001-002-----0
  6
CONTINUOUS
 62
     2
  5
93A
 10
580.582499
 20
553.25007
 30
0.0
 11
580.582499
 21
579.220053
 31
0.0
  0
LINE
  8
LC-001-002-----0
  6
CONTINUOUS
 62
     2
  5
93B
 10
580.582499
 20
610.385513
 30
0.0
 11
580.582499
 21
639.605904
 31
0.0
  0
LINE
  8
LC-001-002-----0
  6
CONTINUOUS
 62
     2
  5
93C
 10
580.582499
 20
610.385513
 30
0.0
 11
580.582499
 21
579.220053
 31
0.0
  0
LINE
  8
LC-001-002-----0
  6
CONTINUOUS
 62
     2
  5
93D
 10
580.582499
 20
579.220053
 30
0.0
 11
580.582499
 21
559.402739
 31
0.0
  0
LINE
  8
LC-001-002-----0
  6
CONTINUOUS
 62
     2
  5
93E
 10
580.582499
 20
553.25007
 30
0.0
 11
580.582499
 21
509.725
 31
0.0
  0
LINE
  8
LC-001-002-----0
  6
CONTINUOUS
  5
93F
 10
339.461809
 20
303.161947
 30
0.0
 11
332.582499
 21
417.161947
 31
0.0
  0
LINE
  8
LC-001-002-----0
  6
CONTINUOUS
  5
940
 10
525.582499
 20
597.58443
 30
0.0
 11
533.582499
 21
597.58443
 31
0.0
  0
LINE
  8
LC-001-002-----0
  6
CONTINUOUS
  5
941
 10
422.586129
 20
583.58443
 30
0.0
 11
432.19273
 21
583.58443
 31
0.0
  0
LINE
  8
LC-001-002-----0
  6
CONTINUOUS
  5
942
 10
485.584758
 20
617.58443
 30
0.0
 11
359.58024
 21
617.58443
 31
0.0
  0
LINE
  8
LC-001-002-----0
  6
CONTINUOUS
  5
943
 10
412.979527
 20
583.58443
 30
0.0
 11
360.418764
 21
595.719038
 31
0.0
  0
LINE
  8
LC-001-002-----0
  6
CONTINUOUS
  5
944
 10
412.979527
 20
583.58443
 30
0.0
 11
422.586129
 21
583.58443
 31
0.0
  0
LINE
  8
LC-001-002-----0
  6
CONTINUOUS
  5
945
 10
533.246234
 20
599.479758
 30
0.0
 11
534.084758
 21
615.479758
 31
0.0
  0
LINE
  8
LC-001-002-----0
  6
CONTINUOUS
  5
946
 10
486.743493
 20
599.479758
 30
0.0
 11
487.582017
 21
615.479758
 31
0.0
  0
LINE
  8
LC-001-002-----0
  6
CONTINUOUS
  5
947
 10
517.587499
 20
615.479758
 30
0.0
 11
518.426024
 21
599.479758
 31
0.0
  0
LINE
  8
LC-001-002-----0
  6
CONTINUOUS
  5
948
 10
532.087499
 20
617.58443
 30
0.0
 11
485.584758
 21
617.58443
 31
0.0
  0
LINE
  8
LC-001-002-----0
  6
CONTINUOUS
  5
949
 10
520.423283
 20
597.58443
 30
0.0
 11
531.248975
 21
597.58443
 31
0.0
  0
LINE
  8
LC-001-002-----0
  6
CONTINUOUS
  5
94A
 10
311.087499
 20
615.479758
 30
0.0
 11
311.926024
 21
599.479758
 31
0.0
  0
LINE
  8
LC-001-002-----0
  6
CONTINUOUS
  5
94B
 10
359.58024
 20
617.58443
 30
0.0
 11
313.084758
 21
617.58443
 31
0.0
  0
LINE
  8
LC-001-002-----0
  6
CONTINUOUS
  5
94C
 10
357.582981
 20
615.479758
 30
0.0
 11
358.421505
 21
599.479758
 31
0.0
  0
LINE
  8
LC-001-002-----0
  6
CONTINUOUS
  5
94D
 10
322.744456
 20
599.479758
 30
0.0
 11
323.582981
 21
615.479758
 31
0.0
  0
LINE
  8
LC-010-100-D00-0
  6
CONTINUOUS
  5
94F
 10
313.923283
 20
597.58443
 30
0.0
 11
320.747197
 21
597.58443
 31
0.0
  0
LINE
  8
LC-001-002-----0
  6
CONTINUOUS
  5
950
 10
320.747197
 20
597.58443
 30
0.0
 11
360.418764
 21
597.58443
 31
0.0
  0
LINE
  8
LC-001-002-----0
  6
CONTINUOUS
  5
951
 10
484.746234
 20
597.58443
 30
0.0
 11
520.423283
 21
597.58443
 31
0.0
  0
LINE
  8
LC-001-002-----0
  6
CONTINUOUS
  5
952
 10
484.746234
 20
597.58443
 30
0.0
 11
484.746234
 21
595.717362
 31
0.0
  0
LINE
  8
LC-001-002-----0
  6
CONTINUOUS
  5
953
 10
484.746234
 20
595.717362
 30
0.0
 11
432.19273
 21
583.58443
 31
0.0
  0
LINE
  8
LC-001-002-----0
  6
CONTINUOUS
  5
954
 10
360.418764
 20
597.58443
 30
0.0
 11
360.418764
 21
595.719038
 31
0.0
  0
ARC
  8
LC-001-002-----0
  6
CONTINUOUS
  5
955
 10
532.087499
 20
615.58443
 30
0.0
 40
2.0
 50
357.0
 51
90.0
  0
ARC
  8
LC-001-002-----0
  6
CONTINUOUS
  5
956
 10
531.248975
 20
599.58443
 30
0.0
 40
2.0
 50
270.0
 51
357.0
  0
ARC
  8
LC-001-002-----0
  6
CONTINUOUS
  5
957
 10
485.584758
 20
615.58443
 30
0.0
 40
2.0
 50
357.0
 51
90.0
  0
ARC
  8
LC-001-002-----0
  6
CONTINUOUS
  5
958
 10
484.746234
 20
599.58443
 30
0.0
 40
2.0
 50
270.0
 51
357.0
  0
ARC
  8
LC-001-002-----0
  6
CONTINUOUS
  5
959
 10
519.584758
 20
615.58443
 30
0.0
 40
2.0
 50
90.0
 51
183.0
  0
ARC
  8
LC-001-002-----0
  6
CONTINUOUS
  5
95A
 10
520.423283
 20
599.58443
 30
0.0
 40
2.0
 50
183.0
 51
270.0
  0
ARC
  8
LC-001-002-----0
  6
CONTINUOUS
  5
95B
 10
313.084758
 20
615.58443
 30
0.0
 40
2.0
 50
90.0
 51
183.0
  0
ARC
  8
LC-001-002-----0
  6
CONTINUOUS
  5
95C
 10
313.923283
 20
599.58443
 30
0.0
 40
2.0
 50
183.0
 51
270.0
  0
ARC
  8
LC-001-002-----0
  6
CONTINUOUS
  5
95D
 10
359.58024
 20
615.58443
 30
0.0
 40
2.0
 50
90.0
 51
183.0
  0
ARC
  8
LC-001-002-----0
  6
CONTINUOUS
  5
95E
 10
360.418764
 20
599.58443
 30
0.0
 40
2.0
 50
183.0
 51
270.0
  0
ARC
  8
LC-001-002-----0
  6
CONTINUOUS
  5
95F
 10
321.585722
 20
615.58443
 30
0.0
 40
2.0
 50
357.0
 51
90.0
  0
ARC
  8
LC-001-002-----0
  6
CONTINUOUS
  5
960
 10
320.747197
 20
599.58443
 30
0.0
 40
2.0
 50
270.0
 51
357.0
  0
LINE
  8
LC-001-002-----0
  6
CONTINUOUS
  5
961
 10
458.181586
 20
589.58443
 30
0.0
 11
522.29528
 21
589.58443
 31
0.0
  0
ENDSEC
  0
EOF
