  0
SECTION
  2
HEADER
  9
$ACADVER
  1
AC1009
  9
$INSBASE
 10
0.0
 20
0.0
 30
0.0
  9
$EXTMIN
 10
0.0
 20
0.0
 30
0.0
  9
$EXTMAX
 10
1188.0
 20
840.0
 30
0.0
  9
$LIMMIN
 10
0.0
 20
0.0
  9
$LIMMAX
 10
1188.0
 20
840.0
  9
$ORTHOMODE
 70
     0
  9
$REGENMODE
 70
     1
  9
$FILLMODE
 70
     1
  9
$QTEXTMODE
 70
     0
  9
$MIRRTEXT
 70
     1
  9
$DRAGMODE
 70
     2
  9
$LTSCALE
 40
2.0
  9
$OSMODE
 70
     0
  9
$ATTMODE
 70
     1
  9
$TEXTSIZE
 40
0.2
  9
$TRACEWID
 40
0.05
  9
$TEXTSTYLE
  7
STANDARD
  9
$CLAYER
  8
0
  9
$CELTYPE
  6
BYLAYER
  9
$CECOLOR
 62
     7
  9
$DIMSCALE
 40
2.0
  9
$DIMASZ
 40
3.5
  9
$DIMEXO
 40
0.0625
  9
$DIMDLI
 40
0.38
  9
$DIMRND
 40
0.0
  9
$DIMDLE
 40
0.0
  9
$DIMEXE
 40
0.18
  9
$DIMTP
 40
0.0
  9
$DIMTM
 40
0.0
  9
$DIMTXT
 40
3.5
  9
$DIMCEN
 40
0.09
  9
$DIMTSZ
 40
0.0
  9
$DIMTOL
 70
     0
  9
$DIMLIM
 70
     0
  9
$DIMTIH
 70
     1
  9
$DIMTOH
 70
     1
  9
$DIMSE1
 70
     0
  9
$DIMSE2
 70
     0
  9
$DIMTAD
 70
     1
  9
$DIMZIN
 70
     0
  9
$DIMBLK
  1

  9
$DIMASO
 70
     1
  9
$DIMSHO
 70
     1
  9
$DIMPOST
  1

  9
$DIMAPOST
  1

  9
$DIMALT
 70
     0
  9
$DIMALTD
 70
     2
  9
$DIMALTF
 40
25.4
  9
$DIMLFAC
 40
1.0
  9
$DIMTOFL
 70
     0
  9
$DIMTVP
 40
0.0
  9
$DIMTIX
 70
     0
  9
$DIMSOXD
 70
     0
  9
$DIMSAH
 70
     0
  9
$DIMBLK1
  1

  9
$DIMBLK2
  1

  9
$DIMSTYLE
  2
STANDARD
  9
$DIMCLRD
 70
     0
  9
$DIMCLRE
 70
     0
  9
$DIMCLRT
 70
     0
  9
$DIMTFAC
 40
1.0
  9
$DIMGAP
 40
0.09
  9
$LUNITS
 70
     2
  9
$LUPREC
 70
     2
  9
$AXISMODE
 70
     0
  9
$AXISUNIT
 10
0.0
 20
0.0
  9
$SKETCHINC
 40
0.1
  9
$FILLETRAD
 40
0.0
  9
$AUNITS
 70
     0
  9
$AUPREC
 70
     0
  9
$MENU
  1
acad
  9
$ELEVATION
 40
0.0
  9
$PELEVATION
 40
0.0
  9
$THICKNESS
 40
0.0
  9
$LIMCHECK
 70
     0
  9
$BLIPMODE
 70
     1
  9
$CHAMFERA
 40
0.0
  9
$CHAMFERB
 40
0.0
  9
$SKPOLY
 70
     0
  9
$TDCREATE
 40
0.000000000
  9
$TDUPDATE
 40
0.000000000
  9
$TDINDWG
 40
0.0000000000
  9
$TDUSRTIMER
 40
0.0000000000
  9
$USRTIMER
 70
     1
  9
$ANGBASE
 50
0.0
  9
$ANGDIR
 70
     0
  9
$PDMODE
 70
     0
  9
$PDSIZE
 40
0.0
  9
$PLINEWID
 40
0.0
  9
$COORDS
 70
     0
  9
$SPLFRAME
 70
     0
  9
$SPLINETYPE
 70
     6
  9
$SPLINESEGS
 70
     8
  9
$ATTDIA
 70
     0
  9
$ATTREQ
 70
     1
  9
$HANDLING
 70
     1
  9
$HANDSEED
  5
6A0
  9
$SURFTAB1
 70
     6
  9
$SURFTAB2
 70
     6
  9
$SURFTYPE
 70
     6
  9
$SURFU
 70
     6
  9
$SURFV
 70
     6
  9
$UCSNAME
  2

  9
$UCSORG
 10
0.0
 20
0.0
 30
0.0
  9
$UCSXDIR
 10
1.0
 20
0.0
 30
0.0
  9
$UCSYDIR
 10
0.0
 20
1.0
 30
0.0
  9
$PUCSNAME
  2

  9
$PUCSORG
 10
0.0
 20
0.0
 30
0.0
  9
$PUCSXDIR
 10
1.0
 20
0.0
 30
0.0
  9
$PUCSYDIR
 10
0.0
 20
1.0
 30
0.0
  9
$USERI1
 70
     0
  9
$USERI2
 70
     0
  9
$USERI3
 70
     0
  9
$USERI4
 70
     0
  9
$USERI5
 70
     0
  9
$USERR1
 40
0.0
  9
$USERR2
 40
0.0
  9
$USERR3
 40
0.0
  9
$USERR4
 40
0.0
  9
$USERR5
 40
0.0
  9
$WORLDVIEW
 70
     1
  9
$SHADEDGE
 70
     3
  9
$SHADEDIF
 70
    70
  9
$TILEMODE
 70
     1
  9
$MAXACTVP
 70
    16
  9
$PINSBASE
 10
0.0
 20
0.0
 30
0.0
  9
$PLIMCHECK
 70
     0
  9
$PEXTMIN
 10
1.000000E+20
 20
1.000000E+20
 30
1.000000E+20
  9
$PEXTMAX
 10
-1.000000E+20
 20
-1.000000E+20
 30
-1.000000E+20
  9
$PLIMMIN
 10
0.0
 20
0.0
  9
$PLIMMAX
 10
1188.0
 20
840.0
  9
$UNITMODE
 70
     0
  9
$VISRETAIN
 70
     0
  9
$PLINEGEN
 70
     1
  9
$PSLTSCALE
 70
     0
  9
$TREEDEPTH
 70
  3020
  9
$DWGCODEPAGE
  3
dos850
  0
ENDSEC
  0
SECTION
  2
TABLES
  0
TABLE
  2
VPORT
 70
     1
  0
VPORT
  2
*ACTIVE
 70
     0
 10
0.0
 20
0.0
 11
1.0
 21
1.0
 12
594.0
 22
420.0
 13
0.0
 23
0.0
 14
1.0
 24
1.0
 15
0.0
 25
0.0
 16
0.0
 26
0.0
 36
1.0
 17
0.0
 27
0.0
 37
0.0
 40
840.0
 41
1.604229
 42
50.0
 43
0.0
 44
0.0
 50
0.0
 51
0.0
 71
     0
 72
   100
 73
     1
 74
     1
 75
     0
 76
     0
 77
     0
 78
     0
  0
ENDTAB
  0
TABLE
  2
LTYPE
 70
     3
  0
LTYPE
  2
CONTINUOUS
 70
    64
  3
Solid line
 72
    65
 73
     0
 40
0.0
  0
LTYPE
  2
DASHED
 70
    64
  3
__ __ __ __ __
 72
    65
 73
     2
 40
6.25
 49
5.0
 49
-1.25
  0
LTYPE
  2
DASHDOT
 70
    64
  3
__ . __ . __ . __ . __
 72
    65
 73
     4
 40
7.5
 49
5.0
 49
-1.25
 49
0.0
 49
-1.25
  0
ENDTAB
  0
TABLE
  2
LAYER
 70
    13
  0
LAYER
  2
0
 70
     0
 62
     7
  6
CONTINUOUS
  0
LAYER
  2
LC-INFO-1-2-MM-A2-0
 70
     1
 62
    -1
  6
CONTINUOUS
  0
LAYER
  2
LC-004-005-----0
 70
     0
 62
     2
  6
CONTINUOUS
  0
LAYER
  2
LC-006-003-MTH-0
 70
     0
 62
     2
  6
CONTINUOUS
  0
LAYER
  2
LC-007-003-MTG-0
 70
     0
 62
     2
  6
CONTINUOUS
  0
LAYER
  2
LC-005-003-----0
 70
     0
 62
     2
  6
CONTINUOUS
  0
LAYER
  2
LC-002-000-----0
 70
     0
 62
     7
  6
CONTINUOUS
  0
LAYER
  2
LC-009-100-D02-0
 70
     0
 62
     7
  6
CONTINUOUS
  0
LAYER
  2
LC-001-002-----0
 70
     0
 62
     1
  6
CONTINUOUS
  0
LAYER
  2
LC-003-002-RND-0
 70
     0
 62
     1
  6
CONTINUOUS
  0
LAYER
  2
LC-008-061-----0
 70
     0
 62
     2
  6
DASHDOT
  0
LAYER
  2
LC-010-100-D00-0
 70
     0
 62
     7
  6
CONTINUOUS
  0
LAYER
  2
LC-000
 70
     0
 62
     7
  6
CONTINUOUS
  0
ENDTAB
  0
TABLE
  2
STYLE
 70
     4
  0
STYLE
  2
STANDARD
 70
     0
 40
0.0
 41
1.0
 50
0.0
 71
     0
 42
0.0
  3
txt
  4

  0
STYLE
  2
LC-STANDARD
 70
    64
 40
0.0
 41
1.0
 50
0.0
 71
     0
 42
3.5
  3
MONOTXT
  4

  0
STYLE
  2
LC-TXTSTYLE-150-400-0-0-D2
 70
    64
 40
0.0
 41
1.0
 50
15.0
 71
     0
 42
3.5
  3
MONOTXT
  4

  0
STYLE
  2
LC-TXTSTYLE-150-400-0-0-D3
 70
    64
 40
0.0
 41
1.0
 50
15.0
 71
     0
 42
3.5
  3
LC-STANDARD
  4

  0
ENDTAB
  0
TABLE
  2
VIEW
 70
     0
  0
ENDTAB
  0
TABLE
  2
UCS
 70
     0
  0
ENDTAB
  0
TABLE
  2
APPID
 70
     1
  0
APPID
  2
ACAD
 70
     0
  0
ENDTAB
  0
TABLE
  2
DIMSTYLE
 70
     3
  0
DIMSTYLE
  2
STANDARD
 70
     0
  3

  4

  5

  6

  7

 40
1.0
 41
0.18
 42
0.0625
 43
0.38
 44
0.18
 45
0.0
 46
0.0
 47
0.0
 48
0.0
 71
     0
 72
     0
 73
     1
 74
     1
 75
     0
 76
     0
 77
     0
 78
     0
140
0.18
141
0.09
142
0.0
143
25.4
144
1.0
145
0.0
146
1.0
147
0.09
170
     0
171
     2
172
     0
173
     0
174
     0
175
     0
176
     0
177
     0
178
     0
  0
DIMSTYLE
  2
LC-STANDARD
 70
     0
  3

  4

  5

  6

  7

 40
1.0
 41
3.5
 42
0.0
 43
7.5
 44
1.8
 45
0.0
 46
0.0
 47
0.0
 48
0.0
 71
     0
 72
     0
 73
     0
 74
     0
 75
     0
 76
     0
 77
     1
 78
     8
140
3.5
141
0.0
142
0.0
143
25.4
144
1.0
145
0.0
146
0.71
147
1.5
170
     0
171
     2
172
     1
173
     0
174
     0
175
     0
176
     0
177
     0
178
     3
  0
DIMSTYLE
  2
LC-DIM-L-0090-02-02
 70
     0
  3

  4

  5

  6

  7

 40
2.0
 41
3.5
 42
0.0
 43
7.5
 44
1.8
 45
0.0
 46
0.0
 47
0.0
 48
0.0
 71
     0
 72
     0
 73
     0
 74
     0
 75
     0
 76
     0
 77
     1
 78
     8
140
9.0
141
0.0
142
0.0
143
25.4
144
1.0
145
0.0
146
0.71
147
1.5
170
     0
171
     2
172
     0
173
     0
174
     0
175
     0
176
     2
177
     2
178
     6
  0
ENDTAB
  0
ENDSEC
  0
SECTION
  2
BLOCKS
  0
BLOCK
  8
0
  5
23
  2
BLK1
 70
    64
 10
0.0
 20
0.0
 30
0.0
  3
BLK1
  0
ENDBLK
  8
0
  5
24
  0
BLOCK
  8
0
  5
26
  2
BLK2
 70
    64
 10
0.0
 20
0.0
 30
0.0
  3
BLK2
  0
ENDBLK
  8
0
  5
27
  0
BLOCK
  8
0
  5
29
  2
*X2
 70
    65
 10
454.067258
 20
574.674179
 30
0.0
  3
*X2
  0
LINE
  8
LC-004-005-----0
  6
CONTINUOUS
  5
2B
 10
478.507657
 20
574.674179
 30
0.0
 11
478.913036
 21
575.079558
 31
0.0
  0
LINE
  8
LC-004-005-----0
  6
CONTINUOUS
  5
2C
 10
476.389785
 20
575.384734
 30
0.0
 11
478.750483
 21
577.745432
 31
0.0
  0
LINE
  8
LC-004-005-----0
  6
CONTINUOUS
  5
2D
 10
476.227231
 20
578.050608
 30
0.0
 11
478.58793
 21
580.411306
 31
0.0
  0
LINE
  8
LC-004-005-----0
  6
CONTINUOUS
  5
2E
 10
476.025986
 20
580.67779
 30
0.0
 11
478.333642
 21
582.985446
 31
0.0
  0
LINE
  8
LC-004-005-----0
  6
CONTINUOUS
  5
2F
 10
473.425106
 20
580.905337
 30
0.0
 11
475.732762
 21
583.212993
 31
0.0
  0
LINE
  8
LC-004-005-----0
  6
CONTINUOUS
  5
30
 10
470.824227
 20
581.132885
 30
0.0
 11
473.131883
 21
583.440541
 31
0.0
  0
LINE
  8
LC-004-005-----0
  6
CONTINUOUS
  5
31
 10
468.223347
 20
581.360432
 30
0.0
 11
470.531003
 21
583.668088
 31
0.0
  0
LINE
  8
LC-004-005-----0
  6
CONTINUOUS
  5
32
 10
465.622468
 20
581.58798
 30
0.0
 11
467.930123
 21
583.895636
 31
0.0
  0
LINE
  8
LC-004-005-----0
  6
CONTINUOUS
  5
33
 10
463.021588
 20
581.815527
 30
0.0
 11
465.329244
 21
584.123183
 31
0.0
  0
LINE
  8
LC-004-005-----0
  6
CONTINUOUS
  5
34
 10
460.420708
 20
582.043075
 30
0.0
 11
462.728364
 21
584.35073
 31
0.0
  0
LINE
  8
LC-004-005-----0
  6
CONTINUOUS
  5
35
 10
457.819829
 20
582.270622
 30
0.0
 11
460.127484
 21
584.578278
 31
0.0
  0
LINE
  8
LC-004-005-----0
  6
CONTINUOUS
  5
36
 10
455.218949
 20
582.49817
 30
0.0
 11
457.526605
 21
584.805825
 31
0.0
  0
LINE
  8
LC-004-005-----0
  6
CONTINUOUS
  5
37
 10
454.067258
 20
584.174905
 30
0.0
 11
454.925725
 21
585.033373
 31
0.0
  0
ENDBLK
  8
0
  5
38
  0
BLOCK
  8
0
  5
3A
  2
*X3
 70
    65
 10
478.323355
 20
526.999753
 30
0.0
  3
*X3
  0
LINE
  8
LC-004-005-----0
  6
CONTINUOUS
  5
3B
 10
532.797833
 20
527.140979
 30
0.0
 11
534.067258
 21
528.410403
 31
0.0
  0
LINE
  8
LC-004-005-----0
  6
CONTINUOUS
  5
3C
 10
530.25257
 20
527.424143
 30
0.0
 11
532.507175
 21
529.678748
 31
0.0
  0
LINE
  8
LC-004-005-----0
  6
CONTINUOUS
  5
3D
 10
527.707307
 20
527.707307
 30
0.0
 11
529.962582
 21
529.962582
 31
0.0
  0
LINE
  8
LC-004-005-----0
  6
CONTINUOUS
  5
3E
 10
525.162044
 20
527.990471
 30
0.0
 11
527.41799
 21
530.246417
 31
0.0
  0
LINE
  8
LC-004-005-----0
  6
CONTINUOUS
  5
3F
 10
522.616781
 20
528.273635
 30
0.0
 11
524.873397
 21
530.530251
 31
0.0
  0
LINE
  8
LC-004-005-----0
  6
CONTINUOUS
  5
40
 10
520.071518
 20
528.556799
 30
0.0
 11
522.328804
 21
530.814086
 31
0.0
  0
LINE
  8
LC-004-005-----0
  6
CONTINUOUS
  5
41
 10
517.526255
 20
528.839963
 30
0.0
 11
519.784211
 21
531.09792
 31
0.0
  0
LINE
  8
LC-004-005-----0
  6
CONTINUOUS
  5
42
 10
514.980992
 20
529.123127
 30
0.0
 11
517.239619
 21
531.381754
 31
0.0
  0
LINE
  8
LC-004-005-----0
  6
CONTINUOUS
  5
43
 10
512.435729
 20
529.406292
 30
0.0
 11
514.695026
 21
531.665589
 31
0.0
  0
LINE
  8
LC-004-005-----0
  6
CONTINUOUS
  5
44
 10
509.890466
 20
529.689456
 30
0.0
 11
512.150433
 21
531.949423
 31
0.0
  0
LINE
  8
LC-004-005-----0
  6
CONTINUOUS
  5
45
 10
507.345203
 20
529.97262
 30
0.0
 11
509.605841
 21
532.233258
 31
0.0
  0
LINE
  8
LC-004-005-----0
  6
CONTINUOUS
  5
46
 10
504.79994
 20
530.255784
 30
0.0
 11
507.061248
 21
532.517092
 31
0.0
  0
LINE
  8
LC-004-005-----0
  6
CONTINUOUS
  5
47
 10
502.254677
 20
530.538948
 30
0.0
 11
504.516655
 21
532.800927
 31
0.0
  0
LINE
  8
LC-004-005-----0
  6
CONTINUOUS
  5
48
 10
499.709414
 20
530.822112
 30
0.0
 11
501.972063
 21
533.084761
 31
0.0
  0
LINE
  8
LC-004-005-----0
  6
CONTINUOUS
  5
49
 10
497.164151
 20
531.105276
 30
0.0
 11
499.42747
 21
533.368595
 31
0.0
  0
LINE
  8
LC-004-005-----0
  6
CONTINUOUS
  5
4A
 10
494.618888
 20
531.38844
 30
0.0
 11
496.882877
 21
533.65243
 31
0.0
  0
LINE
  8
LC-004-005-----0
  6
CONTINUOUS
  5
4B
 10
492.073625
 20
531.671605
 30
0.0
 11
494.338285
 21
533.936264
 31
0.0
  0
LINE
  8
LC-004-005-----0
  6
CONTINUOUS
  5
4C
 10
489.528362
 20
531.954769
 30
0.0
 11
491.793692
 21
534.220099
 31
0.0
  0
LINE
  8
LC-004-005-----0
  6
CONTINUOUS
  5
4D
 10
487.015048
 20
532.269882
 30
0.0
 11
489.249099
 21
534.503933
 31
0.0
  0
LINE
  8
LC-004-005-----0
  6
CONTINUOUS
  5
4E
 10
484.951695
 20
533.034956
 30
0.0
 11
486.841025
 21
534.924287
 31
0.0
  0
LINE
  8
LC-004-005-----0
  6
CONTINUOUS
  5
4F
 10
483.32683
 20
534.238519
 30
0.0
 11
485.108184
 21
536.019873
 31
0.0
  0
LINE
  8
LC-004-005-----0
  6
CONTINUOUS
  5
50
 10
482.086142
 20
535.826258
 30
0.0
 11
483.965912
 21
537.706027
 31
0.0
  0
LINE
  8
LC-004-005-----0
  6
CONTINUOUS
  5
51
 10
481.273589
 20
537.842132
 30
0.0
 11
483.54948
 21
540.118023
 31
0.0
  0
LINE
  8
LC-004-005-----0
  6
CONTINUOUS
  5
52
 10
480.674555
 20
540.071525
 30
0.0
 11
482.552604
 21
541.949573
 31
0.0
  0
LINE
  8
LC-004-005-----0
  6
CONTINUOUS
  5
53
 10
479.260342
 20
541.485738
 30
0.0
 11
481.13839
 21
543.363787
 31
0.0
  0
LINE
  8
LC-004-005-----0
  6
CONTINUOUS
  5
54
 10
478.340424
 20
543.394248
 30
0.0
 11
478.620355
 21
543.674179
 31
0.0
  0
ENDBLK
  8
0
  5
55
  0
BLOCK
  8
0
  5
57
  2
*X4
 70
    65
 10
538.067258
 20
525.108479
 30
0.0
  3
*X4
  0
LINE
  8
LC-004-005-----0
  6
CONTINUOUS
  5
58
 10
550.614674
 20
525.15883
 30
0.0
 11
551.067258
 21
525.611413
 31
0.0
  0
LINE
  8
LC-004-005-----0
  6
CONTINUOUS
  5
59
 10
548.069411
 20
525.441994
 30
0.0
 11
550.319324
 21
527.691907
 31
0.0
  0
LINE
  8
LC-004-005-----0
  6
CONTINUOUS
  5
5A
 10
545.524148
 20
525.725158
 30
0.0
 11
547.774731
 21
527.975741
 31
0.0
  0
LINE
  8
LC-004-005-----0
  6
CONTINUOUS
  5
5B
 10
542.978885
 20
526.008322
 30
0.0
 11
545.230138
 21
528.259576
 31
0.0
  0
LINE
  8
LC-004-005-----0
  6
CONTINUOUS
  5
5C
 10
540.433622
 20
526.291486
 30
0.0
 11
542.685546
 21
528.54341
 31
0.0
  0
LINE
  8
LC-004-005-----0
  6
CONTINUOUS
  5
5D
 10
538.067258
 20
526.753549
 30
0.0
 11
540.140953
 21
528.827245
 31
0.0
  0
ENDBLK
  8
0
  5
5E
  0
BLOCK
  8
0
  5
60
  2
*X5
 70
    65
 10
551.067258
 20
525.108479
 30
0.0
  3
*X5
  0
LINE
  8
LC-004-005-----0
  6
CONTINUOUS
  5
61
 10
563.231299
 20
526.461746
 30
0.0
 11
564.067258
 21
527.297705
 31
0.0
  0
LINE
  8
LC-004-005-----0
  6
CONTINUOUS
  5
62
 10
560.048816
 20
526.10769
 30
0.0
 11
562.865646
 21
528.92452
 31
0.0
  0
LINE
  8
LC-004-005-----0
  6
CONTINUOUS
  5
63
 10
556.866333
 20
525.753635
 30
0.0
 11
559.682114
 21
528.569416
 31
0.0
  0
LINE
  8
LC-004-005-----0
  6
CONTINUOUS
  5
64
 10
553.68385
 20
525.399579
 30
0.0
 11
556.498583
 21
528.214312
 31
0.0
  0
LINE
  8
LC-004-005-----0
  6
CONTINUOUS
  5
65
 10
551.067258
 20
525.611413
 30
0.0
 11
553.315052
 21
527.859207
 31
0.0
  0
ENDBLK
  8
0
  5
66
  0
BLOCK
  8
0
  5
68
  2
*X6
 70
    65
 10
568.067258
 20
526.999753
 30
0.0
  3
*X6
  0
LINE
  8
LC-004-005-----0
  6
CONTINUOUS
  5
69
 10
614.151024
 20
532.126638
 30
0.0
 11
621.049142
 21
539.024756
 31
0.0
  0
LINE
  8
LC-004-005-----0
  6
CONTINUOUS
  5
6A
 10
610.968542
 20
531.772582
 30
0.0
 11
613.802149
 21
534.606189
 31
0.0
  0
LINE
  8
LC-004-005-----0
  6
CONTINUOUS
  5
6B
 10
618.537701
 20
539.341741
 30
0.0
 11
622.870138
 21
543.674179
 31
0.0
  0
LINE
  8
LC-004-005-----0
  6
CONTINUOUS
  5
6C
 10
607.786059
 20
531.418526
 30
0.0
 11
610.618617
 21
534.251085
 31
0.0
  0
LINE
  8
LC-004-005-----0
  6
CONTINUOUS
  5
6D
 10
604.603576
 20
531.064471
 30
0.0
 11
607.435086
 21
533.895981
 31
0.0
  0
LINE
  8
LC-004-005-----0
  6
CONTINUOUS
  5
6E
 10
601.421093
 20
530.710415
 30
0.0
 11
604.251555
 21
533.540876
 31
0.0
  0
LINE
  8
LC-004-005-----0
  6
CONTINUOUS
  5
6F
 10
598.23861
 20
530.356359
 30
0.0
 11
601.068023
 21
533.185772
 31
0.0
  0
LINE
  8
LC-004-005-----0
  6
CONTINUOUS
  5
70
 10
595.056127
 20
530.002303
 30
0.0
 11
597.884492
 21
532.830668
 31
0.0
  0
LINE
  8
LC-004-005-----0
  6
CONTINUOUS
  5
71
 10
591.873644
 20
529.648248
 30
0.0
 11
594.70096
 21
532.475563
 31
0.0
  0
LINE
  8
LC-004-005-----0
  6
CONTINUOUS
  5
72
 10
588.691162
 20
529.294192
 30
0.0
 11
591.517429
 21
532.120459
 31
0.0
  0
LINE
  8
LC-004-005-----0
  6
CONTINUOUS
  5
73
 10
585.508679
 20
528.940136
 30
0.0
 11
588.333897
 21
531.765355
 31
0.0
  0
LINE
  8
LC-004-005-----0
  6
CONTINUOUS
  5
74
 10
582.326196
 20
528.58608
 30
0.0
 11
585.150366
 21
531.410251
 31
0.0
  0
LINE
  8
LC-004-005-----0
  6
CONTINUOUS
  5
75
 10
579.143713
 20
528.232025
 30
0.0
 11
581.966834
 21
531.055146
 31
0.0
  0
LINE
  8
LC-004-005-----0
  6
CONTINUOUS
  5
76
 10
575.96123
 20
527.877969
 30
0.0
 11
578.783303
 21
530.700042
 31
0.0
  0
LINE
  8
LC-004-005-----0
  6
CONTINUOUS
  5
77
 10
572.778747
 20
527.523913
 30
0.0
 11
575.599772
 21
530.344938
 31
0.0
  0
LINE
  8
LC-004-005-----0
  6
CONTINUOUS
  5
78
 10
569.596264
 20
527.169857
 30
0.0
 11
572.41624
 21
529.989833
 31
0.0
  0
LINE
  8
LC-004-005-----0
  6
CONTINUOUS
  5
79
 10
568.067258
 20
528.469278
 30
0.0
 11
569.232709
 21
529.634729
 31
0.0
  0
ENDBLK
  8
0
  5
7A
  0
BLOCK
  8
0
  5
7C
  2
*X7
 70
    65
 10
623.196761
 20
574.674179
 30
0.0
  3
*X7
  0
LINE
  8
LC-004-005-----0
  6
CONTINUOUS
  5
7D
 10
647.613012
 20
582.559188
 30
0.0
 11
648.067258
 21
583.013434
 31
0.0
  0
LINE
  8
LC-004-005-----0
  6
CONTINUOUS
  5
7E
 10
644.513404
 20
582.288008
 30
0.0
 11
647.263562
 21
585.038165
 31
0.0
  0
LINE
  8
LC-004-005-----0
  6
CONTINUOUS
  5
7F
 10
641.413797
 20
582.016827
 30
0.0
 11
644.163954
 21
584.766984
 31
0.0
  0
LINE
  8
LC-004-005-----0
  6
CONTINUOUS
  5
80
 10
638.314189
 20
581.745647
 30
0.0
 11
641.064346
 21
584.495804
 31
0.0
  0
LINE
  8
LC-004-005-----0
  6
CONTINUOUS
  5
81
 10
635.214581
 20
581.474466
 30
0.0
 11
637.964739
 21
584.224623
 31
0.0
  0
LINE
  8
LC-004-005-----0
  6
CONTINUOUS
  5
82
 10
625.585867
 20
574.674179
 30
0.0
 11
625.708906
 21
574.797218
 31
0.0
  0
LINE
  8
LC-004-005-----0
  6
CONTINUOUS
  5
83
 10
632.114974
 20
581.203286
 30
0.0
 11
634.865131
 21
583.953443
 31
0.0
  0
LINE
  8
LC-004-005-----0
  6
CONTINUOUS
  5
84
 10
623.225288
 20
575.142027
 30
0.0
 11
625.89257
 21
577.809309
 31
0.0
  0
LINE
  8
LC-004-005-----0
  6
CONTINUOUS
  5
85
 10
629.015366
 20
580.932105
 30
0.0
 11
631.765523
 21
583.682262
 31
0.0
  0
LINE
  8
LC-004-005-----0
  6
CONTINUOUS
  5
86
 10
623.408952
 20
578.154118
 30
0.0
 11
628.665916
 21
583.411082
 31
0.0
  0
LINE
  8
LC-004-005-----0
  6
CONTINUOUS
  5
87
 10
623.592616
 20
581.166209
 30
0.0
 11
625.566308
 21
583.139901
 31
0.0
  0
ENDBLK
  8
0
  5
88
  0
BLOCK
  8
0
  5
8A
  2
*X8
 70
    65
 10
462.067258
 20
320.87747
 30
0.0
  3
*X8
  0
LINE
  8
LC-004-005-----0
  6
CONTINUOUS
  5
8B
 10
550.143033
 20
321.040436
 30
0.0
 11
551.067258
 21
321.96466
 31
0.0
  0
LINE
  8
LC-004-005-----0
  6
CONTINUOUS
  5
8C
 10
547.738576
 20
321.464406
 30
0.0
 11
550.32823
 21
324.05406
 31
0.0
  0
LINE
  8
LC-004-005-----0
  6
CONTINUOUS
  5
8D
 10
545.33412
 20
321.888377
 30
0.0
 11
547.923774
 21
324.478031
 31
0.0
  0
LINE
  8
LC-004-005-----0
  6
CONTINUOUS
  5
8E
 10
542.929663
 20
322.312347
 30
0.0
 11
545.519317
 21
324.902001
 31
0.0
  0
LINE
  8
LC-004-005-----0
  6
CONTINUOUS
  5
8F
 10
540.525207
 20
322.736318
 30
0.0
 11
543.114861
 21
325.325972
 31
0.0
  0
LINE
  8
LC-004-005-----0
  6
CONTINUOUS
  5
90
 10
538.12075
 20
323.160289
 30
0.0
 11
540.710404
 21
325.749943
 31
0.0
  0
LINE
  8
LC-004-005-----0
  6
CONTINUOUS
  5
91
 10
535.716293
 20
323.584259
 30
0.0
 11
538.305947
 21
326.173913
 31
0.0
  0
LINE
  8
LC-004-005-----0
  6
CONTINUOUS
  5
92
 10
533.311837
 20
324.00823
 30
0.0
 11
535.901491
 21
326.597884
 31
0.0
  0
LINE
  8
LC-004-005-----0
  6
CONTINUOUS
  5
93
 10
530.90738
 20
324.4322
 30
0.0
 11
533.497034
 21
327.021854
 31
0.0
  0
LINE
  8
LC-004-005-----0
  6
CONTINUOUS
  5
94
 10
528.502924
 20
324.856171
 30
0.0
 11
531.092578
 21
327.445825
 31
0.0
  0
LINE
  8
LC-004-005-----0
  6
CONTINUOUS
  5
95
 10
526.098467
 20
325.280141
 30
0.0
 11
528.688121
 21
327.869795
 31
0.0
  0
LINE
  8
LC-004-005-----0
  6
CONTINUOUS
  5
96
 10
523.694011
 20
325.704112
 30
0.0
 11
526.283665
 21
328.293766
 31
0.0
  0
LINE
  8
LC-004-005-----0
  6
CONTINUOUS
  5
97
 10
521.289554
 20
326.128083
 30
0.0
 11
523.879208
 21
328.717737
 31
0.0
  0
LINE
  8
LC-004-005-----0
  6
CONTINUOUS
  5
98
 10
518.885098
 20
326.552053
 30
0.0
 11
521.474752
 21
329.141707
 31
0.0
  0
LINE
  8
LC-004-005-----0
  6
CONTINUOUS
  5
99
 10
516.480641
 20
326.976024
 30
0.0
 11
519.070295
 21
329.565678
 31
0.0
  0
LINE
  8
LC-004-005-----0
  6
CONTINUOUS
  5
9A
 10
514.076184
 20
327.399994
 30
0.0
 11
516.665838
 21
329.989648
 31
0.0
  0
LINE
  8
LC-004-005-----0
  6
CONTINUOUS
  5
9B
 10
511.671728
 20
327.823965
 30
0.0
 11
514.261382
 21
330.413619
 31
0.0
  0
LINE
  8
LC-004-005-----0
  6
CONTINUOUS
  5
9C
 10
509.267271
 20
328.247935
 30
0.0
 11
511.856925
 21
330.837589
 31
0.0
  0
LINE
  8
LC-004-005-----0
  6
CONTINUOUS
  5
9D
 10
506.862815
 20
328.671906
 30
0.0
 11
509.452469
 21
331.26156
 31
0.0
  0
LINE
  8
LC-004-005-----0
  6
CONTINUOUS
  5
9E
 10
504.458358
 20
329.095876
 30
0.0
 11
507.048012
 21
331.68553
 31
0.0
  0
LINE
  8
LC-004-005-----0
  6
CONTINUOUS
  5
9F
 10
502.053902
 20
329.519847
 30
0.0
 11
504.643556
 21
332.109501
 31
0.0
  0
LINE
  8
LC-004-005-----0
  6
CONTINUOUS
  5
A0
 10
499.649445
 20
329.943818
 30
0.0
 11
502.239099
 21
332.533472
 31
0.0
  0
LINE
  8
LC-004-005-----0
  6
CONTINUOUS
  5
A1
 10
497.244989
 20
330.367788
 30
0.0
 11
499.834643
 21
332.957442
 31
0.0
  0
LINE
  8
LC-004-005-----0
  6
CONTINUOUS
  5
A2
 10
494.840532
 20
330.791759
 30
0.0
 11
497.430186
 21
333.381413
 31
0.0
  0
LINE
  8
LC-004-005-----0
  6
CONTINUOUS
  5
A3
 10
492.517046
 20
331.2967
 30
0.0
 11
495.026053
 21
333.805707
 31
0.0
  0
LINE
  8
LC-004-005-----0
  6
CONTINUOUS
  5
A4
 10
490.368157
 20
331.976238
 30
0.0
 11
492.7416
 21
334.349681
 31
0.0
  0
LINE
  8
LC-004-005-----0
  6
CONTINUOUS
  5
A5
 10
488.371374
 20
332.807882
 30
0.0
 11
490.648098
 21
335.084606
 31
0.0
  0
LINE
  8
LC-004-005-----0
  6
CONTINUOUS
  5
A6
 10
486.511114
 20
333.776049
 30
0.0
 11
488.719336
 21
335.984271
 31
0.0
  0
LINE
  8
LC-004-005-----0
  6
CONTINUOUS
  5
A7
 10
484.776867
 20
334.87023
 30
0.0
 11
486.938603
 21
337.031965
 31
0.0
  0
LINE
  8
LC-004-005-----0
  6
CONTINUOUS
  5
A8
 10
483.161754
 20
336.083543
 30
0.0
 11
485.295362
 21
338.217151
 31
0.0
  0
LINE
  8
LC-004-005-----0
  6
CONTINUOUS
  5
A9
 10
481.66171
 20
337.411927
 30
0.0
 11
483.783539
 21
339.533755
 31
0.0
  0
LINE
  8
LC-004-005-----0
  6
CONTINUOUS
  5
AA
 10
480.275057
 20
338.853701
 30
0.0
 11
482.400653
 21
340.979297
 31
0.0
  0
LINE
  8
LC-004-005-----0
  6
CONTINUOUS
  5
AB
 10
479.002331
 20
340.409402
 30
0.0
 11
481.147494
 21
342.554565
 31
0.0
  0
LINE
  8
LC-004-005-----0
  6
CONTINUOUS
  5
AC
 10
477.846335
 20
342.081833
 30
0.0
 11
480.028222
 21
344.26372
 31
0.0
  0
LINE
  8
LC-004-005-----0
  6
CONTINUOUS
  5
AD
 10
476.812429
 20
343.876354
 30
0.0
 11
479.050934
 21
346.114859
 31
0.0
  0
LINE
  8
LC-004-005-----0
  6
CONTINUOUS
  5
AE
 10
475.909128
 20
345.80148
 30
0.0
 11
478.228881
 21
348.121234
 31
0.0
  0
LINE
  8
LC-004-005-----0
  6
CONTINUOUS
  5
AF
 10
475.149177
 20
347.869956
 30
0.0
 11
477.582835
 21
350.303614
 31
0.0
  0
LINE
  8
LC-004-005-----0
  6
CONTINUOUS
  5
B0
 10
474.551465
 20
350.100672
 30
0.0
 11
477.145752
 21
352.694959
 31
0.0
  0
LINE
  8
LC-004-005-----0
  6
CONTINUOUS
  5
B1
 10
474.144603
 20
352.522236
 30
0.0
 11
476.903361
 21
355.280994
 31
0.0
  0
LINE
  8
LC-004-005-----0
  6
CONTINUOUS
  5
B2
 10
473.906626
 20
355.112687
 30
0.0
 11
476.675813
 21
357.881874
 31
0.0
  0
LINE
  8
LC-004-005-----0
  6
CONTINUOUS
  5
B3
 10
473.679079
 20
357.713566
 30
0.0
 11
476.448266
 21
360.482753
 31
0.0
  0
LINE
  8
LC-004-005-----0
  6
CONTINUOUS
  5
B4
 10
473.451531
 20
360.314446
 30
0.0
 11
476.220718
 21
363.083633
 31
0.0
  0
LINE
  8
LC-004-005-----0
  6
CONTINUOUS
  5
B5
 10
473.223984
 20
362.915326
 30
0.0
 11
475.993171
 21
365.684513
 31
0.0
  0
LINE
  8
LC-004-005-----0
  6
CONTINUOUS
  5
B6
 10
472.996436
 20
365.516205
 30
0.0
 11
475.765623
 21
368.285392
 31
0.0
  0
LINE
  8
LC-004-005-----0
  6
CONTINUOUS
  5
B7
 10
472.768889
 20
368.117085
 30
0.0
 11
475.538076
 21
370.886272
 31
0.0
  0
LINE
  8
LC-004-005-----0
  6
CONTINUOUS
  5
B8
 10
472.541341
 20
370.717965
 30
0.0
 11
475.310528
 21
373.487152
 31
0.0
  0
LINE
  8
LC-004-005-----0
  6
CONTINUOUS
  5
B9
 10
472.313794
 20
373.318844
 30
0.0
 11
475.082981
 21
376.088031
 31
0.0
  0
LINE
  8
LC-004-005-----0
  6
CONTINUOUS
  5
BA
 10
472.086246
 20
375.919724
 30
0.0
 11
474.855433
 21
378.688911
 31
0.0
  0
LINE
  8
LC-004-005-----0
  6
CONTINUOUS
  5
BB
 10
471.858699
 20
378.520604
 30
0.0
 11
474.627886
 21
381.289791
 31
0.0
  0
LINE
  8
LC-004-005-----0
  6
CONTINUOUS
  5
BC
 10
471.631151
 20
381.121483
 30
0.0
 11
474.400338
 21
383.89067
 31
0.0
  0
LINE
  8
LC-004-005-----0
  6
CONTINUOUS
  5
BD
 10
471.403604
 20
383.722363
 30
0.0
 11
474.172791
 21
386.49155
 31
0.0
  0
LINE
  8
LC-004-005-----0
  6
CONTINUOUS
  5
BE
 10
471.176056
 20
386.323242
 30
0.0
 11
473.945243
 21
389.09243
 31
0.0
  0
LINE
  8
LC-004-005-----0
  6
CONTINUOUS
  5
BF
 10
470.948509
 20
388.924122
 30
0.0
 11
473.717696
 21
391.693309
 31
0.0
  0
LINE
  8
LC-004-005-----0
  6
CONTINUOUS
  5
C0
 10
470.720961
 20
391.525002
 30
0.0
 11
473.490148
 21
394.294189
 31
0.0
  0
LINE
  8
LC-004-005-----0
  6
CONTINUOUS
  5
C1
 10
470.493414
 20
394.125881
 30
0.0
 11
473.262601
 21
396.895068
 31
0.0
  0
LINE
  8
LC-004-005-----0
  6
CONTINUOUS
  5
C2
 10
470.265866
 20
396.726761
 30
0.0
 11
473.035053
 21
399.495948
 31
0.0
  0
LINE
  8
LC-004-005-----0
  6
CONTINUOUS
  5
C3
 10
470.038319
 20
399.327641
 30
0.0
 11
472.807506
 21
402.096828
 31
0.0
  0
LINE
  8
LC-004-005-----0
  6
CONTINUOUS
  5
C4
 10
469.810771
 20
401.92852
 30
0.0
 11
472.579958
 21
404.697707
 31
0.0
  0
LINE
  8
LC-004-005-----0
  6
CONTINUOUS
  5
C5
 10
469.583224
 20
404.5294
 30
0.0
 11
472.352411
 21
407.298587
 31
0.0
  0
LINE
  8
LC-004-005-----0
  6
CONTINUOUS
  5
C6
 10
469.355676
 20
407.13028
 30
0.0
 11
472.124863
 21
409.899467
 31
0.0
  0
LINE
  8
LC-004-005-----0
  6
CONTINUOUS
  5
C7
 10
469.128129
 20
409.731159
 30
0.0
 11
471.897316
 21
412.500346
 31
0.0
  0
LINE
  8
LC-004-005-----0
  6
CONTINUOUS
  5
C8
 10
468.900581
 20
412.332039
 30
0.0
 11
471.669768
 21
415.101226
 31
0.0
  0
LINE
  8
LC-004-005-----0
  6
CONTINUOUS
  5
C9
 10
468.673034
 20
414.932919
 30
0.0
 11
471.567258
 21
417.827142
 31
0.0
  0
LINE
  8
LC-004-005-----0
  6
CONTINUOUS
  5
CA
 10
467.053636
 20
416.141947
 30
0.0
 11
471.567258
 21
420.655569
 31
0.0
  0
LINE
  8
LC-004-005-----0
  6
CONTINUOUS
  5
CB
 10
465.817258
 20
417.733996
 30
0.0
 11
466.830874
 21
418.747612
 31
0.0
  0
LINE
  8
LC-004-005-----0
  6
CONTINUOUS
  5
CC
 10
469.067258
 20
420.983996
 30
0.0
 11
471.567258
 21
423.483996
 31
0.0
  0
LINE
  8
LC-004-005-----0
  6
CONTINUOUS
  5
CD
 10
469.067258
 20
423.812424
 30
0.0
 11
471.567258
 21
426.312424
 31
0.0
  0
LINE
  8
LC-004-005-----0
  6
CONTINUOUS
  5
CE
 10
466.94293
 20
424.516524
 30
0.0
 11
470.567806
 21
428.141399
 31
0.0
  0
LINE
  8
LC-004-005-----0
  6
CONTINUOUS
  5
CF
 10
465.817258
 20
426.219278
 30
0.0
 11
469.153592
 21
429.555613
 31
0.0
  0
LINE
  8
LC-004-005-----0
  6
CONTINUOUS
  5
D0
 10
465.817258
 20
429.047705
 30
0.0
 11
467.739379
 21
430.969826
 31
0.0
  0
LINE
  8
LC-004-005-----0
  6
CONTINUOUS
  5
D1
 10
463.144021
 20
429.202895
 30
0.0
 11
466.083073
 21
432.141947
 31
0.0
  0
LINE
  8
LC-004-005-----0
  6
CONTINUOUS
  5
D2
 10
462.109944
 20
430.997246
 30
0.0
 11
463.211959
 21
432.099261
 31
0.0
  0
ENDBLK
  8
0
  5
D3
  0
BLOCK
  8
0
  5
D5
  2
*X9
 70
    65
 10
536.189378
 20
381.715389
 30
0.0
  3
*X9
  0
LINE
  8
LC-004-005-----0
  6
CONTINUOUS
  5
D6
 10
550.696314
 20
383.819114
 30
0.0
 11
551.067258
 21
384.190057
 31
0.0
  0
LINE
  8
LC-004-005-----0
  6
CONTINUOUS
  5
D7
 10
550.272344
 20
386.22357
 30
0.0
 11
551.067258
 21
387.018484
 31
0.0
  0
LINE
  8
LC-004-005-----0
  6
CONTINUOUS
  5
D8
 10
549.848373
 20
388.628027
 30
0.0
 11
551.067258
 21
389.846911
 31
0.0
  0
LINE
  8
LC-004-005-----0
  6
CONTINUOUS
  5
D9
 10
549.424402
 20
391.032483
 30
0.0
 11
551.067258
 21
392.675339
 31
0.0
  0
LINE
  8
LC-004-005-----0
  6
CONTINUOUS
  5
DA
 10
549.000432
 20
393.43694
 30
0.0
 11
551.067258
 21
395.503766
 31
0.0
  0
LINE
  8
LC-004-005-----0
  6
CONTINUOUS
  5
DB
 10
548.576461
 20
395.841397
 30
0.0
 11
551.067258
 21
398.332193
 31
0.0
  0
LINE
  8
LC-004-005-----0
  6
CONTINUOUS
  5
DC
 10
548.152491
 20
398.245853
 30
0.0
 11
551.067258
 21
401.16062
 31
0.0
  0
LINE
  8
LC-004-005-----0
  6
CONTINUOUS
  5
DD
 10
547.72852
 20
400.65031
 30
0.0
 11
550.749783
 21
403.671573
 31
0.0
  0
ENDBLK
  8
0
  5
DE
  0
BLOCK
  8
0
  5
E0
  2
*X10
 70
    65
 10
540.417132
 20
394.817261
 30
0.0
  3
*X10
  0
LINE
  8
LC-004-005-----0
  6
CONTINUOUS
  5
E1
 10
546.617945
 20
399.539734
 30
0.0
 11
547.72852
 21
400.65031
 31
0.0
  0
LINE
  8
LC-004-005-----0
  6
CONTINUOUS
  5
E2
 10
544.213488
 20
399.963705
 30
0.0
 11
546.792374
 21
402.542591
 31
0.0
  0
LINE
  8
LC-004-005-----0
  6
CONTINUOUS
  5
E3
 10
541.809032
 20
400.387675
 30
0.0
 11
544.387917
 21
402.966561
 31
0.0
  0
LINE
  8
LC-004-005-----0
  6
CONTINUOUS
  5
E4
 10
540.672115
 20
402.079186
 30
0.0
 11
544.370524
 21
405.777595
 31
0.0
  0
LINE
  8
LC-004-005-----0
  6
CONTINUOUS
  5
E5
 10
550.343221
 20
411.750292
 30
0.0
 11
551.067258
 21
412.474328
 31
0.0
  0
LINE
  8
LC-004-005-----0
  6
CONTINUOUS
  5
E6
 10
541.277608
 20
405.513106
 30
0.0
 11
550.553142
 21
414.78864
 31
0.0
  0
LINE
  8
LC-004-005-----0
  6
CONTINUOUS
  5
E7
 10
542.516365
 20
409.58029
 30
0.0
 11
546.546148
 21
413.610073
 31
0.0
  0
ENDBLK
  8
0
  5
E8
  0
BLOCK
  8
0
  5
EA
  2
*X11
 70
    65
 10
536.189378
 20
402.819254
 30
0.0
  3
*X11
  0
LINE
  8
LC-004-005-----0
  6
CONTINUOUS
  5
EB
 10
547.30455
 20
403.054766
 30
0.0
 11
550.325813
 21
406.076029
 31
0.0
  0
LINE
  8
LC-004-005-----0
  6
CONTINUOUS
  5
EC
 10
546.880579
 20
405.459223
 30
0.0
 11
547.15326
 21
405.731903
 31
0.0
  0
ENDBLK
  8
0
  5
ED
  0
BLOCK
  8
0
  5
EF
  2
*X12
 70
    65
 10
551.067258
 20
319.017645
 30
0.0
  3
*X12
  0
LINE
  8
LC-004-005-----0
  6
CONTINUOUS
  5
F0
 10
559.760859
 20
319.344553
 30
0.0
 11
561.28794
 21
320.871634
 31
0.0
  0
LINE
  8
LC-004-005-----0
  6
CONTINUOUS
  5
F1
 10
557.356403
 20
319.768524
 30
0.0
 11
559.946057
 21
322.358178
 31
0.0
  0
LINE
  8
LC-004-005-----0
  6
CONTINUOUS
  5
F2
 10
554.951946
 20
320.192495
 30
0.0
 11
557.5416
 21
322.782149
 31
0.0
  0
LINE
  8
LC-004-005-----0
  6
CONTINUOUS
  5
F3
 10
552.547489
 20
320.616465
 30
0.0
 11
555.137143
 21
323.206119
 31
0.0
  0
LINE
  8
LC-004-005-----0
  6
CONTINUOUS
  5
F4
 10
551.067258
 20
321.96466
 30
0.0
 11
552.732687
 21
323.63009
 31
0.0
  0
ENDBLK
  8
0
  5
F5
  0
BLOCK
  8
0
  5
F7
  2
*X13
 70
    65
 10
551.067258
 20
318.72072
 30
0.0
  3
*X13
  0
LINE
  8
LC-004-005-----0
  6
CONTINUOUS
  5
F8
 10
565.354531
 20
319.281372
 30
0.0
 11
565.588753
 21
319.515593
 31
0.0
  0
LINE
  8
LC-004-005-----0
  6
CONTINUOUS
  5
F9
 10
562.143519
 20
318.898787
 30
0.0
 11
565.164782
 21
321.92005
 31
0.0
  0
LINE
  8
LC-004-005-----0
  6
CONTINUOUS
  5
FA
 10
561.719549
 20
321.303243
 30
0.0
 11
564.740812
 21
324.324506
 31
0.0
  0
LINE
  8
LC-004-005-----0
  6
CONTINUOUS
  5
FB
 10
561.295578
 20
323.7077
 30
0.0
 11
564.316841
 21
326.728963
 31
0.0
  0
LINE
  8
LC-004-005-----0
  6
CONTINUOUS
  5
FC
 10
560.871608
 20
326.112156
 30
0.0
 11
563.892871
 21
329.133419
 31
0.0
  0
LINE
  8
LC-004-005-----0
  6
CONTINUOUS
  5
FD
 10
560.447637
 20
328.516613
 30
0.0
 11
563.4689
 21
331.537876
 31
0.0
  0
LINE
  8
LC-004-005-----0
  6
CONTINUOUS
  5
FE
 10
560.023667
 20
330.92107
 30
0.0
 11
563.04493
 21
333.942332
 31
0.0
  0
LINE
  8
LC-004-005-----0
  6
CONTINUOUS
  5
FF
 10
559.599696
 20
333.325526
 30
0.0
 11
562.620959
 21
336.346789
 31
0.0
  0
LINE
  8
LC-004-005-----0
  6
CONTINUOUS
  5
100
 10
559.175725
 20
335.729983
 30
0.0
 11
562.196988
 21
338.751246
 31
0.0
  0
LINE
  8
LC-004-005-----0
  6
CONTINUOUS
  5
101
 10
558.751755
 20
338.134439
 30
0.0
 11
561.773018
 21
341.155702
 31
0.0
  0
LINE
  8
LC-004-005-----0
  6
CONTINUOUS
  5
102
 10
558.327784
 20
340.538896
 30
0.0
 11
561.349047
 21
343.560159
 31
0.0
  0
LINE
  8
LC-004-005-----0
  6
CONTINUOUS
  5
103
 10
557.903814
 20
342.943352
 30
0.0
 11
560.925077
 21
345.964615
 31
0.0
  0
LINE
  8
LC-004-005-----0
  6
CONTINUOUS
  5
104
 10
557.479843
 20
345.347809
 30
0.0
 11
560.501106
 21
348.369072
 31
0.0
  0
LINE
  8
LC-004-005-----0
  6
CONTINUOUS
  5
105
 10
557.055873
 20
347.752265
 30
0.0
 11
560.077136
 21
350.773528
 31
0.0
  0
LINE
  8
LC-004-005-----0
  6
CONTINUOUS
  5
106
 10
556.631902
 20
350.156722
 30
0.0
 11
559.653165
 21
353.177985
 31
0.0
  0
LINE
  8
LC-004-005-----0
  6
CONTINUOUS
  5
107
 10
556.207932
 20
352.561179
 30
0.0
 11
559.229194
 21
355.582442
 31
0.0
  0
LINE
  8
LC-004-005-----0
  6
CONTINUOUS
  5
108
 10
555.783961
 20
354.965635
 30
0.0
 11
558.805224
 21
357.986898
 31
0.0
  0
LINE
  8
LC-004-005-----0
  6
CONTINUOUS
  5
109
 10
555.35999
 20
357.370092
 30
0.0
 11
558.381253
 21
360.391355
 31
0.0
  0
LINE
  8
LC-004-005-----0
  6
CONTINUOUS
  5
10A
 10
554.93602
 20
359.774548
 30
0.0
 11
557.957283
 21
362.795811
 31
0.0
  0
LINE
  8
LC-004-005-----0
  6
CONTINUOUS
  5
10B
 10
554.512049
 20
362.179005
 30
0.0
 11
557.533312
 21
365.200268
 31
0.0
  0
LINE
  8
LC-004-005-----0
  6
CONTINUOUS
  5
10C
 10
554.088079
 20
364.583461
 30
0.0
 11
557.109342
 21
367.604724
 31
0.0
  0
LINE
  8
LC-004-005-----0
  6
CONTINUOUS
  5
10D
 10
553.664108
 20
366.987918
 30
0.0
 11
556.685371
 21
370.009181
 31
0.0
  0
LINE
  8
LC-004-005-----0
  6
CONTINUOUS
  5
10E
 10
553.240138
 20
369.392374
 30
0.0
 11
556.261401
 21
372.413637
 31
0.0
  0
LINE
  8
LC-004-005-----0
  6
CONTINUOUS
  5
10F
 10
552.816167
 20
371.796831
 30
0.0
 11
555.83743
 21
374.818094
 31
0.0
  0
LINE
  8
LC-004-005-----0
  6
CONTINUOUS
  5
110
 10
552.392196
 20
374.201288
 30
0.0
 11
555.413459
 21
377.222551
 31
0.0
  0
LINE
  8
LC-004-005-----0
  6
CONTINUOUS
  5
111
 10
551.968226
 20
376.605744
 30
0.0
 11
554.989489
 21
379.627007
 31
0.0
  0
LINE
  8
LC-004-005-----0
  6
CONTINUOUS
  5
112
 10
551.544255
 20
379.010201
 30
0.0
 11
554.565518
 21
382.031464
 31
0.0
  0
LINE
  8
LC-004-005-----0
  6
CONTINUOUS
  5
113
 10
551.120285
 20
381.414657
 30
0.0
 11
554.141548
 21
384.43592
 31
0.0
  0
LINE
  8
LC-004-005-----0
  6
CONTINUOUS
  5
114
 10
551.067258
 20
384.190057
 30
0.0
 11
553.717577
 21
386.840377
 31
0.0
  0
LINE
  8
LC-004-005-----0
  6
CONTINUOUS
  5
115
 10
551.067258
 20
387.018484
 30
0.0
 11
553.293607
 21
389.244833
 31
0.0
  0
LINE
  8
LC-004-005-----0
  6
CONTINUOUS
  5
116
 10
551.067258
 20
389.846911
 30
0.0
 11
552.869636
 21
391.64929
 31
0.0
  0
LINE
  8
LC-004-005-----0
  6
CONTINUOUS
  5
117
 10
551.067258
 20
392.675339
 30
0.0
 11
552.445665
 21
394.053746
 31
0.0
  0
LINE
  8
LC-004-005-----0
  6
CONTINUOUS
  5
118
 10
551.067258
 20
395.503766
 30
0.0
 11
552.021695
 21
396.458203
 31
0.0
  0
LINE
  8
LC-004-005-----0
  6
CONTINUOUS
  5
119
 10
551.067258
 20
398.332193
 30
0.0
 11
551.597724
 21
398.86266
 31
0.0
  0
LINE
  8
LC-004-005-----0
  6
CONTINUOUS
  5
11A
 10
551.067258
 20
401.16062
 30
0.0
 11
551.173754
 21
401.267116
 31
0.0
  0
ENDBLK
  8
0
  5
11B
  0
BLOCK
  8
0
  5
11D
  2
*X14
 70
    65
 10
465.067258
 20
418.789293
 30
0.0
  3
*X14
  0
LINE
  8
LC-004-005-----0
  6
DASHED
  5
11F
 10
465.86217
 20
419.193122
 30
0.0
 11
469.067258
 21
422.39821
 31
0.0
  0
LINE
  8
LC-004-005-----0
  6
DASHED
  5
120
 10
465.237246
 20
419.982412
 30
0.0
 11
468.780811
 21
423.525977
 31
0.0
  0
LINE
  8
LC-004-005-----0
  6
CONTINUOUS
  5
121
 10
465.073045
 20
422.646638
 30
0.0
 11
466.915221
 21
424.488814
 31
0.0
  0
ENDBLK
  8
0
  5
122
  0
BLOCK
  8
0
  5
124
  2
*X15
 70
    65
 10
551.067258
 20
411.814189
 30
0.0
  3
*X15
  0
LINE
  8
LC-004-005-----0
  6
CONTINUOUS
  5
125
 10
633.934614
 20
416.145725
 30
0.0
 11
636.317258
 21
418.528369
 31
0.0
  0
LINE
  8
LC-004-005-----0
  6
CONTINUOUS
  5
126
 10
630.961743
 20
416.001281
 30
0.0
 11
633.947244
 21
418.986782
 31
0.0
  0
LINE
  8
LC-004-005-----0
  6
CONTINUOUS
  5
127
 10
627.976886
 20
415.844851
 30
0.0
 11
633.067258
 21
420.935223
 31
0.0
  0
LINE
  8
LC-004-005-----0
  6
CONTINUOUS
  5
128
 10
624.992029
 20
415.688422
 30
0.0
 11
628.162292
 21
418.858685
 31
0.0
  0
LINE
  8
LC-004-005-----0
  6
CONTINUOUS
  5
129
 10
630.567258
 20
421.26365
 30
0.0
 11
633.067258
 21
423.76365
 31
0.0
  0
LINE
  8
LC-004-005-----0
  6
CONTINUOUS
  5
12A
 10
633.526538
 20
424.222931
 30
0.0
 11
636.317258
 21
427.01365
 31
0.0
  0
LINE
  8
LC-004-005-----0
  6
CONTINUOUS
  5
12B
 10
638.445555
 20
429.141947
 30
0.0
 11
640.062678
 21
430.759071
 31
0.0
  0
LINE
  8
LC-004-005-----0
  6
CONTINUOUS
  5
12C
 10
622.007172
 20
415.531992
 30
0.0
 11
625.177435
 21
418.702255
 31
0.0
  0
LINE
  8
LC-004-005-----0
  6
CONTINUOUS
  5
12D
 10
630.567258
 20
424.092077
 30
0.0
 11
638.616325
 21
432.141145
 31
0.0
  0
LINE
  8
LC-004-005-----0
  6
CONTINUOUS
  5
12E
 10
619.022315
 20
415.375562
 30
0.0
 11
622.192579
 21
418.545826
 31
0.0
  0
LINE
  8
LC-004-005-----0
  6
CONTINUOUS
  5
12F
 10
630.567258
 20
426.920505
 30
0.0
 11
635.7887
 21
432.141947
 31
0.0
  0
LINE
  8
LC-004-005-----0
  6
CONTINUOUS
  5
130
 10
616.037458
 20
415.219132
 30
0.0
 11
619.207722
 21
418.389396
 31
0.0
  0
LINE
  8
LC-004-005-----0
  6
CONTINUOUS
  5
131
 10
613.052601
 20
415.062703
 30
0.0
 11
616.222865
 21
418.232966
 31
0.0
  0
LINE
  8
LC-004-005-----0
  6
CONTINUOUS
  5
132
 10
610.067745
 20
414.906273
 30
0.0
 11
613.238008
 21
418.076537
 31
0.0
  0
LINE
  8
LC-004-005-----0
  6
CONTINUOUS
  5
133
 10
607.082888
 20
414.749843
 30
0.0
 11
610.253151
 21
417.920107
 31
0.0
  0
LINE
  8
LC-004-005-----0
  6
CONTINUOUS
  5
134
 10
604.098031
 20
414.593414
 30
0.0
 11
607.268294
 21
417.763677
 31
0.0
  0
LINE
  8
LC-004-005-----0
  6
CONTINUOUS
  5
135
 10
601.113174
 20
414.436984
 30
0.0
 11
604.283438
 21
417.607247
 31
0.0
  0
LINE
  8
LC-004-005-----0
  6
CONTINUOUS
  5
136
 10
598.128317
 20
414.280554
 30
0.0
 11
601.298581
 21
417.450818
 31
0.0
  0
LINE
  8
LC-004-005-----0
  6
CONTINUOUS
  5
137
 10
595.14346
 20
414.124124
 30
0.0
 11
598.313724
 21
417.294388
 31
0.0
  0
LINE
  8
LC-004-005-----0
  6
CONTINUOUS
  5
138
 10
592.158604
 20
413.967695
 30
0.0
 11
595.328867
 21
417.137958
 31
0.0
  0
LINE
  8
LC-004-005-----0
  6
CONTINUOUS
  5
139
 10
589.173747
 20
413.811265
 30
0.0
 11
592.34401
 21
416.981528
 31
0.0
  0
LINE
  8
LC-004-005-----0
  6
CONTINUOUS
  5
13A
 10
586.18889
 20
413.654835
 30
0.0
 11
589.359153
 21
416.825099
 31
0.0
  0
LINE
  8
LC-004-005-----0
  6
CONTINUOUS
  5
13B
 10
583.204033
 20
413.498406
 30
0.0
 11
586.374297
 21
416.668669
 31
0.0
  0
LINE
  8
LC-004-005-----0
  6
CONTINUOUS
  5
13C
 10
580.219176
 20
413.341976
 30
0.0
 11
583.38944
 21
416.512239
 31
0.0
  0
LINE
  8
LC-004-005-----0
  6
CONTINUOUS
  5
13D
 10
577.234319
 20
413.185546
 30
0.0
 11
580.404583
 21
416.35581
 31
0.0
  0
LINE
  8
LC-004-005-----0
  6
CONTINUOUS
  5
13E
 10
574.249462
 20
413.029116
 30
0.0
 11
577.419726
 21
416.19938
 31
0.0
  0
LINE
  8
LC-004-005-----0
  6
CONTINUOUS
  5
13F
 10
571.264606
 20
412.872687
 30
0.0
 11
574.434869
 21
416.04295
 31
0.0
  0
LINE
  8
LC-004-005-----0
  6
CONTINUOUS
  5
140
 10
568.279749
 20
412.716257
 30
0.0
 11
571.450012
 21
415.88652
 31
0.0
  0
LINE
  8
LC-004-005-----0
  6
CONTINUOUS
  5
141
 10
565.294892
 20
412.559827
 30
0.0
 11
568.465155
 21
415.730091
 31
0.0
  0
LINE
  8
LC-004-005-----0
  6
CONTINUOUS
  5
142
 10
562.310035
 20
412.403398
 30
0.0
 11
565.480299
 21
415.573661
 31
0.0
  0
LINE
  8
LC-004-005-----0
  6
CONTINUOUS
  5
143
 10
559.325178
 20
412.246968
 30
0.0
 11
562.495442
 21
415.417231
 31
0.0
  0
LINE
  8
LC-004-005-----0
  6
CONTINUOUS
  5
144
 10
556.340321
 20
412.090538
 30
0.0
 11
559.510585
 21
415.260802
 31
0.0
  0
LINE
  8
LC-004-005-----0
  6
CONTINUOUS
  5
145
 10
553.355465
 20
411.934108
 30
0.0
 11
556.525728
 21
415.104372
 31
0.0
  0
LINE
  8
LC-004-005-----0
  6
CONTINUOUS
  5
146
 10
551.067258
 20
412.474328
 30
0.0
 11
553.540871
 21
414.947942
 31
0.0
  0
ENDBLK
  8
0
  5
147
  0
BLOCK
  8
0
  5
149
  2
*X16
 70
    65
 10
615.366752
 20
581.016161
 30
0.0
  3
*X16
  0
LINE
  8
LC-004-005-----0
  6
CONTINUOUS
  5
14A
 10
624.114218
 20
583.102025
 30
0.0
 11
625.860543
 21
584.848349
 31
0.0
  0
LINE
  8
LC-004-005-----0
  6
CONTINUOUS
  5
14B
 10
621.288858
 20
581.690878
 30
0.0
 11
624.829049
 21
585.231069
 31
0.0
  0
LINE
  8
LC-004-005-----0
  6
CONTINUOUS
  5
14C
 10
619.626151
 20
581.442385
 30
0.0
 11
623.166342
 21
584.982576
 31
0.0
  0
LINE
  8
LC-004-005-----0
  6
CONTINUOUS
  5
14D
 10
617.963444
 20
581.193892
 30
0.0
 11
622.158306
 21
585.388754
 31
0.0
  0
LINE
  8
LC-004-005-----0
  6
CONTINUOUS
  5
14E
 10
616.542767
 20
581.187428
 30
0.0
 11
621.003582
 21
585.648243
 31
0.0
  0
LINE
  8
LC-004-005-----0
  6
CONTINUOUS
  5
14F
 10
615.729983
 20
581.788857
 30
0.0
 11
619.340876
 21
585.39975
 31
0.0
  0
LINE
  8
LC-004-005-----0
  6
CONTINUOUS
  5
150
 10
615.493791
 20
582.966879
 30
0.0
 11
617.678169
 21
585.151257
 31
0.0
  0
ENDBLK
  8
0
  5
151
  0
BLOCK
  8
0
  5
153
  2
*X17
 70
    65
 10
421.067258
 20
558.06443
 30
0.0
  3
*X17
  0
LINE
  8
LC-004-005-----0
  6
CONTINUOUS
  5
154
 10
439.27049
 20
558.06443
 30
0.0
 11
445.067258
 21
563.861197
 31
0.0
  0
LINE
  8
LC-004-005-----0
  6
CONTINUOUS
  5
155
 10
434.067258
 20
561.346478
 30
0.0
 11
445.067258
 21
572.346478
 31
0.0
  0
LINE
  8
LC-004-005-----0
  6
CONTINUOUS
  5
156
 10
434.067258
 20
569.83176
 30
0.0
 11
445.067258
 21
580.83176
 31
0.0
  0
LINE
  8
LC-004-005-----0
  6
CONTINUOUS
  5
157
 10
434.067258
 20
578.317041
 30
0.0
 11
450.058509
 21
594.308292
 31
0.0
  0
LINE
  8
LC-004-005-----0
  6
CONTINUOUS
  5
158
 10
432.133494
 20
584.868559
 30
0.0
 11
442.329365
 21
595.06443
 31
0.0
  0
LINE
  8
LC-004-005-----0
  6
CONTINUOUS
  5
159
 10
423.851828
 20
585.072174
 30
0.0
 11
437.067258
 21
598.287604
 31
0.0
  0
LINE
  8
LC-004-005-----0
  6
CONTINUOUS
  5
15A
 10
421.067258
 20
590.772885
 30
0.0
 11
437.067258
 21
606.772885
 31
0.0
  0
LINE
  8
LC-004-005-----0
  6
CONTINUOUS
  5
15B
 10
423.15131
 20
601.342219
 30
0.0
 11
436.381281
 21
614.57219
 31
0.0
  0
LINE
  8
LC-004-005-----0
  6
CONTINUOUS
  5
15C
 10
426.257138
 20
612.933329
 30
0.0
 11
428.388239
 21
615.06443
 31
0.0
  0
ENDBLK
  8
0
  5
15D
  0
BLOCK
  8
0
  5
15F
  2
*X18
 70
    65
 10
449.612258
 20
463.641947
 30
0.0
  3
*X18
  0
LINE
  8
LC-004-005-----0
  6
CONTINUOUS
  5
160
 10
452.321008
 20
585.711747
 30
0.0
 11
450.968325
 21
587.06443
 31
0.0
  0
LINE
  8
LC-004-005-----0
  6
CONTINUOUS
  5
161
 10
452.321008
 20
582.88332
 30
0.0
 11
449.612258
 21
585.59207
 31
0.0
  0
LINE
  8
LC-004-005-----0
  6
CONTINUOUS
  5
162
 10
452.321008
 20
580.054893
 30
0.0
 11
449.612258
 21
582.763643
 31
0.0
  0
LINE
  8
LC-004-005-----0
  6
CONTINUOUS
  5
163
 10
452.321008
 20
577.226466
 30
0.0
 11
449.612258
 21
579.935216
 31
0.0
  0
LINE
  8
LC-004-005-----0
  6
CONTINUOUS
  5
164
 10
452.321008
 20
574.398039
 30
0.0
 11
449.612258
 21
577.106789
 31
0.0
  0
LINE
  8
LC-004-005-----0
  6
CONTINUOUS
  5
165
 10
459.485527
 20
564.405092
 30
0.0
 11
459.26092
 21
564.629699
 31
0.0
  0
LINE
  8
LC-004-005-----0
  6
CONTINUOUS
  5
166
 10
452.321008
 20
571.569612
 30
0.0
 11
449.612258
 21
574.278362
 31
0.0
  0
LINE
  8
LC-004-005-----0
  6
CONTINUOUS
  5
167
 10
459.954758
 20
561.107434
 30
0.0
 11
455.963262
 21
565.09893
 31
0.0
  0
LINE
  8
LC-004-005-----0
  6
CONTINUOUS
  5
168
 10
452.321008
 20
568.741184
 30
0.0
 11
449.612258
 21
571.449934
 31
0.0
  0
LINE
  8
LC-004-005-----0
  6
CONTINUOUS
  5
169
 10
459.954758
 20
558.279007
 30
0.0
 11
457.098258
 21
561.135507
 31
0.0
  0
LINE
  8
LC-004-005-----0
  6
CONTINUOUS
  5
16A
 10
456.089835
 20
562.14393
 30
0.0
 11
453.116417
 21
565.117348
 31
0.0
  0
LINE
  8
LC-004-005-----0
  6
CONTINUOUS
  5
16B
 10
452.339426
 20
565.894339
 30
0.0
 11
449.612258
 21
568.621507
 31
0.0
  0
LINE
  8
LC-004-005-----0
  6
CONTINUOUS
  5
16C
 10
459.954758
 20
555.45058
 30
0.0
 11
457.098258
 21
558.30708
 31
0.0
  0
LINE
  8
LC-004-005-----0
  6
CONTINUOUS
  5
16D
 10
453.261408
 20
562.14393
 30
0.0
 11
449.612258
 21
565.79308
 31
0.0
  0
LINE
  8
LC-004-005-----0
  6
CONTINUOUS
  5
16E
 10
459.954758
 20
552.622153
 30
0.0
 11
456.220908
 21
556.356003
 31
0.0
  0
LINE
  8
LC-004-005-----0
  6
CONTINUOUS
  5
16F
 10
459.954758
 20
549.793726
 30
0.0
 11
453.990198
 21
555.758286
 31
0.0
  0
LINE
  8
LC-004-005-----0
  6
CONTINUOUS
  5
170
 10
459.954758
 20
546.965299
 30
0.0
 11
457.098258
 21
549.821799
 31
0.0
  0
LINE
  8
LC-004-005-----0
  6
CONTINUOUS
  5
171
 10
453.991194
 20
552.928863
 30
0.0
 11
453.306008
 21
553.614049
 31
0.0
  0
LINE
  8
LC-004-005-----0
  6
CONTINUOUS
  5
172
 10
459.954758
 20
544.136872
 30
0.0
 11
457.007566
 21
547.084064
 31
0.0
  0
LINE
  8
LC-004-005-----0
  6
CONTINUOUS
  5
173
 10
459.954758
 20
541.308445
 30
0.0
 11
455.066517
 21
546.196685
 31
0.0
  0
LINE
  8
LC-004-005-----0
  6
CONTINUOUS
  5
174
 10
459.954758
 20
538.480017
 30
0.0
 11
457.098258
 21
541.336517
 31
0.0
  0
LINE
  8
LC-004-005-----0
  6
CONTINUOUS
  5
175
 10
455.855434
 20
542.579341
 30
0.0
 11
453.306008
 21
545.128767
 31
0.0
  0
LINE
  8
LC-004-005-----0
  6
CONTINUOUS
  5
176
 10
459.954758
 20
535.65159
 30
0.0
 11
457.098258
 21
538.50809
 31
0.0
  0
LINE
  8
LC-004-005-----0
  6
CONTINUOUS
  5
177
 10
459.954758
 20
532.823163
 30
0.0
 11
456.142837
 21
536.635084
 31
0.0
  0
LINE
  8
LC-004-005-----0
  6
CONTINUOUS
  5
178
 10
459.954758
 20
529.994736
 30
0.0
 11
453.912127
 21
536.037367
 31
0.0
  0
LINE
  8
LC-004-005-----0
  6
CONTINUOUS
  5
179
 10
459.954758
 20
527.166309
 30
0.0
 11
457.098258
 21
530.022809
 31
0.0
  0
LINE
  8
LC-004-005-----0
  6
CONTINUOUS
  5
17A
 10
453.855971
 20
533.265096
 30
0.0
 11
453.306008
 21
533.815059
 31
0.0
  0
LINE
  8
LC-004-005-----0
  6
CONTINUOUS
  5
17B
 10
459.954758
 20
524.337882
 30
0.0
 11
456.974227
 21
527.318412
 31
0.0
  0
LINE
  8
LC-004-005-----0
  6
CONTINUOUS
  5
17C
 10
459.954758
 20
521.509455
 30
0.0
 11
454.988446
 21
526.475766
 31
0.0
  0
LINE
  8
LC-004-005-----0
  6
CONTINUOUS
  5
17D
 10
459.954758
 20
518.681028
 30
0.0
 11
457.098258
 21
521.537528
 31
0.0
  0
LINE
  8
LC-004-005-----0
  6
CONTINUOUS
  5
17E
 10
455.720211
 20
522.915574
 30
0.0
 11
453.306008
 21
525.329778
 31
0.0
  0
LINE
  8
LC-004-005-----0
  6
CONTINUOUS
  5
17F
 10
459.954758
 20
515.8526
 30
0.0
 11
457.098258
 21
518.7091
 31
0.0
  0
LINE
  8
LC-004-005-----0
  6
CONTINUOUS
  5
180
 10
459.954758
 20
513.024173
 30
0.0
 11
456.064766
 21
516.914165
 31
0.0
  0
LINE
  8
LC-004-005-----0
  6
CONTINUOUS
  5
181
 10
459.954758
 20
510.195746
 30
0.0
 11
453.834056
 21
516.316448
 31
0.0
  0
LINE
  8
LC-004-005-----0
  6
CONTINUOUS
  5
182
 10
459.954758
 20
507.367319
 30
0.0
 11
457.098258
 21
510.223819
 31
0.0
  0
LINE
  8
LC-004-005-----0
  6
CONTINUOUS
  5
183
 10
453.720748
 20
513.601328
 30
0.0
 11
453.306008
 21
514.016069
 31
0.0
  0
LINE
  8
LC-004-005-----0
  6
CONTINUOUS
  5
184
 10
459.954758
 20
504.538892
 30
0.0
 11
456.936926
 21
507.556724
 31
0.0
  0
LINE
  8
LC-004-005-----0
  6
CONTINUOUS
  5
185
 10
459.954758
 20
501.710465
 30
0.0
 11
454.910376
 21
506.754847
 31
0.0
  0
LINE
  8
LC-004-005-----0
  6
CONTINUOUS
  5
186
 10
459.954758
 20
498.882038
 30
0.0
 11
457.098258
 21
501.738538
 31
0.0
  0
LINE
  8
LC-004-005-----0
  6
CONTINUOUS
  5
187
 10
455.584989
 20
503.251807
 30
0.0
 11
453.306008
 21
505.530788
 31
0.0
  0
LINE
  8
LC-004-005-----0
  6
CONTINUOUS
  5
188
 10
459.954758
 20
496.053611
 30
0.0
 11
457.098258
 21
498.910111
 31
0.0
  0
LINE
  8
LC-004-005-----0
  6
CONTINUOUS
  5
189
 10
459.954758
 20
493.225183
 30
0.0
 11
455.986695
 21
497.193246
 31
0.0
  0
LINE
  8
LC-004-005-----0
  6
CONTINUOUS
  5
18A
 10
459.954758
 20
490.396756
 30
0.0
 11
453.755985
 21
496.595529
 31
0.0
  0
LINE
  8
LC-004-005-----0
  6
CONTINUOUS
  5
18B
 10
459.954758
 20
487.568329
 30
0.0
 11
457.098258
 21
490.424829
 31
0.0
  0
LINE
  8
LC-004-005-----0
  6
CONTINUOUS
  5
18C
 10
453.585526
 20
493.937561
 30
0.0
 11
453.306008
 21
494.217079
 31
0.0
  0
LINE
  8
LC-004-005-----0
  6
CONTINUOUS
  5
18D
 10
459.954758
 20
484.739902
 30
0.0
 11
456.89587
 21
487.798789
 31
0.0
  0
LINE
  8
LC-004-005-----0
  6
CONTINUOUS
  5
18E
 10
459.954758
 20
481.911475
 30
0.0
 11
454.832305
 21
487.033928
 31
0.0
  0
LINE
  8
LC-004-005-----0
  6
CONTINUOUS
  5
18F
 10
459.954758
 20
479.083048
 30
0.0
 11
457.098258
 21
481.939548
 31
0.0
  0
LINE
  8
LC-004-005-----0
  6
CONTINUOUS
  5
190
 10
455.449766
 20
483.588039
 30
0.0
 11
453.306008
 21
485.731798
 31
0.0
  0
LINE
  8
LC-004-005-----0
  6
CONTINUOUS
  5
191
 10
459.954758
 20
476.254621
 30
0.0
 11
457.098258
 21
479.111121
 31
0.0
  0
LINE
  8
LC-004-005-----0
  6
CONTINUOUS
  5
192
 10
459.954758
 20
473.426194
 30
0.0
 11
455.908624
 21
477.472327
 31
0.0
  0
LINE
  8
LC-004-005-----0
  6
CONTINUOUS
  5
193
 10
459.954758
 20
470.597766
 30
0.0
 11
453.677914
 21
476.87461
 31
0.0
  0
LINE
  8
LC-004-005-----0
  6
CONTINUOUS
  5
194
 10
459.954758
 20
467.769339
 30
0.0
 11
457.098258
 21
470.625839
 31
0.0
  0
LINE
  8
LC-004-005-----0
  6
CONTINUOUS
  5
195
 10
453.450303
 20
474.273794
 30
0.0
 11
453.306008
 21
474.418089
 31
0.0
  0
LINE
  8
LC-004-005-----0
  6
CONTINUOUS
  5
196
 10
459.954758
 20
464.940912
 30
0.0
 11
456.851198
 21
468.044472
 31
0.0
  0
LINE
  8
LC-004-005-----0
  6
CONTINUOUS
  5
197
 10
458.425295
 20
463.641947
 30
0.0
 11
454.754234
 21
467.313009
 31
0.0
  0
LINE
  8
LC-004-005-----0
  6
CONTINUOUS
  5
198
 10
455.314543
 20
463.924272
 30
0.0
 11
453.306008
 21
465.932808
 31
0.0
  0
ENDBLK
  8
0
  5
199
  0
BLOCK
  8
0
  5
19B
  2
*X19
 70
    65
 10
651.067258
 20
558.06443
 30
0.0
  3
*X19
  0
LINE
  8
LC-004-005-----0
  6
CONTINUOUS
  5
19C
 10
659.887806
 20
558.06443
 30
0.0
 11
668.067258
 21
566.243881
 31
0.0
  0
LINE
  8
LC-004-005-----0
  6
CONTINUOUS
  5
19D
 10
657.067258
 20
563.729162
 30
0.0
 11
668.067258
 21
574.729162
 31
0.0
  0
LINE
  8
LC-004-005-----0
  6
CONTINUOUS
  5
19E
 10
678.423785
 20
585.08569
 30
0.0
 11
681.045997
 21
587.707902
 31
0.0
  0
LINE
  8
LC-004-005-----0
  6
CONTINUOUS
  5
19F
 10
657.067258
 20
572.214444
 30
0.0
 11
668.551404
 21
583.698591
 31
0.0
  0
LINE
  8
LC-004-005-----0
  6
CONTINUOUS
  5
1A0
 10
669.433097
 20
584.580283
 30
0.0
 11
680.507244
 21
595.65443
 31
0.0
  0
LINE
  8
LC-004-005-----0
  6
CONTINUOUS
  5
1A1
 10
657.067258
 20
580.699725
 30
0.0
 11
678.714093
 21
602.34656
 31
0.0
  0
LINE
  8
LC-004-005-----0
  6
CONTINUOUS
  5
1A2
 10
654.946681
 20
587.06443
 30
0.0
 11
663.14818
 21
595.265929
 31
0.0
  0
LINE
  8
LC-004-005-----0
  6
CONTINUOUS
  5
1A3
 10
664.865759
 20
596.983508
 30
0.0
 11
676.920942
 21
609.038691
 31
0.0
  0
LINE
  8
LC-004-005-----0
  6
CONTINUOUS
  5
1A4
 10
651.067258
 20
591.670288
 30
0.0
 11
654.461399
 21
595.06443
 31
0.0
  0
LINE
  8
LC-004-005-----0
  6
CONTINUOUS
  5
1A5
 10
665.067258
 20
605.670288
 30
0.0
 11
674.369855
 21
614.972886
 31
0.0
  0
ENDBLK
  8
0
  5
1A6
  0
BLOCK
  8
0
  5
1A8
  2
*X20
 70
    65
 10
642.179758
 20
463.641947
 30
0.0
  3
*X20
  0
LINE
  8
LC-004-005-----0
  6
CONTINUOUS
  5
1A9
 10
652.522258
 20
586.328823
 30
0.0
 11
651.786651
 21
587.06443
 31
0.0
  0
LINE
  8
LC-004-005-----0
  6
CONTINUOUS
  5
1AA
 10
652.522258
 20
583.500396
 30
0.0
 11
649.813508
 21
586.209146
 31
0.0
  0
LINE
  8
LC-004-005-----0
  6
CONTINUOUS
  5
1AB
 10
652.522258
 20
580.671969
 30
0.0
 11
649.813508
 21
583.380719
 31
0.0
  0
LINE
  8
LC-004-005-----0
  6
CONTINUOUS
  5
1AC
 10
652.522258
 20
577.843542
 30
0.0
 11
649.813508
 21
580.552292
 31
0.0
  0
LINE
  8
LC-004-005-----0
  6
CONTINUOUS
  5
1AD
 10
652.522258
 20
575.015115
 30
0.0
 11
649.813508
 21
577.723865
 31
0.0
  0
LINE
  8
LC-004-005-----0
  6
CONTINUOUS
  5
1AE
 10
652.522258
 20
572.186687
 30
0.0
 11
649.813508
 21
574.895437
 31
0.0
  0
LINE
  8
LC-004-005-----0
  6
CONTINUOUS
  5
1AF
 10
652.522258
 20
569.35826
 30
0.0
 11
649.813508
 21
572.06701
 31
0.0
  0
LINE
  8
LC-004-005-----0
  6
CONTINUOUS
  5
1B0
 10
652.522258
 20
566.529833
 30
0.0
 11
649.813508
 21
569.238583
 31
0.0
  0
LINE
  8
LC-004-005-----0
  6
CONTINUOUS
  5
1B1
 10
652.395904
 20
563.82776
 30
0.0
 11
649.813508
 21
566.410156
 31
0.0
  0
LINE
  8
LC-004-005-----0
  6
CONTINUOUS
  5
1B2
 10
651.045431
 20
562.349805
 30
0.0
 11
648.296307
 21
565.09893
 31
0.0
  0
LINE
  8
LC-004-005-----0
  6
CONTINUOUS
  5
1B3
 10
648.42288
 20
562.14393
 30
0.0
 11
645.46788
 21
565.09893
 31
0.0
  0
LINE
  8
LC-004-005-----0
  6
CONTINUOUS
  5
1B4
 10
645.66222
 20
562.076163
 30
0.0
 11
643.005698
 21
564.732684
 31
0.0
  0
LINE
  8
LC-004-005-----0
  6
CONTINUOUS
  5
1B5
 10
645.036258
 20
559.873698
 30
0.0
 11
642.179758
 21
562.730198
 31
0.0
  0
LINE
  8
LC-004-005-----0
  6
CONTINUOUS
  5
1B6
 10
648.828508
 20
553.25302
 30
0.0
 11
645.644877
 21
556.436651
 31
0.0
  0
LINE
  8
LC-004-005-----0
  6
CONTINUOUS
  5
1B7
 10
645.111003
 20
556.970525
 30
0.0
 11
642.179758
 21
559.90177
 31
0.0
  0
LINE
  8
LC-004-005-----0
  6
CONTINUOUS
  5
1B8
 10
646.708656
 20
552.544445
 30
0.0
 11
642.179758
 21
557.073343
 31
0.0
  0
LINE
  8
LC-004-005-----0
  6
CONTINUOUS
  5
1B9
 10
645.03737
 20
551.387304
 30
0.0
 11
642.179758
 21
554.244916
 31
0.0
  0
LINE
  8
LC-004-005-----0
  6
CONTINUOUS
  5
1BA
 10
648.828508
 20
544.767739
 30
0.0
 11
647.520922
 21
546.075324
 31
0.0
  0
LINE
  8
LC-004-005-----0
  6
CONTINUOUS
  5
1BB
 10
645.036258
 20
548.559989
 30
0.0
 11
642.179758
 21
551.416489
 31
0.0
  0
LINE
  8
LC-004-005-----0
  6
CONTINUOUS
  5
1BC
 10
647.784975
 20
542.982844
 30
0.0
 11
642.179758
 21
548.588062
 31
0.0
  0
LINE
  8
LC-004-005-----0
  6
CONTINUOUS
  5
1BD
 10
645.5722
 20
542.367193
 30
0.0
 11
642.179758
 21
545.759635
 31
0.0
  0
LINE
  8
LC-004-005-----0
  6
CONTINUOUS
  5
1BE
 10
645.036258
 20
540.074708
 30
0.0
 11
642.179758
 21
542.931208
 31
0.0
  0
LINE
  8
LC-004-005-----0
  6
CONTINUOUS
  5
1BF
 10
648.828508
 20
533.454031
 30
0.0
 11
645.400024
 21
536.882514
 31
0.0
  0
LINE
  8
LC-004-005-----0
  6
CONTINUOUS
  5
1C0
 10
645.256866
 20
537.025672
 30
0.0
 11
642.179758
 21
540.102781
 31
0.0
  0
LINE
  8
LC-004-005-----0
  6
CONTINUOUS
  5
1C1
 10
646.630585
 20
532.823526
 30
0.0
 11
642.179758
 21
537.274353
 31
0.0
  0
LINE
  8
LC-004-005-----0
  6
CONTINUOUS
  5
1C2
 10
645.036258
 20
531.589426
 30
0.0
 11
642.179758
 21
534.445926
 31
0.0
  0
LINE
  8
LC-004-005-----0
  6
CONTINUOUS
  5
1C3
 10
648.828508
 20
524.968749
 30
0.0
 11
647.3857
 21
526.411557
 31
0.0
  0
LINE
  8
LC-004-005-----0
  6
CONTINUOUS
  5
1C4
 10
645.036258
 20
528.760999
 30
0.0
 11
642.179758
 21
531.617499
 31
0.0
  0
LINE
  8
LC-004-005-----0
  6
CONTINUOUS
  5
1C5
 10
647.706904
 20
523.261925
 30
0.0
 11
642.179758
 21
528.789072
 31
0.0
  0
LINE
  8
LC-004-005-----0
  6
CONTINUOUS
  5
1C6
 10
645.508735
 20
522.631668
 30
0.0
 11
642.179758
 21
525.960645
 31
0.0
  0
LINE
  8
LC-004-005-----0
  6
CONTINUOUS
  5
1C7
 10
645.036258
 20
520.275718
 30
0.0
 11
642.179758
 21
523.132218
 31
0.0
  0
LINE
  8
LC-004-005-----0
  6
CONTINUOUS
  5
1C8
 10
648.783224
 20
513.700324
 30
0.0
 11
642.179758
 21
520.303791
 31
0.0
  0
LINE
  8
LC-004-005-----0
  6
CONTINUOUS
  5
1C9
 10
646.552514
 20
513.102607
 30
0.0
 11
642.179758
 21
517.475364
 31
0.0
  0
LINE
  8
LC-004-005-----0
  6
CONTINUOUS
  5
1CA
 10
645.036258
 20
511.790436
 30
0.0
 11
642.179758
 21
514.646936
 31
0.0
  0
LINE
  8
LC-004-005-----0
  6
CONTINUOUS
  5
1CB
 10
648.828508
 20
505.169759
 30
0.0
 11
647.250477
 21
506.74779
 31
0.0
  0
LINE
  8
LC-004-005-----0
  6
CONTINUOUS
  5
1CC
 10
645.036258
 20
508.962009
 30
0.0
 11
642.179758
 21
511.818509
 31
0.0
  0
LINE
  8
LC-004-005-----0
  6
CONTINUOUS
  5
1CD
 10
647.628834
 20
503.541006
 30
0.0
 11
642.179758
 21
508.990082
 31
0.0
  0
LINE
  8
LC-004-005-----0
  6
CONTINUOUS
  5
1CE
 10
645.44911
 20
502.892303
 30
0.0
 11
642.179758
 21
506.161655
 31
0.0
  0
LINE
  8
LC-004-005-----0
  6
CONTINUOUS
  5
1CF
 10
645.036258
 20
500.476728
 30
0.0
 11
642.179758
 21
503.333228
 31
0.0
  0
LINE
  8
LC-004-005-----0
  6
CONTINUOUS
  5
1D0
 10
648.705153
 20
493.979405
 30
0.0
 11
642.179758
 21
500.504801
 31
0.0
  0
LINE
  8
LC-004-005-----0
  6
CONTINUOUS
  5
1D1
 10
646.474443
 20
493.381688
 30
0.0
 11
642.179758
 21
497.676374
 31
0.0
  0
LINE
  8
LC-004-005-----0
  6
CONTINUOUS
  5
1D2
 10
645.036258
 20
491.991447
 30
0.0
 11
642.179758
 21
494.847947
 31
0.0
  0
LINE
  8
LC-004-005-----0
  6
CONTINUOUS
  5
1D3
 10
648.828508
 20
485.370769
 30
0.0
 11
647.115254
 21
487.084023
 31
0.0
  0
LINE
  8
LC-004-005-----0
  6
CONTINUOUS
  5
1D4
 10
645.036258
 20
489.163019
 30
0.0
 11
642.179758
 21
492.019519
 31
0.0
  0
LINE
  8
LC-004-005-----0
  6
CONTINUOUS
  5
1D5
 10
647.550763
 20
483.820087
 30
0.0
 11
642.179758
 21
489.191092
 31
0.0
  0
LINE
  8
LC-004-005-----0
  6
CONTINUOUS
  5
1D6
 10
645.393155
 20
483.149268
 30
0.0
 11
642.179758
 21
486.362665
 31
0.0
  0
LINE
  8
LC-004-005-----0
  6
CONTINUOUS
  5
1D7
 10
645.036258
 20
480.677738
 30
0.0
 11
642.179758
 21
483.534238
 31
0.0
  0
LINE
  8
LC-004-005-----0
  6
CONTINUOUS
  5
1D8
 10
648.627082
 20
474.258486
 30
0.0
 11
642.179758
 21
480.705811
 31
0.0
  0
LINE
  8
LC-004-005-----0
  6
CONTINUOUS
  5
1D9
 10
646.396372
 20
473.660769
 30
0.0
 11
642.179758
 21
477.877384
 31
0.0
  0
LINE
  8
LC-004-005-----0
  6
CONTINUOUS
  5
1DA
 10
645.036258
 20
472.192457
 30
0.0
 11
642.179758
 21
475.048957
 31
0.0
  0
LINE
  8
LC-004-005-----0
  6
CONTINUOUS
  5
1DB
 10
648.828508
 20
465.57178
 30
0.0
 11
646.980032
 21
467.420255
 31
0.0
  0
LINE
  8
LC-004-005-----0
  6
CONTINUOUS
  5
1DC
 10
645.036258
 20
469.36403
 30
0.0
 11
642.179758
 21
472.22053
 31
0.0
  0
LINE
  8
LC-004-005-----0
  6
CONTINUOUS
  5
1DD
 10
647.472692
 20
464.099168
 30
0.0
 11
642.179758
 21
469.392102
 31
0.0
  0
LINE
  8
LC-004-005-----0
  6
CONTINUOUS
  5
1DE
 10
645.101486
 20
463.641947
 30
0.0
 11
642.179758
 21
466.563675
 31
0.0
  0
LINE
  8
LC-004-005-----0
  6
CONTINUOUS
  5
1DF
 10
642.273058
 20
463.641947
 30
0.0
 11
642.179758
 21
463.735248
 31
0.0
  0
ENDBLK
  8
0
  5
1E0
  0
BLOCK
  8
0
  5
1E2
  2
*X21
 70
    65
 10
652.567258
 20
580.236806
 30
0.0
  3
*X21
  0
LINE
  8
LC-004-005-----0
  6
CONTINUOUS
  5
1E3
 10
655.227918
 20
580.274599
 30
0.0
 11
657.029464
 21
582.076145
 31
0.0
  0
LINE
  8
LC-004-005-----0
  6
DASHED
  5
1E4
 10
653.126811
 20
581.001919
 30
0.0
 11
657.039794
 21
584.914902
 31
0.0
  0
LINE
  8
LC-004-005-----0
  6
DASHED
  5
1E5
 10
652.637943
 20
581.927265
 30
0.0
 11
656.620617
 21
585.909939
 31
0.0
  0
LINE
  8
LC-004-005-----0
  6
CONTINUOUS
  5
1E6
 10
652.570677
 20
584.688426
 30
0.0
 11
654.693261
 21
586.81101
 31
0.0
  0
ENDBLK
  8
0
  5
1E7
  0
BLOCK
  8
0
  5
1E9
  2
*X22
 70
    65
 10
445.067258
 20
580.236806
 30
0.0
  3
*X22
  0
LINE
  8
LC-004-005-----0
  6
DASHED
  5
1EA
 10
446.189535
 20
580.539823
 30
0.0
 11
449.567258
 21
583.917546
 31
0.0
  0
LINE
  8
LC-004-005-----0
  6
DASHED
  5
1EB
 10
445.456848
 20
581.22135
 30
0.0
 11
449.466311
 21
585.230813
 31
0.0
  0
LINE
  8
LC-004-005-----0
  6
CONTINUOUS
  5
1EC
 10
445.067258
 20
583.660187
 30
0.0
 11
448.086074
 21
586.679003
 31
0.0
  0
LINE
  8
LC-004-005-----0
  6
CONTINUOUS
  5
1ED
 10
445.145508
 20
585.152651
 30
0.0
 11
446.729036
 21
586.736179
 31
0.0
  0
ENDBLK
  8
0
  5
1EE
  0
BLOCK
  8
0
  5
1F0
  2
*X23
 70
    65
 10
633.067258
 20
418.789293
 30
0.0
  3
*X23
  0
LINE
  8
LC-004-005-----0
  6
DASHED
  5
1F1
 10
634.036082
 20
419.07562
 30
0.0
 11
637.067258
 21
422.106796
 31
0.0
  0
LINE
  8
LC-004-005-----0
  6
DASHED
  5
1F2
 10
633.335329
 20
419.789081
 30
0.0
 11
636.881845
 21
423.335597
 31
0.0
  0
LINE
  8
LC-004-005-----0
  6
CONTINUOUS
  5
1F3
 10
633.067258
 20
422.349437
 30
0.0
 11
635.207499
 21
424.489678
 31
0.0
  0
ENDBLK
  8
0
  5
1F4
  0
BLOCK
  8
0
  5
1F6
  2
*X24
 70
    65
 10
393.067258
 20
232.641947
 30
0.0
  3
*X24
  0
LINE
  8
LC-004-005-----0
  6
CONTINUOUS
  5
1F7
 10
498.514097
 20
232.641947
 30
0.0
 11
500.067258
 21
234.195108
 31
0.0
  0
LINE
  8
LC-004-005-----0
  6
CONTINUOUS
  5
1F8
 10
496.937581
 20
233.893858
 30
0.0
 11
500.067258
 21
237.023535
 31
0.0
  0
LINE
  8
LC-004-005-----0
  6
CONTINUOUS
  5
1F9
 10
496.339864
 20
236.124568
 30
0.0
 11
500.067258
 21
239.851962
 31
0.0
  0
LINE
  8
LC-004-005-----0
  6
CONTINUOUS
  5
1FA
 10
496.067258
 20
238.680389
 30
0.0
 11
500.067258
 21
242.680389
 31
0.0
  0
LINE
  8
LC-004-005-----0
  6
CONTINUOUS
  5
1FB
 10
496.067258
 20
241.508816
 30
0.0
 11
500.067258
 21
245.508816
 31
0.0
  0
LINE
  8
LC-004-005-----0
  6
CONTINUOUS
  5
1FC
 10
496.067258
 20
244.337243
 30
0.0
 11
500.067258
 21
248.337243
 31
0.0
  0
LINE
  8
LC-004-005-----0
  6
CONTINUOUS
  5
1FD
 10
496.067258
 20
247.165671
 30
0.0
 11
500.067258
 21
251.165671
 31
0.0
  0
LINE
  8
LC-004-005-----0
  6
CONTINUOUS
  5
1FE
 10
496.067258
 20
249.994098
 30
0.0
 11
500.067258
 21
253.994098
 31
0.0
  0
LINE
  8
LC-004-005-----0
  6
CONTINUOUS
  5
1FF
 10
496.067258
 20
252.822525
 30
0.0
 11
500.067258
 21
256.822525
 31
0.0
  0
LINE
  8
LC-004-005-----0
  6
CONTINUOUS
  5
200
 10
496.067258
 20
255.650952
 30
0.0
 11
500.067258
 21
259.650952
 31
0.0
  0
LINE
  8
LC-004-005-----0
  6
CONTINUOUS
  5
201
 10
496.067258
 20
258.479379
 30
0.0
 11
500.067258
 21
262.479379
 31
0.0
  0
LINE
  8
LC-004-005-----0
  6
CONTINUOUS
  5
202
 10
496.067258
 20
261.307806
 30
0.0
 11
500.067258
 21
265.307806
 31
0.0
  0
LINE
  8
LC-004-005-----0
  6
CONTINUOUS
  5
203
 10
496.067258
 20
264.136233
 30
0.0
 11
500.067258
 21
268.136233
 31
0.0
  0
LINE
  8
LC-004-005-----0
  6
CONTINUOUS
  5
204
 10
496.067258
 20
266.96466
 30
0.0
 11
500.067258
 21
270.96466
 31
0.0
  0
LINE
  8
LC-004-005-----0
  6
CONTINUOUS
  5
205
 10
496.067258
 20
269.793088
 30
0.0
 11
500.067258
 21
273.793088
 31
0.0
  0
LINE
  8
LC-004-005-----0
  6
CONTINUOUS
  5
206
 10
496.067258
 20
272.621515
 30
0.0
 11
500.067258
 21
276.621515
 31
0.0
  0
LINE
  8
LC-004-005-----0
  6
CONTINUOUS
  5
207
 10
496.067258
 20
275.449942
 30
0.0
 11
500.067258
 21
279.449942
 31
0.0
  0
LINE
  8
LC-004-005-----0
  6
CONTINUOUS
  5
208
 10
496.067258
 20
278.278369
 30
0.0
 11
500.067258
 21
282.278369
 31
0.0
  0
LINE
  8
LC-004-005-----0
  6
CONTINUOUS
  5
209
 10
496.067258
 20
281.106796
 30
0.0
 11
500.067258
 21
285.106796
 31
0.0
  0
LINE
  8
LC-004-005-----0
  6
CONTINUOUS
  5
20A
 10
496.067258
 20
283.935223
 30
0.0
 11
500.067258
 21
287.935223
 31
0.0
  0
LINE
  8
LC-004-005-----0
  6
CONTINUOUS
  5
20B
 10
496.067258
 20
286.76365
 30
0.0
 11
500.067258
 21
290.76365
 31
0.0
  0
LINE
  8
LC-004-005-----0
  6
CONTINUOUS
  5
20C
 10
496.067258
 20
289.592077
 30
0.0
 11
500.067258
 21
293.592077
 31
0.0
  0
LINE
  8
LC-004-005-----0
  6
CONTINUOUS
  5
20D
 10
496.067258
 20
292.420505
 30
0.0
 11
500.067258
 21
296.420505
 31
0.0
  0
LINE
  8
LC-004-005-----0
  6
CONTINUOUS
  5
20E
 10
495.460273
 20
294.641947
 30
0.0
 11
499.460273
 21
298.641947
 31
0.0
  0
LINE
  8
LC-004-005-----0
  6
CONTINUOUS
  5
20F
 10
492.631846
 20
294.641947
 30
0.0
 11
496.631846
 21
298.641947
 31
0.0
  0
LINE
  8
LC-004-005-----0
  6
CONTINUOUS
  5
210
 10
489.803419
 20
294.641947
 30
0.0
 11
493.803419
 21
298.641947
 31
0.0
  0
LINE
  8
LC-004-005-----0
  6
CONTINUOUS
  5
211
 10
486.974992
 20
294.641947
 30
0.0
 11
490.974992
 21
298.641947
 31
0.0
  0
LINE
  8
LC-004-005-----0
  6
CONTINUOUS
  5
212
 10
484.146565
 20
294.641947
 30
0.0
 11
488.146565
 21
298.641947
 31
0.0
  0
LINE
  8
LC-004-005-----0
  6
CONTINUOUS
  5
213
 10
481.318138
 20
294.641947
 30
0.0
 11
485.318138
 21
298.641947
 31
0.0
  0
LINE
  8
LC-004-005-----0
  6
CONTINUOUS
  5
214
 10
478.48971
 20
294.641947
 30
0.0
 11
482.48971
 21
298.641947
 31
0.0
  0
LINE
  8
LC-004-005-----0
  6
CONTINUOUS
  5
215
 10
475.661283
 20
294.641947
 30
0.0
 11
479.661283
 21
298.641947
 31
0.0
  0
LINE
  8
LC-004-005-----0
  6
CONTINUOUS
  5
216
 10
472.832856
 20
294.641947
 30
0.0
 11
476.832856
 21
298.641947
 31
0.0
  0
LINE
  8
LC-004-005-----0
  6
CONTINUOUS
  5
217
 10
470.89595
 20
295.533468
 30
0.0
 11
474.004429
 21
298.641947
 31
0.0
  0
LINE
  8
LC-004-005-----0
  6
CONTINUOUS
  5
218
 10
469.860674
 20
297.326619
 30
0.0
 11
472.788877
 21
300.254822
 31
0.0
  0
LINE
  8
LC-004-005-----0
  6
CONTINUOUS
  5
219
 10
468.825397
 20
299.11977
 30
0.0
 11
471.862431
 21
302.156803
 31
0.0
  0
LINE
  8
LC-004-005-----0
  6
CONTINUOUS
  5
21A
 10
467.922243
 20
301.045043
 30
0.0
 11
471.701463
 21
304.824263
 31
0.0
  0
LINE
  8
LC-004-005-----0
  6
CONTINUOUS
  5
21B
 10
467.761276
 20
303.712503
 30
0.0
 11
471.540496
 21
307.491723
 31
0.0
  0
LINE
  8
LC-004-005-----0
  6
CONTINUOUS
  5
21C
 10
467.600308
 20
306.379962
 30
0.0
 11
471.379528
 21
310.159182
 31
0.0
  0
LINE
  8
LC-004-005-----0
  6
CONTINUOUS
  5
21D
 10
467.439341
 20
309.047422
 30
0.0
 11
471.218561
 21
312.826642
 31
0.0
  0
LINE
  8
LC-004-005-----0
  6
CONTINUOUS
  5
21E
 10
467.278374
 20
311.714882
 30
0.0
 11
471.057594
 21
315.494102
 31
0.0
  0
LINE
  8
LC-004-005-----0
  6
CONTINUOUS
  5
21F
 10
467.117406
 20
314.382341
 30
0.0
 11
470.896626
 21
318.161561
 31
0.0
  0
LINE
  8
LC-004-005-----0
  6
CONTINUOUS
  5
220
 10
466.956439
 20
317.049801
 30
0.0
 11
470.735659
 21
320.829021
 31
0.0
  0
LINE
  8
LC-004-005-----0
  6
CONTINUOUS
  5
221
 10
466.795471
 20
319.717261
 30
0.0
 11
470.574691
 21
323.496481
 31
0.0
  0
LINE
  8
LC-004-005-----0
  6
CONTINUOUS
  5
222
 10
466.634504
 20
322.384721
 30
0.0
 11
470.413724
 21
326.163941
 31
0.0
  0
LINE
  8
LC-004-005-----0
  6
CONTINUOUS
  5
223
 10
466.473537
 20
325.05218
 30
0.0
 11
470.252757
 21
328.8314
 31
0.0
  0
LINE
  8
LC-004-005-----0
  6
CONTINUOUS
  5
224
 10
466.312569
 20
327.71964
 30
0.0
 11
470.091789
 21
331.49886
 31
0.0
  0
LINE
  8
LC-004-005-----0
  6
CONTINUOUS
  5
225
 10
466.151602
 20
330.3871
 30
0.0
 11
469.930822
 21
334.16632
 31
0.0
  0
LINE
  8
LC-004-005-----0
  6
CONTINUOUS
  5
226
 10
465.990634
 20
333.05456
 30
0.0
 11
469.769854
 21
336.83378
 31
0.0
  0
LINE
  8
LC-004-005-----0
  6
CONTINUOUS
  5
227
 10
465.829667
 20
335.722019
 30
0.0
 11
469.608887
 21
339.501239
 31
0.0
  0
LINE
  8
LC-004-005-----0
  6
CONTINUOUS
  5
228
 10
465.6687
 20
338.389479
 30
0.0
 11
469.44792
 21
342.168699
 31
0.0
  0
LINE
  8
LC-004-005-----0
  6
CONTINUOUS
  5
229
 10
465.507732
 20
341.056939
 30
0.0
 11
469.286952
 21
344.836159
 31
0.0
  0
LINE
  8
LC-004-005-----0
  6
CONTINUOUS
  5
22A
 10
465.346765
 20
343.724398
 30
0.0
 11
469.125985
 21
347.503618
 31
0.0
  0
LINE
  8
LC-004-005-----0
  6
CONTINUOUS
  5
22B
 10
465.185797
 20
346.391858
 30
0.0
 11
468.965017
 21
350.171078
 31
0.0
  0
LINE
  8
LC-004-005-----0
  6
CONTINUOUS
  5
22C
 10
465.02483
 20
349.059318
 30
0.0
 11
468.80405
 21
352.838538
 31
0.0
  0
LINE
  8
LC-004-005-----0
  6
CONTINUOUS
  5
22D
 10
464.863863
 20
351.726778
 30
0.0
 11
468.643083
 21
355.505998
 31
0.0
  0
LINE
  8
LC-004-005-----0
  6
CONTINUOUS
  5
22E
 10
464.702895
 20
354.394237
 30
0.0
 11
468.482115
 21
358.173457
 31
0.0
  0
LINE
  8
LC-004-005-----0
  6
CONTINUOUS
  5
22F
 10
464.541928
 20
357.061697
 30
0.0
 11
468.321148
 21
360.840917
 31
0.0
  0
LINE
  8
LC-004-005-----0
  6
CONTINUOUS
  5
230
 10
464.38096
 20
359.729157
 30
0.0
 11
468.16018
 21
363.508377
 31
0.0
  0
LINE
  8
LC-004-005-----0
  6
CONTINUOUS
  5
231
 10
464.219993
 20
362.396617
 30
0.0
 11
467.999213
 21
366.175837
 31
0.0
  0
LINE
  8
LC-004-005-----0
  6
CONTINUOUS
  5
232
 10
464.059026
 20
365.064076
 30
0.0
 11
467.838246
 21
368.843296
 31
0.0
  0
LINE
  8
LC-004-005-----0
  6
CONTINUOUS
  5
233
 10
463.898058
 20
367.731536
 30
0.0
 11
467.677278
 21
371.510756
 31
0.0
  0
LINE
  8
LC-004-005-----0
  6
CONTINUOUS
  5
234
 10
463.737091
 20
370.398996
 30
0.0
 11
467.516311
 21
374.178216
 31
0.0
  0
LINE
  8
LC-004-005-----0
  6
CONTINUOUS
  5
235
 10
463.576123
 20
373.066455
 30
0.0
 11
467.355343
 21
376.845675
 31
0.0
  0
LINE
  8
LC-004-005-----0
  6
CONTINUOUS
  5
236
 10
463.415156
 20
375.733915
 30
0.0
 11
467.194376
 21
379.513135
 31
0.0
  0
LINE
  8
LC-004-005-----0
  6
CONTINUOUS
  5
237
 10
463.254189
 20
378.401375
 30
0.0
 11
467.033409
 21
382.180595
 31
0.0
  0
LINE
  8
LC-004-005-----0
  6
CONTINUOUS
  5
238
 10
463.093221
 20
381.068835
 30
0.0
 11
466.872441
 21
384.848055
 31
0.0
  0
LINE
  8
LC-004-005-----0
  6
CONTINUOUS
  5
239
 10
462.932254
 20
383.736294
 30
0.0
 11
466.711474
 21
387.515514
 31
0.0
  0
LINE
  8
LC-004-005-----0
  6
CONTINUOUS
  5
23A
 10
462.771286
 20
386.403754
 30
0.0
 11
466.550506
 21
390.182974
 31
0.0
  0
LINE
  8
LC-004-005-----0
  6
CONTINUOUS
  5
23B
 10
462.610319
 20
389.071214
 30
0.0
 11
466.389539
 21
392.850434
 31
0.0
  0
LINE
  8
LC-004-005-----0
  6
CONTINUOUS
  5
23C
 10
462.449352
 20
391.738674
 30
0.0
 11
466.228572
 21
395.517894
 31
0.0
  0
LINE
  8
LC-004-005-----0
  6
CONTINUOUS
  5
23D
 10
462.288384
 20
394.406133
 30
0.0
 11
466.067604
 21
398.185353
 31
0.0
  0
LINE
  8
LC-004-005-----0
  6
CONTINUOUS
  5
23E
 10
462.127417
 20
397.073593
 30
0.0
 11
465.906637
 21
400.852813
 31
0.0
  0
LINE
  8
LC-004-005-----0
  6
CONTINUOUS
  5
23F
 10
461.96645
 20
399.741053
 30
0.0
 11
465.74567
 21
403.520273
 31
0.0
  0
LINE
  8
LC-004-005-----0
  6
CONTINUOUS
  5
240
 10
461.805482
 20
402.408512
 30
0.0
 11
465.584702
 21
406.187732
 31
0.0
  0
LINE
  8
LC-004-005-----0
  6
CONTINUOUS
  5
241
 10
461.644515
 20
405.075972
 30
0.0
 11
465.423735
 21
408.855192
 31
0.0
  0
LINE
  8
LC-004-005-----0
  6
CONTINUOUS
  5
242
 10
461.483547
 20
407.743432
 30
0.0
 11
465.262767
 21
411.522652
 31
0.0
  0
LINE
  8
LC-004-005-----0
  6
CONTINUOUS
  5
243
 10
461.32258
 20
410.410892
 30
0.0
 11
465.1018
 21
414.190112
 31
0.0
  0
LINE
  8
LC-004-005-----0
  6
CONTINUOUS
  5
244
 10
461.161613
 20
413.078351
 30
0.0
 11
465.073292
 21
416.990031
 31
0.0
  0
LINE
  8
LC-004-005-----0
  6
CONTINUOUS
  5
245
 10
461.067258
 20
415.812424
 30
0.0
 11
465.071828
 21
419.816994
 31
0.0
  0
LINE
  8
LC-004-005-----0
  6
CONTINUOUS
  5
246
 10
461.067258
 20
418.640851
 30
0.0
 11
465.070364
 21
422.643957
 31
0.0
  0
LINE
  8
LC-004-005-----0
  6
CONTINUOUS
  5
247
 10
461.067258
 20
421.469278
 30
0.0
 11
465.0689
 21
425.47092
 31
0.0
  0
LINE
  8
LC-004-005-----0
  6
CONTINUOUS
  5
248
 10
461.067258
 20
424.297705
 30
0.0
 11
465.067436
 21
428.297883
 31
0.0
  0
LINE
  8
LC-004-005-----0
  6
CONTINUOUS
  5
249
 10
459.100174
 20
425.159049
 30
0.0
 11
462.583073
 21
428.641947
 31
0.0
  0
LINE
  8
LC-004-005-----0
  6
CONTINUOUS
  5
24A
 10
457.659722
 20
426.547024
 30
0.0
 11
461.067258
 21
429.954559
 31
0.0
  0
LINE
  8
LC-004-005-----0
  6
CONTINUOUS
  5
24B
 10
457.067258
 20
428.782986
 30
0.0
 11
461.067258
 21
432.782986
 31
0.0
  0
LINE
  8
LC-004-005-----0
  6
CONTINUOUS
  5
24C
 10
457.067258
 20
431.611413
 30
0.0
 11
461.067258
 21
435.611413
 31
0.0
  0
LINE
  8
LC-004-005-----0
  6
CONTINUOUS
  5
24D
 10
457.067258
 20
434.439841
 30
0.0
 11
461.067258
 21
438.439841
 31
0.0
  0
LINE
  8
LC-004-005-----0
  6
CONTINUOUS
  5
24E
 10
457.067258
 20
437.268268
 30
0.0
 11
461.067258
 21
441.268268
 31
0.0
  0
LINE
  8
LC-004-005-----0
  6
CONTINUOUS
  5
24F
 10
457.067258
 20
440.096695
 30
0.0
 11
461.067258
 21
444.096695
 31
0.0
  0
LINE
  8
LC-004-005-----0
  6
CONTINUOUS
  5
250
 10
457.067258
 20
442.925122
 30
0.0
 11
461.067258
 21
446.925122
 31
0.0
  0
LINE
  8
LC-004-005-----0
  6
CONTINUOUS
  5
251
 10
457.067258
 20
445.753549
 30
0.0
 11
461.067258
 21
449.753549
 31
0.0
  0
LINE
  8
LC-004-005-----0
  6
CONTINUOUS
  5
252
 10
457.067258
 20
448.581976
 30
0.0
 11
461.067258
 21
452.581976
 31
0.0
  0
LINE
  8
LC-004-005-----0
  6
CONTINUOUS
  5
253
 10
457.067258
 20
451.410403
 30
0.0
 11
461.067258
 21
455.410403
 31
0.0
  0
LINE
  8
LC-004-005-----0
  6
CONTINUOUS
  5
254
 10
457.067258
 20
454.23883
 30
0.0
 11
461.067258
 21
458.23883
 31
0.0
  0
LINE
  8
LC-004-005-----0
  6
CONTINUOUS
  5
255
 10
455.690173
 20
455.690173
 30
0.0
 11
459.641947
 21
459.641947
 31
0.0
  0
LINE
  8
LC-004-005-----0
  6
CONTINUOUS
  5
256
 10
453.447078
 20
456.275505
 30
0.0
 11
456.81352
 21
459.641947
 31
0.0
  0
LINE
  8
LC-004-005-----0
  6
CONTINUOUS
  5
257
 10
451.663918
 20
457.320772
 30
0.0
 11
454.538031
 21
460.194885
 31
0.0
  0
LINE
  8
LC-004-005-----0
  6
CONTINUOUS
  5
258
 10
450.249248
 20
458.734529
 30
0.0
 11
453.122882
 21
461.608163
 31
0.0
  0
LINE
  8
LC-004-005-----0
  6
CONTINUOUS
  5
259
 10
449.202972
 20
460.51668
 30
0.0
 11
452.567258
 21
463.880966
 31
0.0
  0
LINE
  8
LC-004-005-----0
  6
CONTINUOUS
  5
25A
 10
448.616205
 20
462.758341
 30
0.0
 11
452.567258
 21
466.709393
 31
0.0
  0
LINE
  8
LC-004-005-----0
  6
CONTINUOUS
  5
25B
 10
448.567258
 20
465.53782
 30
0.0
 11
452.567258
 21
469.53782
 31
0.0
  0
LINE
  8
LC-004-005-----0
  6
CONTINUOUS
  5
25C
 10
448.567258
 20
468.366247
 30
0.0
 11
452.567258
 21
472.366247
 31
0.0
  0
LINE
  8
LC-004-005-----0
  6
CONTINUOUS
  5
25D
 10
448.567258
 20
471.194675
 30
0.0
 11
452.567258
 21
475.194675
 31
0.0
  0
LINE
  8
LC-004-005-----0
  6
CONTINUOUS
  5
25E
 10
448.567258
 20
474.023102
 30
0.0
 11
452.567258
 21
478.023102
 31
0.0
  0
LINE
  8
LC-004-005-----0
  6
CONTINUOUS
  5
25F
 10
448.567258
 20
476.851529
 30
0.0
 11
452.567258
 21
480.851529
 31
0.0
  0
LINE
  8
LC-004-005-----0
  6
CONTINUOUS
  5
260
 10
434.591146
 20
465.703845
 30
0.0
 11
440.867258
 21
471.979956
 31
0.0
  0
LINE
  8
LC-004-005-----0
  6
CONTINUOUS
  5
261
 10
448.567258
 20
479.679956
 30
0.0
 11
452.567258
 21
483.679956
 31
0.0
  0
LINE
  8
LC-004-005-----0
  6
CONTINUOUS
  5
262
 10
433.176933
 20
467.118058
 30
0.0
 11
435.298253
 21
469.239379
 31
0.0
  0
LINE
  8
LC-004-005-----0
  6
CONTINUOUS
  5
263
 10
437.567258
 20
471.508383
 30
0.0
 11
440.867258
 21
474.808383
 31
0.0
  0
LINE
  8
LC-004-005-----0
  6
CONTINUOUS
  5
264
 10
448.04143
 20
481.982556
 30
0.0
 11
451.700822
 21
485.641947
 31
0.0
  0
LINE
  8
LC-004-005-----0
  6
CONTINUOUS
  5
265
 10
431.762719
 20
468.532272
 30
0.0
 11
433.88404
 21
470.653592
 31
0.0
  0
LINE
  8
LC-004-005-----0
  6
CONTINUOUS
  5
266
 10
437.567258
 20
474.33681
 30
0.0
 11
440.867258
 21
477.63681
 31
0.0
  0
LINE
  8
LC-004-005-----0
  6
CONTINUOUS
  5
267
 10
445.572395
 20
482.341947
 30
0.0
 11
448.872395
 21
485.641947
 31
0.0
  0
LINE
  8
LC-004-005-----0
  6
CONTINUOUS
  5
268
 10
430.348506
 20
469.946486
 30
0.0
 11
433.167258
 21
472.765237
 31
0.0
  0
LINE
  8
LC-004-005-----0
  6
CONTINUOUS
  5
269
 10
437.567258
 20
477.165237
 30
0.0
 11
440.867258
 21
480.465237
 31
0.0
  0
LINE
  8
LC-004-005-----0
  6
CONTINUOUS
  5
26A
 10
442.743968
 20
482.341947
 30
0.0
 11
446.043968
 21
485.641947
 31
0.0
  0
LINE
  8
LC-004-005-----0
  6
CONTINUOUS
  5
26B
 10
429.867258
 20
472.293664
 30
0.0
 11
433.167258
 21
475.593664
 31
0.0
  0
LINE
  8
LC-004-005-----0
  6
CONTINUOUS
  5
26C
 10
437.567258
 20
479.993664
 30
0.0
 11
443.21554
 21
485.641947
 31
0.0
  0
LINE
  8
LC-004-005-----0
  6
CONTINUOUS
  5
26D
 10
429.867258
 20
475.122092
 30
0.0
 11
433.167258
 21
478.422092
 31
0.0
  0
LINE
  8
LC-004-005-----0
  6
CONTINUOUS
  5
26E
 10
437.567258
 20
482.822092
 30
0.0
 11
440.387113
 21
485.641947
 31
0.0
  0
LINE
  8
LC-004-005-----0
  6
CONTINUOUS
  5
26F
 10
429.867258
 20
477.950519
 30
0.0
 11
433.167258
 21
481.250519
 31
0.0
  0
LINE
  8
LC-004-005-----0
  6
CONTINUOUS
  5
270
 10
429.867258
 20
480.778946
 30
0.0
 11
433.167258
 21
484.078946
 31
0.0
  0
LINE
  8
LC-004-005-----0
  6
CONTINUOUS
  5
271
 10
422.601832
 20
476.341947
 30
0.0
 11
426.481777
 21
480.221892
 31
0.0
  0
LINE
  8
LC-004-005-----0
  6
CONTINUOUS
  5
272
 10
428.601832
 20
482.341947
 30
0.0
 11
431.901832
 21
485.641947
 31
0.0
  0
LINE
  8
LC-004-005-----0
  6
CONTINUOUS
  5
273
 10
419.773405
 20
476.341947
 30
0.0
 11
423.573405
 21
480.141947
 31
0.0
  0
LINE
  8
LC-004-005-----0
  6
CONTINUOUS
  5
274
 10
423.667258
 20
480.2358
 30
0.0
 11
429.073405
 21
485.641947
 31
0.0
  0
LINE
  8
LC-004-005-----0
  6
CONTINUOUS
  5
275
 10
416.944978
 20
476.341947
 30
0.0
 11
420.744978
 21
480.141947
 31
0.0
  0
LINE
  8
LC-004-005-----0
  6
CONTINUOUS
  5
276
 10
423.667258
 20
483.064227
 30
0.0
 11
426.244978
 21
485.641947
 31
0.0
  0
LINE
  8
LC-004-005-----0
  6
CONTINUOUS
  5
277
 10
414.531251
 20
476.756648
 30
0.0
 11
417.916551
 21
480.141947
 31
0.0
  0
LINE
  8
LC-004-005-----0
  6
CONTINUOUS
  5
278
 10
413.958557
 20
479.012381
 30
0.0
 11
416.667258
 21
481.721081
 31
0.0
  0
LINE
  8
LC-004-005-----0
  6
CONTINUOUS
  5
279
 10
413.633105
 20
481.515356
 30
0.0
 11
416.667258
 21
484.549509
 31
0.0
  0
LINE
  8
LC-004-005-----0
  6
CONTINUOUS
  5
27A
 10
411.631269
 20
482.341947
 30
0.0
 11
414.931269
 21
485.641947
 31
0.0
  0
LINE
  8
LC-004-005-----0
  6
CONTINUOUS
  5
27B
 10
408.802842
 20
482.341947
 30
0.0
 11
412.102842
 21
485.641947
 31
0.0
  0
LINE
  8
LC-004-005-----0
  6
CONTINUOUS
  5
27C
 10
405.974415
 20
482.341947
 30
0.0
 11
409.274415
 21
485.641947
 31
0.0
  0
LINE
  8
LC-004-005-----0
  6
CONTINUOUS
  5
27D
 10
403.433979
 20
482.629938
 30
0.0
 11
406.445988
 21
485.641947
 31
0.0
  0
LINE
  8
LC-004-005-----0
  6
CONTINUOUS
  5
27E
 10
401.029522
 20
483.053909
 30
0.0
 11
403.909813
 21
485.9342
 31
0.0
  0
LINE
  8
LC-004-005-----0
  6
CONTINUOUS
  5
27F
 10
398.625066
 20
483.47788
 30
0.0
 11
401.505356
 21
486.35817
 31
0.0
  0
LINE
  8
LC-004-005-----0
  6
CONTINUOUS
  5
280
 10
396.220609
 20
483.90185
 30
0.0
 11
399.1009
 21
486.782141
 31
0.0
  0
LINE
  8
LC-004-005-----0
  6
CONTINUOUS
  5
281
 10
393.816153
 20
484.325821
 30
0.0
 11
396.696443
 21
487.206111
 31
0.0
  0
LINE
  8
LC-004-005-----0
  6
CONTINUOUS
  5
282
 10
393.067258
 20
486.405353
 30
0.0
 11
394.291987
 21
487.630082
 31
0.0
  0
ENDBLK
  8
0
  5
283
  0
BLOCK
  8
0
  5
285
  2
*X25
 70
    65
 10
602.067258
 20
232.641947
 30
0.0
  3
*X25
  0
LINE
  8
LC-004-005-----0
  6
CONTINUOUS
  5
286
 10
603.165901
 20
232.641947
 30
0.0
 11
605.482114
 21
234.95816
 31
0.0
  0
LINE
  8
LC-004-005-----0
  6
CONTINUOUS
  5
287
 10
602.067258
 20
234.371731
 30
0.0
 11
606.067258
 21
238.371731
 31
0.0
  0
LINE
  8
LC-004-005-----0
  6
CONTINUOUS
  5
288
 10
602.067258
 20
237.200158
 30
0.0
 11
606.067258
 21
241.200158
 31
0.0
  0
LINE
  8
LC-004-005-----0
  6
CONTINUOUS
  5
289
 10
602.067258
 20
240.028586
 30
0.0
 11
606.067258
 21
244.028586
 31
0.0
  0
LINE
  8
LC-004-005-----0
  6
CONTINUOUS
  5
28A
 10
602.067258
 20
242.857013
 30
0.0
 11
606.067258
 21
246.857013
 31
0.0
  0
LINE
  8
LC-004-005-----0
  6
CONTINUOUS
  5
28B
 10
602.067258
 20
245.68544
 30
0.0
 11
606.067258
 21
249.68544
 31
0.0
  0
LINE
  8
LC-004-005-----0
  6
CONTINUOUS
  5
28C
 10
602.067258
 20
248.513867
 30
0.0
 11
606.067258
 21
252.513867
 31
0.0
  0
LINE
  8
LC-004-005-----0
  6
CONTINUOUS
  5
28D
 10
602.067258
 20
251.342294
 30
0.0
 11
606.067258
 21
255.342294
 31
0.0
  0
LINE
  8
LC-004-005-----0
  6
CONTINUOUS
  5
28E
 10
602.067258
 20
254.170721
 30
0.0
 11
606.067258
 21
258.170721
 31
0.0
  0
LINE
  8
LC-004-005-----0
  6
CONTINUOUS
  5
28F
 10
602.067258
 20
256.999148
 30
0.0
 11
606.067258
 21
260.999148
 31
0.0
  0
LINE
  8
LC-004-005-----0
  6
CONTINUOUS
  5
290
 10
602.067258
 20
259.827575
 30
0.0
 11
606.067258
 21
263.827575
 31
0.0
  0
LINE
  8
LC-004-005-----0
  6
CONTINUOUS
  5
291
 10
602.067258
 20
262.656003
 30
0.0
 11
606.067258
 21
266.656003
 31
0.0
  0
LINE
  8
LC-004-005-----0
  6
CONTINUOUS
  5
292
 10
602.067258
 20
265.48443
 30
0.0
 11
606.067258
 21
269.48443
 31
0.0
  0
LINE
  8
LC-004-005-----0
  6
CONTINUOUS
  5
293
 10
602.067258
 20
268.312857
 30
0.0
 11
606.067258
 21
272.312857
 31
0.0
  0
LINE
  8
LC-004-005-----0
  6
CONTINUOUS
  5
294
 10
628.396348
 20
294.641947
 30
0.0
 11
633.903266
 21
300.148866
 31
0.0
  0
LINE
  8
LC-004-005-----0
  6
CONTINUOUS
  5
295
 10
602.067258
 20
271.141284
 30
0.0
 11
606.067258
 21
275.141284
 31
0.0
  0
LINE
  8
LC-004-005-----0
  6
CONTINUOUS
  5
296
 10
625.567921
 20
294.641947
 30
0.0
 11
634.356206
 21
303.430232
 31
0.0
  0
LINE
  8
LC-004-005-----0
  6
CONTINUOUS
  5
297
 10
602.067258
 20
273.969711
 30
0.0
 11
606.067258
 21
277.969711
 31
0.0
  0
LINE
  8
LC-004-005-----0
  6
CONTINUOUS
  5
298
 10
622.739494
 20
294.641947
 30
0.0
 11
626.739494
 21
298.641947
 31
0.0
  0
LINE
  8
LC-004-005-----0
  6
CONTINUOUS
  5
299
 10
630.273224
 20
302.175677
 30
0.0
 11
634.537848
 21
306.440301
 31
0.0
  0
LINE
  8
LC-004-005-----0
  6
CONTINUOUS
  5
29A
 10
602.067258
 20
276.798138
 30
0.0
 11
606.067258
 21
280.798138
 31
0.0
  0
LINE
  8
LC-004-005-----0
  6
CONTINUOUS
  5
29B
 10
619.911067
 20
294.641947
 30
0.0
 11
623.911067
 21
298.641947
 31
0.0
  0
LINE
  8
LC-004-005-----0
  6
CONTINUOUS
  5
29C
 10
630.454866
 20
305.185746
 30
0.0
 11
634.71949
 21
309.450371
 31
0.0
  0
LINE
  8
LC-004-005-----0
  6
CONTINUOUS
  5
29D
 10
602.067258
 20
279.626565
 30
0.0
 11
606.067258
 21
283.626565
 31
0.0
  0
LINE
  8
LC-004-005-----0
  6
CONTINUOUS
  5
29E
 10
617.08264
 20
294.641947
 30
0.0
 11
621.08264
 21
298.641947
 31
0.0
  0
LINE
  8
LC-004-005-----0
  6
CONTINUOUS
  5
29F
 10
630.636508
 20
308.195816
 30
0.0
 11
634.901132
 21
312.46044
 31
0.0
  0
LINE
  8
LC-004-005-----0
  6
CONTINUOUS
  5
2A0
 10
602.067258
 20
282.454992
 30
0.0
 11
606.067258
 21
286.454992
 31
0.0
  0
LINE
  8
LC-004-005-----0
  6
CONTINUOUS
  5
2A1
 10
614.254212
 20
294.641947
 30
0.0
 11
618.254212
 21
298.641947
 31
0.0
  0
LINE
  8
LC-004-005-----0
  6
CONTINUOUS
  5
2A2
 10
630.81815
 20
311.205885
 30
0.0
 11
635.082774
 21
315.470509
 31
0.0
  0
LINE
  8
LC-004-005-----0
  6
CONTINUOUS
  5
2A3
 10
602.067258
 20
285.28342
 30
0.0
 11
606.067258
 21
289.28342
 31
0.0
  0
LINE
  8
LC-004-005-----0
  6
CONTINUOUS
  5
2A4
 10
611.425785
 20
294.641947
 30
0.0
 11
615.425785
 21
298.641947
 31
0.0
  0
LINE
  8
LC-004-005-----0
  6
CONTINUOUS
  5
2A5
 10
630.999792
 20
314.215954
 30
0.0
 11
635.264416
 21
318.480578
 31
0.0
  0
LINE
  8
LC-004-005-----0
  6
CONTINUOUS
  5
2A6
 10
602.067258
 20
288.111847
 30
0.0
 11
606.067258
 21
292.111847
 31
0.0
  0
LINE
  8
LC-004-005-----0
  6
CONTINUOUS
  5
2A7
 10
608.597358
 20
294.641947
 30
0.0
 11
612.597358
 21
298.641947
 31
0.0
  0
LINE
  8
LC-004-005-----0
  6
CONTINUOUS
  5
2A8
 10
631.181434
 20
317.226023
 30
0.0
 11
635.446058
 21
321.490648
 31
0.0
  0
LINE
  8
LC-004-005-----0
  6
CONTINUOUS
  5
2A9
 10
602.067258
 20
290.940274
 30
0.0
 11
609.768931
 21
298.641947
 31
0.0
  0
LINE
  8
LC-004-005-----0
  6
CONTINUOUS
  5
2AA
 10
631.363076
 20
320.236092
 30
0.0
 11
635.627701
 21
324.500717
 31
0.0
  0
LINE
  8
LC-004-005-----0
  6
CONTINUOUS
  5
2AB
 10
602.067258
 20
293.768701
 30
0.0
 11
606.940504
 21
298.641947
 31
0.0
  0
LINE
  8
LC-004-005-----0
  6
CONTINUOUS
  5
2AC
 10
631.544718
 20
323.246162
 30
0.0
 11
635.809343
 21
327.510786
 31
0.0
  0
LINE
  8
LC-004-005-----0
  6
CONTINUOUS
  5
2AD
 10
602.067258
 20
296.597128
 30
0.0
 11
604.112077
 21
298.641947
 31
0.0
  0
LINE
  8
LC-004-005-----0
  6
CONTINUOUS
  5
2AE
 10
631.72636
 20
326.256231
 30
0.0
 11
635.990985
 21
330.520855
 31
0.0
  0
LINE
  8
LC-004-005-----0
  6
CONTINUOUS
  5
2AF
 10
631.908003
 20
329.2663
 30
0.0
 11
636.172627
 21
333.530925
 31
0.0
  0
LINE
  8
LC-004-005-----0
  6
CONTINUOUS
  5
2B0
 10
632.089645
 20
332.276369
 30
0.0
 11
636.354269
 21
336.540994
 31
0.0
  0
LINE
  8
LC-004-005-----0
  6
CONTINUOUS
  5
2B1
 10
632.271287
 20
335.286439
 30
0.0
 11
636.535911
 21
339.551063
 31
0.0
  0
LINE
  8
LC-004-005-----0
  6
CONTINUOUS
  5
2B2
 10
632.452929
 20
338.296508
 30
0.0
 11
636.717553
 21
342.561132
 31
0.0
  0
LINE
  8
LC-004-005-----0
  6
CONTINUOUS
  5
2B3
 10
632.634571
 20
341.306577
 30
0.0
 11
636.899195
 21
345.571201
 31
0.0
  0
LINE
  8
LC-004-005-----0
  6
CONTINUOUS
  5
2B4
 10
632.816213
 20
344.316646
 30
0.0
 11
637.080837
 21
348.581271
 31
0.0
  0
LINE
  8
LC-004-005-----0
  6
CONTINUOUS
  5
2B5
 10
632.997855
 20
347.326716
 30
0.0
 11
637.26248
 21
351.59134
 31
0.0
  0
LINE
  8
LC-004-005-----0
  6
CONTINUOUS
  5
2B6
 10
633.179497
 20
350.336785
 30
0.0
 11
637.444122
 21
354.601409
 31
0.0
  0
LINE
  8
LC-004-005-----0
  6
CONTINUOUS
  5
2B7
 10
633.361139
 20
353.346854
 30
0.0
 11
637.625764
 21
357.611478
 31
0.0
  0
LINE
  8
LC-004-005-----0
  6
CONTINUOUS
  5
2B8
 10
633.542781
 20
356.356923
 30
0.0
 11
637.807406
 21
360.621548
 31
0.0
  0
LINE
  8
LC-004-005-----0
  6
CONTINUOUS
  5
2B9
 10
633.724424
 20
359.366992
 30
0.0
 11
637.989048
 21
363.631617
 31
0.0
  0
LINE
  8
LC-004-005-----0
  6
CONTINUOUS
  5
2BA
 10
633.906066
 20
362.377062
 30
0.0
 11
638.17069
 21
366.641686
 31
0.0
  0
LINE
  8
LC-004-005-----0
  6
CONTINUOUS
  5
2BB
 10
634.087708
 20
365.387131
 30
0.0
 11
638.352332
 21
369.651755
 31
0.0
  0
LINE
  8
LC-004-005-----0
  6
CONTINUOUS
  5
2BC
 10
634.26935
 20
368.3972
 30
0.0
 11
638.533974
 21
372.661825
 31
0.0
  0
LINE
  8
LC-004-005-----0
  6
CONTINUOUS
  5
2BD
 10
634.450992
 20
371.407269
 30
0.0
 11
638.715616
 21
375.671894
 31
0.0
  0
LINE
  8
LC-004-005-----0
  6
CONTINUOUS
  5
2BE
 10
634.632634
 20
374.417339
 30
0.0
 11
638.897259
 21
378.681963
 31
0.0
  0
LINE
  8
LC-004-005-----0
  6
CONTINUOUS
  5
2BF
 10
634.814276
 20
377.427408
 30
0.0
 11
639.078901
 21
381.692032
 31
0.0
  0
LINE
  8
LC-004-005-----0
  6
CONTINUOUS
  5
2C0
 10
634.995918
 20
380.437477
 30
0.0
 11
639.260543
 21
384.702102
 31
0.0
  0
LINE
  8
LC-004-005-----0
  6
CONTINUOUS
  5
2C1
 10
635.17756
 20
383.447546
 30
0.0
 11
639.442185
 21
387.712171
 31
0.0
  0
LINE
  8
LC-004-005-----0
  6
CONTINUOUS
  5
2C2
 10
635.359203
 20
386.457616
 30
0.0
 11
639.623827
 21
390.72224
 31
0.0
  0
LINE
  8
LC-004-005-----0
  6
CONTINUOUS
  5
2C3
 10
635.540845
 20
389.467685
 30
0.0
 11
639.805469
 21
393.732309
 31
0.0
  0
LINE
  8
LC-004-005-----0
  6
CONTINUOUS
  5
2C4
 10
635.722487
 20
392.477754
 30
0.0
 11
639.987111
 21
396.742378
 31
0.0
  0
LINE
  8
LC-004-005-----0
  6
CONTINUOUS
  5
2C5
 10
635.904129
 20
395.487823
 30
0.0
 11
640.168753
 21
399.752448
 31
0.0
  0
LINE
  8
LC-004-005-----0
  6
CONTINUOUS
  5
2C6
 10
636.085771
 20
398.497893
 30
0.0
 11
640.350395
 21
402.762517
 31
0.0
  0
LINE
  8
LC-004-005-----0
  6
CONTINUOUS
  5
2C7
 10
636.267413
 20
401.507962
 30
0.0
 11
640.532038
 21
405.772586
 31
0.0
  0
LINE
  8
LC-004-005-----0
  6
CONTINUOUS
  5
2C8
 10
636.449055
 20
404.518031
 30
0.0
 11
640.71368
 21
408.782655
 31
0.0
  0
LINE
  8
LC-004-005-----0
  6
CONTINUOUS
  5
2C9
 10
636.630697
 20
407.5281
 30
0.0
 11
640.895322
 21
411.792725
 31
0.0
  0
LINE
  8
LC-004-005-----0
  6
CONTINUOUS
  5
2CA
 10
636.812339
 20
410.538169
 30
0.0
 11
641.067258
 21
414.793088
 31
0.0
  0
LINE
  8
LC-004-005-----0
  6
CONTINUOUS
  5
2CB
 10
636.993982
 20
413.548239
 30
0.0
 11
641.067258
 21
417.621515
 31
0.0
  0
LINE
  8
LC-004-005-----0
  6
CONTINUOUS
  5
2CC
 10
707.654508
 20
484.208765
 30
0.0
 11
709.067258
 21
485.621515
 31
0.0
  0
LINE
  8
LC-004-005-----0
  6
CONTINUOUS
  5
2CD
 10
637.06094
 20
416.443625
 30
0.0
 11
641.067258
 21
420.449942
 31
0.0
  0
LINE
  8
LC-004-005-----0
  6
CONTINUOUS
  5
2CE
 10
704.220588
 20
483.603273
 30
0.0
 11
708.334069
 21
487.716754
 31
0.0
  0
LINE
  8
LC-004-005-----0
  6
CONTINUOUS
  5
2CF
 10
637.062406
 20
419.273517
 30
0.0
 11
641.067258
 21
423.278369
 31
0.0
  0
LINE
  8
LC-004-005-----0
  6
CONTINUOUS
  5
2D0
 10
642.850155
 20
425.061266
 30
0.0
 11
644.647939
 21
426.85905
 31
0.0
  0
LINE
  8
LC-004-005-----0
  6
CONTINUOUS
  5
2D1
 10
700.786668
 20
482.99778
 30
0.0
 11
704.90015
 21
487.111261
 31
0.0
  0
LINE
  8
LC-004-005-----0
  6
CONTINUOUS
  5
2D2
 10
637.063871
 20
422.10341
 30
0.0
 11
645.067258
 21
430.106796
 31
0.0
  0
LINE
  8
LC-004-005-----0
  6
CONTINUOUS
  5
2D3
 10
697.352749
 20
482.392287
 30
0.0
 11
701.46623
 21
486.505768
 31
0.0
  0
LINE
  8
LC-004-005-----0
  6
CONTINUOUS
  5
2D4
 10
637.065337
 20
424.933303
 30
0.0
 11
640.773982
 21
428.641947
 31
0.0
  0
LINE
  8
LC-004-005-----0
  6
CONTINUOUS
  5
2D5
 10
641.067258
 20
428.935223
 30
0.0
 11
645.067258
 21
432.935223
 31
0.0
  0
LINE
  8
LC-004-005-----0
  6
CONTINUOUS
  5
2D6
 10
694.473982
 20
482.341947
 30
0.0
 11
698.03231
 21
485.900276
 31
0.0
  0
LINE
  8
LC-004-005-----0
  6
CONTINUOUS
  5
2D7
 10
637.066803
 20
427.763195
 30
0.0
 11
637.945555
 21
428.641947
 31
0.0
  0
LINE
  8
LC-004-005-----0
  6
CONTINUOUS
  5
2D8
 10
641.067258
 20
431.76365
 30
0.0
 11
645.067258
 21
435.76365
 31
0.0
  0
LINE
  8
LC-004-005-----0
  6
CONTINUOUS
  5
2D9
 10
685.645555
 20
476.341947
 30
0.0
 11
688.162533
 21
478.858925
 31
0.0
  0
LINE
  8
LC-004-005-----0
  6
CONTINUOUS
  5
2DA
 10
691.645555
 20
482.341947
 30
0.0
 11
694.945555
 21
485.641947
 31
0.0
  0
LINE
  8
LC-004-005-----0
  6
CONTINUOUS
  5
2DB
 10
641.067258
 20
434.592077
 30
0.0
 11
645.067258
 21
438.592077
 31
0.0
  0
LINE
  8
LC-004-005-----0
  6
CONTINUOUS
  5
2DC
 10
682.817127
 20
476.341947
 30
0.0
 11
692.117127
 21
485.641947
 31
0.0
  0
LINE
  8
LC-004-005-----0
  6
CONTINUOUS
  5
2DD
 10
641.067258
 20
437.420505
 30
0.0
 11
645.067258
 21
441.420505
 31
0.0
  0
LINE
  8
LC-004-005-----0
  6
CONTINUOUS
  5
2DE
 10
679.9887
 20
476.341947
 30
0.0
 11
683.7887
 21
480.141947
 31
0.0
  0
LINE
  8
LC-004-005-----0
  6
CONTINUOUS
  5
2DF
 10
685.467258
 20
481.820505
 30
0.0
 11
689.2887
 21
485.641947
 31
0.0
  0
LINE
  8
LC-004-005-----0
  6
CONTINUOUS
  5
2E0
 10
641.067258
 20
440.248932
 30
0.0
 11
645.067258
 21
444.248932
 31
0.0
  0
LINE
  8
LC-004-005-----0
  6
CONTINUOUS
  5
2E1
 10
666.284512
 20
465.466186
 30
0.0
 11
672.267258
 21
471.448932
 31
0.0
  0
LINE
  8
LC-004-005-----0
  6
CONTINUOUS
  5
2E2
 10
677.17285
 20
476.354524
 30
0.0
 11
680.960273
 21
480.141947
 31
0.0
  0
LINE
  8
LC-004-005-----0
  6
CONTINUOUS
  5
2E3
 10
685.467258
 20
484.648932
 30
0.0
 11
686.460273
 21
485.641947
 31
0.0
  0
LINE
  8
LC-004-005-----0
  6
CONTINUOUS
  5
2E4
 10
641.067258
 20
443.077359
 30
0.0
 11
645.067258
 21
447.077359
 31
0.0
  0
LINE
  8
LC-004-005-----0
  6
CONTINUOUS
  5
2E5
 10
664.842445
 20
466.852546
 30
0.0
 11
672.267258
 21
474.277359
 31
0.0
  0
LINE
  8
LC-004-005-----0
  6
CONTINUOUS
  5
2E6
 10
675.858615
 20
477.868716
 30
0.0
 11
678.467258
 21
480.477359
 31
0.0
  0
LINE
  8
LC-004-005-----0
  6
CONTINUOUS
  5
2E7
 10
641.067258
 20
445.905786
 30
0.0
 11
645.067258
 21
449.905786
 31
0.0
  0
LINE
  8
LC-004-005-----0
  6
CONTINUOUS
  5
2E8
 10
663.428231
 20
468.26676
 30
0.0
 11
665.549552
 21
470.38808
 31
0.0
  0
LINE
  8
LC-004-005-----0
  6
CONTINUOUS
  5
2E9
 10
668.967258
 20
473.805786
 30
0.0
 11
672.267258
 21
477.105786
 31
0.0
  0
LINE
  8
LC-004-005-----0
  6
CONTINUOUS
  5
2EA
 10
675.631067
 20
480.469596
 30
0.0
 11
678.467258
 21
483.305786
 31
0.0
  0
LINE
  8
LC-004-005-----0
  6
CONTINUOUS
  5
2EB
 10
641.067258
 20
448.734213
 30
0.0
 11
645.067258
 21
452.734213
 31
0.0
  0
LINE
  8
LC-004-005-----0
  6
CONTINUOUS
  5
2EC
 10
648.55307
 20
456.220025
 30
0.0
 11
652.989179
 21
460.656135
 31
0.0
  0
LINE
  8
LC-004-005-----0
  6
CONTINUOUS
  5
2ED
 10
662.014018
 20
469.680973
 30
0.0
 11
664.567258
 21
472.234213
 31
0.0
  0
LINE
  8
LC-004-005-----0
  6
CONTINUOUS
  5
2EE
 10
668.967258
 20
476.634213
 30
0.0
 11
672.267258
 21
479.934213
 31
0.0
  0
LINE
  8
LC-004-005-----0
  6
CONTINUOUS
  5
2EF
 10
674.590132
 20
482.257088
 30
0.0
 11
677.974992
 21
485.641947
 31
0.0
  0
LINE
  8
LC-004-005-----0
  6
CONTINUOUS
  5
2F0
 10
641.067258
 20
451.56264
 30
0.0
 11
645.067258
 21
455.56264
 31
0.0
  0
LINE
  8
LC-004-005-----0
  6
CONTINUOUS
  5
2F1
 10
645.157087
 20
455.652469
 30
0.0
 11
653.567258
 21
464.06264
 31
0.0
  0
LINE
  8
LC-004-005-----0
  6
CONTINUOUS
  5
2F2
 10
661.267258
 20
471.76264
 30
0.0
 11
664.567258
 21
475.06264
 31
0.0
  0
LINE
  8
LC-004-005-----0
  6
CONTINUOUS
  5
2F3
 10
668.967258
 20
479.46264
 30
0.0
 11
675.146565
 21
485.641947
 31
0.0
  0
LINE
  8
LC-004-005-----0
  6
CONTINUOUS
  5
2F4
 10
641.067258
 20
454.391067
 30
0.0
 11
646.407352
 21
459.731162
 31
0.0
  0
LINE
  8
LC-004-005-----0
  6
CONTINUOUS
  5
2F5
 10
649.478043
 20
462.801853
 30
0.0
 11
653.567258
 21
466.891067
 31
0.0
  0
LINE
  8
LC-004-005-----0
  6
CONTINUOUS
  5
2F6
 10
661.267258
 20
474.591067
 30
0.0
 11
664.567258
 21
477.891067
 31
0.0
  0
LINE
  8
LC-004-005-----0
  6
CONTINUOUS
  5
2F7
 10
668.967258
 20
482.291067
 30
0.0
 11
672.318138
 21
485.641947
 31
0.0
  0
LINE
  8
LC-004-005-----0
  6
CONTINUOUS
  5
2F8
 10
641.067258
 20
457.219494
 30
0.0
 11
643.48971
 21
459.641947
 31
0.0
  0
LINE
  8
LC-004-005-----0
  6
CONTINUOUS
  5
2F9
 10
649.567258
 20
465.719494
 30
0.0
 11
653.567258
 21
469.719494
 31
0.0
  0
LINE
  8
LC-004-005-----0
  6
CONTINUOUS
  5
2FA
 10
661.267258
 20
477.419494
 30
0.0
 11
664.567258
 21
480.719494
 31
0.0
  0
LINE
  8
LC-004-005-----0
  6
CONTINUOUS
  5
2FB
 10
668.967258
 20
485.119494
 30
0.0
 11
669.48971
 21
485.641947
 31
0.0
  0
LINE
  8
LC-004-005-----0
  6
CONTINUOUS
  5
2FC
 10
649.567258
 20
468.547922
 30
0.0
 11
653.567258
 21
472.547922
 31
0.0
  0
LINE
  8
LC-004-005-----0
  6
CONTINUOUS
  5
2FD
 10
661.267258
 20
480.247922
 30
0.0
 11
664.567258
 21
483.547922
 31
0.0
  0
LINE
  8
LC-004-005-----0
  6
CONTINUOUS
  5
2FE
 10
649.567258
 20
471.376349
 30
0.0
 11
653.567258
 21
475.376349
 31
0.0
  0
LINE
  8
LC-004-005-----0
  6
CONTINUOUS
  5
2FF
 10
660.504345
 20
482.313436
 30
0.0
 11
663.832856
 21
485.641947
 31
0.0
  0
LINE
  8
LC-004-005-----0
  6
CONTINUOUS
  5
300
 10
649.567258
 20
474.204776
 30
0.0
 11
653.567258
 21
478.204776
 31
0.0
  0
LINE
  8
LC-004-005-----0
  6
CONTINUOUS
  5
301
 10
657.704429
 20
482.341947
 30
0.0
 11
661.004429
 21
485.641947
 31
0.0
  0
LINE
  8
LC-004-005-----0
  6
CONTINUOUS
  5
302
 10
649.567258
 20
477.033203
 30
0.0
 11
653.581385
 21
481.04733
 31
0.0
  0
LINE
  8
LC-004-005-----0
  6
CONTINUOUS
  5
303
 10
654.861875
 20
482.32782
 30
0.0
 11
658.176002
 21
485.641947
 31
0.0
  0
LINE
  8
LC-004-005-----0
  6
CONTINUOUS
  5
304
 10
649.567258
 20
479.86163
 30
0.0
 11
655.347575
 21
485.641947
 31
0.0
  0
LINE
  8
LC-004-005-----0
  6
CONTINUOUS
  5
305
 10
649.567258
 20
482.690057
 30
0.0
 11
652.519148
 21
485.641947
 31
0.0
  0
LINE
  8
LC-004-005-----0
  6
CONTINUOUS
  5
306
 10
649.567258
 20
485.518484
 30
0.0
 11
649.690721
 21
485.641947
 31
0.0
  0
ENDBLK
  8
0
  5
307
  0
BLOCK
  8
0
  5
309
  2
*X26
 70
    65
 10
452.746228
 20
467.692604
 30
0.0
  3
*X26
  0
LINE
  8
LC-004-005-----0
  6
DASHED
  5
30A
 10
455.011448
 20
467.73937
 30
0.0
 11
456.732732
 21
469.460654
 31
0.0
  0
LINE
  8
LC-004-005-----0
  6
DASHED
  5
30B
 10
453.792509
 20
467.934645
 30
0.0
 11
456.746228
 21
470.888364
 31
0.0
  0
LINE
  8
LC-004-005-----0
  6
CONTINUOUS
  5
30C
 10
452.746228
 20
469.716791
 30
0.0
 11
455.991986
 21
472.962549
 31
0.0
  0
LINE
  8
LC-004-005-----0
  6
CONTINUOUS
  5
30D
 10
452.746228
 20
471.131004
 30
0.0
 11
454.973127
 21
473.357904
 31
0.0
  0
ENDBLK
  8
0
  5
30E
  0
BLOCK
  8
0
  5
310
  2
*X27
 70
    65
 10
645.388287
 20
467.692604
 30
0.0
  3
*X27
  0
LINE
  8
LC-004-005-----0
  6
DASHED
  5
311
 10
646.243533
 20
468.052624
 30
0.0
 11
649.388287
 21
471.197378
 31
0.0
  0
LINE
  8
LC-004-005-----0
  6
DASHED
  5
312
 10
645.591309
 20
468.814613
 30
0.0
 11
649.139912
 21
472.363216
 31
0.0
  0
LINE
  8
LC-004-005-----0
  6
CONTINUOUS
  5
313
 10
645.38874
 20
471.440472
 30
0.0
 11
647.337166
 21
473.388898
 31
0.0
  0
ENDBLK
  8
0
  5
314
  0
BLOCK
  8
0
  5
316
  2
*D28
 70
    65
 10
0.0
 20
0.0
 30
0.0
  3
*D28
  0
LINE
  8
LC-006-003-MTH-0
  6
CONTINUOUS
  5
318
 10
496.067258
 20
237.141947
 30
0.0
 11
496.067258
 21
169.2
 31
0.0
  0
LINE
  8
LC-006-003-MTH-0
  6
CONTINUOUS
  5
319
 10
606.067258
 20
237.141947
 30
0.0
 11
606.067258
 21
169.2
 31
0.0
  0
LINE
  8
LC-007-003-MTG-0
  6
CONTINUOUS
  5
31B
 10
496.067258
 20
180.0
 30
0.0
 11
606.067258
 21
180.0
 31
0.0
  0
LINE
  8
LC-005-003-----0
  6
CONTINUOUS
  5
31D
 10
513.913265
 20
182.349471
 30
0.0
 11
496.067258
 21
180.0
 31
0.0
  0
LINE
  8
LC-005-003-----0
  6
CONTINUOUS
  5
31E
 10
496.067258
 20
180.0
 30
0.0
 11
513.913265
 21
177.650529
 31
0.0
  0
LINE
  8
LC-005-003-----0
  6
CONTINUOUS
  5
31F
 10
513.913265
 20
177.650529
 30
0.0
 11
513.913265
 21
182.349471
 31
0.0
  0
LINE
  8
LC-005-003-----0
  6
CONTINUOUS
  5
320
 10
513.953303
 20
181.738609
 30
0.0
 11
500.747258
 21
180.0
 31
0.0
  0
LINE
  8
LC-005-003-----0
  6
CONTINUOUS
  5
321
 10
500.747258
 20
180.0
 30
0.0
 11
513.953303
 21
178.261391
 31
0.0
  0
LINE
  8
LC-005-003-----0
  6
CONTINUOUS
  5
322
 10
513.993341
 20
181.127746
 30
0.0
 11
505.427258
 21
180.0
 31
0.0
  0
LINE
  8
LC-005-003-----0
  6
CONTINUOUS
  5
323
 10
505.427258
 20
180.0
 30
0.0
 11
513.993341
 21
178.872254
 31
0.0
  0
LINE
  8
LC-005-003-----0
  6
CONTINUOUS
  5
324
 10
514.033379
 20
180.516884
 30
0.0
 11
510.107258
 21
180.0
 31
0.0
  0
LINE
  8
LC-005-003-----0
  6
CONTINUOUS
  5
325
 10
510.107258
 20
180.0
 30
0.0
 11
514.033379
 21
179.483116
 31
0.0
  0
LINE
  8
LC-005-003-----0
  6
CONTINUOUS
  5
326
 10
588.22125
 20
177.650529
 30
0.0
 11
606.067258
 21
180.0
 31
0.0
  0
LINE
  8
LC-005-003-----0
  6
CONTINUOUS
  5
327
 10
606.067258
 20
180.0
 30
0.0
 11
588.22125
 21
182.349471
 31
0.0
  0
LINE
  8
LC-005-003-----0
  6
CONTINUOUS
  5
328
 10
588.22125
 20
182.349471
 30
0.0
 11
588.22125
 21
177.650529
 31
0.0
  0
LINE
  8
LC-005-003-----0
  6
CONTINUOUS
  5
329
 10
588.181212
 20
178.261391
 30
0.0
 11
601.387258
 21
180.0
 31
0.0
  0
LINE
  8
LC-005-003-----0
  6
CONTINUOUS
  5
32A
 10
601.387258
 20
180.0
 30
0.0
 11
588.181212
 21
181.738609
 31
0.0
  0
LINE
  8
LC-005-003-----0
  6
CONTINUOUS
  5
32B
 10
588.141174
 20
178.872254
 30
0.0
 11
596.707258
 21
180.0
 31
0.0
  0
LINE
  8
LC-005-003-----0
  6
CONTINUOUS
  5
32C
 10
596.707258
 20
180.0
 30
0.0
 11
588.141174
 21
181.127746
 31
0.0
  0
LINE
  8
LC-005-003-----0
  6
CONTINUOUS
  5
32D
 10
588.101136
 20
179.483116
 30
0.0
 11
592.027258
 21
180.0
 31
0.0
  0
LINE
  8
LC-005-003-----0
  6
CONTINUOUS
  5
32E
 10
592.027258
 20
180.0
 30
0.0
 11
588.101136
 21
180.516884
 31
0.0
  0
TEXT
  8
LC-005-003-----0
  6
CONTINUOUS
 62
     6
  5
330
 10
520.186913
 20
190.431999
 30
0.0
 40
18.0
  1
DN100
 41
0.9
 51
15.0
  7
LC-TXTSTYLE-150-400-0-0-D0
 72
     1
 11
553.862503
 21
190.431999
 31
0.0
  0
ENDBLK
  8
0
  5
331
  0
BLOCK
  8
0
  5
333
  2
*D29
 70
    65
 10
0.0
 20
0.0
 30
0.0
  3
*D29
  0
LINE
  8
LC-006-003-MTH-0
  6
CONTINUOUS
  5
334
 10
457.067258
 20
431.341947
 30
0.0
 11
457.067258
 21
97.2
 31
0.0
  0
LINE
  8
LC-006-003-MTH-0
  6
CONTINUOUS
  5
335
 10
645.067258
 20
431.341947
 30
0.0
 11
645.067258
 21
97.2
 31
0.0
  0
LINE
  8
LC-007-003-MTG-0
  6
CONTINUOUS
  5
336
 10
457.067258
 20
108.0
 30
0.0
 11
645.067258
 21
108.0
 31
0.0
  0
LINE
  8
LC-005-003-----0
  6
CONTINUOUS
  5
337
 10
474.913265
 20
110.349471
 30
0.0
 11
457.067258
 21
108.0
 31
0.0
  0
LINE
  8
LC-005-003-----0
  6
CONTINUOUS
  5
338
 10
457.067258
 20
108.0
 30
0.0
 11
474.913265
 21
105.650529
 31
0.0
  0
LINE
  8
LC-005-003-----0
  6
CONTINUOUS
  5
339
 10
474.913265
 20
105.650529
 30
0.0
 11
474.913265
 21
110.349471
 31
0.0
  0
LINE
  8
LC-005-003-----0
  6
CONTINUOUS
  5
33A
 10
474.953303
 20
109.738609
 30
0.0
 11
461.747258
 21
108.0
 31
0.0
  0
LINE
  8
LC-005-003-----0
  6
CONTINUOUS
  5
33B
 10
461.747258
 20
108.0
 30
0.0
 11
474.953303
 21
106.261391
 31
0.0
  0
LINE
  8
LC-005-003-----0
  6
CONTINUOUS
  5
33C
 10
474.993341
 20
109.127746
 30
0.0
 11
466.427258
 21
108.0
 31
0.0
  0
LINE
  8
LC-005-003-----0
  6
CONTINUOUS
  5
33D
 10
466.427258
 20
108.0
 30
0.0
 11
474.993341
 21
106.872254
 31
0.0
  0
LINE
  8
LC-005-003-----0
  6
CONTINUOUS
  5
33E
 10
475.033379
 20
108.516884
 30
0.0
 11
471.107258
 21
108.0
 31
0.0
  0
LINE
  8
LC-005-003-----0
  6
CONTINUOUS
  5
33F
 10
471.107258
 20
108.0
 30
0.0
 11
475.033379
 21
107.483116
 31
0.0
  0
LINE
  8
LC-005-003-----0
  6
CONTINUOUS
  5
340
 10
627.22125
 20
105.650529
 30
0.0
 11
645.067258
 21
108.0
 31
0.0
  0
LINE
  8
LC-005-003-----0
  6
CONTINUOUS
  5
341
 10
645.067258
 20
108.0
 30
0.0
 11
627.22125
 21
110.349471
 31
0.0
  0
LINE
  8
LC-005-003-----0
  6
CONTINUOUS
  5
342
 10
627.22125
 20
110.349471
 30
0.0
 11
627.22125
 21
105.650529
 31
0.0
  0
LINE
  8
LC-005-003-----0
  6
CONTINUOUS
  5
343
 10
627.181212
 20
106.261391
 30
0.0
 11
640.387258
 21
108.0
 31
0.0
  0
LINE
  8
LC-005-003-----0
  6
CONTINUOUS
  5
344
 10
640.387258
 20
108.0
 30
0.0
 11
627.181212
 21
109.738609
 31
0.0
  0
LINE
  8
LC-005-003-----0
  6
CONTINUOUS
  5
345
 10
627.141174
 20
106.872254
 30
0.0
 11
635.707258
 21
108.0
 31
0.0
  0
LINE
  8
LC-005-003-----0
  6
CONTINUOUS
  5
346
 10
635.707258
 20
108.0
 30
0.0
 11
627.141174
 21
109.127746
 31
0.0
  0
LINE
  8
LC-005-003-----0
  6
CONTINUOUS
  5
347
 10
627.101136
 20
107.483116
 30
0.0
 11
631.027258
 21
108.0
 31
0.0
  0
LINE
  8
LC-005-003-----0
  6
CONTINUOUS
  5
348
 10
631.027258
 20
108.0
 30
0.0
 11
627.101136
 21
108.516884
 31
0.0
  0
TEXT
  8
LC-005-003-----0
  6
CONTINUOUS
 62
     6
  5
349
 10
529.371165
 20
118.431999
 30
0.0
 40
18.0
  1
Ø188
 51
15.0
  7
LC-TXTSTYLE-150-400-0-0-D0
 72
     1
 11
553.862503
 21
118.431999
 31
0.0
  0
ENDBLK
  8
0
  5
34A
  0
BLOCK
  8
0
  5
34C
  2
*D30
 70
    65
 10
0.0
 20
0.0
 30
0.0
  3
*D30
  0
LINE
  8
LC-006-003-MTH-0
  6
CONTINUOUS
  5
34D
 10
393.067258
 20
487.846035
 30
0.0
 11
393.067258
 21
730.8
 31
0.0
  0
LINE
  8
LC-006-003-MTH-0
  6
CONTINUOUS
  5
34E
 10
709.067258
 20
487.846035
 30
0.0
 11
709.067258
 21
730.8
 31
0.0
  0
LINE
  8
LC-007-003-MTG-0
  6
CONTINUOUS
  5
34F
 10
393.067258
 20
720.0
 30
0.0
 11
709.067258
 21
720.0
 31
0.0
  0
LINE
  8
LC-005-003-----0
  6
CONTINUOUS
  5
350
 10
410.913265
 20
722.349471
 30
0.0
 11
393.067258
 21
720.0
 31
0.0
  0
LINE
  8
LC-005-003-----0
  6
CONTINUOUS
  5
351
 10
393.067258
 20
720.0
 30
0.0
 11
410.913265
 21
717.650529
 31
0.0
  0
LINE
  8
LC-005-003-----0
  6
CONTINUOUS
  5
352
 10
410.913265
 20
717.650529
 30
0.0
 11
410.913265
 21
722.349471
 31
0.0
  0
LINE
  8
LC-005-003-----0
  6
CONTINUOUS
  5
353
 10
410.953303
 20
721.738609
 30
0.0
 11
397.747258
 21
720.0
 31
0.0
  0
LINE
  8
LC-005-003-----0
  6
CONTINUOUS
  5
354
 10
397.747258
 20
720.0
 30
0.0
 11
410.953303
 21
718.261391
 31
0.0
  0
LINE
  8
LC-005-003-----0
  6
CONTINUOUS
  5
355
 10
410.993341
 20
721.127746
 30
0.0
 11
402.427258
 21
720.0
 31
0.0
  0
LINE
  8
LC-005-003-----0
  6
CONTINUOUS
  5
356
 10
402.427258
 20
720.0
 30
0.0
 11
410.993341
 21
718.872254
 31
0.0
  0
LINE
  8
LC-005-003-----0
  6
CONTINUOUS
  5
357
 10
411.033379
 20
720.516884
 30
0.0
 11
407.107258
 21
720.0
 31
0.0
  0
LINE
  8
LC-005-003-----0
  6
CONTINUOUS
  5
358
 10
407.107258
 20
720.0
 30
0.0
 11
411.033379
 21
719.483116
 31
0.0
  0
LINE
  8
LC-005-003-----0
  6
CONTINUOUS
  5
359
 10
691.22125
 20
717.650529
 30
0.0
 11
709.067258
 21
720.0
 31
0.0
  0
LINE
  8
LC-005-003-----0
  6
CONTINUOUS
  5
35A
 10
709.067258
 20
720.0
 30
0.0
 11
691.22125
 21
722.349471
 31
0.0
  0
LINE
  8
LC-005-003-----0
  6
CONTINUOUS
  5
35B
 10
691.22125
 20
722.349471
 30
0.0
 11
691.22125
 21
717.650529
 31
0.0
  0
LINE
  8
LC-005-003-----0
  6
CONTINUOUS
  5
35C
 10
691.181212
 20
718.261391
 30
0.0
 11
704.387258
 21
720.0
 31
0.0
  0
LINE
  8
LC-005-003-----0
  6
CONTINUOUS
  5
35D
 10
704.387258
 20
720.0
 30
0.0
 11
691.181212
 21
721.738609
 31
0.0
  0
LINE
  8
LC-005-003-----0
  6
CONTINUOUS
  5
35E
 10
691.141174
 20
718.872254
 30
0.0
 11
699.707258
 21
720.0
 31
0.0
  0
LINE
  8
LC-005-003-----0
  6
CONTINUOUS
  5
35F
 10
699.707258
 20
720.0
 30
0.0
 11
691.141174
 21
721.127746
 31
0.0
  0
LINE
  8
LC-005-003-----0
  6
CONTINUOUS
  5
360
 10
691.101136
 20
719.483116
 30
0.0
 11
695.027258
 21
720.0
 31
0.0
  0
LINE
  8
LC-005-003-----0
  6
CONTINUOUS
  5
361
 10
695.027258
 20
720.0
 30
0.0
 11
691.101136
 21
720.516884
 31
0.0
  0
TEXT
  8
LC-005-003-----0
  6
CONTINUOUS
 62
     6
  5
362
 10
524.604347
 20
730.431999
 30
0.0
 40
18.0
  1
Ø315
 51
15.0
  7
LC-TXTSTYLE-150-400-0-0-D0
 72
     1
 11
549.095685
 21
730.431999
 31
0.0
  0
ENDBLK
  8
0
  5
363
  0
BLOCK
  8
0
  5
365
  2
*D31
 70
    65
 10
0.0
 20
0.0
 30
0.0
  3
*D31
  0
LINE
  8
LC-006-003-MTH-0
  6
CONTINUOUS
  5
366
 10
448.567258
 20
463.641947
 30
0.0
 11
448.567258
 21
61.2
 31
0.0
  0
LINE
  8
LC-006-003-MTH-0
  6
CONTINUOUS
  5
367
 10
653.567258
 20
463.641947
 30
0.0
 11
653.567258
 21
61.2
 31
0.0
  0
LINE
  8
LC-007-003-MTG-0
  6
CONTINUOUS
  5
368
 10
448.567258
 20
72.0
 30
0.0
 11
653.567258
 21
72.0
 31
0.0
  0
LINE
  8
LC-005-003-----0
  6
CONTINUOUS
  5
369
 10
466.413265
 20
74.349471
 30
0.0
 11
448.567258
 21
72.0
 31
0.0
  0
LINE
  8
LC-005-003-----0
  6
CONTINUOUS
  5
36A
 10
448.567258
 20
72.0
 30
0.0
 11
466.413265
 21
69.650529
 31
0.0
  0
LINE
  8
LC-005-003-----0
  6
CONTINUOUS
  5
36B
 10
466.413265
 20
69.650529
 30
0.0
 11
466.413265
 21
74.349471
 31
0.0
  0
LINE
  8
LC-005-003-----0
  6
CONTINUOUS
  5
36C
 10
466.453303
 20
73.738609
 30
0.0
 11
453.247258
 21
72.0
 31
0.0
  0
LINE
  8
LC-005-003-----0
  6
CONTINUOUS
  5
36D
 10
453.247258
 20
72.0
 30
0.0
 11
466.453303
 21
70.261391
 31
0.0
  0
LINE
  8
LC-005-003-----0
  6
CONTINUOUS
  5
36E
 10
466.493341
 20
73.127746
 30
0.0
 11
457.927258
 21
72.0
 31
0.0
  0
LINE
  8
LC-005-003-----0
  6
CONTINUOUS
  5
36F
 10
457.927258
 20
72.0
 30
0.0
 11
466.493341
 21
70.872254
 31
0.0
  0
LINE
  8
LC-005-003-----0
  6
CONTINUOUS
  5
370
 10
466.533379
 20
72.516884
 30
0.0
 11
462.607258
 21
72.0
 31
0.0
  0
LINE
  8
LC-005-003-----0
  6
CONTINUOUS
  5
371
 10
462.607258
 20
72.0
 30
0.0
 11
466.533379
 21
71.483116
 31
0.0
  0
LINE
  8
LC-005-003-----0
  6
CONTINUOUS
  5
372
 10
635.72125
 20
69.650529
 30
0.0
 11
653.567258
 21
72.0
 31
0.0
  0
LINE
  8
LC-005-003-----0
  6
CONTINUOUS
  5
373
 10
653.567258
 20
72.0
 30
0.0
 11
635.72125
 21
74.349471
 31
0.0
  0
LINE
  8
LC-005-003-----0
  6
CONTINUOUS
  5
374
 10
635.72125
 20
74.349471
 30
0.0
 11
635.72125
 21
69.650529
 31
0.0
  0
LINE
  8
LC-005-003-----0
  6
CONTINUOUS
  5
375
 10
635.681212
 20
70.261391
 30
0.0
 11
648.887258
 21
72.0
 31
0.0
  0
LINE
  8
LC-005-003-----0
  6
CONTINUOUS
  5
376
 10
648.887258
 20
72.0
 30
0.0
 11
635.681212
 21
73.738609
 31
0.0
  0
LINE
  8
LC-005-003-----0
  6
CONTINUOUS
  5
377
 10
635.641174
 20
70.872254
 30
0.0
 11
644.207258
 21
72.0
 31
0.0
  0
LINE
  8
LC-005-003-----0
  6
CONTINUOUS
  5
378
 10
644.207258
 20
72.0
 30
0.0
 11
635.641174
 21
73.127746
 31
0.0
  0
LINE
  8
LC-005-003-----0
  6
CONTINUOUS
  5
379
 10
635.601136
 20
71.483116
 30
0.0
 11
639.527258
 21
72.0
 31
0.0
  0
LINE
  8
LC-005-003-----0
  6
CONTINUOUS
  5
37A
 10
639.527258
 20
72.0
 30
0.0
 11
635.601136
 21
72.516884
 31
0.0
  0
TEXT
  8
LC-005-003-----0
  6
CONTINUOUS
 62
     6
  5
37B
 10
529.371165
 20
82.431999
 30
0.0
 40
18.0
  1
Ø205
 51
15.0
  7
LC-TXTSTYLE-150-400-0-0-D0
 72
     1
 11
553.862503
 21
82.431999
 31
0.0
  0
ENDBLK
  8
0
  5
37C
  0
BLOCK
  8
0
  5
37E
  2
*D32
 70
    65
 10
0.0
 20
0.0
 30
0.0
  3
*D32
  0
LINE
  8
LC-006-003-MTH-0
  6
CONTINUOUS
  5
37F
 10
421.067258
 20
588.06443
 30
0.0
 11
421.067258
 21
690.8
 31
0.0
  0
LINE
  8
LC-006-003-MTH-0
  6
CONTINUOUS
  5
380
 10
681.067258
 20
593.56443
 30
0.0
 11
681.067258
 21
690.8
 31
0.0
  0
LINE
  8
LC-007-003-MTG-0
  6
CONTINUOUS
  5
381
 10
421.067258
 20
680.0
 30
0.0
 11
681.067258
 21
680.0
 31
0.0
  0
LINE
  8
LC-005-003-----0
  6
CONTINUOUS
  5
382
 10
438.913265
 20
682.349471
 30
0.0
 11
421.067258
 21
680.0
 31
0.0
  0
LINE
  8
LC-005-003-----0
  6
CONTINUOUS
  5
383
 10
421.067258
 20
680.0
 30
0.0
 11
438.913265
 21
677.650529
 31
0.0
  0
LINE
  8
LC-005-003-----0
  6
CONTINUOUS
  5
384
 10
438.913265
 20
677.650529
 30
0.0
 11
438.913265
 21
682.349471
 31
0.0
  0
LINE
  8
LC-005-003-----0
  6
CONTINUOUS
  5
385
 10
438.953303
 20
681.738609
 30
0.0
 11
425.747258
 21
680.0
 31
0.0
  0
LINE
  8
LC-005-003-----0
  6
CONTINUOUS
  5
386
 10
425.747258
 20
680.0
 30
0.0
 11
438.953303
 21
678.261391
 31
0.0
  0
LINE
  8
LC-005-003-----0
  6
CONTINUOUS
  5
387
 10
438.993341
 20
681.127746
 30
0.0
 11
430.427258
 21
680.0
 31
0.0
  0
LINE
  8
LC-005-003-----0
  6
CONTINUOUS
  5
388
 10
430.427258
 20
680.0
 30
0.0
 11
438.993341
 21
678.872254
 31
0.0
  0
LINE
  8
LC-005-003-----0
  6
CONTINUOUS
  5
389
 10
439.033379
 20
680.516884
 30
0.0
 11
435.107258
 21
680.0
 31
0.0
  0
LINE
  8
LC-005-003-----0
  6
CONTINUOUS
  5
38A
 10
435.107258
 20
680.0
 30
0.0
 11
439.033379
 21
679.483116
 31
0.0
  0
LINE
  8
LC-005-003-----0
  6
CONTINUOUS
  5
38B
 10
663.22125
 20
677.650529
 30
0.0
 11
681.067258
 21
680.0
 31
0.0
  0
LINE
  8
LC-005-003-----0
  6
CONTINUOUS
  5
38C
 10
681.067258
 20
680.0
 30
0.0
 11
663.22125
 21
682.349471
 31
0.0
  0
LINE
  8
LC-005-003-----0
  6
CONTINUOUS
  5
38D
 10
663.22125
 20
682.349471
 30
0.0
 11
663.22125
 21
677.650529
 31
0.0
  0
LINE
  8
LC-005-003-----0
  6
CONTINUOUS
  5
38E
 10
663.181212
 20
678.261391
 30
0.0
 11
676.387258
 21
680.0
 31
0.0
  0
LINE
  8
LC-005-003-----0
  6
CONTINUOUS
  5
38F
 10
676.387258
 20
680.0
 30
0.0
 11
663.181212
 21
681.738609
 31
0.0
  0
LINE
  8
LC-005-003-----0
  6
CONTINUOUS
  5
390
 10
663.141174
 20
678.872254
 30
0.0
 11
671.707258
 21
680.0
 31
0.0
  0
LINE
  8
LC-005-003-----0
  6
CONTINUOUS
  5
391
 10
671.707258
 20
680.0
 30
0.0
 11
663.141174
 21
681.127746
 31
0.0
  0
LINE
  8
LC-005-003-----0
  6
CONTINUOUS
  5
392
 10
663.101136
 20
679.483116
 30
0.0
 11
667.027258
 21
680.0
 31
0.0
  0
LINE
  8
LC-005-003-----0
  6
CONTINUOUS
  5
393
 10
667.027258
 20
680.0
 30
0.0
 11
663.101136
 21
680.516884
 31
0.0
  0
TEXT
  8
LC-005-003-----0
  6
CONTINUOUS
 62
     6
  5
394
 10
535.394663
 20
690.431999
 30
0.0
 40
18.0
  1
260
 51
15.0
  7
LC-TXTSTYLE-150-400-0-0-D0
 72
     1
 11
554.528521
 21
690.431999
 31
0.0
  0
ENDBLK
  8
0
  5
395
  0
BLOCK
  8
0
  5
397
  2
*D33
 70
    65
 10
0.0
 20
0.0
 30
0.0
  3
*D33
  0
LINE
  8
LC-006-003-MTH-0
  6
CONTINUOUS
  5
398
 10
467.946568
 20
300.641947
 30
0.0
 11
467.946568
 21
133.2
 31
0.0
  0
LINE
  8
LC-006-003-MTH-0
  6
CONTINUOUS
  5
399
 10
634.187947
 20
300.641947
 30
0.0
 11
634.187947
 21
133.2
 31
0.0
  0
LINE
  8
LC-007-003-MTG-0
  6
CONTINUOUS
  5
39A
 10
467.946568
 20
144.0
 30
0.0
 11
634.187947
 21
144.0
 31
0.0
  0
LINE
  8
LC-005-003-----0
  6
CONTINUOUS
  5
39B
 10
485.792575
 20
146.349471
 30
0.0
 11
467.946568
 21
144.0
 31
0.0
  0
LINE
  8
LC-005-003-----0
  6
CONTINUOUS
  5
39C
 10
467.946568
 20
144.0
 30
0.0
 11
485.792575
 21
141.650529
 31
0.0
  0
LINE
  8
LC-005-003-----0
  6
CONTINUOUS
  5
39D
 10
485.792575
 20
141.650529
 30
0.0
 11
485.792575
 21
146.349471
 31
0.0
  0
LINE
  8
LC-005-003-----0
  6
CONTINUOUS
  5
39E
 10
485.832613
 20
145.738609
 30
0.0
 11
472.626568
 21
144.0
 31
0.0
  0
LINE
  8
LC-005-003-----0
  6
CONTINUOUS
  5
39F
 10
472.626568
 20
144.0
 30
0.0
 11
485.832613
 21
142.261391
 31
0.0
  0
LINE
  8
LC-005-003-----0
  6
CONTINUOUS
  5
3A0
 10
485.872652
 20
145.127746
 30
0.0
 11
477.306568
 21
144.0
 31
0.0
  0
LINE
  8
LC-005-003-----0
  6
CONTINUOUS
  5
3A1
 10
477.306568
 20
144.0
 30
0.0
 11
485.872652
 21
142.872254
 31
0.0
  0
LINE
  8
LC-005-003-----0
  6
CONTINUOUS
  5
3A2
 10
485.91269
 20
144.516884
 30
0.0
 11
481.986568
 21
144.0
 31
0.0
  0
LINE
  8
LC-005-003-----0
  6
CONTINUOUS
  5
3A3
 10
481.986568
 20
144.0
 30
0.0
 11
485.91269
 21
143.483116
 31
0.0
  0
LINE
  8
LC-005-003-----0
  6
CONTINUOUS
  5
3A4
 10
616.34194
 20
141.650529
 30
0.0
 11
634.187947
 21
144.0
 31
0.0
  0
LINE
  8
LC-005-003-----0
  6
CONTINUOUS
  5
3A5
 10
634.187947
 20
144.0
 30
0.0
 11
616.34194
 21
146.349471
 31
0.0
  0
LINE
  8
LC-005-003-----0
  6
CONTINUOUS
  5
3A6
 10
616.34194
 20
146.349471
 30
0.0
 11
616.34194
 21
141.650529
 31
0.0
  0
LINE
  8
LC-005-003-----0
  6
CONTINUOUS
  5
3A7
 10
616.301902
 20
142.261391
 30
0.0
 11
629.507947
 21
144.0
 31
0.0
  0
LINE
  8
LC-005-003-----0
  6
CONTINUOUS
  5
3A8
 10
629.507947
 20
144.0
 30
0.0
 11
616.301902
 21
145.738609
 31
0.0
  0
LINE
  8
LC-005-003-----0
  6
CONTINUOUS
  5
3A9
 10
616.261864
 20
142.872254
 30
0.0
 11
624.827947
 21
144.0
 31
0.0
  0
LINE
  8
LC-005-003-----0
  6
CONTINUOUS
  5
3AA
 10
624.827947
 20
144.0
 30
0.0
 11
616.261864
 21
145.127746
 31
0.0
  0
LINE
  8
LC-005-003-----0
  6
CONTINUOUS
  5
3AB
 10
616.221826
 20
143.483116
 30
0.0
 11
620.147947
 21
144.0
 31
0.0
  0
LINE
  8
LC-005-003-----0
  6
CONTINUOUS
  5
3AC
 10
620.147947
 20
144.0
 30
0.0
 11
616.221826
 21
144.516884
 31
0.0
  0
TEXT
  8
LC-005-003-----0
  6
CONTINUOUS
 62
     6
  5
3AD
 10
529.371165
 20
154.431999
 30
0.0
 40
18.0
  1
Ø166
 51
15.0
  7
LC-TXTSTYLE-150-400-0-0-D0
 72
     1
 11
553.862503
 21
154.431999
 31
0.0
  0
ENDBLK
  8
0
  5
3AE
  0
BLOCK
  8
0
  5
3B0
  2
*D34
 70
    65
 10
0.0
 20
0.0
 30
0.0
  3
*D34
  0
LINE
  8
LC-006-003-MTH-0
  6
CONTINUOUS
  5
3B1
 10
424.067258
 20
585.06443
 30
0.0
 11
353.2
 21
585.06443
 31
0.0
  0
LINE
  8
LC-006-003-MTH-0
  6
CONTINUOUS
  5
3B2
 10
428.362819
 20
615.06443
 30
0.0
 11
353.2
 21
615.06443
 31
0.0
  0
LINE
  8
LC-005-003-----0
  6
CONTINUOUS
  5
3B3
 10
366.349471
 20
567.218422
 30
0.0
 11
364.0
 21
585.06443
 31
0.0
  0
LINE
  8
LC-005-003-----0
  6
CONTINUOUS
  5
3B4
 10
364.0
 20
585.06443
 30
0.0
 11
361.650529
 21
567.218422
 31
0.0
  0
LINE
  8
LC-005-003-----0
  6
CONTINUOUS
  5
3B5
 10
361.650529
 20
567.218422
 30
0.0
 11
366.349471
 21
567.218422
 31
0.0
  0
LINE
  8
LC-005-003-----0
  6
CONTINUOUS
  5
3B6
 10
365.738609
 20
567.178384
 30
0.0
 11
364.0
 21
580.38443
 31
0.0
  0
LINE
  8
LC-005-003-----0
  6
CONTINUOUS
  5
3B7
 10
364.0
 20
580.38443
 30
0.0
 11
362.261391
 21
567.178384
 31
0.0
  0
LINE
  8
LC-005-003-----0
  6
CONTINUOUS
  5
3B8
 10
365.127746
 20
567.138346
 30
0.0
 11
364.0
 21
575.70443
 31
0.0
  0
LINE
  8
LC-005-003-----0
  6
CONTINUOUS
  5
3B9
 10
364.0
 20
575.70443
 30
0.0
 11
362.872254
 21
567.138346
 31
0.0
  0
LINE
  8
LC-005-003-----0
  6
CONTINUOUS
  5
3BA
 10
364.516884
 20
567.098308
 30
0.0
 11
364.0
 21
571.02443
 31
0.0
  0
LINE
  8
LC-005-003-----0
  6
CONTINUOUS
  5
3BB
 10
364.0
 20
571.02443
 30
0.0
 11
363.483116
 21
567.098308
 31
0.0
  0
LINE
  8
LC-005-003-----0
  6
CONTINUOUS
  5
3BC
 10
361.650529
 20
632.910437
 30
0.0
 11
364.0
 21
615.06443
 31
0.0
  0
LINE
  8
LC-005-003-----0
  6
CONTINUOUS
  5
3BD
 10
364.0
 20
615.06443
 30
0.0
 11
366.349471
 21
632.910437
 31
0.0
  0
LINE
  8
LC-005-003-----0
  6
CONTINUOUS
  5
3BE
 10
366.349471
 20
632.910437
 30
0.0
 11
361.650529
 21
632.910437
 31
0.0
  0
LINE
  8
LC-005-003-----0
  6
CONTINUOUS
  5
3BF
 10
362.261391
 20
632.950475
 30
0.0
 11
364.0
 21
619.74443
 31
0.0
  0
LINE
  8
LC-005-003-----0
  6
CONTINUOUS
  5
3C0
 10
364.0
 20
619.74443
 30
0.0
 11
365.738609
 21
632.950475
 31
0.0
  0
LINE
  8
LC-005-003-----0
  6
CONTINUOUS
  5
3C1
 10
362.872254
 20
632.990513
 30
0.0
 11
364.0
 21
624.42443
 31
0.0
  0
LINE
  8
LC-005-003-----0
  6
CONTINUOUS
  5
3C2
 10
364.0
 20
624.42443
 30
0.0
 11
365.127746
 21
632.990513
 31
0.0
  0
LINE
  8
LC-005-003-----0
  6
CONTINUOUS
  5
3C3
 10
363.483116
 20
633.030551
 30
0.0
 11
364.0
 21
629.10443
 31
0.0
  0
LINE
  8
LC-005-003-----0
  6
CONTINUOUS
  5
3C4
 10
364.0
 20
629.10443
 30
0.0
 11
364.516884
 21
633.030551
 31
0.0
  0
LINE
  8
LC-007-003-MTG-0
  6
CONTINUOUS
  5
3C5
 10
364.0
 20
559.86443
 30
0.0
 11
364.0
 21
673.066949
 31
0.0
  0
TEXT
  8
LC-005-003-----0
  6
CONTINUOUS
 62
     6
  5
3C6
 10
353.568001
 20
642.339675
 30
0.0
 40
18.0
  1
28
 50
90.0
 51
15.0
  7
LC-TXTSTYLE-150-400-0-0-D0
  0
ENDBLK
  8
0
  5
3C7
  0
BLOCK
  8
0
  5
3C9
  2
*D35
 70
    65
 10
0.0
 20
0.0
 30
0.0
  3
*D35
  0
LINE
  8
LC-006-003-MTH-0
  6
CONTINUOUS
  5
3CA
 10
709.067258
 20
487.846035
 30
0.0
 11
780.8
 21
487.846035
 31
0.0
  0
LINE
  8
LC-006-003-MTH-0
  6
CONTINUOUS
  5
3CB
 10
673.771696
 20
615.06443
 30
0.0
 11
780.8
 21
615.06443
 31
0.0
  0
LINE
  8
LC-007-003-MTG-0
  6
CONTINUOUS
  5
3CC
 10
770.0
 20
487.846035
 30
0.0
 11
770.0
 21
615.06443
 31
0.0
  0
LINE
  8
LC-005-003-----0
  6
CONTINUOUS
  5
3CD
 10
767.650529
 20
505.692042
 30
0.0
 11
770.0
 21
487.846035
 31
0.0
  0
LINE
  8
LC-005-003-----0
  6
CONTINUOUS
  5
3CE
 10
770.0
 20
487.846035
 30
0.0
 11
772.349471
 21
505.692042
 31
0.0
  0
LINE
  8
LC-005-003-----0
  6
CONTINUOUS
  5
3CF
 10
772.349471
 20
505.692042
 30
0.0
 11
767.650529
 21
505.692042
 31
0.0
  0
LINE
  8
LC-005-003-----0
  6
CONTINUOUS
  5
3D0
 10
768.261391
 20
505.73208
 30
0.0
 11
770.0
 21
492.526035
 31
0.0
  0
LINE
  8
LC-005-003-----0
  6
CONTINUOUS
  5
3D1
 10
770.0
 20
492.526035
 30
0.0
 11
771.738609
 21
505.73208
 31
0.0
  0
LINE
  8
LC-005-003-----0
  6
CONTINUOUS
  5
3D2
 10
768.872254
 20
505.772118
 30
0.0
 11
770.0
 21
497.206035
 31
0.0
  0
LINE
  8
LC-005-003-----0
  6
CONTINUOUS
  5
3D3
 10
770.0
 20
497.206035
 30
0.0
 11
771.127746
 21
505.772118
 31
0.0
  0
LINE
  8
LC-005-003-----0
  6
CONTINUOUS
  5
3D4
 10
769.483116
 20
505.812156
 30
0.0
 11
770.0
 21
501.886035
 31
0.0
  0
LINE
  8
LC-005-003-----0
  6
CONTINUOUS
  5
3D5
 10
770.0
 20
501.886035
 30
0.0
 11
770.516884
 21
505.812156
 31
0.0
  0
LINE
  8
LC-005-003-----0
  6
CONTINUOUS
  5
3D6
 10
772.349471
 20
597.218422
 30
0.0
 11
770.0
 21
615.06443
 31
0.0
  0
LINE
  8
LC-005-003-----0
  6
CONTINUOUS
  5
3D7
 10
770.0
 20
615.06443
 30
0.0
 11
767.650529
 21
597.218422
 31
0.0
  0
LINE
  8
LC-005-003-----0
  6
CONTINUOUS
  5
3D8
 10
767.650529
 20
597.218422
 30
0.0
 11
772.349471
 21
597.218422
 31
0.0
  0
LINE
  8
LC-005-003-----0
  6
CONTINUOUS
  5
3D9
 10
771.738609
 20
597.178384
 30
0.0
 11
770.0
 21
610.38443
 31
0.0
  0
LINE
  8
LC-005-003-----0
  6
CONTINUOUS
  5
3DA
 10
770.0
 20
610.38443
 30
0.0
 11
768.261391
 21
597.178384
 31
0.0
  0
LINE
  8
LC-005-003-----0
  6
CONTINUOUS
  5
3DB
 10
771.127746
 20
597.138346
 30
0.0
 11
770.0
 21
605.70443
 31
0.0
  0
LINE
  8
LC-005-003-----0
  6
CONTINUOUS
  5
3DC
 10
770.0
 20
605.70443
 30
0.0
 11
768.872254
 21
597.138346
 31
0.0
  0
LINE
  8
LC-005-003-----0
  6
CONTINUOUS
  5
3DD
 10
770.516884
 20
597.098308
 30
0.0
 11
770.0
 21
601.02443
 31
0.0
  0
LINE
  8
LC-005-003-----0
  6
CONTINUOUS
  5
3DE
 10
770.0
 20
601.02443
 30
0.0
 11
769.483116
 21
597.098308
 31
0.0
  0
TEXT
  8
LC-005-003-----0
  6
CONTINUOUS
 62
     6
  5
3DF
 10
759.568001
 20
512.474887
 30
0.0
 40
18.0
  1
55-135
 50
90.0
 51
15.0
  7
LC-TXTSTYLE-150-400-0-0-D0
 72
     1
 11
759.568001
 21
554.250478
 31
0.0
  0
ENDBLK
  8
0
  5
3E0
  0
BLOCK
  8
0
  5
3E2
  2
*D36
 70
    65
 10
0.0
 20
0.0
 30
0.0
  3
*D36
  0
LINE
  8
LC-006-003-MTH-0
  6
CONTINUOUS
  5
3E3
 10
630.723846
 20
294.641947
 30
0.0
 11
780.8
 21
294.641947
 31
0.0
  0
LINE
  8
LC-006-003-MTH-0
  6
CONTINUOUS
  5
3E4
 10
709.067258
 20
487.846035
 30
0.0
 11
780.8
 21
487.846035
 31
0.0
  0
LINE
  8
LC-007-003-MTG-0
  6
CONTINUOUS
  5
3E5
 10
770.0
 20
294.641947
 30
0.0
 11
770.0
 21
487.846035
 31
0.0
  0
LINE
  8
LC-005-003-----0
  6
CONTINUOUS
  5
3E6
 10
767.650529
 20
312.487955
 30
0.0
 11
770.0
 21
294.641947
 31
0.0
  0
LINE
  8
LC-005-003-----0
  6
CONTINUOUS
  5
3E7
 10
770.0
 20
294.641947
 30
0.0
 11
772.349471
 21
312.487955
 31
0.0
  0
LINE
  8
LC-005-003-----0
  6
CONTINUOUS
  5
3E8
 10
772.349471
 20
312.487955
 30
0.0
 11
767.650529
 21
312.487955
 31
0.0
  0
LINE
  8
LC-005-003-----0
  6
CONTINUOUS
  5
3E9
 10
768.261391
 20
312.527993
 30
0.0
 11
770.0
 21
299.321947
 31
0.0
  0
LINE
  8
LC-005-003-----0
  6
CONTINUOUS
  5
3EA
 10
770.0
 20
299.321947
 30
0.0
 11
771.738609
 21
312.527993
 31
0.0
  0
LINE
  8
LC-005-003-----0
  6
CONTINUOUS
  5
3EB
 10
768.872254
 20
312.568031
 30
0.0
 11
770.0
 21
304.001947
 31
0.0
  0
LINE
  8
LC-005-003-----0
  6
CONTINUOUS
  5
3EC
 10
770.0
 20
304.001947
 30
0.0
 11
771.127746
 21
312.568031
 31
0.0
  0
LINE
  8
LC-005-003-----0
  6
CONTINUOUS
  5
3ED
 10
769.483116
 20
312.608069
 30
0.0
 11
770.0
 21
308.681947
 31
0.0
  0
LINE
  8
LC-005-003-----0
  6
CONTINUOUS
  5
3EE
 10
770.0
 20
308.681947
 30
0.0
 11
770.516884
 21
312.608069
 31
0.0
  0
LINE
  8
LC-005-003-----0
  6
CONTINUOUS
  5
3EF
 10
772.349471
 20
470.000027
 30
0.0
 11
770.0
 21
487.846035
 31
0.0
  0
LINE
  8
LC-005-003-----0
  6
CONTINUOUS
  5
3F0
 10
770.0
 20
487.846035
 30
0.0
 11
767.650529
 21
470.000027
 31
0.0
  0
LINE
  8
LC-005-003-----0
  6
CONTINUOUS
  5
3F1
 10
767.650529
 20
470.000027
 30
0.0
 11
772.349471
 21
470.000027
 31
0.0
  0
LINE
  8
LC-005-003-----0
  6
CONTINUOUS
  5
3F2
 10
771.738609
 20
469.959989
 30
0.0
 11
770.0
 21
483.166035
 31
0.0
  0
LINE
  8
LC-005-003-----0
  6
CONTINUOUS
  5
3F3
 10
770.0
 20
483.166035
 30
0.0
 11
768.261391
 21
469.959989
 31
0.0
  0
LINE
  8
LC-005-003-----0
  6
CONTINUOUS
  5
3F4
 10
771.127746
 20
469.919951
 30
0.0
 11
770.0
 21
478.486035
 31
0.0
  0
LINE
  8
LC-005-003-----0
  6
CONTINUOUS
  5
3F5
 10
770.0
 20
478.486035
 30
0.0
 11
768.872254
 21
469.919951
 31
0.0
  0
LINE
  8
LC-005-003-----0
  6
CONTINUOUS
  5
3F6
 10
770.516884
 20
469.879913
 30
0.0
 11
770.0
 21
473.806035
 31
0.0
  0
LINE
  8
LC-005-003-----0
  6
CONTINUOUS
  5
3F7
 10
770.0
 20
473.806035
 30
0.0
 11
769.483116
 21
469.879913
 31
0.0
  0
TEXT
  8
LC-005-003-----0
  6
CONTINUOUS
 62
     6
  5
3F8
 10
759.568001
 20
374.905378
 30
0.0
 40
18.0
  1
197
 50
90.0
 51
15.0
  7
LC-TXTSTYLE-150-400-0-0-D0
 72
     1
 11
759.568001
 21
394.039237
 31
0.0
  0
ENDBLK
  8
0
  5
3F9
  0
BLOCK
  8
0
  5
3FB
  2
*D37
 70
    65
 10
0.0
 20
0.0
 30
0.0
  3
*D37
  0
LINE
  8
LC-006-003-MTH-0
  6
CONTINUOUS
  5
3FC
 10
604.861486
 20
232.641947
 30
0.0
 11
780.8
 21
232.641947
 31
0.0
  0
LINE
  8
LC-006-003-MTH-0
  6
CONTINUOUS
  5
3FD
 10
630.723846
 20
294.641947
 30
0.0
 11
780.8
 21
294.641947
 31
0.0
  0
LINE
  8
LC-007-003-MTG-0
  6
CONTINUOUS
  5
3FE
 10
770.0
 20
232.641947
 30
0.0
 11
770.0
 21
294.641947
 31
0.0
  0
LINE
  8
LC-005-003-----0
  6
CONTINUOUS
  5
3FF
 10
767.650529
 20
250.487955
 30
0.0
 11
770.0
 21
232.641947
 31
0.0
  0
LINE
  8
LC-005-003-----0
  6
CONTINUOUS
  5
400
 10
770.0
 20
232.641947
 30
0.0
 11
772.349471
 21
250.487955
 31
0.0
  0
LINE
  8
LC-005-003-----0
  6
CONTINUOUS
  5
401
 10
772.349471
 20
250.487955
 30
0.0
 11
767.650529
 21
250.487955
 31
0.0
  0
LINE
  8
LC-005-003-----0
  6
CONTINUOUS
  5
402
 10
768.261391
 20
250.527993
 30
0.0
 11
770.0
 21
237.321947
 31
0.0
  0
LINE
  8
LC-005-003-----0
  6
CONTINUOUS
  5
403
 10
770.0
 20
237.321947
 30
0.0
 11
771.738609
 21
250.527993
 31
0.0
  0
LINE
  8
LC-005-003-----0
  6
CONTINUOUS
  5
404
 10
768.872254
 20
250.568031
 30
0.0
 11
770.0
 21
242.001947
 31
0.0
  0
LINE
  8
LC-005-003-----0
  6
CONTINUOUS
  5
405
 10
770.0
 20
242.001947
 30
0.0
 11
771.127746
 21
250.568031
 31
0.0
  0
LINE
  8
LC-005-003-----0
  6
CONTINUOUS
  5
406
 10
769.483116
 20
250.608069
 30
0.0
 11
770.0
 21
246.681947
 31
0.0
  0
LINE
  8
LC-005-003-----0
  6
CONTINUOUS
  5
407
 10
770.0
 20
246.681947
 30
0.0
 11
770.516884
 21
250.608069
 31
0.0
  0
LINE
  8
LC-005-003-----0
  6
CONTINUOUS
  5
408
 10
772.349471
 20
276.79594
 30
0.0
 11
770.0
 21
294.641947
 31
0.0
  0
LINE
  8
LC-005-003-----0
  6
CONTINUOUS
  5
409
 10
770.0
 20
294.641947
 30
0.0
 11
767.650529
 21
276.79594
 31
0.0
  0
LINE
  8
LC-005-003-----0
  6
CONTINUOUS
  5
40A
 10
767.650529
 20
276.79594
 30
0.0
 11
772.349471
 21
276.79594
 31
0.0
  0
LINE
  8
LC-005-003-----0
  6
CONTINUOUS
  5
40B
 10
771.738609
 20
276.755902
 30
0.0
 11
770.0
 21
289.961947
 31
0.0
  0
LINE
  8
LC-005-003-----0
  6
CONTINUOUS
  5
40C
 10
770.0
 20
289.961947
 30
0.0
 11
768.261391
 21
276.755902
 31
0.0
  0
LINE
  8
LC-005-003-----0
  6
CONTINUOUS
  5
40D
 10
771.127746
 20
276.715864
 30
0.0
 11
770.0
 21
285.281947
 31
0.0
  0
LINE
  8
LC-005-003-----0
  6
CONTINUOUS
  5
40E
 10
770.0
 20
285.281947
 30
0.0
 11
768.872254
 21
276.715864
 31
0.0
  0
LINE
  8
LC-005-003-----0
  6
CONTINUOUS
  5
40F
 10
770.516884
 20
276.675826
 30
0.0
 11
770.0
 21
280.601947
 31
0.0
  0
LINE
  8
LC-005-003-----0
  6
CONTINUOUS
  5
410
 10
770.0
 20
280.601947
 30
0.0
 11
769.483116
 21
276.675826
 31
0.0
  0
TEXT
  8
LC-005-003-----0
  6
CONTINUOUS
 62
     6
  5
411
 10
759.568001
 20
254.574201
 30
0.0
 40
18.0
  1
62
 50
90.0
 51
15.0
  7
LC-TXTSTYLE-150-400-0-0-D0
 72
     1
 11
759.568001
 21
266.437193
 31
0.0
  0
ENDBLK
  8
0
  5
412
  0
BLOCK
  8
0
  5
414
  2
BLK3
 70
    64
 10
0.0
 20
0.0
 30
0.0
  3
BLK3
  0
ENDBLK
  8
0
  5
415
  0
BLOCK
  8
0
  5
417
  2
*X39
 70
    65
 10
646.069517
 20
595.06443
 30
0.0
  3
*X39
  0
LINE
  8
LC-004-005-----0
  6
CONTINUOUS
  5
418
 10
662.433216
 20
610.35899
 30
0.0
 11
657.727777
 21
615.06443
 31
0.0
  0
LINE
  8
LC-004-005-----0
  6
CONTINUOUS
  5
419
 10
662.292366
 20
607.671413
 30
0.0
 11
654.899349
 21
615.06443
 31
0.0
  0
LINE
  8
LC-004-005-----0
  6
CONTINUOUS
  5
41A
 10
662.010666
 20
602.296258
 30
0.0
 11
649.242495
 21
615.06443
 31
0.0
  0
LINE
  8
LC-004-005-----0
  6
CONTINUOUS
  5
41B
 10
661.869816
 20
599.608681
 30
0.0
 11
646.838111
 21
614.640387
 31
0.0
  0
LINE
  8
LC-004-005-----0
  6
CONTINUOUS
  5
41C
 10
660.572727
 20
595.248916
 30
0.0
 11
646.249811
 21
609.571832
 31
0.0
  0
LINE
  8
LC-004-005-----0
  6
CONTINUOUS
  5
41D
 10
657.928787
 20
595.06443
 30
0.0
 11
646.406241
 21
606.586975
 31
0.0
  0
LINE
  8
LC-004-005-----0
  6
CONTINUOUS
  5
41E
 10
652.271932
 20
595.06443
 30
0.0
 11
646.7191
 21
600.617262
 31
0.0
  0
LINE
  8
LC-004-005-----0
  6
CONTINUOUS
  5
41F
 10
649.443505
 20
595.06443
 30
0.0
 11
646.87553
 21
597.632405
 31
0.0
  0
ENDBLK
  8
0
  5
420
  0
BLOCK
  8
0
  5
422
  2
*X40
 70
    65
 10
486.064999
 20
581.06443
 30
0.0
  3
*X40
  0
LINE
  8
LC-004-005-----0
  6
CONTINUOUS
  5
423
 10
615.851769
 20
608.857176
 30
0.0
 11
609.644515
 21
615.06443
 31
0.0
  0
LINE
  8
LC-004-005-----0
  6
CONTINUOUS
  5
424
 10
615.710919
 20
606.169599
 30
0.0
 11
606.816088
 21
615.06443
 31
0.0
  0
LINE
  8
LC-004-005-----0
  6
CONTINUOUS
  5
425
 10
615.429219
 20
600.794445
 30
0.0
 11
601.159234
 21
615.06443
 31
0.0
  0
LINE
  8
LC-004-005-----0
  6
CONTINUOUS
  5
426
 10
615.288369
 20
598.106868
 30
0.0
 11
598.330807
 21
615.06443
 31
0.0
  0
LINE
  8
LC-004-005-----0
  6
CONTINUOUS
  5
427
 10
613.230992
 20
594.50739
 30
0.0
 11
592.673953
 21
615.06443
 31
0.0
  0
LINE
  8
LC-004-005-----0
  6
CONTINUOUS
  5
428
 10
611.997392
 20
592.912563
 30
0.0
 11
589.845526
 21
615.06443
 31
0.0
  0
LINE
  8
LC-004-005-----0
  6
CONTINUOUS
  5
429
 10
607.401568
 20
591.851533
 30
0.0
 11
584.188671
 21
615.06443
 31
0.0
  0
LINE
  8
LC-004-005-----0
  6
CONTINUOUS
  5
42A
 10
605.103655
 20
591.321018
 30
0.0
 11
581.360244
 21
615.06443
 31
0.0
  0
LINE
  8
LC-004-005-----0
  6
CONTINUOUS
  5
42B
 10
600.507831
 20
590.259989
 30
0.0
 11
575.70339
 21
615.06443
 31
0.0
  0
LINE
  8
LC-004-005-----0
  6
CONTINUOUS
  5
42C
 10
598.209919
 20
589.729474
 30
0.0
 11
572.874963
 21
615.06443
 31
0.0
  0
LINE
  8
LC-004-005-----0
  6
CONTINUOUS
  5
42D
 10
593.614094
 20
588.668444
 30
0.0
 11
567.218109
 21
615.06443
 31
0.0
  0
LINE
  8
LC-004-005-----0
  6
CONTINUOUS
  5
42E
 10
591.316182
 20
588.137929
 30
0.0
 11
564.389681
 21
615.06443
 31
0.0
  0
LINE
  8
LC-004-005-----0
  6
CONTINUOUS
  5
42F
 10
586.720357
 20
587.076899
 30
0.0
 11
558.732827
 21
615.06443
 31
0.0
  0
LINE
  8
LC-004-005-----0
  6
CONTINUOUS
  5
430
 10
584.422445
 20
586.546385
 30
0.0
 11
555.9044
 21
615.06443
 31
0.0
  0
LINE
  8
LC-004-005-----0
  6
CONTINUOUS
  5
431
 10
579.82662
 20
585.485355
 30
0.0
 11
550.247546
 21
615.06443
 31
0.0
  0
LINE
  8
LC-004-005-----0
  6
CONTINUOUS
  5
432
 10
577.528708
 20
584.95484
 30
0.0
 11
547.419119
 21
615.06443
 31
0.0
  0
LINE
  8
LC-004-005-----0
  6
CONTINUOUS
  5
433
 10
572.932884
 20
583.89381
 30
0.0
 11
541.762264
 21
615.06443
 31
0.0
  0
LINE
  8
LC-004-005-----0
  6
CONTINUOUS
  5
434
 10
570.634971
 20
583.363296
 30
0.0
 11
538.933837
 21
615.06443
 31
0.0
  0
LINE
  8
LC-004-005-----0
  6
CONTINUOUS
  5
435
 10
566.039147
 20
582.302266
 30
0.0
 11
533.276983
 21
615.06443
 31
0.0
  0
LINE
  8
LC-004-005-----0
  6
CONTINUOUS
  5
436
 10
563.741235
 20
581.771751
 30
0.0
 11
530.448556
 21
615.06443
 31
0.0
  0
LINE
  8
LC-004-005-----0
  6
CONTINUOUS
  5
437
 10
558.791702
 20
581.06443
 30
0.0
 11
524.791702
 21
615.06443
 31
0.0
  0
LINE
  8
LC-004-005-----0
  6
CONTINUOUS
  5
438
 10
555.963275
 20
581.06443
 30
0.0
 11
521.963275
 21
615.06443
 31
0.0
  0
LINE
  8
LC-004-005-----0
  6
CONTINUOUS
  5
439
 10
550.30642
 20
581.06443
 30
0.0
 11
516.30642
 21
615.06443
 31
0.0
  0
LINE
  8
LC-004-005-----0
  6
CONTINUOUS
  5
43A
 10
547.477993
 20
581.06443
 30
0.0
 11
513.477993
 21
615.06443
 31
0.0
  0
LINE
  8
LC-004-005-----0
  6
CONTINUOUS
  5
43B
 10
541.821139
 20
581.06443
 30
0.0
 11
507.821139
 21
615.06443
 31
0.0
  0
LINE
  8
LC-004-005-----0
  6
CONTINUOUS
  5
43C
 10
538.250826
 20
581.806315
 30
0.0
 11
504.992712
 21
615.06443
 31
0.0
  0
LINE
  8
LC-004-005-----0
  6
CONTINUOUS
  5
43D
 10
530.89597
 20
583.504317
 30
0.0
 11
499.335858
 21
615.06443
 31
0.0
  0
LINE
  8
LC-004-005-----0
  6
CONTINUOUS
  5
43E
 10
527.218541
 20
584.353319
 30
0.0
 11
496.50743
 21
615.06443
 31
0.0
  0
LINE
  8
LC-004-005-----0
  6
CONTINUOUS
  5
43F
 10
519.863685
 20
586.051321
 30
0.0
 11
490.850576
 21
615.06443
 31
0.0
  0
LINE
  8
LC-004-005-----0
  6
CONTINUOUS
  5
440
 10
516.186256
 20
586.900322
 30
0.0
 11
488.022599
 21
615.06398
 31
0.0
  0
LINE
  8
LC-004-005-----0
  6
CONTINUOUS
  5
441
 10
508.8314
 20
588.598325
 30
0.0
 11
486.156106
 21
611.273618
 31
0.0
  0
LINE
  8
LC-004-005-----0
  6
CONTINUOUS
  5
442
 10
505.153971
 20
589.447326
 30
0.0
 11
486.312536
 21
608.288761
 31
0.0
  0
LINE
  8
LC-004-005-----0
  6
CONTINUOUS
  5
443
 10
497.799114
 20
591.145329
 30
0.0
 11
486.625395
 21
602.319048
 31
0.0
  0
LINE
  8
LC-004-005-----0
  6
CONTINUOUS
  5
444
 10
494.121686
 20
591.99433
 30
0.0
 11
486.781825
 21
599.334191
 31
0.0
  0
ENDBLK
  8
0
  5
445
  0
BLOCK
  8
0
  5
447
  2
*X41
 70
    65
 10
439.569517
 20
595.06443
 30
0.0
  3
*X41
  0
LINE
  8
LC-004-005-----0
  6
CONTINUOUS
  5
448
 10
451.850255
 20
608.809916
 30
0.0
 11
445.595742
 21
615.06443
 31
0.0
  0
LINE
  8
LC-004-005-----0
  6
CONTINUOUS
  5
449
 10
451.709406
 20
606.122339
 30
0.0
 11
442.767315
 21
615.06443
 31
0.0
  0
LINE
  8
LC-004-005-----0
  6
CONTINUOUS
  5
44A
 10
451.427706
 20
600.747185
 30
0.0
 11
439.592009
 21
612.582882
 31
0.0
  0
LINE
  8
LC-004-005-----0
  6
CONTINUOUS
  5
44B
 10
451.286856
 20
598.059608
 30
0.0
 11
439.748439
 21
609.598025
 31
0.0
  0
LINE
  8
LC-004-005-----0
  6
CONTINUOUS
  5
44C
 10
448.625179
 20
595.06443
 30
0.0
 11
440.061298
 21
603.628311
 31
0.0
  0
LINE
  8
LC-004-005-----0
  6
CONTINUOUS
  5
44D
 10
445.796752
 20
595.06443
 30
0.0
 11
440.217728
 21
600.643454
 31
0.0
  0
ENDBLK
  8
0
  5
44E
  0
BLOCK
  8
0
  5
450
  2
*D42
 70
    65
 10
0.0
 20
0.0
 30
0.0
  3
*D42
  0
LINE
  8
LC-006-003-MTH-0
  6
CONTINUOUS
  5
451
 10
439.572258
 20
612.959758
 30
0.0
 11
439.572258
 21
654.8
 31
0.0
  0
LINE
  8
LC-006-003-MTH-0
  6
CONTINUOUS
  5
452
 10
662.569517
 20
612.959758
 30
0.0
 11
662.569517
 21
654.8
 31
0.0
  0
LINE
  8
LC-007-003-MTG-0
  6
CONTINUOUS
  5
453
 10
439.572258
 20
644.0
 30
0.0
 11
662.569517
 21
644.0
 31
0.0
  0
LINE
  8
LC-005-003-----0
  6
CONTINUOUS
  5
454
 10
457.418265
 20
646.349471
 30
0.0
 11
439.572258
 21
644.0
 31
0.0
  0
LINE
  8
LC-005-003-----0
  6
CONTINUOUS
  5
455
 10
439.572258
 20
644.0
 30
0.0
 11
457.418265
 21
641.650529
 31
0.0
  0
LINE
  8
LC-005-003-----0
  6
CONTINUOUS
  5
456
 10
457.418265
 20
641.650529
 30
0.0
 11
457.418265
 21
646.349471
 31
0.0
  0
LINE
  8
LC-005-003-----0
  6
CONTINUOUS
  5
457
 10
457.458303
 20
645.738609
 30
0.0
 11
444.252258
 21
644.0
 31
0.0
  0
LINE
  8
LC-005-003-----0
  6
CONTINUOUS
  5
458
 10
444.252258
 20
644.0
 30
0.0
 11
457.458303
 21
642.261391
 31
0.0
  0
LINE
  8
LC-005-003-----0
  6
CONTINUOUS
  5
459
 10
457.498341
 20
645.127746
 30
0.0
 11
448.932258
 21
644.0
 31
0.0
  0
LINE
  8
LC-005-003-----0
  6
CONTINUOUS
  5
45A
 10
448.932258
 20
644.0
 30
0.0
 11
457.498341
 21
642.872254
 31
0.0
  0
LINE
  8
LC-005-003-----0
  6
CONTINUOUS
  5
45B
 10
457.538379
 20
644.516884
 30
0.0
 11
453.612258
 21
644.0
 31
0.0
  0
LINE
  8
LC-005-003-----0
  6
CONTINUOUS
  5
45C
 10
453.612258
 20
644.0
 30
0.0
 11
457.538379
 21
643.483116
 31
0.0
  0
LINE
  8
LC-005-003-----0
  6
CONTINUOUS
  5
45D
 10
644.723509
 20
641.650529
 30
0.0
 11
662.569517
 21
644.0
 31
0.0
  0
LINE
  8
LC-005-003-----0
  6
CONTINUOUS
  5
45E
 10
662.569517
 20
644.0
 30
0.0
 11
644.723509
 21
646.349471
 31
0.0
  0
LINE
  8
LC-005-003-----0
  6
CONTINUOUS
  5
45F
 10
644.723509
 20
646.349471
 30
0.0
 11
644.723509
 21
641.650529
 31
0.0
  0
LINE
  8
LC-005-003-----0
  6
CONTINUOUS
  5
460
 10
644.683471
 20
642.261391
 30
0.0
 11
657.889517
 21
644.0
 31
0.0
  0
LINE
  8
LC-005-003-----0
  6
CONTINUOUS
  5
461
 10
657.889517
 20
644.0
 30
0.0
 11
644.683471
 21
645.738609
 31
0.0
  0
LINE
  8
LC-005-003-----0
  6
CONTINUOUS
  5
462
 10
644.643433
 20
642.872254
 30
0.0
 11
653.209517
 21
644.0
 31
0.0
  0
LINE
  8
LC-005-003-----0
  6
CONTINUOUS
  5
463
 10
653.209517
 20
644.0
 30
0.0
 11
644.643433
 21
645.127746
 31
0.0
  0
LINE
  8
LC-005-003-----0
  6
CONTINUOUS
  5
464
 10
644.603395
 20
643.483116
 30
0.0
 11
648.529517
 21
644.0
 31
0.0
  0
LINE
  8
LC-005-003-----0
  6
CONTINUOUS
  5
465
 10
648.529517
 20
644.0
 30
0.0
 11
644.603395
 21
644.516884
 31
0.0
  0
TEXT
  8
LC-005-003-----0
  6
CONTINUOUS
 62
     6
  5
466
 10
534.732275
 20
654.431999
 30
0.0
 40
18.0
  1
226
 51
15.0
  7
LC-TXTSTYLE-150-400-0-0-D0
 72
     1
 11
553.866133
 21
654.431999
 31
0.0
  0
ENDBLK
  8
0
  5
467
  0
ENDSEC
  0
SECTION
  2
ENTITIES
  0
VIEWPORT
  8
LC-000
  5
699
 67
     1
 68
     1
 10
594.0
 20
420.0
 30
0.0
 40
1188.0
 41
840.0
 69
     1
1001
ACAD
1000
MVIEW
1002
{
1070
    16
1010
0.0
1020
0.0
1030
0.0
1010
0.0
1020
0.0
1030
1.0
1040
0.0
1040
840.0
1040
594.0
1040
420.0
1040
50.0
1040
0.0
1040
0.0
1070
     0
1070
   100
1070
     1
1070
     1
1070
     0
1070
     0
1070
     0
1070
     0
1040
0.0
1040
0.0
1040
0.0
1040
1.0
1040
1.0
1040
0.0
1040
0.0
1070
     0
1002
{
1002
}
1002
}
  0
VIEWPORT
  8
0
  5
69A
 67
     1
 68
     1
 10
0.0
 20
0.0
 30
0.0
 40
0.0
 41
0.0
 69
     1
1001
ACAD
1000
MVIEW
1002
{
1070
    16
1010
0.0
1020
0.0
1030
0.0
1010
0.0
1020
0.0
1030
1.0
1040
0.0
1040
840.0
1040
0.0
1040
0.0
1040
50.0
1040
0.0
1040
0.0
1070
     0
1070
   100
1070
     0
1070
     1
1070
     0
1070
     0
1070
     0
1070
     0
1040
0.0
1040
0.0
1040
0.0
1040
0.5
1040
0.5
1040
0.5
1040
0.5
1070
     0
1002
{
1002
}
1002
}
  0
INSERT
  8
0
  5
469
  2
BLK1
 10
0.0
 20
0.0
 30
0.0
  0
INSERT
  8
0
  5
46A
  2
BLK2
 10
0.0
 20
0.0
 30
0.0
  0
INSERT
  8
0
  5
46B
  2
*X2
 10
454.067258
 20
574.674179
 30
0.0
  0
INSERT
  8
0
  5
46C
  2
*X3
 10
478.323355
 20
526.999753
 30
0.0
  0
INSERT
  8
0
  5
46D
  2
*X4
 10
538.067258
 20
525.108479
 30
0.0
  0
INSERT
  8
0
  5
46E
  2
*X5
 10
551.067258
 20
525.108479
 30
0.0
  0
INSERT
  8
0
  5
46F
  2
*X6
 10
568.067258
 20
526.999753
 30
0.0
  0
INSERT
  8
0
  5
470
  2
*X7
 10
623.196761
 20
574.674179
 30
0.0
  0
INSERT
  8
0
  5
471
  2
*X8
 10
462.067258
 20
320.87747
 30
0.0
  0
INSERT
  8
0
  5
472
  2
*X9
 10
536.189378
 20
381.715389
 30
0.0
  0
INSERT
  8
0
  5
473
  2
*X10
 10
540.417132
 20
394.817261
 30
0.0
  0
INSERT
  8
0
  5
474
  2
*X11
 10
536.189378
 20
402.819254
 30
0.0
  0
INSERT
  8
0
  5
475
  2
*X12
 10
551.067258
 20
319.017645
 30
0.0
  0
INSERT
  8
0
  5
476
  2
*X13
 10
551.067258
 20
318.72072
 30
0.0
  0
INSERT
  8
0
  5
477
  2
*X14
 10
465.067258
 20
418.789293
 30
0.0
  0
INSERT
  8
0
  5
478
  2
*X15
 10
551.067258
 20
411.814189
 30
0.0
  0
INSERT
  8
0
  5
479
  2
*X16
 10
615.366752
 20
581.016161
 30
0.0
  0
INSERT
  8
0
  5
47A
  2
*X17
 10
421.067258
 20
558.06443
 30
0.0
  0
INSERT
  8
0
  5
47B
  2
*X18
 10
449.612258
 20
463.641947
 30
0.0
  0
INSERT
  8
0
  5
47C
  2
*X19
 10
651.067258
 20
558.06443
 30
0.0
  0
INSERT
  8
0
  5
47D
  2
*X20
 10
642.179758
 20
463.641947
 30
0.0
  0
INSERT
  8
0
  5
47E
  2
*X21
 10
652.567258
 20
580.236806
 30
0.0
  0
INSERT
  8
0
  5
47F
  2
*X22
 10
445.067258
 20
580.236806
 30
0.0
  0
INSERT
  8
0
  5
480
  2
*X23
 10
633.067258
 20
418.789293
 30
0.0
  0
INSERT
  8
0
  5
481
  2
*X24
 10
393.067258
 20
232.641947
 30
0.0
  0
INSERT
  8
0
  5
482
  2
*X25
 10
602.067258
 20
232.641947
 30
0.0
  0
INSERT
  8
0
  5
483
  2
*X26
 10
452.746228
 20
467.692604
 30
0.0
  0
INSERT
  8
0
  5
484
  2
*X27
 10
645.388287
 20
467.692604
 30
0.0
  0
DIMENSION
  8
0
  5
485
  2
*D28
 10
551.067258
 20
180.0
 30
0.0
 11
551.067258
 21
180.0
 31
0.0
  1
DN100
 13
496.067258
 23
237.141947
 33
0.0
 14
606.067258
 24
237.141947
 34
0.0
  3
LC-DIM-L-0090-02-02
  0
DIMENSION
  8
0
  5
486
  2
*D29
 10
551.067258
 20
108.0
 30
0.0
 11
551.067258
 21
108.0
 31
0.0
  1
%%c<>
 13
457.067258
 23
431.341947
 33
0.0
 14
645.067258
 24
431.341947
 34
0.0
  3
LC-DIM-L-0090-02-02
  0
DIMENSION
  8
0
  5
487
  2
*D30
 10
546.30044
 20
720.0
 30
0.0
 11
546.30044
 21
720.0
 31
0.0
  1
%%c315
 13
393.067258
 23
487.846035
 33
0.0
 14
709.067258
 24
487.846035
 34
0.0
  3
LC-DIM-L-0090-02-02
  0
DIMENSION
  8
0
  5
488
  2
*D31
 10
551.067258
 20
72.0
 30
0.0
 11
551.067258
 21
72.0
 31
0.0
  1
%%c<>
 13
448.567258
 23
463.641947
 33
0.0
 14
653.567258
 24
463.641947
 34
0.0
  3
LC-DIM-L-0090-02-02
  0
DIMENSION
  8
0
  5
489
  2
*D32
 10
551.733275
 20
680.0
 30
0.0
 11
551.733275
 21
680.0
 31
0.0
 13
421.067258
 23
588.06443
 33
0.0
 14
681.067258
 24
593.56443
 34
0.0
  3
LC-DIM-L-0090-02-02
  0
DIMENSION
  8
0
  5
48A
  2
*D33
 10
551.067258
 20
144.0
 30
0.0
 11
551.067258
 21
144.0
 31
0.0
  1
%%c166
 13
467.946568
 23
300.641947
 33
0.0
 14
634.187947
 24
300.641947
 34
0.0
  3
LC-DIM-L-0090-02-02
  0
DIMENSION
  8
0
  5
48B
  2
*D34
 10
364.0
 20
600.06443
 30
0.0
 11
364.0
 21
600.06443
 31
0.0
  1
28
 13
428.362819
 23
615.06443
 33
0.0
 14
424.067258
 24
585.06443
 34
0.0
 50
90.0
  3
LC-DIM-L-0090-02-02
  0
DIMENSION
  8
0
  5
48C
  2
*D35
 10
770.0
 20
551.455232
 30
0.0
 11
770.0
 21
551.455232
 31
0.0
  1
55-135
 13
673.771696
 23
615.06443
 33
0.0
 14
709.067258
 24
487.846035
 34
0.0
 50
90.0
  3
LC-DIM-L-0090-02-02
  0
DIMENSION
  8
0
  5
48D
  2
*D36
 10
770.0
 20
391.243991
 30
0.0
 11
770.0
 21
391.243991
 31
0.0
  1
197
 13
709.067258
 23
487.846035
 33
0.0
 14
630.723846
 24
294.641947
 34
0.0
 50
90.0
  3
LC-DIM-L-0090-02-02
  0
DIMENSION
  8
0
  5
48E
  2
*D37
 10
770.0
 20
263.641947
 30
0.0
 11
770.0
 21
263.641947
 31
0.0
 13
630.723846
 23
294.641947
 33
0.0
 14
604.861486
 24
232.641947
 34
0.0
 50
90.0
  3
LC-DIM-L-0090-02-02
  0
INSERT
  8
0
  5
490
  2
BLK3
 10
0.0
 20
0.0
 30
0.0
  0
INSERT
  8
0
  5
491
  2
*X39
 10
646.069517
 20
595.06443
 30
0.0
  0
INSERT
  8
0
  5
492
  2
*X40
 10
486.064999
 20
581.06443
 30
0.0
  0
INSERT
  8
0
  5
493
  2
*X41
 10
439.569517
 20
595.06443
 30
0.0
  0
DIMENSION
  8
0
  5
494
  2
*D42
 10
551.070887
 20
644.0
 30
0.0
 11
551.070887
 21
644.0
 31
0.0
  1
226
 13
439.572258
 23
612.959758
 33
0.0
 14
662.569517
 24
612.959758
 34
0.0
  3
LC-DIM-L-0090-02-02
  0
LINE
  8
LC-001-002-----0
  6
CONTINUOUS
  5
496
 10
457.098258
 20
561.15893
 30
0.0
 11
457.098258
 21
557.346905
 31
0.0
  0
ARC
  8
LC-003-002-RND-0
  6
CONTINUOUS
  5
498
 10
456.113258
 20
561.15893
 30
0.0
 40
0.985
 50
0.0
 51
90.0
  0
LINE
  8
LC-001-002-----0
  6
CONTINUOUS
  5
499
 10
453.306008
 20
545.724958
 30
0.0
 11
453.306008
 21
543.262458
 31
0.0
  0
ARC
  8
LC-003-002-RND-0
  6
CONTINUOUS
  5
49A
 10
453.306008
 20
566.08393
 30
0.0
 40
0.985
 50
180.0
 51
270.0
  0
LINE
  8
LC-001-002-----0
  6
CONTINUOUS
  5
49B
 10
457.098258
 20
551.34051
 30
0.0
 11
457.098258
 21
547.496905
 31
0.0
  0
ARC
  8
LC-003-002-RND-0
  6
CONTINUOUS
  5
49C
 10
456.113258
 20
551.34051
 30
0.0
 40
0.985
 50
0.0
 51
75.0
  0
ARC
  8
LC-003-002-RND-0
  6
CONTINUOUS
  5
49D
 10
456.113258
 20
557.346905
 30
0.0
 40
0.985
 50
285.0
 51
0.0
  0
LINE
  8
LC-001-002-----0
  6
CONTINUOUS
  5
49E
 10
452.567258
 20
463.641947
 30
0.0
 11
551.067258
 21
463.641947
 31
0.0
  0
LINE
  8
LC-001-002-----0
  6
CONTINUOUS
  5
49F
 10
457.098258
 20
537.646905
 30
0.0
 11
457.098258
 21
541.49051
 31
0.0
  0
LINE
  8
LC-001-002-----0
  6
CONTINUOUS
  5
4A0
 10
453.306008
 20
535.874958
 30
0.0
 11
456.368194
 21
536.695468
 31
0.0
  0
LINE
  8
LC-001-002-----0
  6
CONTINUOUS
  5
4A1
 10
453.306008
 20
533.412458
 30
0.0
 11
453.306008
 21
535.874958
 31
0.0
  0
LINE
  8
LC-001-002-----0
  6
CONTINUOUS
  5
4A2
 10
453.306008
 20
533.412458
 30
0.0
 11
456.368194
 21
532.591947
 31
0.0
  0
ARC
  8
LC-003-002-RND-0
  6
CONTINUOUS
  5
4A3
 10
456.113258
 20
531.64051
 30
0.0
 40
0.985
 50
0.0
 51
75.0
  0
ARC
  8
LC-003-002-RND-0
  6
CONTINUOUS
  5
4A4
 10
456.113258
 20
537.646905
 30
0.0
 40
0.985
 50
285.0
 51
0.0
  0
LINE
  8
LC-001-002-----0
  6
CONTINUOUS
  5
4A5
 10
457.098258
 20
527.796905
 30
0.0
 11
457.098258
 21
531.64051
 31
0.0
  0
ARC
  8
LC-003-002-RND-0
  6
CONTINUOUS
  5
4A6
 10
456.113258
 20
527.796905
 30
0.0
 40
0.985
 50
285.0
 51
0.0
  0
LINE
  8
LC-001-002-----0
  6
CONTINUOUS
  5
4A7
 10
453.306008
 20
526.024958
 30
0.0
 11
456.368194
 21
526.845468
 31
0.0
  0
LINE
  8
LC-001-002-----0
  6
CONTINUOUS
  5
4A8
 10
453.306008
 20
523.562458
 30
0.0
 11
453.306008
 21
526.024958
 31
0.0
  0
LINE
  8
LC-001-002-----0
  6
CONTINUOUS
  5
4A9
 10
453.306008
 20
555.574958
 30
0.0
 11
456.368194
 21
556.395468
 31
0.0
  0
LINE
  8
LC-001-002-----0
  6
CONTINUOUS
  5
4AA
 10
453.306008
 20
523.562458
 30
0.0
 11
456.368194
 21
522.741947
 31
0.0
  0
ARC
  8
LC-003-002-RND-0
  6
CONTINUOUS
  5
4AB
 10
456.113258
 20
547.496905
 30
0.0
 40
0.985
 50
285.0
 51
0.0
  0
ARC
  8
LC-003-002-RND-0
  6
CONTINUOUS
  5
4AC
 10
456.113258
 20
541.49051
 30
0.0
 40
0.985
 50
0.0
 51
75.0
  0
LINE
  8
LC-001-002-----0
  6
CONTINUOUS
  5
4AD
 10
453.306008
 20
553.112458
 30
0.0
 11
456.368194
 21
552.291947
 31
0.0
  0
ARC
  8
LC-003-002-RND-0
  6
CONTINUOUS
  5
4AE
 10
456.113258
 20
521.79051
 30
0.0
 40
0.985
 50
0.0
 51
75.0
  0
LINE
  8
LC-001-002-----0
  6
CONTINUOUS
  5
4AF
 10
453.306008
 20
545.724958
 30
0.0
 11
456.368194
 21
546.545468
 31
0.0
  0
LINE
  8
LC-001-002-----0
  6
CONTINUOUS
  5
4B0
 10
453.306008
 20
543.262458
 30
0.0
 11
456.368194
 21
542.441947
 31
0.0
  0
LINE
  8
LC-001-002-----0
  6
CONTINUOUS
  5
4B1
 10
457.098258
 20
517.946905
 30
0.0
 11
457.098258
 21
521.79051
 31
0.0
  0
ARC
  8
LC-003-002-RND-0
  6
CONTINUOUS
  5
4B2
 10
456.113258
 20
517.946905
 30
0.0
 40
0.985
 50
285.0
 51
0.0
  0
LINE
  8
LC-001-002-----0
  6
CONTINUOUS
  5
4B3
 10
453.306008
 20
516.174958
 30
0.0
 11
456.368194
 21
516.995468
 31
0.0
  0
LINE
  8
LC-001-002-----0
  6
CONTINUOUS
  5
4B4
 10
453.306008
 20
513.712458
 30
0.0
 11
453.306008
 21
516.174958
 31
0.0
  0
LINE
  8
LC-001-002-----0
  6
CONTINUOUS
  5
4B5
 10
453.306008
 20
513.712458
 30
0.0
 11
456.368194
 21
512.891947
 31
0.0
  0
ARC
  8
LC-003-002-RND-0
  6
CONTINUOUS
  5
4B6
 10
456.113258
 20
511.94051
 30
0.0
 40
0.985
 50
0.0
 51
75.0
  0
LINE
  8
LC-001-002-----0
  6
CONTINUOUS
  5
4B7
 10
457.098258
 20
508.096905
 30
0.0
 11
457.098258
 21
511.94051
 31
0.0
  0
ARC
  8
LC-003-002-RND-0
  6
CONTINUOUS
  5
4B8
 10
457.984758
 20
563.12893
 30
0.0
 40
1.97
 50
0.0
 51
90.0
  0
ARC
  8
LC-003-002-RND-0
  6
CONTINUOUS
  5
4B9
 10
456.113258
 20
508.096905
 30
0.0
 40
0.985
 50
285.0
 51
0.0
  0
LINE
  8
LC-001-002-----0
  6
CONTINUOUS
  5
4BA
 10
453.306008
 20
506.324958
 30
0.0
 11
456.368194
 21
507.145468
 31
0.0
  0
LINE
  8
LC-001-002-----0
  6
CONTINUOUS
  5
4BB
 10
453.306008
 20
506.324958
 30
0.0
 11
453.306008
 21
503.862458
 31
0.0
  0
LINE
  8
LC-001-002-----0
  6
CONTINUOUS
  5
4BC
 10
453.306008
 20
503.862458
 30
0.0
 11
456.368194
 21
503.041947
 31
0.0
  0
ARC
  8
LC-003-002-RND-0
  6
CONTINUOUS
  5
4BD
 10
456.113258
 20
502.09051
 30
0.0
 40
0.985
 50
0.0
 51
75.0
  0
LINE
  8
LC-001-002-----0
  6
CONTINUOUS
  5
4BE
 10
457.098258
 20
502.09051
 30
0.0
 11
457.098258
 21
498.246905
 31
0.0
  0
ARC
  8
LC-003-002-RND-0
  6
CONTINUOUS
  5
4BF
 10
456.113258
 20
498.246905
 30
0.0
 40
0.985
 50
285.0
 51
0.0
  0
LINE
  8
LC-001-002-----0
  6
CONTINUOUS
  5
4C0
 10
453.306008
 20
496.474958
 30
0.0
 11
456.368194
 21
497.295468
 31
0.0
  0
LINE
  8
LC-001-002-----0
  6
CONTINUOUS
  5
4C1
 10
453.306008
 20
496.474958
 30
0.0
 11
453.306008
 21
494.012458
 31
0.0
  0
LINE
  8
LC-001-002-----0
  6
CONTINUOUS
  5
4C2
 10
453.306008
 20
494.012458
 30
0.0
 11
456.368194
 21
493.191947
 31
0.0
  0
ARC
  8
LC-003-002-RND-0
  6
CONTINUOUS
  5
4C3
 10
456.113258
 20
492.24051
 30
0.0
 40
0.985
 50
0.0
 51
75.0
  0
LINE
  8
LC-001-002-----0
  6
CONTINUOUS
  5
4C4
 10
457.098258
 20
492.24051
 30
0.0
 11
457.098258
 21
488.396905
 31
0.0
  0
LINE
  8
LC-001-002-----0
  6
CONTINUOUS
  5
4C5
 10
645.036258
 20
561.15893
 30
0.0
 11
645.036258
 21
557.346905
 31
0.0
  0
ARC
  8
LC-003-002-RND-0
  6
CONTINUOUS
  5
4C6
 10
646.021258
 20
561.15893
 30
0.0
 40
0.985
 50
90.0
 51
180.0
  0
LINE
  8
LC-001-002-----0
  6
CONTINUOUS
  5
4C7
 10
648.828508
 20
545.724958
 30
0.0
 11
648.828508
 21
543.262458
 31
0.0
  0
LINE
  8
LC-001-002-----0
  6
CONTINUOUS
  5
4C8
 10
650.059758
 20
562.14393
 30
0.0
 11
646.021258
 21
562.14393
 31
0.0
  0
ARC
  8
LC-003-002-RND-0
  6
CONTINUOUS
  5
4C9
 10
650.059758
 20
564.60643
 30
0.0
 40
2.4625
 50
270.0
 51
0.0
  0
ARC
  8
LC-003-002-RND-0
  6
CONTINUOUS
  5
4CA
 10
648.828508
 20
566.08393
 30
0.0
 40
0.985
 50
270.0
 51
0.0
  0
LINE
  8
LC-001-002-----0
  6
CONTINUOUS
  5
4CB
 10
645.036258
 20
551.34051
 30
0.0
 11
645.036258
 21
547.496905
 31
0.0
  0
LINE
  8
LC-001-002-----0
  6
CONTINUOUS
  5
4CC
 10
453.306008
 20
555.574958
 30
0.0
 11
453.306008
 21
553.112458
 31
0.0
  0
ARC
  8
LC-003-002-RND-0
  6
CONTINUOUS
  5
4CD
 10
646.021258
 20
551.34051
 30
0.0
 40
0.985
 50
105.0
 51
180.0
  0
ARC
  8
LC-003-002-RND-0
  6
CONTINUOUS
  5
4CE
 10
646.021258
 20
557.346905
 30
0.0
 40
0.985
 50
180.0
 51
255.0
  0
LINE
  8
LC-001-002-----0
  6
CONTINUOUS
  5
4CF
 10
645.766321
 20
463.641947
 30
0.0
 11
551.067258
 21
463.641947
 31
0.0
  0
LINE
  8
LC-001-002-----0
  6
CONTINUOUS
  5
4D0
 10
645.036258
 20
537.646905
 30
0.0
 11
645.036258
 21
541.49051
 31
0.0
  0
LINE
  8
LC-001-002-----0
  6
CONTINUOUS
  5
4D1
 10
648.828508
 20
535.874958
 30
0.0
 11
645.766321
 21
536.695468
 31
0.0
  0
LINE
  8
LC-001-002-----0
  6
CONTINUOUS
  5
4D2
 10
648.828508
 20
533.412458
 30
0.0
 11
648.828508
 21
535.874958
 31
0.0
  0
LINE
  8
LC-001-002-----0
  6
CONTINUOUS
  5
4D3
 10
648.828508
 20
533.412458
 30
0.0
 11
645.766321
 21
532.591947
 31
0.0
  0
ARC
  8
LC-003-002-RND-0
  6
CONTINUOUS
  5
4D4
 10
646.021258
 20
531.64051
 30
0.0
 40
0.985
 50
105.0
 51
180.0
  0
ARC
  8
LC-003-002-RND-0
  6
CONTINUOUS
  5
4D5
 10
646.021258
 20
537.646905
 30
0.0
 40
0.985
 50
180.0
 51
255.0
  0
LINE
  8
LC-001-002-----0
  6
CONTINUOUS
  5
4D6
 10
645.036258
 20
527.796905
 30
0.0
 11
645.036258
 21
531.64051
 31
0.0
  0
ARC
  8
LC-003-002-RND-0
  6
CONTINUOUS
  5
4D7
 10
646.021258
 20
527.796905
 30
0.0
 40
0.985
 50
180.0
 51
255.0
  0
LINE
  8
LC-001-002-----0
  6
CONTINUOUS
  5
4D8
 10
648.828508
 20
526.024958
 30
0.0
 11
645.766321
 21
526.845468
 31
0.0
  0
LINE
  8
LC-001-002-----0
  6
CONTINUOUS
  5
4D9
 10
648.828508
 20
523.562458
 30
0.0
 11
648.828508
 21
526.024958
 31
0.0
  0
LINE
  8
LC-001-002-----0
  6
CONTINUOUS
  5
4DA
 10
648.828508
 20
555.574958
 30
0.0
 11
645.766321
 21
556.395468
 31
0.0
  0
LINE
  8
LC-001-002-----0
  6
CONTINUOUS
  5
4DB
 10
648.828508
 20
523.562458
 30
0.0
 11
645.766321
 21
522.741947
 31
0.0
  0
ARC
  8
LC-003-002-RND-0
  6
CONTINUOUS
  5
4DC
 10
646.021258
 20
547.496905
 30
0.0
 40
0.985
 50
180.0
 51
255.0
  0
ARC
  8
LC-003-002-RND-0
  6
CONTINUOUS
  5
4DD
 10
646.021258
 20
541.49051
 30
0.0
 40
0.985
 50
105.0
 51
180.0
  0
LINE
  8
LC-001-002-----0
  6
CONTINUOUS
  5
4DE
 10
648.828508
 20
553.112458
 30
0.0
 11
645.766321
 21
552.291947
 31
0.0
  0
ARC
  8
LC-003-002-RND-0
  6
CONTINUOUS
  5
4DF
 10
646.021258
 20
521.79051
 30
0.0
 40
0.985
 50
105.0
 51
180.0
  0
LINE
  8
LC-001-002-----0
  6
CONTINUOUS
  5
4E0
 10
648.828508
 20
545.724958
 30
0.0
 11
645.766321
 21
546.545468
 31
0.0
  0
LINE
  8
LC-001-002-----0
  6
CONTINUOUS
  5
4E1
 10
648.828508
 20
543.262458
 30
0.0
 11
645.766321
 21
542.441947
 31
0.0
  0
LINE
  8
LC-001-002-----0
  6
CONTINUOUS
  5
4E2
 10
645.036258
 20
517.946905
 30
0.0
 11
645.036258
 21
521.79051
 31
0.0
  0
ARC
  8
LC-003-002-RND-0
  6
CONTINUOUS
  5
4E3
 10
646.021258
 20
517.946905
 30
0.0
 40
0.985
 50
180.0
 51
255.0
  0
LINE
  8
LC-001-002-----0
  6
CONTINUOUS
  5
4E4
 10
648.828508
 20
516.174958
 30
0.0
 11
645.766321
 21
516.995468
 31
0.0
  0
LINE
  8
LC-001-002-----0
  6
CONTINUOUS
  5
4E5
 10
648.828508
 20
513.712458
 30
0.0
 11
648.828508
 21
516.174958
 31
0.0
  0
LINE
  8
LC-001-002-----0
  6
CONTINUOUS
  5
4E6
 10
648.828508
 20
513.712458
 30
0.0
 11
645.766321
 21
512.891947
 31
0.0
  0
LINE
  8
LC-001-002-----0
  6
CONTINUOUS
  5
4E7
 10
642.179758
 20
563.12893
 30
0.0
 11
642.179758
 21
463.641947
 31
0.0
  0
ARC
  8
LC-003-002-RND-0
  6
CONTINUOUS
  5
4E8
 10
646.021258
 20
511.94051
 30
0.0
 40
0.985
 50
105.0
 51
180.0
  0
LINE
  8
LC-001-002-----0
  6
CONTINUOUS
  5
4E9
 10
645.036258
 20
508.096905
 30
0.0
 11
645.036258
 21
511.94051
 31
0.0
  0
ARC
  8
LC-003-002-RND-0
  6
CONTINUOUS
  5
4EA
 10
644.149758
 20
563.12893
 30
0.0
 40
1.97
 50
90.0
 51
180.0
  0
ARC
  8
LC-003-002-RND-0
  6
CONTINUOUS
  5
4EB
 10
646.021258
 20
508.096905
 30
0.0
 40
0.985
 50
180.0
 51
255.0
  0
LINE
  8
LC-001-002-----0
  6
CONTINUOUS
  5
4EC
 10
648.828508
 20
506.324958
 30
0.0
 11
645.766321
 21
507.145468
 31
0.0
  0
LINE
  8
LC-001-002-----0
  6
CONTINUOUS
  5
4ED
 10
648.828508
 20
506.324958
 30
0.0
 11
648.828508
 21
503.862458
 31
0.0
  0
LINE
  8
LC-001-002-----0
  6
CONTINUOUS
  5
4EE
 10
648.828508
 20
503.862458
 30
0.0
 11
645.766321
 21
503.041947
 31
0.0
  0
ARC
  8
LC-003-002-RND-0
  6
CONTINUOUS
  5
4EF
 10
646.021258
 20
502.09051
 30
0.0
 40
0.985
 50
105.0
 51
180.0
  0
LINE
  8
LC-001-002-----0
  6
CONTINUOUS
  5
4F0
 10
645.036258
 20
502.09051
 30
0.0
 11
645.036258
 21
498.246905
 31
0.0
  0
ARC
  8
LC-003-002-RND-0
  6
CONTINUOUS
  5
4F1
 10
646.021258
 20
498.246905
 30
0.0
 40
0.985
 50
180.0
 51
255.0
  0
LINE
  8
LC-001-002-----0
  6
CONTINUOUS
  5
4F2
 10
648.828508
 20
496.474958
 30
0.0
 11
645.766321
 21
497.295468
 31
0.0
  0
LINE
  8
LC-001-002-----0
  6
CONTINUOUS
  5
4F3
 10
648.828508
 20
496.474958
 30
0.0
 11
648.828508
 21
494.012458
 31
0.0
  0
LINE
  8
LC-001-002-----0
  6
CONTINUOUS
  5
4F4
 10
648.828508
 20
494.012458
 30
0.0
 11
645.766321
 21
493.191947
 31
0.0
  0
ARC
  8
LC-003-002-RND-0
  6
CONTINUOUS
  5
4F5
 10
646.021258
 20
492.24051
 30
0.0
 40
0.985
 50
105.0
 51
180.0
  0
LINE
  8
LC-001-002-----0
  6
CONTINUOUS
  5
4F6
 10
645.036258
 20
492.24051
 30
0.0
 11
645.036258
 21
488.396905
 31
0.0
  0
LINE
  8
LC-001-002-----0
  6
CONTINUOUS
  5
4F7
 10
648.828508
 20
555.574958
 30
0.0
 11
648.828508
 21
553.112458
 31
0.0
  0
LINE
  8
LC-001-002-----0
  6
CONTINUOUS
  5
4F8
 10
648.828508
 20
486.624958
 30
0.0
 11
645.766321
 21
487.445468
 31
0.0
  0
LINE
  8
LC-001-002-----0
  6
CONTINUOUS
  5
4F9
 10
648.828508
 20
565.09893
 30
0.0
 11
644.149758
 21
565.09893
 31
0.0
  0
LINE
  8
LC-001-002-----0
  6
CONTINUOUS
  5
4FA
 10
453.306008
 20
486.624958
 30
0.0
 11
456.368194
 21
487.445468
 31
0.0
  0
LINE
  8
LC-001-002-----0
  6
CONTINUOUS
  5
4FB
 10
648.828508
 20
484.162458
 30
0.0
 11
648.828508
 21
486.624958
 31
0.0
  0
LINE
  8
LC-001-002-----0
  6
CONTINUOUS
  5
4FC
 10
453.306008
 20
565.09893
 30
0.0
 11
457.984758
 21
565.09893
 31
0.0
  0
LINE
  8
LC-001-002-----0
  6
CONTINUOUS
  5
4FD
 10
453.306008
 20
484.162458
 30
0.0
 11
453.306008
 21
486.624958
 31
0.0
  0
LINE
  8
LC-001-002-----0
  6
CONTINUOUS
  5
4FE
 10
453.306008
 20
484.162458
 30
0.0
 11
456.368194
 21
483.341947
 31
0.0
  0
ARC
  8
LC-003-002-RND-0
  6
CONTINUOUS
  5
4FF
 10
456.113258
 20
482.39051
 30
0.0
 40
0.985
 50
0.0
 51
75.0
  0
LINE
  8
LC-001-002-----0
  6
CONTINUOUS
  5
500
 10
457.098258
 20
478.546905
 30
0.0
 11
457.098258
 21
482.39051
 31
0.0
  0
ARC
  8
LC-003-002-RND-0
  6
CONTINUOUS
  5
501
 10
456.113258
 20
488.396905
 30
0.0
 40
0.985
 50
285.0
 51
0.0
  0
LINE
  8
LC-001-002-----0
  6
CONTINUOUS
  5
502
 10
453.306008
 20
476.774958
 30
0.0
 11
456.368194
 21
477.595468
 31
0.0
  0
LINE
  8
LC-001-002-----0
  6
CONTINUOUS
  5
503
 10
453.306008
 20
474.312458
 30
0.0
 11
453.306008
 21
476.774958
 31
0.0
  0
ARC
  8
LC-003-002-RND-0
  6
CONTINUOUS
  5
504
 10
456.113258
 20
478.546905
 30
0.0
 40
0.985
 50
285.0
 51
0.0
  0
LINE
  8
LC-001-002-----0
  6
CONTINUOUS
  5
505
 10
648.828508
 20
484.162458
 30
0.0
 11
645.766321
 21
483.341947
 31
0.0
  0
LINE
  8
LC-001-002-----0
  6
CONTINUOUS
  5
506
 10
453.306008
 20
466.924958
 30
0.0
 11
453.306008
 21
464.462458
 31
0.0
  0
LINE
  8
LC-001-002-----0
  6
CONTINUOUS
  5
507
 10
453.306008
 20
464.462458
 30
0.0
 11
456.368194
 21
463.641947
 31
0.0
  0
ARC
  8
LC-003-002-RND-0
  6
CONTINUOUS
  5
508
 10
646.021258
 20
482.39051
 30
0.0
 40
0.985
 50
105.0
 51
180.0
  0
LINE
  8
LC-001-002-----0
  6
CONTINUOUS
  5
509
 10
645.036258
 20
478.546905
 30
0.0
 11
645.036258
 21
482.39051
 31
0.0
  0
LINE
  8
LC-001-002-----0
  6
CONTINUOUS
  5
50A
 10
648.828508
 20
476.774958
 30
0.0
 11
645.766321
 21
477.595468
 31
0.0
  0
ARC
  8
LC-003-002-RND-0
  6
CONTINUOUS
  5
50B
 10
646.021258
 20
488.396905
 30
0.0
 40
0.985
 50
180.0
 51
255.0
  0
LINE
  8
LC-001-002-----0
  6
CONTINUOUS
  5
50C
 10
648.828508
 20
474.312458
 30
0.0
 11
648.828508
 21
476.774958
 31
0.0
  0
LINE
  8
LC-001-002-----0
  6
CONTINUOUS
  5
50D
 10
648.828508
 20
474.312458
 30
0.0
 11
645.766321
 21
473.491947
 31
0.0
  0
LINE
  8
LC-001-002-----0
  6
CONTINUOUS
  5
50E
 10
648.828508
 20
466.924958
 30
0.0
 11
645.766321
 21
467.745468
 31
0.0
  0
ARC
  8
LC-003-002-RND-0
  6
CONTINUOUS
  5
50F
 10
646.021258
 20
472.54051
 30
0.0
 40
0.985
 50
105.0
 51
180.0
  0
LINE
  8
LC-001-002-----0
  6
CONTINUOUS
  5
510
 10
648.828508
 20
466.924958
 30
0.0
 11
648.828508
 21
464.462458
 31
0.0
  0
ARC
  8
LC-003-002-RND-0
  6
CONTINUOUS
  5
511
 10
646.021258
 20
478.546905
 30
0.0
 40
0.985
 50
180.0
 51
255.0
  0
ARC
  8
LC-003-002-RND-0
  6
CONTINUOUS
  5
512
 10
646.021258
 20
468.696905
 30
0.0
 40
0.985
 50
180.0
 51
255.0
  0
LINE
  8
LC-001-002-----0
  6
CONTINUOUS
  5
513
 10
451.336008
 20
587.06443
 30
0.0
 11
515.47543
 21
587.06443
 31
0.0
  0
LINE
  8
LC-001-002-----0
  6
CONTINUOUS
  5
514
 10
648.828508
 20
464.462458
 30
0.0
 11
645.766321
 21
463.641947
 31
0.0
  0
LINE
  8
LC-001-002-----0
  6
CONTINUOUS
  5
515
 10
459.954758
 20
563.12893
 30
0.0
 11
459.954758
 21
463.641947
 31
0.0
  0
LINE
  8
LC-001-002-----0
  6
CONTINUOUS
  5
516
 10
454.067258
 20
585.108479
 30
0.0
 11
523.947582
 21
585.108479
 31
0.0
  0
LINE
  8
LC-001-002-----0
  6
CONTINUOUS
  5
517
 10
478.431492
 20
582.976885
 30
0.0
 11
533.180531
 21
582.976885
 31
0.0
  0
LINE
  8
LC-001-002-----0
  6
CONTINUOUS
  5
518
 10
454.067258
 20
585.108479
 30
0.0
 11
478.431492
 21
582.976885
 31
0.0
  0
LINE
  8
LC-001-002-----0
  6
CONTINUOUS
  5
519
 10
454.067258
 20
582.59893
 30
0.0
 11
476.067258
 21
580.674179
 31
0.0
  0
LINE
  8
LC-001-002-----0
  6
CONTINUOUS
  5
51A
 10
465.067258
 20
581.636554
 30
0.0
 11
461.067887
 21
566.710701
 31
0.0
  0
ARC
  8
LC-003-002-RND-0
  6
CONTINUOUS
  5
51B
 10
459.618999
 20
567.09893
 30
0.0
 40
1.5
 50
270.0
 51
345.0
  0
ARC
  8
LC-003-002-RND-0
  6
CONTINUOUS
  5
51C
 10
455.567258
 20
567.09893
 30
0.0
 40
1.5
 50
180.0
 51
270.0
  0
LINE
  8
LC-001-002-----0
  6
CONTINUOUS
  5
51D
 10
454.067258
 20
585.108479
 30
0.0
 11
454.067258
 21
567.09893
 31
0.0
  0
LINE
  8
LC-001-002-----0
  6
CONTINUOUS
  5
51E
 10
476.067258
 20
580.674179
 30
0.0
 11
478.404618
 21
542.341461
 31
0.0
  0
LINE
  8
LC-001-002-----0
  6
CONTINUOUS
  5
51F
 10
478.431492
 20
582.976885
 30
0.0
 11
480.827998
 21
543.674179
 31
0.0
  0
LINE
  8
LC-001-002-----0
  6
CONTINUOUS
  5
520
 10
478.323355
 20
543.674179
 30
0.0
 11
480.827998
 21
543.674179
 31
0.0
  0
LINE
  8
LC-001-002-----0
  6
CONTINUOUS
  5
521
 10
480.827998
 20
543.674179
 30
0.0
 11
483.495281
 21
541.006897
 31
0.0
  0
ARC
  8
LC-003-002-RND-0
  6
CONTINUOUS
  5
522
 10
488.589837
 20
539.608479
 30
0.0
 40
5.0
 50
183.489325
 51
263.635301
  0
ARC
  8
LC-003-002-RND-0
  6
CONTINUOUS
  5
523
 10
488.562623
 20
539.608479
 30
0.0
 40
7.5
 50
179.430039
 51
263.651867
  0
LINE
  8
LC-001-002-----0
  6
CONTINUOUS
  5
524
 10
488.035553
 20
534.639297
 30
0.0
 11
551.067258
 21
527.608479
 31
0.0
  0
LINE
  8
LC-001-002-----0
  6
CONTINUOUS
  5
525
 10
487.733353
 20
532.154466
 30
0.0
 11
551.067258
 21
525.108479
 31
0.0
  0
LINE
  8
LC-001-002-----0
  6
CONTINUOUS
  5
526
 10
534.067258
 20
529.50473
 30
0.0
 11
534.067258
 21
526.999753
 31
0.0
  0
LINE
  8
LC-001-002-----0
  6
CONTINUOUS
  5
527
 10
538.067258
 20
529.058553
 30
0.0
 11
538.067258
 21
526.554748
 31
0.0
  0
LINE
  8
LC-001-002-----0
  6
CONTINUOUS
  5
528
 10
483.067258
 20
574.674179
 30
0.0
 11
484.957501
 21
543.674179
 31
0.0
  0
LINE
  8
LC-001-002-----0
  6
CONTINUOUS
  5
529
 10
491.067258
 20
574.674179
 30
0.0
 11
491.067258
 21
543.674179
 31
0.0
  0
LINE
  8
LC-001-002-----0
  6
CONTINUOUS
  5
52A
 10
490.067258
 20
574.674179
 30
0.0
 11
490.067258
 21
543.674179
 31
0.0
  0
LINE
  8
LC-001-002-----0
  6
CONTINUOUS
  5
52B
 10
484.957501
 20
543.674179
 30
0.0
 11
491.067258
 21
543.674179
 31
0.0
  0
LINE
  8
LC-001-002-----0
  6
CONTINUOUS
  5
52C
 10
500.067258
 20
543.674179
 30
0.0
 11
510.067258
 21
543.674179
 31
0.0
  0
LINE
  8
LC-001-002-----0
  6
CONTINUOUS
  5
52D
 10
500.067258
 20
574.674179
 30
0.0
 11
500.067258
 21
543.674179
 31
0.0
  0
LINE
  8
LC-001-002-----0
  6
CONTINUOUS
  5
52E
 10
508.567258
 20
574.674179
 30
0.0
 11
508.567258
 21
543.674179
 31
0.0
  0
LINE
  8
LC-001-002-----0
  6
CONTINUOUS
  5
52F
 10
510.067258
 20
574.674179
 30
0.0
 11
510.067258
 21
543.674179
 31
0.0
  0
LINE
  8
LC-001-002-----0
  6
CONTINUOUS
  5
530
 10
500.067258
 20
574.674179
 30
0.0
 11
510.067258
 21
574.674179
 31
0.0
  0
LINE
  8
LC-001-002-----0
  6
CONTINUOUS
  5
531
 10
520.067258
 20
574.674179
 30
0.0
 11
520.067258
 21
543.674179
 31
0.0
  0
LINE
  8
LC-001-002-----0
  6
CONTINUOUS
  5
532
 10
520.067258
 20
574.674179
 30
0.0
 11
532.067258
 21
574.674179
 31
0.0
  0
LINE
  8
LC-001-002-----0
  6
CONTINUOUS
  5
533
 10
530.067258
 20
574.674179
 30
0.0
 11
530.067258
 21
543.674179
 31
0.0
  0
LINE
  8
LC-001-002-----0
  6
CONTINUOUS
  5
534
 10
532.067258
 20
574.674179
 30
0.0
 11
532.067258
 21
543.674179
 31
0.0
  0
LINE
  8
LC-001-002-----0
  6
CONTINUOUS
  5
535
 10
520.067258
 20
543.674179
 30
0.0
 11
532.067258
 21
543.674179
 31
0.0
  0
LINE
  8
LC-001-002-----0
  6
CONTINUOUS
  5
536
 10
544.067258
 20
574.674179
 30
0.0
 11
544.067258
 21
543.674179
 31
0.0
  0
LINE
  8
LC-001-002-----0
  6
CONTINUOUS
  5
537
 10
544.067258
 20
543.674179
 30
0.0
 11
551.067258
 21
543.674179
 31
0.0
  0
LINE
  8
LC-001-002-----0
  6
CONTINUOUS
  5
538
 10
544.067258
 20
574.674179
 30
0.0
 11
551.067258
 21
574.674179
 31
0.0
  0
LINE
  8
LC-001-002-----0
  6
CONTINUOUS
  5
539
 10
455.567258
 20
565.59893
 30
0.0
 11
459.618999
 21
565.59893
 31
0.0
  0
LINE
  8
LC-001-002-----0
  6
CONTINUOUS
  5
53A
 10
483.067258
 20
574.674179
 30
0.0
 11
491.067258
 21
574.674179
 31
0.0
  0
LINE
  8
LC-001-002-----0
  6
CONTINUOUS
  5
53B
 10
476.433111
 20
574.674179
 30
0.0
 11
478.937754
 21
574.674179
 31
0.0
  0
LINE
  8
LC-001-002-----0
  6
CONTINUOUS
  5
53C
 10
614.401162
 20
532.154466
 30
0.0
 11
551.067258
 21
525.108479
 31
0.0
  0
LINE
  8
LC-001-002-----0
  6
CONTINUOUS
  5
53D
 10
614.098962
 20
534.639297
 30
0.0
 11
551.067258
 21
527.608479
 31
0.0
  0
LINE
  8
LC-001-002-----0
  6
CONTINUOUS
  5
53E
 10
564.067258
 20
529.058553
 30
0.0
 11
564.067258
 21
526.554748
 31
0.0
  0
LINE
  8
LC-001-002-----0
  6
CONTINUOUS
  5
53F
 10
568.067258
 20
529.50473
 30
0.0
 11
568.067258
 21
526.999753
 31
0.0
  0
ARC
  8
LC-003-002-RND-0
  6
CONTINUOUS
  5
540
 10
613.571892
 20
539.608479
 30
0.0
 40
7.5
 50
276.348133
 51
0.569961
  0
ARC
  8
LC-003-002-RND-0
  6
CONTINUOUS
  5
541
 10
613.544679
 20
539.608479
 30
0.0
 40
5.0
 50
276.364699
 51
356.510675
  0
LINE
  8
LC-001-002-----0
  6
CONTINUOUS
  5
542
 10
621.306517
 20
543.674179
 30
0.0
 11
618.639234
 21
541.006897
 31
0.0
  0
LINE
  8
LC-001-002-----0
  6
CONTINUOUS
  5
543
 10
626.067258
 20
580.674179
 30
0.0
 11
623.729897
 21
542.341461
 31
0.0
  0
LINE
  8
LC-001-002-----0
  6
CONTINUOUS
  5
544
 10
623.703023
 20
582.976885
 30
0.0
 11
621.306517
 21
543.674179
 31
0.0
  0
LINE
  8
LC-001-002-----0
  6
CONTINUOUS
  5
545
 10
623.81116
 20
543.674179
 30
0.0
 11
621.306517
 21
543.674179
 31
0.0
  0
LINE
  8
LC-001-002-----0
  6
CONTINUOUS
  5
546
 10
625.701404
 20
574.674179
 30
0.0
 11
623.196761
 21
574.674179
 31
0.0
  0
LINE
  8
LC-001-002-----0
  6
CONTINUOUS
  5
547
 10
648.067258
 20
585.108479
 30
0.0
 11
623.703023
 21
582.976885
 31
0.0
  0
LINE
  8
LC-001-002-----0
  6
CONTINUOUS
  5
548
 10
648.067258
 20
582.59893
 30
0.0
 11
626.067258
 21
580.674179
 31
0.0
  0
LINE
  8
LC-001-002-----0
  6
CONTINUOUS
  5
549
 10
648.067258
 20
585.108479
 30
0.0
 11
648.067258
 21
567.09893
 31
0.0
  0
LINE
  8
LC-001-002-----0
  6
CONTINUOUS
  5
54A
 10
637.067258
 20
581.636554
 30
0.0
 11
641.066628
 21
566.710701
 31
0.0
  0
ARC
  8
LC-003-002-RND-0
  6
CONTINUOUS
  5
54B
 10
642.515517
 20
567.09893
 30
0.0
 40
1.5
 50
195.0
 51
270.0
  0
LINE
  8
LC-001-002-----0
  6
CONTINUOUS
  5
54C
 10
646.567258
 20
565.59893
 30
0.0
 11
642.515517
 21
565.59893
 31
0.0
  0
ARC
  8
LC-003-002-RND-0
  6
CONTINUOUS
  5
54D
 10
646.567258
 20
567.09893
 30
0.0
 40
1.5
 50
270.0
 51
0.0
  0
LINE
  8
LC-001-002-----0
  6
CONTINUOUS
  5
54E
 10
619.067258
 20
574.674179
 30
0.0
 11
611.067258
 21
574.674179
 31
0.0
  0
LINE
  8
LC-001-002-----0
  6
CONTINUOUS
  5
54F
 10
619.067258
 20
574.674179
 30
0.0
 11
617.177014
 21
543.674179
 31
0.0
  0
LINE
  8
LC-001-002-----0
  6
CONTINUOUS
  5
550
 10
612.067258
 20
574.674179
 30
0.0
 11
612.067258
 21
543.674179
 31
0.0
  0
LINE
  8
LC-001-002-----0
  6
CONTINUOUS
  5
551
 10
611.067258
 20
574.674179
 30
0.0
 11
611.067258
 21
543.674179
 31
0.0
  0
LINE
  8
LC-001-002-----0
  6
CONTINUOUS
  5
552
 10
617.177014
 20
543.674179
 30
0.0
 11
611.067258
 21
543.674179
 31
0.0
  0
LINE
  8
LC-001-002-----0
  6
CONTINUOUS
  5
553
 10
602.067258
 20
574.674179
 30
0.0
 11
602.067258
 21
543.674179
 31
0.0
  0
LINE
  8
LC-001-002-----0
  6
CONTINUOUS
  5
554
 10
602.067258
 20
543.674179
 30
0.0
 11
592.067258
 21
543.674179
 31
0.0
  0
LINE
  8
LC-001-002-----0
  6
CONTINUOUS
  5
555
 10
593.567258
 20
574.674179
 30
0.0
 11
593.567258
 21
543.674179
 31
0.0
  0
LINE
  8
LC-001-002-----0
  6
CONTINUOUS
  5
556
 10
592.067258
 20
574.674179
 30
0.0
 11
592.067258
 21
543.674179
 31
0.0
  0
LINE
  8
LC-001-002-----0
  6
CONTINUOUS
  5
557
 10
602.067258
 20
574.674179
 30
0.0
 11
592.067258
 21
574.674179
 31
0.0
  0
LINE
  8
LC-001-002-----0
  6
CONTINUOUS
  5
558
 10
582.067258
 20
574.674179
 30
0.0
 11
582.067258
 21
543.674179
 31
0.0
  0
LINE
  8
LC-001-002-----0
  6
CONTINUOUS
  5
559
 10
582.067258
 20
543.674179
 30
0.0
 11
570.067258
 21
543.674179
 31
0.0
  0
LINE
  8
LC-001-002-----0
  6
CONTINUOUS
  5
55A
 10
558.067258
 20
543.674179
 30
0.0
 11
551.067258
 21
543.674179
 31
0.0
  0
LINE
  8
LC-001-002-----0
  6
CONTINUOUS
  5
55B
 10
558.067258
 20
574.674179
 30
0.0
 11
558.067258
 21
543.674179
 31
0.0
  0
LINE
  8
LC-001-002-----0
  6
CONTINUOUS
  5
55C
 10
558.067258
 20
574.674179
 30
0.0
 11
551.067258
 21
574.674179
 31
0.0
  0
LINE
  8
LC-001-002-----0
  6
CONTINUOUS
  5
55D
 10
497.273029
 20
232.641947
 30
0.0
 11
604.861486
 21
232.641947
 31
0.0
  0
LINE
  8
LC-001-002-----0
  6
CONTINUOUS
  5
55E
 10
496.067258
 20
237.141947
 30
0.0
 11
497.273029
 21
232.641947
 31
0.0
  0
LINE
  8
LC-001-002-----0
  6
CONTINUOUS
  5
55F
 10
461.067258
 20
424.641947
 30
0.0
 11
461.067258
 21
414.641947
 31
0.0
  0
LINE
  8
LC-001-002-----0
  6
CONTINUOUS
  5
560
 10
465.067258
 20
428.641947
 30
0.0
 11
465.067258
 21
414.641947
 31
0.0
  0
LINE
  8
LC-001-002-----0
  6
CONTINUOUS
  5
561
 10
471.567258
 20
427.141947
 30
0.0
 11
471.567258
 21
416.27293
 31
0.0
  0
LINE
  8
LC-001-002-----0
  6
CONTINUOUS
  5
562
 10
468.567258
 20
416.141947
 30
0.0
 11
474.067848
 21
353.269915
 31
0.0
  0
LINE
  8
LC-001-002-----0
  6
CONTINUOUS
  5
563
 10
471.567258
 20
416.27293
 30
0.0
 11
477.056432
 21
353.531382
 31
0.0
  0
ARC
  8
LC-003-002-RND-0
  6
CONTINUOUS
  5
564
 10
498.972715
 20
355.448809
 30
0.0
 40
25.0
 50
185.0
 51
260.0
  0
ARC
  8
LC-003-002-RND-0
  6
CONTINUOUS
  5
565
 10
498.972715
 20
355.448809
 30
0.0
 40
22.0
 50
185.0
 51
260.0
  0
LINE
  8
LC-001-002-----0
  6
CONTINUOUS
  5
566
 10
494.631511
 20
330.828615
 30
0.0
 11
561.614848
 21
319.017645
 31
0.0
  0
LINE
  8
LC-001-002-----0
  6
CONTINUOUS
  5
567
 10
495.152455
 20
333.783038
 30
0.0
 11
561.060471
 21
322.161677
 31
0.0
  0
ARC
  8
LC-003-002-RND-0
  6
CONTINUOUS
  5
568
 10
551.309177
 20
404.817261
 30
0.0
 40
10.0
 50
93.0
 51
170.0
  0
LINE
  8
LC-001-002-----0
  6
CONTINUOUS
  5
569
 10
540.417132
 20
400.633105
 30
0.0
 11
541.4611
 21
406.553742
 31
0.0
  0
ARC
  8
LC-003-002-RND-0
  6
CONTINUOUS
  5
56A
 10
551.309177
 20
404.817261
 30
0.0
 40
7.0
 50
93.0
 51
170.0
  0
LINE
  8
LC-001-002-----0
  6
CONTINUOUS
  5
56B
 10
543.890333
 20
403.054299
 30
0.0
 11
544.415523
 21
406.032798
 31
0.0
  0
LINE
  8
LC-001-002-----0
  6
CONTINUOUS
  5
56C
 10
540.42902
 20
400.631009
 30
0.0
 11
547.966266
 21
399.301989
 31
0.0
  0
ARC
  8
LC-001-002-----0
  6
CONTINUOUS
  5
56D
 10
546.694846
 20
414.052866
 30
0.0
 40
8.333581
 50
254.215261
 51
270.960321
  0
ARC
  8
LC-001-002-----0
  6
CONTINUOUS
  5
56E
 10
546.089486
 20
412.719362
 30
0.0
 40
9.900108
 50
257.247905
 51
277.211487
  0
ARC
  8
LC-001-002-----0
  6
DASHED
 62
     2
  5
56F
 10
546.089486
 20
412.719362
 30
0.0
 40
9.900108
 50
277.211487
 51
297.751064
  0
ARC
  8
LC-001-002-----0
  6
DASHED
 62
     2
  5
570
 10
546.694846
 20
414.052866
 30
0.0
 40
8.333581
 50
270.960321
 51
295.240372
  0
CIRCLE
  8
LC-001-002-----0
  6
CONTINUOUS
  5
571
 10
548.269995
 20
407.657302
 30
0.0
 40
1.75
  0
LINE
  8
LC-001-002-----0
  6
DASHDOT
 62
     2
  5
573
 10
546.579625
 20
407.204369
 30
0.0
 11
549.960365
 21
408.110235
 31
0.0
  0
LINE
  8
LC-001-002-----0
  6
DASHDOT
 62
     2
  5
574
 10
547.817062
 20
409.347672
 30
0.0
 11
548.722928
 21
405.966932
 31
0.0
  0
LINE
  8
LC-001-002-----0
  6
CONTINUOUS
  5
575
 10
543.890333
 20
403.054299
 30
0.0
 11
547.414193
 21
402.432947
 31
0.0
  0
LINE
  8
LC-001-002-----0
  6
CONTINUOUS
  5
576
 10
606.067258
 20
237.141947
 30
0.0
 11
604.861486
 21
232.641947
 31
0.0
  0
LINE
  8
LC-001-002-----0
  6
CONTINUOUS
  5
577
 10
565.621745
 20
319.328488
 30
0.0
 11
549.993409
 21
407.961186
 31
0.0
  0
LINE
  8
LC-001-002-----0
  6
CONTINUOUS
  5
578
 10
562.174917
 20
318.72072
 30
0.0
 11
565.621745
 21
319.328488
 31
0.0
  0
ARC
  8
LC-003-002-RND-0
  6
CONTINUOUS
  5
579
 10
456.567258
 20
463.641947
 30
0.0
 40
4.0
 50
180.0
 51
270.0
  0
ARC
  8
LC-003-002-RND-0
  6
CONTINUOUS
  5
57A
 10
456.567258
 20
463.641947
 30
0.0
 40
8.0
 50
180.0
 51
273.583322
  0
LINE
  8
LC-001-002-----0
  6
CONTINUOUS
  5
57B
 10
456.567258
 20
459.641947
 30
0.0
 11
461.067258
 21
459.641947
 31
0.0
  0
LINE
  8
LC-001-002-----0
  6
CONTINUOUS
  5
57C
 10
461.067258
 20
428.641947
 30
0.0
 11
465.067258
 21
428.641947
 31
0.0
  0
ARC
  8
LC-003-002-RND-0
  6
CONTINUOUS
  5
57D
 10
461.067258
 20
428.641947
 30
0.0
 40
4.0
 50
180.0
 51
270.0
  0
LINE
  8
LC-001-002-----0
  6
CONTINUOUS
  5
57E
 10
463.567258
 20
432.141947
 30
0.0
 11
620.44158
 21
432.141947
 31
0.0
  0
ARC
  8
LC-003-002-RND-0
  6
CONTINUOUS
  5
57F
 10
463.567258
 20
430.641947
 30
0.0
 40
1.5
 50
90.0
 51
180.0
  0
ARC
  8
LC-003-002-RND-0
  6
CONTINUOUS
  5
580
 10
463.567258
 20
430.641947
 30
0.0
 40
1.5
 50
180.0
 51
270.0
  0
LINE
  8
LC-001-002-----0
  6
CONTINUOUS
  5
581
 10
463.567258
 20
429.141947
 30
0.0
 11
465.817258
 21
429.141947
 31
0.0
  0
LINE
  8
LC-001-002-----0
  6
CONTINUOUS
  5
582
 10
465.817258
 20
429.141947
 30
0.0
 11
465.817258
 21
424.71501
 31
0.0
  0
LINE
  8
LC-001-002-----0
  6
CONTINUOUS
  5
583
 10
469.067258
 20
424.141947
 30
0.0
 11
465.817258
 21
424.71501
 31
0.0
  0
LINE
  8
LC-001-002-----0
  6
CONTINUOUS
  5
584
 10
469.067258
 20
424.141947
 30
0.0
 11
469.067258
 21
419.141947
 31
0.0
  0
LINE
  8
LC-001-002-----0
  6
CONTINUOUS
  5
585
 10
469.067258
 20
419.141947
 30
0.0
 11
465.817258
 21
418.568885
 31
0.0
  0
LINE
  8
LC-001-002-----0
  6
CONTINUOUS
  5
586
 10
465.817258
 20
418.568885
 30
0.0
 11
465.817258
 21
416.141947
 31
0.0
  0
LINE
  8
LC-001-002-----0
  6
CONTINUOUS
  5
587
 10
465.817258
 20
416.141947
 30
0.0
 11
468.567258
 21
416.141947
 31
0.0
  0
ARC
  8
LC-001-002-----0
  6
CONTINUOUS
  5
588
 10
467.067258
 20
420.789293
 30
0.0
 40
2.0
 50
180.0
 51
0.0
  0
ARC
  8
LC-001-002-----0
  6
CONTINUOUS
  5
589
 10
467.067258
 20
422.494601
 30
0.0
 40
2.0
 50
0.0
 51
180.0
  0
LINE
  8
LC-001-002-----0
  6
CONTINUOUS
  5
58A
 10
471.567258
 20
427.141947
 30
0.0
 11
466.567258
 21
432.141947
 31
0.0
  0
LINE
  8
LC-001-002-----0
  6
CONTINUOUS
  5
58B
 10
471.567258
 20
427.141947
 30
0.0
 11
609.40764
 21
427.141947
 31
0.0
  0
LINE
  8
LC-001-002-----0
  6
CONTINUOUS
  5
58C
 10
633.724265
 20
416.146059
 30
0.0
 11
550.942826
 21
411.807667
 31
0.0
  0
LINE
  8
LC-001-002-----0
  6
CONTINUOUS
  5
58D
 10
630.567258
 20
418.984724
 30
0.0
 11
550.785818
 21
414.803556
 31
0.0
  0
LINE
  8
LC-001-002-----0
  6
CONTINUOUS
  5
58E
 10
630.567258
 20
427.141947
 30
0.0
 11
630.567258
 21
418.984724
 31
0.0
  0
LINE
  8
LC-001-002-----0
  6
CONTINUOUS
  5
58F
 10
609.40764
 20
427.141947
 30
0.0
 11
630.567258
 21
427.141947
 31
0.0
  0
LINE
  8
LC-001-002-----0
  6
CONTINUOUS
  5
590
 10
620.44158
 20
432.141947
 30
0.0
 11
631.567258
 21
432.141947
 31
0.0
  0
LINE
  8
LC-001-002-----0
  6
CONTINUOUS
  5
591
 10
630.567258
 20
427.141947
 30
0.0
 11
635.567258
 21
432.141947
 31
0.0
  0
LINE
  8
LC-001-002-----0
  6
CONTINUOUS
  5
592
 10
638.567258
 20
432.141947
 30
0.0
 11
631.567258
 21
432.141947
 31
0.0
  0
ARC
  8
LC-003-002-RND-0
  6
CONTINUOUS
  5
593
 10
638.567258
 20
430.641947
 30
0.0
 40
1.5
 50
0.0
 51
90.0
  0
ARC
  8
LC-003-002-RND-0
  6
CONTINUOUS
  5
594
 10
638.567258
 20
430.641947
 30
0.0
 40
1.5
 50
270.0
 51
0.0
  0
LINE
  8
LC-001-002-----0
  6
CONTINUOUS
  5
595
 10
636.317258
 20
429.141947
 30
0.0
 11
638.567258
 21
429.141947
 31
0.0
  0
LINE
  8
LC-001-002-----0
  6
CONTINUOUS
  5
596
 10
636.317258
 20
429.141947
 30
0.0
 11
636.317258
 21
424.71501
 31
0.0
  0
LINE
  8
LC-001-002-----0
  6
CONTINUOUS
  5
597
 10
633.067258
 20
424.141947
 30
0.0
 11
636.317258
 21
424.71501
 31
0.0
  0
LINE
  8
LC-001-002-----0
  6
CONTINUOUS
  5
598
 10
633.067258
 20
424.141947
 30
0.0
 11
633.067258
 21
419.141947
 31
0.0
  0
LINE
  8
LC-001-002-----0
  6
CONTINUOUS
  5
599
 10
633.067258
 20
419.141947
 30
0.0
 11
636.317258
 21
418.568885
 31
0.0
  0
LINE
  8
LC-001-002-----0
  6
CONTINUOUS
  5
59A
 10
636.317258
 20
418.568885
 30
0.0
 11
636.317258
 21
416.141947
 31
0.0
  0
LINE
  8
LC-001-002-----0
  6
CONTINUOUS
  5
59B
 10
636.317258
 20
416.141947
 30
0.0
 11
633.645815
 21
416.141947
 31
0.0
  0
ARC
  8
LC-001-002-----0
  6
CONTINUOUS
  5
59C
 10
635.067258
 20
422.494601
 30
0.0
 40
2.0
 50
0.0
 51
180.0
  0
ARC
  8
LC-001-002-----0
  6
CONTINUOUS
  5
59D
 10
635.067258
 20
420.789293
 30
0.0
 40
2.0
 50
180.0
 51
0.0
  0
ARC
  8
LC-003-002-RND-0
  6
CONTINUOUS
  5
59E
 10
641.067258
 20
428.641947
 30
0.0
 40
4.0
 50
270.0
 51
0.0
  0
LINE
  8
LC-001-002-----0
  6
CONTINUOUS
  5
59F
 10
641.067258
 20
428.641947
 30
0.0
 11
637.067258
 21
428.641947
 31
0.0
  0
LINE
  8
LC-001-002-----0
  6
CONTINUOUS
  5
5A0
 10
641.067258
 20
424.641947
 30
0.0
 11
641.067258
 21
414.641947
 31
0.0
  0
LINE
  8
LC-001-002-----0
  6
CONTINUOUS
  5
5A1
 10
637.067258
 20
428.641947
 30
0.0
 11
637.067258
 21
414.641947
 31
0.0
  0
LINE
  8
LC-001-002-----0
  6
CONTINUOUS
  5
5A2
 10
456.567258
 20
455.641947
 30
0.0
 11
457.067258
 21
455.641947
 31
0.0
  0
ARC
  8
LC-001-002-----0
  6
CONTINUOUS
  5
5A3
 10
447.317258
 20
582.486806
 30
0.0
 40
2.25
 50
180.0
 51
0.0
  0
ARC
  8
LC-001-002-----0
  6
CONTINUOUS
  5
5A4
 10
447.317258
 20
584.56443
 30
0.0
 40
2.25
 50
0.0
 51
180.0
  0
LINE
  8
LC-001-002-----0
  6
CONTINUOUS
  5
5A5
 10
452.567258
 20
473.15752
 30
0.0
 11
452.567258
 21
471.079896
 31
0.0
  0
LINE
  8
LC-001-002-----0
  6
CONTINUOUS
  5
5A6
 10
449.567258
 20
584.56443
 30
0.0
 11
449.567258
 21
582.486806
 31
0.0
  0
LINE
  8
LC-001-002-----0
  6
CONTINUOUS
  5
5A7
 10
456.368194
 20
473.491947
 30
0.0
 11
453.306008
 21
474.312458
 31
0.0
  0
LINE
  8
LC-001-002-----0
  6
CONTINUOUS
  5
5A8
 10
453.306008
 20
466.924958
 30
0.0
 11
456.368194
 21
467.745468
 31
0.0
  0
LINE
  8
LC-001-002-----0
  6
CONTINUOUS
  5
5A9
 10
645.036258
 20
468.696905
 30
0.0
 11
645.036258
 21
472.54051
 31
0.0
  0
LINE
  8
LC-001-002-----0
  6
CONTINUOUS
  5
5AA
 10
634.187947
 20
300.641947
 30
0.0
 11
630.723846
 21
294.641947
 31
0.0
  0
LINE
  8
LC-001-002-----0
  6
CONTINUOUS
  5
5AB
 10
630.252048
 20
301.82477
 30
0.0
 11
628.414445
 21
298.641947
 31
0.0
  0
LINE
  8
LC-001-002-----0
  6
CONTINUOUS
  5
5AC
 10
471.41067
 20
294.641947
 30
0.0
 11
496.067258
 21
294.641947
 31
0.0
  0
LINE
  8
LC-001-002-----0
  6
CONTINUOUS
  5
5AD
 10
606.067258
 20
294.641947
 30
0.0
 11
630.723846
 21
294.641947
 31
0.0
  0
LINE
  8
LC-001-002-----0
  6
CONTINUOUS
  5
5AE
 10
562.174917
 20
318.72072
 30
0.0
 11
546.546581
 21
407.353418
 31
0.0
  0
LINE
  8
LC-001-002-----0
  6
CONTINUOUS
  5
5AF
 10
473.720071
 20
298.641947
 30
0.0
 11
628.414445
 21
298.641947
 31
0.0
  0
LINE
  8
LC-001-002-----0
  6
CONTINUOUS
  5
5B0
 10
561.060471
 20
322.161677
 30
0.0
 11
561.614848
 21
319.017645
 31
0.0
  0
ARC
  8
LC-001-002-----0
  6
CONTINUOUS
  5
5B1
 10
546.694846
 20
414.052866
 30
0.0
 40
8.333581
 50
295.240372
 51
330.42979
  0
ARC
  8
LC-001-002-----0
  6
CONTINUOUS
  5
5B2
 10
546.089486
 20
412.719362
 30
0.0
 40
9.900108
 50
297.751064
 51
340.960298
  0
ARC
  8
LC-003-002-RND-0
  6
CONTINUOUS
  5
5B3
 10
554.677952
 20
409.562982
 30
0.0
 40
0.75
 50
339.820923
 51
85.0
  0
LINE
  8
LC-001-002-----0
  6
CONTINUOUS
  5
5B4
 10
554.595305
 20
410.320213
 30
0.0
 11
554.743319
 21
410.310128
 31
0.0
  0
ARC
  8
LC-003-002-RND-0
  6
CONTINUOUS
  5
5B5
 10
554.595305
 20
409.570213
 30
0.0
 40
0.75
 50
85.0
 51
150.42979
  0
CIRCLE
  8
LC-001-002-----0
  6
CONTINUOUS
  5
5B6
 10
563.591228
 20
575.06791
 30
0.0
 40
2.0
  0
ARC
  8
LC-001-002-----0
  6
CONTINUOUS
  5
5B7
 10
563.591228
 20
575.06791
 30
0.0
 40
4.0
 50
38.137308
 51
338.862692
  0
ARC
  8
LC-001-002-----0
  6
CONTINUOUS
  5
5B8
 10
563.591228
 20
575.06791
 30
0.0
 40
4.5
 50
34.575977
 51
342.424023
  0
LINE
  8
LC-001-002-----0
  6
CONTINUOUS
  5
5B9
 10
563.591228
 20
573.06791
 30
0.0
 11
622.257263
 21
581.835607
 31
0.0
  0
LINE
  8
LC-001-002-----0
  6
CONTINUOUS
  5
5BA
 10
563.591228
 20
577.06791
 30
0.0
 11
621.67252
 21
585.748217
 31
0.0
  0
LINE
  8
LC-001-002-----0
  6
CONTINUOUS
  5
5BB
 10
622.784371
 20
584.92549
 30
0.0
 11
625.25691
 21
585.295014
 31
0.0
  0
LINE
  8
LC-001-002-----0
  6
CONTINUOUS
  5
5BC
 10
623.07999
 20
582.947458
 30
0.0
 11
625.552529
 21
583.316982
 31
0.0
  0
LINE
  8
LC-001-002-----0
  6
CONTINUOUS
  5
5BD
 10
622.784371
 20
584.92549
 30
0.0
 11
621.67252
 21
585.748217
 31
0.0
  0
LINE
  8
LC-001-002-----0
  6
CONTINUOUS
  5
5BE
 10
623.07999
 20
582.947458
 30
0.0
 11
622.257263
 21
581.835607
 31
0.0
  0
LINE
  8
LC-001-002-----0
  6
CONTINUOUS
  5
5BF
 10
615.662371
 20
581.838888
 30
0.0
 11
615.366752
 21
583.81692
 31
0.0
  0
LINE
  8
LC-001-002-----0
  6
CONTINUOUS
  5
5C0
 10
615.366752
 20
583.81692
 30
0.0
 11
616.189478
 21
584.928771
 31
0.0
  0
LINE
  8
LC-001-002-----0
  6
CONTINUOUS
  5
5C1
 10
615.662371
 20
581.838888
 30
0.0
 11
616.774222
 21
581.016161
 31
0.0
  0
LINE
  8
LC-001-002-----0
  6
CONTINUOUS
  5
5C2
 10
625.25691
 20
585.295014
 30
0.0
 11
626.393736
 21
584.453807
 31
0.0
  0
LINE
  8
LC-001-002-----0
  6
CONTINUOUS
  5
5C3
 10
625.552529
 20
583.316982
 30
0.0
 11
626.393736
 21
584.453807
 31
0.0
  0
LINE
  8
LC-001-002-----0
  6
CONTINUOUS
  5
5C4
 10
582.067258
 20
574.674179
 30
0.0
 11
574.339027
 21
574.674179
 31
0.0
  0
LINE
  8
LC-001-002-----0
  6
CONTINUOUS
  5
5C5
 10
572.067258
 20
574.334661
 30
0.0
 11
572.067258
 21
543.674179
 31
0.0
  0
LINE
  8
LC-001-002-----0
  6
CONTINUOUS
  5
5C6
 10
570.067258
 20
574.035759
 30
0.0
 11
570.067258
 21
543.674179
 31
0.0
  0
LINE
  8
LC-001-002-----0
  6
CONTINUOUS
  5
5C7
 10
603.129105
 20
582.976885
 30
0.0
 11
568.961243
 21
582.976885
 31
0.0
  0
LINE
  8
LC-001-002-----0
  6
CONTINUOUS
  5
5C8
 10
617.391935
 20
585.108479
 30
0.0
 11
578.194192
 21
585.108479
 31
0.0
  0
LINE
  8
LC-001-002-----0
  6
CONTINUOUS
  5
5C9
 10
648.067258
 20
585.108479
 30
0.0
 11
625.508997
 21
585.108479
 31
0.0
  0
LINE
  8
LC-001-002-----0
  6
CONTINUOUS
  5
5CA
 10
483.495281
 20
541.006897
 30
0.0
 11
618.639234
 21
541.006897
 31
0.0
  0
LINE
  8
LC-001-002-----0
  6
CONTINUOUS
  5
5CB
 10
437.567258
 20
471.370374
 30
0.0
 11
435.367258
 21
469.170374
 31
0.0
  0
LINE
  8
LC-001-002-----0
  6
CONTINUOUS
  5
5CC
 10
433.167258
 20
471.370374
 30
0.0
 11
435.367258
 21
469.170374
 31
0.0
  0
LINE
  8
LC-001-002-----0
  6
CONTINUOUS
  5
5CD
 10
405.567258
 20
485.641947
 30
0.0
 11
437.567258
 21
485.641947
 31
0.0
  0
ARC
  8
LC-003-002-RND-0
  6
CONTINUOUS
  5
5CE
 10
424.667829
 20
477.841947
 30
0.0
 40
1.5
 50
270.0
 51
355.0
  0
LINE
  8
LC-001-002-----0
  6
CONTINUOUS
  5
5CF
 10
426.447462
 20
480.972681
 30
0.0
 11
426.162121
 21
477.711214
 31
0.0
  0
ARC
  8
LC-003-002-RND-0
  6
CONTINUOUS
  5
5D0
 10
427.941754
 20
480.841947
 30
0.0
 40
1.5
 50
90.0
 51
175.0
  0
ARC
  8
LC-003-002-RND-0
  6
CONTINUOUS
  5
5D1
 10
435.367258
 20
466.341947
 30
0.0
 40
1.0
 50
225.0
 51
315.0
  0
ARC
  8
LC-003-002-RND-0
  6
CONTINUOUS
  5
5D2
 10
447.067258
 20
480.841947
 30
0.0
 40
1.5
 50
0.0
 51
90.0
  0
LINE
  8
LC-001-002-----0
  6
CONTINUOUS
  5
5D3
 10
448.567258
 20
480.841947
 30
0.0
 11
448.567258
 21
463.641947
 31
0.0
  0
ARC
  8
LC-003-002-RND-0
  6
CONTINUOUS
  5
5D4
 10
412.192761
 20
480.841947
 30
0.0
 40
1.5
 50
5.0
 51
90.0
  0
LINE
  8
LC-001-002-----0
  6
CONTINUOUS
  5
5D5
 10
457.067258
 20
455.657588
 30
0.0
 11
457.067258
 21
428.641947
 31
0.0
  0
LINE
  8
LC-001-002-----0
  6
CONTINUOUS
  5
5D6
 10
461.067258
 20
463.641947
 30
0.0
 11
461.067258
 21
428.641947
 31
0.0
  0
LINE
  8
LC-001-002-----0
  6
CONTINUOUS
  5
5D7
 10
496.067258
 20
294.641947
 30
0.0
 11
496.067258
 21
237.141947
 31
0.0
  0
LINE
  8
LC-001-002-----0
  6
CONTINUOUS
  5
5D8
 10
500.067258
 20
298.641947
 30
0.0
 11
500.067258
 21
232.641947
 31
0.0
  0
LINE
  8
LC-001-002-----0
  6
CONTINUOUS
  5
5D9
 10
606.067258
 20
294.641947
 30
0.0
 11
606.067258
 21
237.141947
 31
0.0
  0
LINE
  8
LC-001-002-----0
  6
CONTINUOUS
  5
5DA
 10
602.067258
 20
298.641947
 30
0.0
 11
602.067258
 21
232.641947
 31
0.0
  0
LINE
  8
LC-001-002-----0
  6
CONTINUOUS
  5
5DB
 10
467.946568
 20
300.641947
 30
0.0
 11
461.067258
 21
414.641947
 31
0.0
  0
LINE
  8
LC-001-002-----0
  6
CONTINUOUS
  5
5DC
 10
471.882467
 20
301.82477
 30
0.0
 11
465.074508
 21
414.642385
 31
0.0
  0
LINE
  8
LC-001-002-----0
  6
CONTINUOUS
  5
5DD
 10
471.882467
 20
301.82477
 30
0.0
 11
473.720071
 21
298.641947
 31
0.0
  0
LINE
  8
LC-001-002-----0
  6
CONTINUOUS
  5
5DE
 10
467.946568
 20
300.641947
 30
0.0
 11
471.41067
 21
294.641947
 31
0.0
  0
LINE
  8
LC-001-002-----0
  6
CONTINUOUS
  5
5DF
 10
630.252048
 20
301.82477
 30
0.0
 11
637.074521
 21
414.882888
 31
0.0
  0
LINE
  8
LC-001-002-----0
  6
CONTINUOUS
  5
5E0
 10
634.187947
 20
300.641947
 30
0.0
 11
641.067258
 21
414.641947
 31
0.0
  0
ARC
  8
LC-003-002-RND-0
  6
CONTINUOUS
  5
5E1
 10
428.867258
 20
481.341947
 30
0.0
 40
1.0
 50
0.0
 51
90.0
  0
LINE
  8
LC-001-002-----0
  6
CONTINUOUS
  5
5E2
 10
430.160151
 20
470.134841
 30
0.0
 11
434.660151
 21
465.634841
 31
0.0
  0
ARC
  8
LC-003-002-RND-0
  6
CONTINUOUS
  5
5E3
 10
430.867258
 20
470.841947
 30
0.0
 40
1.0
 50
180.0
 51
225.0
  0
LINE
  8
LC-001-002-----0
  6
CONTINUOUS
  5
5E4
 10
429.867258
 20
481.341947
 30
0.0
 11
429.867258
 21
470.841947
 31
0.0
  0
ARC
  8
LC-003-002-RND-0
  6
CONTINUOUS
  5
5E5
 10
439.867258
 20
470.841947
 30
0.0
 40
1.0
 50
315.0
 51
0.0
  0
LINE
  8
LC-001-002-----0
  6
CONTINUOUS
  5
5E6
 10
440.574364
 20
470.134841
 30
0.0
 11
436.074364
 21
465.634841
 31
0.0
  0
LINE
  8
LC-001-002-----0
  6
CONTINUOUS
  5
5E7
 10
440.867258
 20
481.341947
 30
0.0
 11
440.867258
 21
470.841947
 31
0.0
  0
ARC
  8
LC-003-002-RND-0
  6
CONTINUOUS
  5
5E8
 10
441.867258
 20
481.341947
 30
0.0
 40
1.0
 50
90.0
 51
180.0
  0
LINE
  8
LC-001-002-----0
  6
CONTINUOUS
  5
5E9
 10
423.567258
 20
480.141947
 30
0.0
 11
416.567258
 21
480.141947
 31
0.0
  0
LINE
  8
LC-001-002-----0
  6
CONTINUOUS
  5
5EA
 10
416.567258
 20
485.641947
 30
0.0
 11
416.567258
 21
480.141947
 31
0.0
  0
LINE
  8
LC-001-002-----0
  6
CONTINUOUS
  5
5EB
 10
423.567258
 20
485.641947
 30
0.0
 11
423.567258
 21
480.141947
 31
0.0
  0
LINE
  8
LC-001-002-----0
  6
CONTINUOUS
  5
5EC
 10
406.067258
 20
482.341947
 30
0.0
 11
457.067258
 21
431.341947
 31
0.0
  0
LINE
  8
LC-001-002-----0
  6
CONTINUOUS
  5
5ED
 10
696.067258
 20
482.341947
 30
0.0
 11
645.067258
 21
431.341947
 31
0.0
  0
LINE
  8
LC-001-002-----0
  6
CONTINUOUS
  5
5EE
 10
641.067258
 20
463.641947
 30
0.0
 11
641.067258
 21
428.641947
 31
0.0
  0
LINE
  8
LC-001-002-----0
  6
CONTINUOUS
  5
5EF
 10
645.067258
 20
455.657588
 30
0.0
 11
645.067258
 21
428.641947
 31
0.0
  0
LINE
  8
LC-001-002-----0
  6
CONTINUOUS
  5
5F0
 10
393.067258
 20
484.457871
 30
0.0
 11
393.067258
 21
487.846035
 31
0.0
  0
LINE
  8
LC-001-002-----0
  6
CONTINUOUS
  5
5F1
 10
405.067258
 20
482.341947
 30
0.0
 11
393.067258
 21
484.457871
 31
0.0
  0
LINE
  8
LC-001-002-----0
  6
CONTINUOUS
  5
5F2
 10
452.321008
 20
587.06443
 30
0.0
 11
452.321008
 21
566.08393
 31
0.0
  0
LINE
  8
LC-001-002-----0
  6
CONTINUOUS
  5
5F3
 10
445.067258
 20
558.06443
 30
0.0
 11
445.067258
 21
585.06443
 31
0.0
  0
ARC
  8
LC-003-002-RND-0
  6
CONTINUOUS
  5
5F4
 10
447.067258
 20
585.06443
 30
0.0
 40
2.0
 50
90.0
 51
180.0
  0
LINE
  8
LC-001-002-----0
  6
CONTINUOUS
  5
5F5
 10
447.067258
 20
587.06443
 30
0.0
 11
451.336008
 21
587.06443
 31
0.0
  0
ARC
  8
LC-003-002-RND-0
  6
CONTINUOUS
  5
5F6
 10
431.067258
 20
582.06443
 30
0.0
 40
3.0
 50
0.0
 51
90.0
  0
LINE
  8
LC-001-002-----0
  6
CONTINUOUS
  5
5F7
 10
434.067258
 20
561.06443
 30
0.0
 11
434.067258
 21
582.06443
 31
0.0
  0
ARC
  8
LC-003-002-RND-0
  6
CONTINUOUS
  5
5F8
 10
437.067258
 20
561.06443
 30
0.0
 40
3.0
 50
180.0
 51
270.0
  0
LINE
  8
LC-001-002-----0
  6
CONTINUOUS
  5
5F9
 10
421.067258
 20
588.06443
 30
0.0
 11
421.067258
 21
593.56443
 31
0.0
  0
ARC
  8
LC-003-002-RND-0
  6
CONTINUOUS
  5
5FA
 10
424.067258
 20
588.06443
 30
0.0
 40
3.0
 50
180.0
 51
270.0
  0
LINE
  8
LC-001-002-----0
  6
CONTINUOUS
  5
5FB
 10
424.067258
 20
585.06443
 30
0.0
 11
431.067258
 21
585.06443
 31
0.0
  0
LINE
  8
LC-001-002-----0
  6
CONTINUOUS
  5
5FC
 10
451.067258
 20
587.06443
 30
0.0
 11
451.067258
 21
592.06443
 31
0.0
  0
ARC
  8
LC-003-002-RND-0
  6
CONTINUOUS
  5
5FD
 10
448.067258
 20
592.06443
 30
0.0
 40
3.0
 50
0.0
 51
90.0
  0
LINE
  8
LC-001-002-----0
  6
CONTINUOUS
  5
5FE
 10
421.067258
 20
593.56443
 30
0.0
 11
426.430968
 21
613.582068
 31
0.0
  0
ARC
  8
LC-003-002-RND-0
  6
CONTINUOUS
  5
5FF
 10
428.362819
 20
613.06443
 30
0.0
 40
2.0
 50
90.0
 51
165.0
  0
LINE
  8
LC-001-002-----0
  6
CONTINUOUS
  5
600
 10
437.067258
 20
598.06443
 30
0.0
 11
437.067258
 21
613.06443
 31
0.0
  0
LINE
  8
LC-001-002-----0
  6
CONTINUOUS
  5
601
 10
428.362819
 20
615.06443
 30
0.0
 11
435.067258
 21
615.06443
 31
0.0
  0
LINE
  8
LC-001-002-----0
  6
CONTINUOUS
  5
602
 10
452.074758
 20
562.14393
 30
0.0
 11
456.113258
 21
562.14393
 31
0.0
  0
ARC
  8
LC-003-002-RND-0
  6
CONTINUOUS
  5
603
 10
452.074758
 20
564.60643
 30
0.0
 40
2.4625
 50
180.0
 51
270.0
  0
LINE
  8
LC-001-002-----0
  6
CONTINUOUS
  5
604
 10
449.612258
 20
587.06443
 30
0.0
 11
449.612258
 21
564.60643
 31
0.0
  0
LINE
  8
LC-001-002-----0
  6
CONTINUOUS
  5
605
 10
457.098258
 20
468.696905
 30
0.0
 11
457.098258
 21
472.54051
 31
0.0
  0
ARC
  8
LC-003-002-RND-0
  6
CONTINUOUS
  5
606
 10
456.113258
 20
472.54051
 30
0.0
 40
0.985
 50
0.0
 51
75.0
  0
ARC
  8
LC-003-002-RND-0
  6
CONTINUOUS
  5
607
 10
456.113258
 20
468.696905
 30
0.0
 40
0.985
 50
285.0
 51
0.0
  0
LINE
  8
LC-001-002-----0
  6
CONTINUOUS
  5
608
 10
657.067258
 20
558.06443
 30
0.0
 11
657.067258
 21
585.06443
 31
0.0
  0
LINE
  8
LC-001-002-----0
  6
CONTINUOUS
  5
609
 10
681.067258
 20
588.06443
 30
0.0
 11
681.067258
 21
593.56443
 31
0.0
  0
LINE
  8
LC-001-002-----0
  6
CONTINUOUS
  5
60A
 10
681.067258
 20
593.56443
 30
0.0
 11
675.703548
 21
613.582068
 31
0.0
  0
LINE
  8
LC-001-002-----0
  6
CONTINUOUS
  5
60B
 10
651.067258
 20
587.06443
 30
0.0
 11
651.067258
 21
592.06443
 31
0.0
  0
ARC
  8
LC-003-002-RND-0
  6
CONTINUOUS
  5
60C
 10
678.067258
 20
588.06443
 30
0.0
 40
3.0
 50
270.0
 51
0.0
  0
LINE
  8
LC-001-002-----0
  6
CONTINUOUS
  5
60D
 10
668.067258
 20
561.06443
 30
0.0
 11
668.067258
 21
582.06443
 31
0.0
  0
ARC
  8
LC-003-002-RND-0
  6
CONTINUOUS
  5
60E
 10
671.067258
 20
582.06443
 30
0.0
 40
3.0
 50
90.0
 51
180.0
  0
ARC
  8
LC-003-002-RND-0
  6
CONTINUOUS
  5
60F
 10
665.067258
 20
561.06443
 30
0.0
 40
3.0
 50
270.0
 51
0.0
  0
ARC
  8
LC-003-002-RND-0
  6
CONTINUOUS
  5
610
 10
662.067258
 20
598.06443
 30
0.0
 40
3.0
 50
270.0
 51
0.0
  0
LINE
  8
LC-001-002-----0
  6
CONTINUOUS
  5
611
 10
665.067258
 20
598.06443
 30
0.0
 11
665.067258
 21
613.06443
 31
0.0
  0
ARC
  8
LC-003-002-RND-0
  6
CONTINUOUS
  5
612
 10
673.771696
 20
613.06443
 30
0.0
 40
2.0
 50
15.0
 51
90.0
  0
LINE
  8
LC-001-002-----0
  6
CONTINUOUS
  5
613
 10
678.067258
 20
585.06443
 30
0.0
 11
671.067258
 21
585.06443
 31
0.0
  0
ARC
  8
LC-003-002-RND-0
  6
CONTINUOUS
  5
614
 10
655.067258
 20
585.06443
 30
0.0
 40
2.0
 50
0.0
 51
90.0
  0
LINE
  8
LC-001-002-----0
  6
CONTINUOUS
  5
615
 10
655.067258
 20
587.06443
 30
0.0
 11
650.798508
 21
587.06443
 31
0.0
  0
LINE
  8
LC-001-002-----0
  6
CONTINUOUS
  5
616
 10
652.567258
 20
584.56443
 30
0.0
 11
652.567258
 21
582.486806
 31
0.0
  0
ARC
  8
LC-001-002-----0
  6
CONTINUOUS
  5
617
 10
654.817258
 20
584.56443
 30
0.0
 40
2.25
 50
0.0
 51
180.0
  0
ARC
  8
LC-001-002-----0
  6
CONTINUOUS
  5
618
 10
654.817258
 20
582.486806
 30
0.0
 40
2.25
 50
180.0
 51
0.0
  0
ARC
  8
LC-003-002-RND-0
  6
CONTINUOUS
  5
619
 10
667.067258
 20
613.06443
 30
0.0
 40
2.0
 50
90.0
 51
180.0
  0
LINE
  8
LC-001-002-----0
  6
CONTINUOUS
  5
61A
 10
673.771696
 20
615.06443
 30
0.0
 11
667.067258
 21
615.06443
 31
0.0
  0
ARC
  8
LC-003-002-RND-0
  6
CONTINUOUS
  5
61B
 10
440.067258
 20
598.06443
 30
0.0
 40
3.0
 50
180.0
 51
270.0
  0
ARC
  8
LC-003-002-RND-0
  6
CONTINUOUS
  5
61C
 10
435.067258
 20
613.06443
 30
0.0
 40
2.0
 50
0.0
 51
90.0
  0
LINE
  8
LC-001-002-----0
  6
CONTINUOUS
  5
61D
 10
437.067258
 20
558.06443
 30
0.0
 11
457.098258
 21
558.06443
 31
0.0
  0
LINE
  8
LC-001-002-----0
  6
CONTINUOUS
  5
61E
 10
665.067258
 20
558.06443
 30
0.0
 11
645.036258
 21
558.06443
 31
0.0
  0
LINE
  8
LC-001-002-----0
  6
CONTINUOUS
  5
61F
 10
652.522258
 20
587.06443
 30
0.0
 11
652.522258
 21
564.60643
 31
0.0
  0
LINE
  8
LC-001-002-----0
  6
CONTINUOUS
  5
620
 10
649.813508
 20
587.06443
 30
0.0
 11
649.813508
 21
566.08393
 31
0.0
  0
LINE
  8
LC-001-002-----0
  6
CONTINUOUS
  5
621
 10
483.599106
 20
539.304166
 30
0.0
 11
483.495281
 21
541.006897
 31
0.0
  0
LINE
  8
LC-001-002-----0
  6
CONTINUOUS
  5
622
 10
618.535409
 20
539.304166
 30
0.0
 11
618.639234
 21
541.006897
 31
0.0
  0
LINE
  8
LC-001-002-----0
  6
CONTINUOUS
  5
623
 10
461.067258
 20
459.641947
 30
0.0
 11
641.067258
 21
459.641947
 31
0.0
  0
LINE
  8
LC-001-002-----0
  6
CONTINUOUS
  5
624
 10
441.867258
 20
482.341947
 30
0.0
 11
447.067258
 21
482.341947
 31
0.0
  0
LINE
  8
LC-001-002-----0
  6
CONTINUOUS
  5
625
 10
437.567258
 20
485.641947
 30
0.0
 11
452.567258
 21
485.641947
 31
0.0
  0
LINE
  8
LC-001-002-----0
  6
CONTINUOUS
  5
626
 10
405.067258
 20
482.341947
 30
0.0
 11
412.192761
 21
482.341947
 31
0.0
  0
LINE
  8
LC-001-002-----0
  6
CONTINUOUS
  5
627
 10
428.867258
 20
482.341947
 30
0.0
 11
427.941754
 21
482.341947
 31
0.0
  0
LINE
  8
LC-001-002-----0
  6
CONTINUOUS
  5
628
 10
424.667829
 20
476.341947
 30
0.0
 11
415.466686
 21
476.341947
 31
0.0
  0
ARC
  8
LC-003-002-RND-0
  6
CONTINUOUS
  5
629
 10
415.466686
 20
477.841947
 30
0.0
 40
1.5
 50
185.0
 51
270.0
  0
LINE
  8
LC-001-002-----0
  6
CONTINUOUS
  5
62A
 10
413.687053
 20
480.972681
 30
0.0
 11
413.972394
 21
477.711214
 31
0.0
  0
LINE
  8
LC-001-002-----0
  6
CONTINUOUS
  5
62B
 10
671.974364
 20
470.134841
 30
0.0
 11
667.474364
 21
465.634841
 31
0.0
  0
LINE
  8
LC-001-002-----0
  6
CONTINUOUS
  5
62C
 10
661.267258
 20
481.341947
 30
0.0
 11
661.267258
 21
470.841947
 31
0.0
  0
LINE
  8
LC-001-002-----0
  6
CONTINUOUS
  5
62D
 10
649.567258
 20
473.15752
 30
0.0
 11
649.567258
 21
471.079896
 31
0.0
  0
LINE
  8
LC-001-002-----0
  6
CONTINUOUS
  5
62E
 10
649.567258
 20
463.641947
 30
0.0
 11
641.067258
 21
463.641947
 31
0.0
  0
ARC
  8
LC-003-002-RND-0
  6
CONTINUOUS
  5
62F
 10
673.267258
 20
481.341947
 30
0.0
 40
1.0
 50
90.0
 51
180.0
  0
ARC
  8
LC-003-002-RND-0
  6
CONTINUOUS
  5
630
 10
671.267258
 20
470.841947
 30
0.0
 40
1.0
 50
315.0
 51
0.0
  0
LINE
  8
LC-001-002-----0
  6
CONTINUOUS
  5
631
 10
668.967258
 20
471.370374
 30
0.0
 11
666.767258
 21
469.170374
 31
0.0
  0
LINE
  8
LC-001-002-----0
  6
CONTINUOUS
  5
632
 10
673.267258
 20
482.341947
 30
0.0
 11
674.192761
 21
482.341947
 31
0.0
  0
ARC
  8
LC-003-002-RND-0
  6
CONTINUOUS
  5
633
 10
666.767258
 20
466.341947
 30
0.0
 40
1.0
 50
225.0
 51
315.0
  0
LINE
  8
LC-001-002-----0
  6
CONTINUOUS
  5
634
 10
664.567258
 20
471.370374
 30
0.0
 11
666.767258
 21
469.170374
 31
0.0
  0
LINE
  8
LC-001-002-----0
  6
CONTINUOUS
  5
635
 10
675.687053
 20
480.972681
 30
0.0
 11
675.972394
 21
477.711214
 31
0.0
  0
ARC
  8
LC-003-002-RND-0
  6
CONTINUOUS
  5
636
 10
660.267258
 20
481.341947
 30
0.0
 40
1.0
 50
0.0
 51
90.0
  0
ARC
  8
LC-003-002-RND-0
  6
CONTINUOUS
  5
637
 10
645.567258
 20
463.641947
 30
0.0
 40
8.0
 50
266.416678
 51
0.0
  0
ARC
  8
LC-003-002-RND-0
  6
CONTINUOUS
  5
638
 10
674.192761
 20
480.841947
 30
0.0
 40
1.5
 50
5.0
 51
90.0
  0
LINE
  8
LC-001-002-----0
  6
CONTINUOUS
  5
639
 10
677.466686
 20
476.341947
 30
0.0
 11
686.667829
 21
476.341947
 31
0.0
  0
ARC
  8
LC-003-002-RND-0
  6
CONTINUOUS
  5
63A
 10
689.941754
 20
480.841947
 30
0.0
 40
1.5
 50
90.0
 51
175.0
  0
LINE
  8
LC-001-002-----0
  6
CONTINUOUS
  5
63B
 10
645.567258
 20
455.641947
 30
0.0
 11
645.067258
 21
455.641947
 31
0.0
  0
LINE
  8
LC-001-002-----0
  6
CONTINUOUS
  5
63C
 10
709.067258
 20
484.457871
 30
0.0
 11
709.067258
 21
487.846035
 31
0.0
  0
LINE
  8
LC-001-002-----0
  6
CONTINUOUS
  5
63D
 10
678.567258
 20
480.141947
 30
0.0
 11
685.567258
 21
480.141947
 31
0.0
  0
LINE
  8
LC-001-002-----0
  6
CONTINUOUS
  5
63E
 10
685.567258
 20
485.641947
 30
0.0
 11
685.567258
 21
480.141947
 31
0.0
  0
LINE
  8
LC-001-002-----0
  6
CONTINUOUS
  5
63F
 10
678.567258
 20
485.641947
 30
0.0
 11
678.567258
 21
480.141947
 31
0.0
  0
LINE
  8
LC-001-002-----0
  6
CONTINUOUS
  5
640
 10
696.567258
 20
485.641947
 30
0.0
 11
668.967258
 21
485.641947
 31
0.0
  0
LINE
  8
LC-001-002-----0
  6
CONTINUOUS
  5
641
 10
697.067258
 20
482.341947
 30
0.0
 11
689.941754
 21
482.341947
 31
0.0
  0
ARC
  8
LC-003-002-RND-0
  6
CONTINUOUS
  5
642
 10
686.667829
 20
477.841947
 30
0.0
 40
1.5
 50
270.0
 51
355.0
  0
LINE
  8
LC-001-002-----0
  6
CONTINUOUS
  5
643
 10
672.267258
 20
481.341947
 30
0.0
 11
672.267258
 21
470.841947
 31
0.0
  0
LINE
  8
LC-001-002-----0
  6
CONTINUOUS
  5
644
 10
688.447462
 20
480.972681
 30
0.0
 11
688.162121
 21
477.711214
 31
0.0
  0
ARC
  8
LC-003-002-RND-0
  6
CONTINUOUS
  5
645
 10
662.267258
 20
470.841947
 30
0.0
 40
1.0
 50
180.0
 51
225.0
  0
ARC
  8
LC-003-002-RND-0
  6
CONTINUOUS
  5
646
 10
677.466686
 20
477.841947
 30
0.0
 40
1.5
 50
185.0
 51
270.0
  0
LINE
  8
LC-001-002-----0
  6
CONTINUOUS
  5
647
 10
661.560151
 20
470.134841
 30
0.0
 11
666.060151
 21
465.634841
 31
0.0
  0
LINE
  8
LC-001-002-----0
  6
CONTINUOUS
  5
648
 10
660.267258
 20
482.341947
 30
0.0
 11
655.067258
 21
482.341947
 31
0.0
  0
ARC
  8
LC-003-002-RND-0
  6
CONTINUOUS
  5
649
 10
655.067258
 20
480.841947
 30
0.0
 40
1.5
 50
90.0
 51
180.0
  0
LINE
  8
LC-001-002-----0
  6
CONTINUOUS
  5
64A
 10
653.567258
 20
480.841947
 30
0.0
 11
653.567258
 21
463.641947
 31
0.0
  0
LINE
  8
LC-001-002-----0
  6
CONTINUOUS
  5
64B
 10
668.967258
 20
485.641947
 30
0.0
 11
649.567258
 21
485.641947
 31
0.0
  0
LINE
  8
LC-001-002-----0
  6
CONTINUOUS
  5
64C
 10
697.067258
 20
482.341947
 30
0.0
 11
709.067258
 21
484.457871
 31
0.0
  0
ARC
  8
LC-001-002-----0
  6
CONTINUOUS
  5
64D
 10
454.746228
 20
469.692604
 30
0.0
 40
2.0
 50
180.0
 51
0.0
  0
ARC
  8
LC-001-002-----0
  6
CONTINUOUS
  5
64E
 10
454.746228
 20
471.397912
 30
0.0
 40
2.0
 50
0.0
 51
180.0
  0
LINE
  8
LC-001-002-----0
  6
CONTINUOUS
  5
64F
 10
456.746228
 20
471.397912
 30
0.0
 11
456.746228
 21
469.692604
 31
0.0
  0
LINE
  8
LC-001-002-----0
  6
CONTINUOUS
  5
650
 10
452.746228
 20
471.397912
 30
0.0
 11
452.746228
 21
469.692604
 31
0.0
  0
ARC
  8
LC-001-002-----0
  6
CONTINUOUS
  5
651
 10
647.388287
 20
471.397912
 30
0.0
 40
2.0
 50
0.0
 51
180.0
  0
LINE
  8
LC-001-002-----0
  6
CONTINUOUS
  5
652
 10
649.388287
 20
471.397912
 30
0.0
 11
649.388287
 21
469.692604
 31
0.0
  0
ARC
  8
LC-001-002-----0
  6
CONTINUOUS
  5
653
 10
647.388287
 20
469.692604
 30
0.0
 40
2.0
 50
180.0
 51
0.0
  0
LINE
  8
LC-001-002-----0
  6
CONTINUOUS
  5
654
 10
645.388287
 20
471.397912
 30
0.0
 11
645.388287
 21
469.692604
 31
0.0
  0
LINE
  8
LC-001-002-----0
  6
DASHDOT
 62
     2
  5
655
 10
551.067258
 20
615.06443
 30
0.0
 11
551.067258
 21
232.641947
 31
0.0
  0
LINE
  8
LC-001-002-----0
  6
CONTINUOUS
  5
656
 10
645.567258
 20
459.641947
 30
0.0
 11
641.067258
 21
459.641947
 31
0.0
  0
ARC
  8
LC-003-002-RND-0
  6
CONTINUOUS
  5
657
 10
645.567258
 20
463.641947
 30
0.0
 40
4.0
 50
270.0
 51
0.0
  0
LINE
  8
LC-001-002-----0
  6
CONTINUOUS
 62
     2
  5
658
 10
495.460078
 20
707.074087
 30
0.0
 11
510.460078
 21
707.074087
 31
0.0
  0
LINE
  8
LC-001-002-----0
  6
CONTINUOUS
 62
     2
  5
659
 10
495.460078
 20
667.074087
 30
0.0
 11
495.460078
 21
652.074087
 31
0.0
  0
LINE
  8
LC-001-002-----0
  6
CONTINUOUS
 62
     2
  5
65A
 10
495.460078
 20
707.074087
 30
0.0
 11
495.460078
 21
692.074087
 31
0.0
  0
LINE
  8
LC-001-002-----0
  6
CONTINUOUS
 62
     2
  5
65B
 10
495.460078
 20
652.074087
 30
0.0
 11
510.460078
 21
652.074087
 31
0.0
  0
ARC
  8
LC-003-002-RND-0
  6
CONTINUOUS
  5
65C
 10
654.067258
 20
592.06443
 30
0.0
 40
3.0
 50
90.0
 51
180.0
  0
LINE
  8
LC-001-002-----0
  6
CONTINUOUS
  5
65D
 10
440.067258
 20
595.06443
 30
0.0
 11
448.067258
 21
595.06443
 31
0.0
  0
LINE
  8
LC-001-002-----0
  6
CONTINUOUS
  5
65E
 10
621.071521
 20
539.683086
 30
0.0
 11
623.729897
 21
542.341461
 31
0.0
  0
LINE
  8
LC-001-002-----0
  6
CONTINUOUS
  5
65F
 10
481.062994
 20
539.683086
 30
0.0
 11
478.404618
 21
542.341461
 31
0.0
  0
LINE
  8
LC-001-002-----0
  6
CONTINUOUS
 62
     2
  5
660
 10
510.460078
 20
667.074087
 30
0.0
 11
510.460078
 21
652.074087
 31
0.0
  0
LINE
  8
LC-001-002-----0
  6
CONTINUOUS
 62
     2
  5
661
 10
495.460078
 20
667.074087
 30
0.0
 11
510.460078
 21
667.074087
 31
0.0
  0
LINE
  8
LC-001-002-----0
  6
CONTINUOUS
 62
     2
  5
662
 10
495.460078
 20
692.074087
 30
0.0
 11
510.460078
 21
692.074087
 31
0.0
  0
LINE
  8
LC-001-002-----0
  6
CONTINUOUS
 62
     2
  5
663
 10
510.460078
 20
707.074087
 30
0.0
 11
510.460078
 21
692.074087
 31
0.0
  0
LINE
  8
LC-001-002-----0
  6
CONTINUOUS
  5
664
 10
433.167258
 20
471.370374
 30
0.0
 11
433.167258
 21
485.641947
 31
0.0
  0
LINE
  8
LC-001-002-----0
  6
CONTINUOUS
  5
665
 10
437.567258
 20
471.370374
 30
0.0
 11
437.567258
 21
485.641947
 31
0.0
  0
LINE
  8
LC-001-002-----0
  6
CONTINUOUS
  5
666
 10
433.167258
 20
471.370374
 30
0.0
 11
437.567258
 21
471.370374
 31
0.0
  0
LINE
  8
LC-001-002-----0
  6
CONTINUOUS
  5
667
 10
452.567258
 20
463.641947
 30
0.0
 11
452.567258
 21
485.641947
 31
0.0
  0
LINE
  8
LC-008-061-----0
  5
669
 10
435.367258
 20
485.641947
 30
0.0
 11
435.367258
 21
469.170374
 31
0.0
  0
LINE
  8
LC-001-002-----0
  6
DASHDOT
 62
     2
  5
66A
 10
420.067258
 20
485.641947
 30
0.0
 11
420.067258
 21
480.141947
 31
0.0
  0
LINE
  8
LC-001-002-----0
  6
CONTINUOUS
  5
66B
 10
405.567258
 20
485.641947
 30
0.0
 11
393.067258
 21
487.846035
 31
0.0
  0
LINE
  8
LC-001-002-----0
  6
CONTINUOUS
  5
66C
 10
649.567258
 20
463.641947
 30
0.0
 11
649.567258
 21
485.641947
 31
0.0
  0
LINE
  8
LC-001-002-----0
  6
CONTINUOUS
  5
66D
 10
664.567258
 20
485.641947
 30
0.0
 11
664.567258
 21
471.370374
 31
0.0
  0
LINE
  8
LC-001-002-----0
  6
CONTINUOUS
  5
66E
 10
668.967258
 20
485.641947
 30
0.0
 11
668.967258
 21
471.370374
 31
0.0
  0
LINE
  8
LC-001-002-----0
  6
DASHDOT
 62
     2
  5
66F
 10
666.767258
 20
485.641947
 30
0.0
 11
666.767258
 21
465.341947
 31
0.0
  0
LINE
  8
LC-001-002-----0
  6
DASHDOT
 62
     2
  5
670
 10
682.067258
 20
485.641947
 30
0.0
 11
682.067258
 21
478.570966
 31
0.0
  0
LINE
  8
LC-001-002-----0
  6
CONTINUOUS
  5
671
 10
696.567258
 20
485.641947
 30
0.0
 11
709.067258
 21
487.846035
 31
0.0
  0
LINE
  8
LC-001-002-----0
  6
CONTINUOUS
  5
672
 10
664.567258
 20
471.370374
 30
0.0
 11
668.967258
 21
471.370374
 31
0.0
  0
LINE
  8
LC-001-002-----0
  6
DASHDOT
 62
     2
  5
673
 10
633.440866
 20
378.519951
 30
0.0
 11
548.86853
 21
409.301764
 31
0.0
  0
LINE
  8
LC-001-002-----0
  6
DASHDOT
 62
     2
  5
674
 10
632.243796
 20
375.231027
 30
0.0
 11
547.67146
 21
406.01284
 31
0.0
  0
LINE
  8
LC-001-002-----0
  6
DASHDOT
 62
     2
  5
675
 10
632.243796
 20
375.231027
 30
0.0
 11
633.440866
 21
378.519951
 31
0.0
  0
LINE
  8
LC-001-002-----0
  6
CONTINUOUS
  5
676
 10
654.067258
 20
595.06443
 30
0.0
 11
662.067258
 21
595.06443
 31
0.0
  0
LINE
  8
LC-001-002-----0
  6
CONTINUOUS
  5
677
 10
551.070887
 20
581.06443
 30
0.0
 11
560.677489
 21
581.06443
 31
0.0
  0
LINE
  8
LC-001-002-----0
  6
CONTINUOUS
  5
678
 10
614.069517
 20
615.06443
 30
0.0
 11
488.064999
 21
615.06443
 31
0.0
  0
LINE
  8
LC-001-002-----0
  6
CONTINUOUS
  5
679
 10
541.464285
 20
581.06443
 30
0.0
 11
488.903523
 21
593.199038
 31
0.0
  0
LINE
  8
LC-001-002-----0
  6
CONTINUOUS
  5
67A
 10
541.464285
 20
581.06443
 30
0.0
 11
551.070887
 21
581.06443
 31
0.0
  0
LINE
  8
LC-001-002-----0
  6
CONTINUOUS
  5
67B
 10
661.730992
 20
596.959758
 30
0.0
 11
662.569517
 21
612.959758
 31
0.0
  0
LINE
  8
LC-001-002-----0
  6
CONTINUOUS
  5
67C
 10
615.228251
 20
596.959758
 30
0.0
 11
616.066776
 21
612.959758
 31
0.0
  0
LINE
  8
LC-001-002-----0
  6
CONTINUOUS
  5
67D
 10
646.072258
 20
612.959758
 30
0.0
 11
646.910782
 21
596.959758
 31
0.0
  0
LINE
  8
LC-001-002-----0
  6
CONTINUOUS
  5
67E
 10
660.572258
 20
615.06443
 30
0.0
 11
614.069517
 21
615.06443
 31
0.0
  0
LINE
  8
LC-001-002-----0
  6
CONTINUOUS
  5
67F
 10
648.908041
 20
595.06443
 30
0.0
 11
659.733733
 21
595.06443
 31
0.0
  0
LINE
  8
LC-001-002-----0
  6
CONTINUOUS
  5
680
 10
439.572258
 20
612.959758
 30
0.0
 11
440.410782
 21
596.959758
 31
0.0
  0
LINE
  8
LC-001-002-----0
  6
CONTINUOUS
  5
681
 10
488.064999
 20
615.06443
 30
0.0
 11
441.569517
 21
615.06443
 31
0.0
  0
LINE
  8
LC-001-002-----0
  6
CONTINUOUS
  5
682
 10
486.067739
 20
612.959758
 30
0.0
 11
486.906264
 21
596.959758
 31
0.0
  0
LINE
  8
LC-001-002-----0
  6
CONTINUOUS
  5
683
 10
451.229215
 20
596.959758
 30
0.0
 11
452.067739
 21
612.959758
 31
0.0
  0
LINE
  8
LC-010-100-D00-0
  6
CONTINUOUS
  5
685
 10
442.408041
 20
595.06443
 30
0.0
 11
449.231956
 21
595.06443
 31
0.0
  0
LINE
  8
LC-001-002-----0
  6
CONTINUOUS
  5
686
 10
449.231956
 20
595.06443
 30
0.0
 11
488.903523
 21
595.06443
 31
0.0
  0
LINE
  8
LC-001-002-----0
  6
CONTINUOUS
  5
687
 10
613.230992
 20
595.06443
 30
0.0
 11
648.908041
 21
595.06443
 31
0.0
  0
LINE
  8
LC-001-002-----0
  6
CONTINUOUS
  5
688
 10
613.230992
 20
595.06443
 30
0.0
 11
613.230992
 21
593.197362
 31
0.0
  0
LINE
  8
LC-001-002-----0
  6
CONTINUOUS
  5
689
 10
613.230992
 20
593.197362
 30
0.0
 11
560.677489
 21
581.06443
 31
0.0
  0
LINE
  8
LC-001-002-----0
  6
CONTINUOUS
  5
68A
 10
488.903523
 20
595.06443
 30
0.0
 11
488.903523
 21
593.199038
 31
0.0
  0
ARC
  8
LC-001-002-----0
  6
CONTINUOUS
  5
68B
 10
660.572258
 20
613.06443
 30
0.0
 40
2.0
 50
357.0
 51
90.0
  0
ARC
  8
LC-001-002-----0
  6
CONTINUOUS
  5
68C
 10
659.733733
 20
597.06443
 30
0.0
 40
2.0
 50
270.0
 51
357.0
  0
ARC
  8
LC-001-002-----0
  6
CONTINUOUS
  5
68D
 10
614.069517
 20
613.06443
 30
0.0
 40
2.0
 50
357.0
 51
90.0
  0
ARC
  8
LC-001-002-----0
  6
CONTINUOUS
  5
68E
 10
613.230992
 20
597.06443
 30
0.0
 40
2.0
 50
270.0
 51
357.0
  0
ARC
  8
LC-001-002-----0
  6
CONTINUOUS
  5
68F
 10
648.069517
 20
613.06443
 30
0.0
 40
2.0
 50
90.0
 51
183.0
  0
ARC
  8
LC-001-002-----0
  6
CONTINUOUS
  5
690
 10
648.908041
 20
597.06443
 30
0.0
 40
2.0
 50
183.0
 51
270.0
  0
ARC
  8
LC-001-002-----0
  6
CONTINUOUS
  5
691
 10
441.569517
 20
613.06443
 30
0.0
 40
2.0
 50
90.0
 51
183.0
  0
ARC
  8
LC-001-002-----0
  6
CONTINUOUS
  5
692
 10
442.408041
 20
597.06443
 30
0.0
 40
2.0
 50
183.0
 51
270.0
  0
ARC
  8
LC-001-002-----0
  6
CONTINUOUS
  5
693
 10
488.064999
 20
613.06443
 30
0.0
 40
2.0
 50
90.0
 51
183.0
  0
ARC
  8
LC-001-002-----0
  6
CONTINUOUS
  5
694
 10
488.903523
 20
597.06443
 30
0.0
 40
2.0
 50
183.0
 51
270.0
  0
ARC
  8
LC-001-002-----0
  6
CONTINUOUS
  5
695
 10
450.07048
 20
613.06443
 30
0.0
 40
2.0
 50
357.0
 51
90.0
  0
ARC
  8
LC-001-002-----0
  6
CONTINUOUS
  5
696
 10
449.231956
 20
597.06443
 30
0.0
 40
2.0
 50
270.0
 51
357.0
  0
LINE
  8
LC-001-002-----0
  6
CONTINUOUS
  5
697
 10
586.666344
 20
587.06443
 30
0.0
 11
650.780039
 21
587.06443
 31
0.0
  0
ENDSEC
  0
EOF
