  0
SECTION
  2
HEADER
  9
$ACADVER
  1
AC1009
  9
$INSBASE
 10
0.0
 20
0.0
 30
0.0
  9
$EXTMIN
 10
-210.069298
 20
-78.96
 30
0.0
  9
$EXTMAX
 10
629.930702
 20
515.04
 30
0.0
  9
$LIMMIN
 10
-210.069298
 20
-78.96
  9
$LIMMAX
 10
629.930702
 20
515.04
  9
$ORTHOMODE
 70
     0
  9
$REGENMODE
 70
     1
  9
$FILLMODE
 70
     1
  9
$QTEXTMODE
 70
     0
  9
$MIRRTEXT
 70
     1
  9
$DRAGMODE
 70
     2
  9
$LTSCALE
 40
2.0
  9
$OSMODE
 70
     0
  9
$ATTMODE
 70
     1
  9
$TEXTSIZE
 40
0.2
  9
$TRACEWID
 40
0.05
  9
$TEXTSTYLE
  7
STANDARD
  9
$CLAYER
  8
0
  9
$CELTYPE
  6
BYLAYER
  9
$CECOLOR
 62
     7
  9
$DIMSCALE
 40
2.0
  9
$DIMASZ
 40
3.5
  9
$DIMEXO
 40
0.0625
  9
$DIMDLI
 40
0.38
  9
$DIMRND
 40
0.0
  9
$DIMDLE
 40
0.0
  9
$DIMEXE
 40
0.18
  9
$DIMTP
 40
0.0
  9
$DIMTM
 40
0.0
  9
$DIMTXT
 40
3.5
  9
$DIMCEN
 40
0.09
  9
$DIMTSZ
 40
0.0
  9
$DIMTOL
 70
     0
  9
$DIMLIM
 70
     0
  9
$DIMTIH
 70
     1
  9
$DIMTOH
 70
     1
  9
$DIMSE1
 70
     0
  9
$DIMSE2
 70
     0
  9
$DIMTAD
 70
     1
  9
$DIMZIN
 70
     0
  9
$DIMBLK
  1

  9
$DIMASO
 70
     1
  9
$DIMSHO
 70
     1
  9
$DIMPOST
  1

  9
$DIMAPOST
  1

  9
$DIMALT
 70
     0
  9
$DIMALTD
 70
     2
  9
$DIMALTF
 40
25.4
  9
$DIMLFAC
 40
1.0
  9
$DIMTOFL
 70
     0
  9
$DIMTVP
 40
0.0
  9
$DIMTIX
 70
     0
  9
$DIMSOXD
 70
     0
  9
$DIMSAH
 70
     0
  9
$DIMBLK1
  1

  9
$DIMBLK2
  1

  9
$DIMSTYLE
  2
STANDARD
  9
$DIMCLRD
 70
     0
  9
$DIMCLRE
 70
     0
  9
$DIMCLRT
 70
     0
  9
$DIMTFAC
 40
1.0
  9
$DIMGAP
 40
0.09
  9
$LUNITS
 70
     2
  9
$LUPREC
 70
     2
  9
$AXISMODE
 70
     0
  9
$AXISUNIT
 10
0.0
 20
0.0
  9
$SKETCHINC
 40
0.1
  9
$FILLETRAD
 40
0.0
  9
$AUNITS
 70
     0
  9
$AUPREC
 70
     0
  9
$MENU
  1
acad
  9
$ELEVATION
 40
0.0
  9
$PELEVATION
 40
0.0
  9
$THICKNESS
 40
0.0
  9
$LIMCHECK
 70
     0
  9
$BLIPMODE
 70
     1
  9
$CHAMFERA
 40
0.0
  9
$CHAMFERB
 40
0.0
  9
$SKPOLY
 70
     0
  9
$TDCREATE
 40
0.000000000
  9
$TDUPDATE
 40
0.000000000
  9
$TDINDWG
 40
0.0000000000
  9
$TDUSRTIMER
 40
0.0000000000
  9
$USRTIMER
 70
     1
  9
$ANGBASE
 50
0.0
  9
$ANGDIR
 70
     0
  9
$PDMODE
 70
     0
  9
$PDSIZE
 40
0.0
  9
$PLINEWID
 40
0.0
  9
$COORDS
 70
     0
  9
$SPLFRAME
 70
     0
  9
$SPLINETYPE
 70
     6
  9
$SPLINESEGS
 70
     8
  9
$ATTDIA
 70
     0
  9
$ATTREQ
 70
     1
  9
$HANDLING
 70
     1
  9
$HANDSEED
  5
1CA
  9
$SURFTAB1
 70
     6
  9
$SURFTAB2
 70
     6
  9
$SURFTYPE
 70
     6
  9
$SURFU
 70
     6
  9
$SURFV
 70
     6
  9
$UCSNAME
  2

  9
$UCSORG
 10
0.0
 20
0.0
 30
0.0
  9
$UCSXDIR
 10
1.0
 20
0.0
 30
0.0
  9
$UCSYDIR
 10
0.0
 20
1.0
 30
0.0
  9
$PUCSNAME
  2

  9
$PUCSORG
 10
0.0
 20
0.0
 30
0.0
  9
$PUCSXDIR
 10
1.0
 20
0.0
 30
0.0
  9
$PUCSYDIR
 10
0.0
 20
1.0
 30
0.0
  9
$USERI1
 70
     0
  9
$USERI2
 70
     0
  9
$USERI3
 70
     0
  9
$USERI4
 70
     0
  9
$USERI5
 70
     0
  9
$USERR1
 40
0.0
  9
$USERR2
 40
0.0
  9
$USERR3
 40
0.0
  9
$USERR4
 40
0.0
  9
$USERR5
 40
0.0
  9
$WORLDVIEW
 70
     1
  9
$SHADEDGE
 70
     3
  9
$SHADEDIF
 70
    70
  9
$TILEMODE
 70
     1
  9
$MAXACTVP
 70
    16
  9
$PINSBASE
 10
0.0
 20
0.0
 30
0.0
  9
$PLIMCHECK
 70
     0
  9
$PEXTMIN
 10
1.000000E+20
 20
1.000000E+20
 30
1.000000E+20
  9
$PEXTMAX
 10
-1.000000E+20
 20
-1.000000E+20
 30
-1.000000E+20
  9
$PLIMMIN
 10
-210.069298
 20
-78.96
  9
$PLIMMAX
 10
629.930702
 20
515.04
  9
$UNITMODE
 70
     0
  9
$VISRETAIN
 70
     0
  9
$PLINEGEN
 70
     1
  9
$PSLTSCALE
 70
     0
  9
$TREEDEPTH
 70
  3020
  9
$DWGCODEPAGE
  3
dos850
  0
ENDSEC
  0
SECTION
  2
TABLES
  0
TABLE
  2
VPORT
 70
     1
  0
VPORT
  2
*ACTIVE
 70
     0
 10
0.0
 20
0.0
 11
1.0
 21
1.0
 12
420.0
 22
297.0
 13
0.0
 23
0.0
 14
1.0
 24
1.0
 15
0.0
 25
0.0
 16
0.0
 26
0.0
 36
1.0
 17
-210.069298
 27
-78.96
 37
0.0
 40
594.0
 41
1.604229
 42
50.0
 43
0.0
 44
0.0
 50
0.0
 51
0.0
 71
     0
 72
   100
 73
     1
 74
     1
 75
     0
 76
     0
 77
     0
 78
     0
  0
ENDTAB
  0
TABLE
  2
LTYPE
 70
     2
  0
LTYPE
  2
CONTINUOUS
 70
    64
  3
Solid line
 72
    65
 73
     0
 40
0.0
  0
LTYPE
  2
DASHDOT
 70
    64
  3
__ . __ . __ . __ . __
 72
    65
 73
     4
 40
7.5
 49
5.0
 49
-1.25
 49
0.0
 49
-1.25
  0
ENDTAB
  0
TABLE
  2
LAYER
 70
     9
  0
LAYER
  2
0
 70
     0
 62
     7
  6
CONTINUOUS
  0
LAYER
  2
LC-INFO-1-2-MM-A3-0
 70
     1
 62
    -1
  6
CONTINUOUS
  0
LAYER
  2
LC-003-003-MTH-0
 70
     0
 62
     2
  6
CONTINUOUS
  0
LAYER
  2
LC-004-003-MTG-0
 70
     0
 62
     2
  6
CONTINUOUS
  0
LAYER
  2
LC-002-003-----0
 70
     0
 62
     2
  6
CONTINUOUS
  0
LAYER
  2
LC-005-005-----0
 70
     0
 62
     2
  6
CONTINUOUS
  0
LAYER
  2
LC-006-000-----0
 70
     0
 62
     7
  6
CONTINUOUS
  0
LAYER
  2
LC-001-002-----0
 70
     0
 62
     2
  6
DASHDOT
  0
LAYER
  2
LC-000
 70
     0
 62
     7
  6
CONTINUOUS
  0
ENDTAB
  0
TABLE
  2
STYLE
 70
     4
  0
STYLE
  2
STANDARD
 70
     0
 40
0.0
 41
1.0
 50
0.0
 71
     0
 42
0.0
  3
txt
  4

  0
STYLE
  2
LC-STANDARD
 70
    64
 40
0.0
 41
1.0
 50
0.0
 71
     0
 42
3.5
  3
MONOTXT
  4

  0
STYLE
  2
LC-TXTSTYLE-150-400-0-0-D2
 70
    64
 40
0.0
 41
1.0
 50
15.0
 71
     0
 42
3.5
  3
MONOTXT
  4

  0
STYLE
  2
LC-TXTSTYLE-150-400-0-0-D3
 70
    64
 40
0.0
 41
1.0
 50
15.0
 71
     0
 42
3.5
  3
LC-STANDARD
  4

  0
ENDTAB
  0
TABLE
  2
VIEW
 70
     0
  0
ENDTAB
  0
TABLE
  2
UCS
 70
     0
  0
ENDTAB
  0
TABLE
  2
APPID
 70
     1
  0
APPID
  2
ACAD
 70
     0
  0
ENDTAB
  0
TABLE
  2
DIMSTYLE
 70
     4
  0
DIMSTYLE
  2
STANDARD
 70
     0
  3

  4

  5

  6

  7

 40
1.0
 41
0.18
 42
0.0625
 43
0.38
 44
0.18
 45
0.0
 46
0.0
 47
0.0
 48
0.0
 71
     0
 72
     0
 73
     1
 74
     1
 75
     0
 76
     0
 77
     0
 78
     0
140
0.18
141
0.09
142
0.0
143
25.4
144
1.0
145
0.0
146
1.0
147
0.09
170
     0
171
     2
172
     0
173
     0
174
     0
175
     0
176
     0
177
     0
178
     0
  0
DIMSTYLE
  2
LC-STANDARD
 70
     0
  3

  4

  5

  6

  7

 40
1.0
 41
3.5
 42
0.0
 43
7.5
 44
1.8
 45
0.0
 46
0.0
 47
0.0
 48
0.0
 71
     0
 72
     0
 73
     0
 74
     0
 75
     0
 76
     0
 77
     1
 78
     8
140
3.5
141
0.0
142
0.0
143
25.4
144
1.0
145
0.0
146
0.71
147
1.5
170
     0
171
     2
172
     1
173
     0
174
     0
175
     0
176
     0
177
     0
178
     3
  0
DIMSTYLE
  2
LC-DIM-L-0090-01-02
 70
     0
  3

  4

  5

  6

  7

 40
2.0
 41
3.5
 42
0.0
 43
7.5
 44
1.8
 45
0.0
 46
0.0
 47
0.0
 48
0.0
 71
     0
 72
     0
 73
     0
 74
     0
 75
     0
 76
     0
 77
     1
 78
     8
140
9.0
141
0.0
142
0.0
143
25.4
144
1.0
145
0.0
146
0.71
147
1.5
170
     0
171
     2
172
     0
173
     0
174
     0
175
     0
176
     2
177
     2
178
     6
  0
DIMSTYLE
  2
LC-DIM-L-0090-02-02
 70
     0
  3

  4

  5

  6

  7

 40
2.0
 41
3.5
 42
0.0
 43
7.5
 44
1.8
 45
0.0
 46
0.0
 47
0.0
 48
0.0
 71
     0
 72
     0
 73
     0
 74
     0
 75
     0
 76
     0
 77
     1
 78
     8
140
9.0
141
0.0
142
0.0
143
25.4
144
1.0
145
0.0
146
0.71
147
1.5
170
     0
171
     2
172
     0
173
     0
174
     0
175
     0
176
     2
177
     2
178
     6
  0
ENDTAB
  0
ENDSEC
  0
SECTION
  2
BLOCKS
  0
BLOCK
  8
0
  5
24
  2
*D0
 70
    65
 10
0.0
 20
0.0
 30
0.0
  3
*D0
  0
LINE
  8
LC-003-003-MTH-0
  6
CONTINUOUS
  5
26
 10
149.137559
 20
167.185921
 30
0.0
 11
250.8
 21
167.185921
 31
0.0
  0
LINE
  8
LC-003-003-MTH-0
  6
CONTINUOUS
  5
27
 10
190.355559
 20
381.657107
 30
0.0
 11
250.8
 21
381.657107
 31
0.0
  0
LINE
  8
LC-004-003-MTG-0
  6
CONTINUOUS
  5
29
 10
240.0
 20
167.185921
 30
0.0
 11
240.0
 21
381.657107
 31
0.0
  0
LINE
  8
LC-002-003-----0
  6
CONTINUOUS
  5
2B
 10
237.650529
 20
185.031928
 30
0.0
 11
240.0
 21
167.185921
 31
0.0
  0
LINE
  8
LC-002-003-----0
  6
CONTINUOUS
  5
2C
 10
240.0
 20
167.185921
 30
0.0
 11
242.349471
 21
185.031928
 31
0.0
  0
LINE
  8
LC-002-003-----0
  6
CONTINUOUS
  5
2D
 10
242.349471
 20
185.031928
 30
0.0
 11
237.650529
 21
185.031928
 31
0.0
  0
LINE
  8
LC-002-003-----0
  6
CONTINUOUS
  5
2E
 10
238.261391
 20
185.071966
 30
0.0
 11
240.0
 21
171.865921
 31
0.0
  0
LINE
  8
LC-002-003-----0
  6
CONTINUOUS
  5
2F
 10
240.0
 20
171.865921
 30
0.0
 11
241.738609
 21
185.071966
 31
0.0
  0
LINE
  8
LC-002-003-----0
  6
CONTINUOUS
  5
30
 10
238.872254
 20
185.112005
 30
0.0
 11
240.0
 21
176.545921
 31
0.0
  0
LINE
  8
LC-002-003-----0
  6
CONTINUOUS
  5
31
 10
240.0
 20
176.545921
 30
0.0
 11
241.127746
 21
185.112005
 31
0.0
  0
LINE
  8
LC-002-003-----0
  6
CONTINUOUS
  5
32
 10
239.483116
 20
185.152043
 30
0.0
 11
240.0
 21
181.225921
 31
0.0
  0
LINE
  8
LC-002-003-----0
  6
CONTINUOUS
  5
33
 10
240.0
 20
181.225921
 30
0.0
 11
240.516884
 21
185.152043
 31
0.0
  0
LINE
  8
LC-002-003-----0
  6
CONTINUOUS
  5
34
 10
242.349471
 20
363.8111
 30
0.0
 11
240.0
 21
381.657107
 31
0.0
  0
LINE
  8
LC-002-003-----0
  6
CONTINUOUS
  5
35
 10
240.0
 20
381.657107
 30
0.0
 11
237.650529
 21
363.8111
 31
0.0
  0
LINE
  8
LC-002-003-----0
  6
CONTINUOUS
  5
36
 10
237.650529
 20
363.8111
 30
0.0
 11
242.349471
 21
363.8111
 31
0.0
  0
LINE
  8
LC-002-003-----0
  6
CONTINUOUS
  5
37
 10
241.738609
 20
363.771062
 30
0.0
 11
240.0
 21
376.977107
 31
0.0
  0
LINE
  8
LC-002-003-----0
  6
CONTINUOUS
  5
38
 10
240.0
 20
376.977107
 30
0.0
 11
238.261391
 21
363.771062
 31
0.0
  0
LINE
  8
LC-002-003-----0
  6
CONTINUOUS
  5
39
 10
241.127746
 20
363.731024
 30
0.0
 11
240.0
 21
372.297107
 31
0.0
  0
LINE
  8
LC-002-003-----0
  6
CONTINUOUS
  5
3A
 10
240.0
 20
372.297107
 30
0.0
 11
238.872254
 21
363.731024
 31
0.0
  0
LINE
  8
LC-002-003-----0
  6
CONTINUOUS
  5
3B
 10
240.516884
 20
363.690986
 30
0.0
 11
240.0
 21
367.617107
 31
0.0
  0
LINE
  8
LC-002-003-----0
  6
CONTINUOUS
  5
3C
 10
240.0
 20
367.617107
 30
0.0
 11
239.483116
 21
363.690986
 31
0.0
  0
TEXT
  8
LC-002-003-----0
  6
CONTINUOUS
 62
     6
  5
3E
 10
229.568001
 20
250.409387
 30
0.0
 40
18.0
  1
215
 50
90.0
 41
0.9
 51
15.0
  7
LC-TXTSTYLE-150-400-0-0-D0
 72
     1
 11
229.568001
 21
269.543246
 31
0.0
  0
ENDBLK
  8
0
  5
3F
  0
BLOCK
  8
0
  5
41
  2
*X1
 70
    65
 10
34.887559
 20
167.185921
 30
0.0
  3
*X1
  0
LINE
  8
LC-005-005-----0
  6
CONTINUOUS
  5
43
 10
79.50468
 20
167.185921
 30
0.0
 11
80.137559
 21
167.8188
 31
0.0
  0
LINE
  8
LC-005-005-----0
  6
CONTINUOUS
  5
44
 10
77.991035
 20
168.500703
 30
0.0
 11
80.137559
 21
170.647227
 31
0.0
  0
LINE
  8
LC-005-005-----0
  6
CONTINUOUS
  5
45
 10
77.393318
 20
170.731413
 30
0.0
 11
80.137559
 21
173.475654
 31
0.0
  0
LINE
  8
LC-005-005-----0
  6
CONTINUOUS
  5
46
 10
77.137559
 20
173.304081
 30
0.0
 11
80.137559
 21
176.304081
 31
0.0
  0
LINE
  8
LC-005-005-----0
  6
CONTINUOUS
  5
47
 10
77.137559
 20
176.132508
 30
0.0
 11
80.137559
 21
179.132508
 31
0.0
  0
LINE
  8
LC-005-005-----0
  6
CONTINUOUS
  5
48
 10
77.137559
 20
178.960935
 30
0.0
 11
80.137559
 21
181.960935
 31
0.0
  0
LINE
  8
LC-005-005-----0
  6
CONTINUOUS
  5
49
 10
77.137559
 20
181.789362
 30
0.0
 11
80.137559
 21
184.789362
 31
0.0
  0
LINE
  8
LC-005-005-----0
  6
CONTINUOUS
  5
4A
 10
77.137559
 20
184.617789
 30
0.0
 11
80.137559
 21
187.617789
 31
0.0
  0
LINE
  8
LC-005-005-----0
  6
CONTINUOUS
  5
4B
 10
77.137559
 20
187.446217
 30
0.0
 11
80.137559
 21
190.446217
 31
0.0
  0
LINE
  8
LC-005-005-----0
  6
CONTINUOUS
  5
4C
 10
77.137559
 20
190.274644
 30
0.0
 11
80.137559
 21
193.274644
 31
0.0
  0
LINE
  8
LC-005-005-----0
  6
CONTINUOUS
  5
4D
 10
77.137559
 20
193.103071
 30
0.0
 11
80.137559
 21
196.103071
 31
0.0
  0
LINE
  8
LC-005-005-----0
  6
CONTINUOUS
  5
4E
 10
77.137559
 20
195.931498
 30
0.0
 11
80.137559
 21
198.931498
 31
0.0
  0
LINE
  8
LC-005-005-----0
  6
CONTINUOUS
  5
4F
 10
77.137559
 20
198.759925
 30
0.0
 11
80.137559
 21
201.759925
 31
0.0
  0
LINE
  8
LC-005-005-----0
  6
CONTINUOUS
  5
50
 10
77.137559
 20
201.588352
 30
0.0
 11
80.137559
 21
204.588352
 31
0.0
  0
LINE
  8
LC-005-005-----0
  6
CONTINUOUS
  5
51
 10
77.137559
 20
204.416779
 30
0.0
 11
80.137559
 21
207.416779
 31
0.0
  0
LINE
  8
LC-005-005-----0
  6
CONTINUOUS
  5
52
 10
77.137559
 20
207.245206
 30
0.0
 11
80.137559
 21
210.245206
 31
0.0
  0
LINE
  8
LC-005-005-----0
  6
CONTINUOUS
  5
53
 10
77.137559
 20
210.073634
 30
0.0
 11
80.137559
 21
213.073634
 31
0.0
  0
LINE
  8
LC-005-005-----0
  6
CONTINUOUS
  5
54
 10
77.137559
 20
212.902061
 30
0.0
 11
80.137559
 21
215.902061
 31
0.0
  0
LINE
  8
LC-005-005-----0
  6
CONTINUOUS
  5
55
 10
77.137559
 20
215.730488
 30
0.0
 11
80.137559
 21
218.730488
 31
0.0
  0
LINE
  8
LC-005-005-----0
  6
CONTINUOUS
  5
56
 10
77.137559
 20
218.558915
 30
0.0
 11
80.137559
 21
221.558915
 31
0.0
  0
LINE
  8
LC-005-005-----0
  6
CONTINUOUS
  5
57
 10
77.137559
 20
221.387342
 30
0.0
 11
80.137559
 21
224.387342
 31
0.0
  0
LINE
  8
LC-005-005-----0
  6
CONTINUOUS
  5
58
 10
77.137559
 20
224.215769
 30
0.0
 11
80.137559
 21
227.215769
 31
0.0
  0
LINE
  8
LC-005-005-----0
  6
CONTINUOUS
  5
59
 10
77.137559
 20
227.044196
 30
0.0
 11
80.137559
 21
230.044196
 31
0.0
  0
LINE
  8
LC-005-005-----0
  6
CONTINUOUS
  5
5A
 10
77.137559
 20
229.872623
 30
0.0
 11
80.137559
 21
232.872623
 31
0.0
  0
LINE
  8
LC-005-005-----0
  6
CONTINUOUS
  5
5B
 10
77.137559
 20
232.701051
 30
0.0
 11
80.137559
 21
235.701051
 31
0.0
  0
LINE
  8
LC-005-005-----0
  6
CONTINUOUS
  5
5C
 10
77.137559
 20
235.529478
 30
0.0
 11
80.137559
 21
238.529478
 31
0.0
  0
LINE
  8
LC-005-005-----0
  6
CONTINUOUS
  5
5D
 10
77.137559
 20
238.357905
 30
0.0
 11
80.137559
 21
241.357905
 31
0.0
  0
LINE
  8
LC-005-005-----0
  6
CONTINUOUS
  5
5E
 10
77.137559
 20
241.186332
 30
0.0
 11
80.137559
 21
244.186332
 31
0.0
  0
LINE
  8
LC-005-005-----0
  6
CONTINUOUS
  5
5F
 10
77.137559
 20
244.014759
 30
0.0
 11
80.137559
 21
247.014759
 31
0.0
  0
LINE
  8
LC-005-005-----0
  6
CONTINUOUS
  5
60
 10
77.137559
 20
246.843186
 30
0.0
 11
80.137559
 21
249.843186
 31
0.0
  0
LINE
  8
LC-005-005-----0
  6
CONTINUOUS
  5
61
 10
77.137559
 20
249.671613
 30
0.0
 11
80.137559
 21
252.671613
 31
0.0
  0
LINE
  8
LC-005-005-----0
  6
CONTINUOUS
  5
62
 10
77.137559
 20
252.50004
 30
0.0
 11
80.137559
 21
255.50004
 31
0.0
  0
LINE
  8
LC-005-005-----0
  6
CONTINUOUS
  5
63
 10
77.137559
 20
255.328468
 30
0.0
 11
80.137559
 21
258.328468
 31
0.0
  0
LINE
  8
LC-005-005-----0
  6
CONTINUOUS
  5
64
 10
77.137559
 20
258.156895
 30
0.0
 11
80.137559
 21
261.156895
 31
0.0
  0
LINE
  8
LC-005-005-----0
  6
CONTINUOUS
  5
65
 10
77.137559
 20
260.985322
 30
0.0
 11
80.137559
 21
263.985322
 31
0.0
  0
LINE
  8
LC-005-005-----0
  6
CONTINUOUS
  5
66
 10
77.137559
 20
263.813749
 30
0.0
 11
80.137559
 21
266.813749
 31
0.0
  0
LINE
  8
LC-005-005-----0
  6
CONTINUOUS
  5
67
 10
77.137559
 20
266.642176
 30
0.0
 11
80.137559
 21
269.642176
 31
0.0
  0
LINE
  8
LC-005-005-----0
  6
CONTINUOUS
  5
68
 10
77.137559
 20
269.470603
 30
0.0
 11
80.137559
 21
272.470603
 31
0.0
  0
LINE
  8
LC-005-005-----0
  6
CONTINUOUS
  5
69
 10
77.137559
 20
272.29903
 30
0.0
 11
80.137559
 21
275.29903
 31
0.0
  0
LINE
  8
LC-005-005-----0
  6
CONTINUOUS
  5
6A
 10
77.137559
 20
275.127457
 30
0.0
 11
80.137559
 21
278.127457
 31
0.0
  0
LINE
  8
LC-005-005-----0
  6
CONTINUOUS
  5
6B
 10
77.137559
 20
277.955885
 30
0.0
 11
80.137559
 21
280.955885
 31
0.0
  0
LINE
  8
LC-005-005-----0
  6
CONTINUOUS
  5
6C
 10
77.137559
 20
280.784312
 30
0.0
 11
80.137559
 21
283.784312
 31
0.0
  0
LINE
  8
LC-005-005-----0
  6
CONTINUOUS
  5
6D
 10
77.137559
 20
283.612739
 30
0.0
 11
80.137559
 21
286.612739
 31
0.0
  0
LINE
  8
LC-005-005-----0
  6
CONTINUOUS
  5
6E
 10
77.137559
 20
286.441166
 30
0.0
 11
80.137559
 21
289.441166
 31
0.0
  0
LINE
  8
LC-005-005-----0
  6
CONTINUOUS
  5
6F
 10
77.137559
 20
289.269593
 30
0.0
 11
80.137559
 21
292.269593
 31
0.0
  0
LINE
  8
LC-005-005-----0
  6
CONTINUOUS
  5
70
 10
77.137559
 20
292.09802
 30
0.0
 11
80.137559
 21
295.09802
 31
0.0
  0
LINE
  8
LC-005-005-----0
  6
CONTINUOUS
  5
71
 10
77.137559
 20
294.926447
 30
0.0
 11
80.137559
 21
297.926447
 31
0.0
  0
LINE
  8
LC-005-005-----0
  6
CONTINUOUS
  5
72
 10
77.137559
 20
297.754874
 30
0.0
 11
80.137559
 21
300.754874
 31
0.0
  0
LINE
  8
LC-005-005-----0
  6
CONTINUOUS
  5
73
 10
77.137559
 20
300.583302
 30
0.0
 11
80.137559
 21
303.583302
 31
0.0
  0
LINE
  8
LC-005-005-----0
  6
CONTINUOUS
  5
74
 10
77.137559
 20
303.411729
 30
0.0
 11
80.137559
 21
306.411729
 31
0.0
  0
LINE
  8
LC-005-005-----0
  6
CONTINUOUS
  5
75
 10
77.137559
 20
306.240156
 30
0.0
 11
80.137559
 21
309.240156
 31
0.0
  0
LINE
  8
LC-005-005-----0
  6
CONTINUOUS
  5
76
 10
77.137559
 20
309.068583
 30
0.0
 11
80.137559
 21
312.068583
 31
0.0
  0
LINE
  8
LC-005-005-----0
  6
CONTINUOUS
  5
77
 10
77.137559
 20
311.89701
 30
0.0
 11
80.137559
 21
314.89701
 31
0.0
  0
LINE
  8
LC-005-005-----0
  6
CONTINUOUS
  5
78
 10
77.137559
 20
314.725437
 30
0.0
 11
80.137559
 21
317.725437
 31
0.0
  0
LINE
  8
LC-005-005-----0
  6
CONTINUOUS
  5
79
 10
77.137559
 20
317.553864
 30
0.0
 11
80.137559
 21
320.553864
 31
0.0
  0
LINE
  8
LC-005-005-----0
  6
CONTINUOUS
  5
7A
 10
77.137559
 20
320.382291
 30
0.0
 11
80.137559
 21
323.382291
 31
0.0
  0
LINE
  8
LC-005-005-----0
  6
CONTINUOUS
  5
7B
 10
77.137559
 20
323.210719
 30
0.0
 11
80.137559
 21
326.210719
 31
0.0
  0
LINE
  8
LC-005-005-----0
  6
CONTINUOUS
  5
7C
 10
77.137559
 20
326.039146
 30
0.0
 11
80.137559
 21
329.039146
 31
0.0
  0
LINE
  8
LC-005-005-----0
  6
CONTINUOUS
  5
7D
 10
77.137559
 20
328.867573
 30
0.0
 11
80.137559
 21
331.867573
 31
0.0
  0
LINE
  8
LC-005-005-----0
  6
CONTINUOUS
  5
7E
 10
77.137559
 20
331.696
 30
0.0
 11
80.137559
 21
334.696
 31
0.0
  0
LINE
  8
LC-005-005-----0
  6
CONTINUOUS
  5
7F
 10
77.137559
 20
334.524427
 30
0.0
 11
80.137559
 21
337.524427
 31
0.0
  0
LINE
  8
LC-005-005-----0
  6
CONTINUOUS
  5
80
 10
77.137559
 20
337.352854
 30
0.0
 11
80.137559
 21
340.352854
 31
0.0
  0
LINE
  8
LC-005-005-----0
  6
CONTINUOUS
  5
81
 10
77.137559
 20
340.181281
 30
0.0
 11
80.137559
 21
343.181281
 31
0.0
  0
LINE
  8
LC-005-005-----0
  6
CONTINUOUS
  5
82
 10
77.137559
 20
343.009708
 30
0.0
 11
80.137559
 21
346.009708
 31
0.0
  0
LINE
  8
LC-005-005-----0
  6
CONTINUOUS
  5
83
 10
77.137559
 20
345.838136
 30
0.0
 11
80.137559
 21
348.838136
 31
0.0
  0
LINE
  8
LC-005-005-----0
  6
CONTINUOUS
  5
84
 10
77.137559
 20
348.666563
 30
0.0
 11
80.137559
 21
351.666563
 31
0.0
  0
LINE
  8
LC-005-005-----0
  6
CONTINUOUS
  5
85
 10
77.137559
 20
351.49499
 30
0.0
 11
80.137559
 21
354.49499
 31
0.0
  0
LINE
  8
LC-005-005-----0
  6
CONTINUOUS
  5
86
 10
77.137559
 20
354.323417
 30
0.0
 11
80.137559
 21
357.323417
 31
0.0
  0
LINE
  8
LC-005-005-----0
  6
CONTINUOUS
  5
87
 10
77.137559
 20
357.151844
 30
0.0
 11
80.137559
 21
360.151844
 31
0.0
  0
LINE
  8
LC-005-005-----0
  6
CONTINUOUS
  5
88
 10
77.137559
 20
359.980271
 30
0.0
 11
80.137559
 21
362.980271
 31
0.0
  0
LINE
  8
LC-005-005-----0
  6
CONTINUOUS
  5
89
 10
77.137559
 20
362.808698
 30
0.0
 11
80.137559
 21
365.808698
 31
0.0
  0
LINE
  8
LC-005-005-----0
  6
CONTINUOUS
  5
8A
 10
77.137559
 20
365.637125
 30
0.0
 11
80.137559
 21
368.637125
 31
0.0
  0
LINE
  8
LC-005-005-----0
  6
CONTINUOUS
  5
8B
 10
75.528953
 20
366.856947
 30
0.0
 11
78.453402
 21
369.781396
 31
0.0
  0
LINE
  8
LC-005-005-----0
  6
CONTINUOUS
  5
8C
 10
72.772701
 20
366.929122
 30
0.0
 11
75.69715
 21
369.853571
 31
0.0
  0
LINE
  8
LC-005-005-----0
  6
CONTINUOUS
  5
8D
 10
70.016449
 20
367.001297
 30
0.0
 11
72.940898
 21
369.925746
 31
0.0
  0
LINE
  8
LC-005-005-----0
  6
CONTINUOUS
  5
8E
 10
67.260197
 20
367.073472
 30
0.0
 11
70.184646
 21
369.997921
 31
0.0
  0
LINE
  8
LC-005-005-----0
  6
CONTINUOUS
  5
8F
 10
64.503945
 20
367.145647
 30
0.0
 11
67.428394
 21
370.070096
 31
0.0
  0
LINE
  8
LC-005-005-----0
  6
CONTINUOUS
  5
90
 10
61.715791
 20
367.185921
 30
0.0
 11
64.672142
 21
370.142271
 31
0.0
  0
LINE
  8
LC-005-005-----0
  6
CONTINUOUS
  5
91
 10
58.887364
 20
367.185921
 30
0.0
 11
61.890449
 21
370.189005
 31
0.0
  0
LINE
  8
LC-005-005-----0
  6
CONTINUOUS
  5
92
 10
56.058937
 20
367.185921
 30
0.0
 11
59.062021
 21
370.189005
 31
0.0
  0
LINE
  8
LC-005-005-----0
  6
CONTINUOUS
  5
93
 10
53.23051
 20
367.185921
 30
0.0
 11
56.233594
 21
370.189005
 31
0.0
  0
LINE
  8
LC-005-005-----0
  6
CONTINUOUS
  5
94
 10
50.402083
 20
367.185921
 30
0.0
 11
54.887532
 21
371.67137
 31
0.0
  0
LINE
  8
LC-005-005-----0
  6
CONTINUOUS
  5
95
 10
46.748287
 20
366.360552
 30
0.0
 11
54.887532
 21
374.499797
 31
0.0
  0
LINE
  8
LC-005-005-----0
  6
CONTINUOUS
  5
96
 10
43.804088
 20
366.24478
 30
0.0
 11
45.472712
 21
367.913404
 31
0.0
  0
LINE
  8
LC-005-005-----0
  6
CONTINUOUS
  5
97
 10
47.437559
 20
369.878251
 30
0.0
 11
54.887532
 21
377.328224
 31
0.0
  0
LINE
  8
LC-005-005-----0
  6
CONTINUOUS
  5
98
 10
41.50592
 20
366.775039
 30
0.0
 11
42.644285
 21
367.913404
 31
0.0
  0
LINE
  8
LC-005-005-----0
  6
CONTINUOUS
  5
99
 10
47.437559
 20
372.706678
 30
0.0
 11
54.887532
 21
380.156651
 31
0.0
  0
LINE
  8
LC-005-005-----0
  6
CONTINUOUS
  5
9A
 10
39.088374
 20
367.185921
 30
0.0
 11
42.337559
 21
370.435105
 31
0.0
  0
LINE
  8
LC-005-005-----0
  6
CONTINUOUS
  5
9B
 10
47.437559
 20
375.535105
 30
0.0
 11
54.887532
 21
382.985079
 31
0.0
  0
LINE
  8
LC-005-005-----0
  6
CONTINUOUS
  5
9C
 10
37.269028
 20
368.195001
 30
0.0
 11
42.337559
 21
373.263532
 31
0.0
  0
LINE
  8
LC-005-005-----0
  6
CONTINUOUS
  5
9D
 10
47.437559
 20
378.363532
 30
0.0
 11
50.731134
 21
381.657107
 31
0.0
  0
LINE
  8
LC-005-005-----0
  6
CONTINUOUS
  5
9E
 10
50.855559
 20
381.781532
 30
0.0
 11
54.887532
 21
385.813506
 31
0.0
  0
LINE
  8
LC-005-005-----0
  6
CONTINUOUS
  5
9F
 10
37.269028
 20
371.023428
 30
0.0
 11
42.337559
 21
376.091959
 31
0.0
  0
LINE
  8
LC-005-005-----0
  6
CONTINUOUS
  5
A0
 10
47.437559
 20
381.191959
 30
0.0
 11
47.902707
 21
381.657107
 31
0.0
  0
LINE
  8
LC-005-005-----0
  6
CONTINUOUS
  5
A1
 10
51.855559
 20
385.609959
 30
0.0
 11
52.481415
 21
386.235815
 31
0.0
  0
LINE
  8
LC-005-005-----0
  6
CONTINUOUS
  5
A2
 10
37.269028
 20
373.851855
 30
0.0
 11
42.337559
 21
378.920387
 31
0.0
  0
LINE
  8
LC-005-005-----0
  6
CONTINUOUS
  5
A3
 10
37.269028
 20
376.680283
 30
0.0
 11
42.245852
 21
381.657107
 31
0.0
  0
LINE
  8
LC-005-005-----0
  6
CONTINUOUS
  5
A4
 10
37.269028
 20
379.50871
 30
0.0
 11
39.417425
 21
381.657107
 31
0.0
  0
ENDBLK
  8
0
  5
A5
  0
BLOCK
  8
0
  5
A7
  2
*D2
 70
    65
 10
0.0
 20
0.0
 30
0.0
  3
*D2
  0
LINE
  8
LC-003-003-MTH-0
  6
CONTINUOUS
  5
A8
 10
77.137559
 20
171.685921
 30
0.0
 11
77.137559
 21
115.2
 31
0.0
  0
LINE
  8
LC-003-003-MTH-0
  6
CONTINUOUS
  5
A9
 10
152.137559
 20
173.302515
 30
0.0
 11
152.137559
 21
115.2
 31
0.0
  0
LINE
  8
LC-004-003-MTG-0
  6
CONTINUOUS
  5
AA
 10
77.137559
 20
126.0
 30
0.0
 11
152.137559
 21
126.0
 31
0.0
  0
LINE
  8
LC-002-003-----0
  6
CONTINUOUS
  5
AB
 10
94.983566
 20
128.349471
 30
0.0
 11
77.137559
 21
126.0
 31
0.0
  0
LINE
  8
LC-002-003-----0
  6
CONTINUOUS
  5
AC
 10
77.137559
 20
126.0
 30
0.0
 11
94.983566
 21
123.650529
 31
0.0
  0
LINE
  8
LC-002-003-----0
  6
CONTINUOUS
  5
AD
 10
94.983566
 20
123.650529
 30
0.0
 11
94.983566
 21
128.349471
 31
0.0
  0
LINE
  8
LC-002-003-----0
  6
CONTINUOUS
  5
AE
 10
95.023604
 20
127.738609
 30
0.0
 11
81.817559
 21
126.0
 31
0.0
  0
LINE
  8
LC-002-003-----0
  6
CONTINUOUS
  5
AF
 10
81.817559
 20
126.0
 30
0.0
 11
95.023604
 21
124.261391
 31
0.0
  0
LINE
  8
LC-002-003-----0
  6
CONTINUOUS
  5
B0
 10
95.063642
 20
127.127746
 30
0.0
 11
86.497559
 21
126.0
 31
0.0
  0
LINE
  8
LC-002-003-----0
  6
CONTINUOUS
  5
B1
 10
86.497559
 20
126.0
 30
0.0
 11
95.063642
 21
124.872254
 31
0.0
  0
LINE
  8
LC-002-003-----0
  6
CONTINUOUS
  5
B2
 10
95.10368
 20
126.516884
 30
0.0
 11
91.177559
 21
126.0
 31
0.0
  0
LINE
  8
LC-002-003-----0
  6
CONTINUOUS
  5
B3
 10
91.177559
 20
126.0
 30
0.0
 11
95.10368
 21
125.483116
 31
0.0
  0
LINE
  8
LC-002-003-----0
  6
CONTINUOUS
  5
B4
 10
134.291551
 20
123.650529
 30
0.0
 11
152.137559
 21
126.0
 31
0.0
  0
LINE
  8
LC-002-003-----0
  6
CONTINUOUS
  5
B5
 10
152.137559
 20
126.0
 30
0.0
 11
134.291551
 21
128.349471
 31
0.0
  0
LINE
  8
LC-002-003-----0
  6
CONTINUOUS
  5
B6
 10
134.291551
 20
128.349471
 30
0.0
 11
134.291551
 21
123.650529
 31
0.0
  0
LINE
  8
LC-002-003-----0
  6
CONTINUOUS
  5
B7
 10
134.251513
 20
124.261391
 30
0.0
 11
147.457559
 21
126.0
 31
0.0
  0
LINE
  8
LC-002-003-----0
  6
CONTINUOUS
  5
B8
 10
147.457559
 20
126.0
 30
0.0
 11
134.251513
 21
127.738609
 31
0.0
  0
LINE
  8
LC-002-003-----0
  6
CONTINUOUS
  5
B9
 10
134.211475
 20
124.872254
 30
0.0
 11
142.777559
 21
126.0
 31
0.0
  0
LINE
  8
LC-002-003-----0
  6
CONTINUOUS
  5
BA
 10
142.777559
 20
126.0
 30
0.0
 11
134.211475
 21
127.127746
 31
0.0
  0
LINE
  8
LC-002-003-----0
  6
CONTINUOUS
  5
BB
 10
134.171437
 20
125.483116
 30
0.0
 11
138.097559
 21
126.0
 31
0.0
  0
LINE
  8
LC-002-003-----0
  6
CONTINUOUS
  5
BC
 10
138.097559
 20
126.0
 30
0.0
 11
134.171437
 21
126.516884
 31
0.0
  0
TEXT
  8
LC-002-003-----0
  6
CONTINUOUS
 62
     6
  5
BD
 10
91.02808
 20
136.431999
 30
0.0
 40
18.0
  1
DN70
 51
15.0
  7
LC-TXTSTYLE-150-400-0-0-D0
 72
     1
 11
117.432804
 21
136.431999
 31
0.0
  0
ENDBLK
  8
0
  5
BE
  0
BLOCK
  8
0
  5
C0
  2
*D3
 70
    65
 10
0.0
 20
0.0
 30
0.0
  3
*D3
  0
LINE
  8
LC-003-003-MTH-0
  6
CONTINUOUS
  5
C1
 10
37.269028
 20
381.657107
 30
0.0
 11
37.269028
 21
430.8
 31
0.0
  0
LINE
  8
LC-003-003-MTH-0
  6
CONTINUOUS
  5
C2
 10
192.00609
 20
381.657107
 30
0.0
 11
192.00609
 21
430.8
 31
0.0
  0
LINE
  8
LC-004-003-MTG-0
  6
CONTINUOUS
  5
C3
 10
37.269028
 20
420.0
 30
0.0
 11
192.00609
 21
420.0
 31
0.0
  0
LINE
  8
LC-002-003-----0
  6
CONTINUOUS
  5
C4
 10
55.115035
 20
422.349471
 30
0.0
 11
37.269028
 21
420.0
 31
0.0
  0
LINE
  8
LC-002-003-----0
  6
CONTINUOUS
  5
C5
 10
37.269028
 20
420.0
 30
0.0
 11
55.115035
 21
417.650529
 31
0.0
  0
LINE
  8
LC-002-003-----0
  6
CONTINUOUS
  5
C6
 10
55.115035
 20
417.650529
 30
0.0
 11
55.115035
 21
422.349471
 31
0.0
  0
LINE
  8
LC-002-003-----0
  6
CONTINUOUS
  5
C7
 10
55.155073
 20
421.738609
 30
0.0
 11
41.949028
 21
420.0
 31
0.0
  0
LINE
  8
LC-002-003-----0
  6
CONTINUOUS
  5
C8
 10
41.949028
 20
420.0
 30
0.0
 11
55.155073
 21
418.261391
 31
0.0
  0
LINE
  8
LC-002-003-----0
  6
CONTINUOUS
  5
C9
 10
55.195111
 20
421.127746
 30
0.0
 11
46.629028
 21
420.0
 31
0.0
  0
LINE
  8
LC-002-003-----0
  6
CONTINUOUS
  5
CA
 10
46.629028
 20
420.0
 30
0.0
 11
55.195111
 21
418.872254
 31
0.0
  0
LINE
  8
LC-002-003-----0
  6
CONTINUOUS
  5
CB
 10
55.235149
 20
420.516884
 30
0.0
 11
51.309028
 21
420.0
 31
0.0
  0
LINE
  8
LC-002-003-----0
  6
CONTINUOUS
  5
CC
 10
51.309028
 20
420.0
 30
0.0
 11
55.235149
 21
419.483116
 31
0.0
  0
LINE
  8
LC-002-003-----0
  6
CONTINUOUS
  5
CD
 10
174.160082
 20
417.650529
 30
0.0
 11
192.00609
 21
420.0
 31
0.0
  0
LINE
  8
LC-002-003-----0
  6
CONTINUOUS
  5
CE
 10
192.00609
 20
420.0
 30
0.0
 11
174.160082
 21
422.349471
 31
0.0
  0
LINE
  8
LC-002-003-----0
  6
CONTINUOUS
  5
CF
 10
174.160082
 20
422.349471
 30
0.0
 11
174.160082
 21
417.650529
 31
0.0
  0
LINE
  8
LC-002-003-----0
  6
CONTINUOUS
  5
D0
 10
174.120044
 20
418.261391
 30
0.0
 11
187.32609
 21
420.0
 31
0.0
  0
LINE
  8
LC-002-003-----0
  6
CONTINUOUS
  5
D1
 10
187.32609
 20
420.0
 30
0.0
 11
174.120044
 21
421.738609
 31
0.0
  0
LINE
  8
LC-002-003-----0
  6
CONTINUOUS
  5
D2
 10
174.080006
 20
418.872254
 30
0.0
 11
182.64609
 21
420.0
 31
0.0
  0
LINE
  8
LC-002-003-----0
  6
CONTINUOUS
  5
D3
 10
182.64609
 20
420.0
 30
0.0
 11
174.080006
 21
421.127746
 31
0.0
  0
LINE
  8
LC-002-003-----0
  6
CONTINUOUS
  5
D4
 10
174.039968
 20
419.483116
 30
0.0
 11
177.96609
 21
420.0
 31
0.0
  0
LINE
  8
LC-002-003-----0
  6
CONTINUOUS
  5
D5
 10
177.96609
 20
420.0
 30
0.0
 11
174.039968
 21
420.516884
 31
0.0
  0
TEXT
  8
LC-002-003-----0
  6
CONTINUOUS
 62
     6
  5
D6
 10
93.744376
 20
430.431999
 30
0.0
 40
18.0
  1
Ø152
 50
360.0
 51
15.0
  7
LC-TXTSTYLE-150-400-0-0-D0
 72
     1
 11
118.235714
 21
430.431999
 31
0.0
  0
ENDBLK
  8
0
  5
D7
  0
BLOCK
  8
0
  5
D9
  2
BLK1
 70
    64
 10
0.0
 20
0.0
 30
0.0
  3
BLK1
  0
ENDBLK
  8
0
  5
DA
  0
BLOCK
  8
0
  5
DC
  2
BLK2
 70
    64
 10
0.0
 20
0.0
 30
0.0
  3
BLK2
  0
ENDBLK
  8
0
  5
DD
  0
BLOCK
  8
0
  5
DF
  2
*D6
 70
    65
 10
0.0
 20
0.0
 30
0.0
  3
*D6
  0
LINE
  8
LC-003-003-MTH-0
  6
CONTINUOUS
  5
E0
 10
150.931787
 20
167.185921
 30
0.0
 11
206.8
 21
167.185921
 31
0.0
  0
LINE
  8
LC-003-003-MTH-0
  6
CONTINUOUS
  5
E1
 10
192.00609
 20
367.185921
 30
0.0
 11
206.8
 21
367.185921
 31
0.0
  0
LINE
  8
LC-004-003-MTG-0
  6
CONTINUOUS
  5
E2
 10
196.0
 20
167.185921
 30
0.0
 11
196.0
 21
367.185921
 31
0.0
  0
LINE
  8
LC-002-003-----0
  6
CONTINUOUS
  5
E3
 10
193.650529
 20
185.031928
 30
0.0
 11
196.0
 21
167.185921
 31
0.0
  0
LINE
  8
LC-002-003-----0
  6
CONTINUOUS
  5
E4
 10
196.0
 20
167.185921
 30
0.0
 11
198.349471
 21
185.031928
 31
0.0
  0
LINE
  8
LC-002-003-----0
  6
CONTINUOUS
  5
E5
 10
198.349471
 20
185.031928
 30
0.0
 11
193.650529
 21
185.031928
 31
0.0
  0
LINE
  8
LC-002-003-----0
  6
CONTINUOUS
  5
E6
 10
194.261391
 20
185.071966
 30
0.0
 11
196.0
 21
171.865921
 31
0.0
  0
LINE
  8
LC-002-003-----0
  6
CONTINUOUS
  5
E7
 10
196.0
 20
171.865921
 30
0.0
 11
197.738609
 21
185.071966
 31
0.0
  0
LINE
  8
LC-002-003-----0
  6
CONTINUOUS
  5
E8
 10
194.872254
 20
185.112005
 30
0.0
 11
196.0
 21
176.545921
 31
0.0
  0
LINE
  8
LC-002-003-----0
  6
CONTINUOUS
  5
E9
 10
196.0
 20
176.545921
 30
0.0
 11
197.127746
 21
185.112005
 31
0.0
  0
LINE
  8
LC-002-003-----0
  6
CONTINUOUS
  5
EA
 10
195.483116
 20
185.152043
 30
0.0
 11
196.0
 21
181.225921
 31
0.0
  0
LINE
  8
LC-002-003-----0
  6
CONTINUOUS
  5
EB
 10
196.0
 20
181.225921
 30
0.0
 11
196.516884
 21
185.152043
 31
0.0
  0
LINE
  8
LC-002-003-----0
  6
CONTINUOUS
  5
EC
 10
198.349471
 20
349.339913
 30
0.0
 11
196.0
 21
367.185921
 31
0.0
  0
LINE
  8
LC-002-003-----0
  6
CONTINUOUS
  5
ED
 10
196.0
 20
367.185921
 30
0.0
 11
193.650529
 21
349.339913
 31
0.0
  0
LINE
  8
LC-002-003-----0
  6
CONTINUOUS
  5
EE
 10
193.650529
 20
349.339913
 30
0.0
 11
198.349471
 21
349.339913
 31
0.0
  0
LINE
  8
LC-002-003-----0
  6
CONTINUOUS
  5
EF
 10
197.738609
 20
349.299875
 30
0.0
 11
196.0
 21
362.505921
 31
0.0
  0
LINE
  8
LC-002-003-----0
  6
CONTINUOUS
  5
F0
 10
196.0
 20
362.505921
 30
0.0
 11
194.261391
 21
349.299875
 31
0.0
  0
LINE
  8
LC-002-003-----0
  6
CONTINUOUS
  5
F1
 10
197.127746
 20
349.259837
 30
0.0
 11
196.0
 21
357.825921
 31
0.0
  0
LINE
  8
LC-002-003-----0
  6
CONTINUOUS
  5
F2
 10
196.0
 20
357.825921
 30
0.0
 11
194.872254
 21
349.259837
 31
0.0
  0
LINE
  8
LC-002-003-----0
  6
CONTINUOUS
  5
F3
 10
196.516884
 20
349.219799
 30
0.0
 11
196.0
 21
353.145921
 31
0.0
  0
LINE
  8
LC-002-003-----0
  6
CONTINUOUS
  5
F4
 10
196.0
 20
353.145921
 30
0.0
 11
195.483116
 21
349.219799
 31
0.0
  0
TEXT
  8
LC-002-003-----0
  6
CONTINUOUS
 62
     6
  5
F5
 10
185.568001
 20
251.597387
 30
0.0
 40
18.0
  1
200
 50
90.0
 51
15.0
  7
LC-TXTSTYLE-150-400-0-0-D0
 72
     1
 11
185.568001
 21
270.731246
 31
0.0
  0
ENDBLK
  8
0
  5
F6
  0
BLOCK
  8
0
  5
F8
  2
BLK3
 70
    64
 10
0.0
 20
0.0
 30
0.0
  3
BLK3
  0
ENDBLK
  8
0
  5
F9
  0
ENDSEC
  0
SECTION
  2
ENTITIES
  0
VIEWPORT
  8
LC-000
  5
1C3
 67
     1
 68
     1
 10
420.0
 20
297.0
 30
0.0
 40
840.0
 41
594.0
 69
     1
1001
ACAD
1000
MVIEW
1002
{
1070
    16
1010
0.0
1020
0.0
1030
0.0
1010
0.0
1020
0.0
1030
1.0
1040
0.0
1040
594.0
1040
420.0
1040
297.0
1040
50.0
1040
0.0
1040
0.0
1070
     0
1070
   100
1070
     1
1070
     1
1070
     0
1070
     0
1070
     0
1070
     0
1040
0.0
1040
0.0
1040
0.0
1040
1.0
1040
1.0
1040
0.0
1040
0.0
1070
     0
1002
{
1002
}
1002
}
  0
VIEWPORT
  8
0
  5
1C4
 67
     1
 68
     1
 10
0.0
 20
0.0
 30
0.0
 40
0.0
 41
0.0
 69
     1
1001
ACAD
1000
MVIEW
1002
{
1070
    16
1010
0.0
1020
0.0
1030
0.0
1010
0.0
1020
0.0
1030
1.0
1040
0.0
1040
594.0
1040
0.0
1040
0.0
1040
50.0
1040
0.0
1040
0.0
1070
     0
1070
   100
1070
     0
1070
     1
1070
     0
1070
     0
1070
     0
1070
     0
1040
0.0
1040
0.0
1040
0.0
1040
0.5
1040
0.5
1040
0.5
1040
0.5
1070
     0
1002
{
1002
}
1002
}
  0
DIMENSION
  8
0
  5
FA
  2
*D0
 10
240.0
 20
266.748
 30
0.0
 11
240.0
 21
266.748
 31
0.0
  1
215
 13
190.355559
 23
381.657107
 33
0.0
 14
149.137559
 24
167.185921
 34
0.0
 50
90.0
  3
LC-DIM-L-0090-01-02
  0
INSERT
  8
0
  5
FB
  2
*X1
 10
34.887559
 20
167.185921
 30
0.0
  0
DIMENSION
  8
0
  5
FC
  2
*D2
 10
114.637559
 20
126.0
 30
0.0
 11
114.637559
 21
126.0
 31
0.0
  1
DN70
 13
77.137559
 23
171.685921
 33
0.0
 14
152.137559
 24
173.302515
 34
0.0
  3
LC-DIM-L-0090-02-02
  0
DIMENSION
  8
0
  5
FD
  2
*D3
 10
115.440469
 20
420.0
 30
0.0
 11
115.440469
 21
420.0
 31
0.0
  1
%%c152
 13
192.00609
 23
381.657107
 33
0.0
 14
37.269028
 24
381.657107
 34
0.0
 50
360.0
  3
LC-DIM-L-0090-01-02
  0
INSERT
  8
0
  5
FF
  2
BLK1
 10
0.0
 20
0.0
 30
0.0
  0
INSERT
  8
0
  5
100
  2
BLK2
 10
0.0
 20
0.0
 30
0.0
  0
DIMENSION
  8
0
  5
101
  2
*D6
 10
196.0
 20
267.936
 30
0.0
 11
196.0
 21
267.936
 31
0.0
 13
192.00609
 23
367.185921
 33
0.0
 14
150.931787
 24
167.185921
 34
0.0
 50
90.0
  3
LC-DIM-L-0090-01-02
  0
INSERT
  8
0
  5
102
  2
BLK3
 10
0.0
 20
0.0
 30
0.0
  0
LINE
  8
LC-001-002-----0
  5
105
 10
114.637559
 20
383.183404
 30
0.0
 11
114.637559
 21
167.185921
 31
0.0
  0
LINE
  8
LC-001-002-----0
  5
106
 10
44.887559
 20
382.166107
 30
0.0
 11
44.887559
 21
366.185911
 31
0.0
  0
LINE
  8
LC-001-002-----0
  5
107
 10
184.387559
 20
382.166107
 30
0.0
 11
184.387559
 21
366.185911
 31
0.0
  0
LINE
  8
LC-001-002-----0
  6
CONTINUOUS
 62
     1
  5
108
 10
62.887445
 20
370.189005
 30
0.0
 11
54.887445
 21
370.189005
 31
0.0
  0
LINE
  8
LC-005-005-----0
  6
CONTINUOUS
  5
109
 10
150.215358
 20
167.185921
 30
0.0
 11
151.194019
 21
168.164581
 31
0.0
  0
LINE
  8
LC-005-005-----0
  6
CONTINUOUS
  5
10A
 10
149.137559
 20
168.936549
 30
0.0
 11
152.137559
 21
171.936549
 31
0.0
  0
LINE
  8
LC-005-005-----0
  6
CONTINUOUS
  5
10B
 10
149.137559
 20
171.764976
 30
0.0
 11
152.137559
 21
174.764976
 31
0.0
  0
LINE
  8
LC-005-005-----0
  6
CONTINUOUS
  5
10C
 10
149.137559
 20
174.593403
 30
0.0
 11
152.137559
 21
177.593403
 31
0.0
  0
LINE
  8
LC-005-005-----0
  6
CONTINUOUS
  5
10D
 10
149.137559
 20
177.42183
 30
0.0
 11
152.137559
 21
180.42183
 31
0.0
  0
LINE
  8
LC-005-005-----0
  6
CONTINUOUS
  5
10E
 10
149.137559
 20
180.250257
 30
0.0
 11
152.137559
 21
183.250257
 31
0.0
  0
LINE
  8
LC-005-005-----0
  6
CONTINUOUS
  5
10F
 10
149.137559
 20
183.078684
 30
0.0
 11
152.137559
 21
186.078684
 31
0.0
  0
LINE
  8
LC-005-005-----0
  6
CONTINUOUS
  5
110
 10
149.137559
 20
185.907111
 30
0.0
 11
152.137559
 21
188.907111
 31
0.0
  0
LINE
  8
LC-005-005-----0
  6
CONTINUOUS
  5
111
 10
149.137559
 20
188.735538
 30
0.0
 11
152.137559
 21
191.735538
 31
0.0
  0
LINE
  8
LC-005-005-----0
  6
CONTINUOUS
  5
112
 10
149.137559
 20
191.563966
 30
0.0
 11
152.137559
 21
194.563966
 31
0.0
  0
LINE
  8
LC-005-005-----0
  6
CONTINUOUS
  5
113
 10
149.137559
 20
194.392393
 30
0.0
 11
152.137559
 21
197.392393
 31
0.0
  0
LINE
  8
LC-005-005-----0
  6
CONTINUOUS
  5
114
 10
149.137559
 20
197.22082
 30
0.0
 11
152.137559
 21
200.22082
 31
0.0
  0
LINE
  8
LC-005-005-----0
  6
CONTINUOUS
  5
115
 10
149.137559
 20
200.049247
 30
0.0
 11
152.137559
 21
203.049247
 31
0.0
  0
LINE
  8
LC-005-005-----0
  6
CONTINUOUS
  5
116
 10
149.137559
 20
202.877674
 30
0.0
 11
152.137559
 21
205.877674
 31
0.0
  0
LINE
  8
LC-005-005-----0
  6
CONTINUOUS
  5
117
 10
149.137559
 20
205.706101
 30
0.0
 11
152.137559
 21
208.706101
 31
0.0
  0
LINE
  8
LC-005-005-----0
  6
CONTINUOUS
  5
118
 10
149.137559
 20
208.534528
 30
0.0
 11
152.137559
 21
211.534528
 31
0.0
  0
LINE
  8
LC-005-005-----0
  6
CONTINUOUS
  5
119
 10
149.137559
 20
211.362955
 30
0.0
 11
152.137559
 21
214.362955
 31
0.0
  0
LINE
  8
LC-005-005-----0
  6
CONTINUOUS
  5
11A
 10
149.137559
 20
214.191383
 30
0.0
 11
152.137559
 21
217.191383
 31
0.0
  0
LINE
  8
LC-005-005-----0
  6
CONTINUOUS
  5
11B
 10
149.137559
 20
217.01981
 30
0.0
 11
152.137559
 21
220.01981
 31
0.0
  0
LINE
  8
LC-005-005-----0
  6
CONTINUOUS
  5
11C
 10
149.137559
 20
219.848237
 30
0.0
 11
152.137559
 21
222.848237
 31
0.0
  0
LINE
  8
LC-005-005-----0
  6
CONTINUOUS
  5
11D
 10
149.137559
 20
222.676664
 30
0.0
 11
152.137559
 21
225.676664
 31
0.0
  0
LINE
  8
LC-005-005-----0
  6
CONTINUOUS
  5
11E
 10
149.137559
 20
225.505091
 30
0.0
 11
152.137559
 21
228.505091
 31
0.0
  0
LINE
  8
LC-005-005-----0
  6
CONTINUOUS
  5
11F
 10
149.137559
 20
228.333518
 30
0.0
 11
152.137559
 21
231.333518
 31
0.0
  0
LINE
  8
LC-005-005-----0
  6
CONTINUOUS
  5
120
 10
149.137559
 20
231.161945
 30
0.0
 11
152.137559
 21
234.161945
 31
0.0
  0
LINE
  8
LC-005-005-----0
  6
CONTINUOUS
  5
121
 10
149.137559
 20
233.990372
 30
0.0
 11
152.137559
 21
236.990372
 31
0.0
  0
LINE
  8
LC-005-005-----0
  6
CONTINUOUS
  5
122
 10
149.137559
 20
236.8188
 30
0.0
 11
152.137559
 21
239.8188
 31
0.0
  0
LINE
  8
LC-005-005-----0
  6
CONTINUOUS
  5
123
 10
149.137559
 20
239.647227
 30
0.0
 11
152.137559
 21
242.647227
 31
0.0
  0
LINE
  8
LC-005-005-----0
  6
CONTINUOUS
  5
124
 10
149.137559
 20
242.475654
 30
0.0
 11
152.137559
 21
245.475654
 31
0.0
  0
LINE
  8
LC-005-005-----0
  6
CONTINUOUS
  5
125
 10
149.137559
 20
245.304081
 30
0.0
 11
152.137559
 21
248.304081
 31
0.0
  0
LINE
  8
LC-005-005-----0
  6
CONTINUOUS
  5
126
 10
149.137559
 20
248.132508
 30
0.0
 11
152.137559
 21
251.132508
 31
0.0
  0
LINE
  8
LC-005-005-----0
  6
CONTINUOUS
  5
127
 10
149.137559
 20
250.960935
 30
0.0
 11
152.137559
 21
253.960935
 31
0.0
  0
LINE
  8
LC-005-005-----0
  6
CONTINUOUS
  5
128
 10
149.137559
 20
253.789362
 30
0.0
 11
152.137559
 21
256.789362
 31
0.0
  0
LINE
  8
LC-005-005-----0
  6
CONTINUOUS
  5
129
 10
149.137559
 20
256.617789
 30
0.0
 11
152.137559
 21
259.617789
 31
0.0
  0
LINE
  8
LC-005-005-----0
  6
CONTINUOUS
  5
12A
 10
149.137559
 20
259.446217
 30
0.0
 11
152.137559
 21
262.446217
 31
0.0
  0
LINE
  8
LC-005-005-----0
  6
CONTINUOUS
  5
12B
 10
149.137559
 20
262.274644
 30
0.0
 11
152.137559
 21
265.274644
 31
0.0
  0
LINE
  8
LC-005-005-----0
  6
CONTINUOUS
  5
12C
 10
149.137559
 20
265.103071
 30
0.0
 11
152.137559
 21
268.103071
 31
0.0
  0
LINE
  8
LC-005-005-----0
  6
CONTINUOUS
  5
12D
 10
149.137559
 20
267.931498
 30
0.0
 11
152.137559
 21
270.931498
 31
0.0
  0
LINE
  8
LC-005-005-----0
  6
CONTINUOUS
  5
12E
 10
149.137559
 20
270.759925
 30
0.0
 11
152.137559
 21
273.759925
 31
0.0
  0
LINE
  8
LC-005-005-----0
  6
CONTINUOUS
  5
12F
 10
149.137559
 20
273.588352
 30
0.0
 11
152.137559
 21
276.588352
 31
0.0
  0
LINE
  8
LC-005-005-----0
  6
CONTINUOUS
  5
130
 10
149.137559
 20
276.416779
 30
0.0
 11
152.137559
 21
279.416779
 31
0.0
  0
LINE
  8
LC-005-005-----0
  6
CONTINUOUS
  5
131
 10
149.137559
 20
279.245206
 30
0.0
 11
152.137559
 21
282.245206
 31
0.0
  0
LINE
  8
LC-005-005-----0
  6
CONTINUOUS
  5
132
 10
149.137559
 20
282.073634
 30
0.0
 11
152.137559
 21
285.073634
 31
0.0
  0
LINE
  8
LC-005-005-----0
  6
CONTINUOUS
  5
133
 10
149.137559
 20
284.902061
 30
0.0
 11
152.137559
 21
287.902061
 31
0.0
  0
LINE
  8
LC-005-005-----0
  6
CONTINUOUS
  5
134
 10
149.137559
 20
287.730488
 30
0.0
 11
152.137559
 21
290.730488
 31
0.0
  0
LINE
  8
LC-005-005-----0
  6
CONTINUOUS
  5
135
 10
149.137559
 20
290.558915
 30
0.0
 11
152.137559
 21
293.558915
 31
0.0
  0
LINE
  8
LC-005-005-----0
  6
CONTINUOUS
  5
136
 10
149.137559
 20
293.387342
 30
0.0
 11
152.137559
 21
296.387342
 31
0.0
  0
LINE
  8
LC-005-005-----0
  6
CONTINUOUS
  5
137
 10
149.137559
 20
296.215769
 30
0.0
 11
152.137559
 21
299.215769
 31
0.0
  0
LINE
  8
LC-005-005-----0
  6
CONTINUOUS
  5
138
 10
149.137559
 20
299.044196
 30
0.0
 11
152.137559
 21
302.044196
 31
0.0
  0
LINE
  8
LC-005-005-----0
  6
CONTINUOUS
  5
139
 10
149.137559
 20
301.872623
 30
0.0
 11
152.137559
 21
304.872623
 31
0.0
  0
LINE
  8
LC-005-005-----0
  6
CONTINUOUS
  5
13A
 10
149.137559
 20
304.701051
 30
0.0
 11
152.137559
 21
307.701051
 31
0.0
  0
LINE
  8
LC-005-005-----0
  6
CONTINUOUS
  5
13B
 10
149.137559
 20
307.529478
 30
0.0
 11
152.137559
 21
310.529478
 31
0.0
  0
LINE
  8
LC-005-005-----0
  6
CONTINUOUS
  5
13C
 10
149.137559
 20
310.357905
 30
0.0
 11
152.137559
 21
313.357905
 31
0.0
  0
LINE
  8
LC-005-005-----0
  6
CONTINUOUS
  5
13D
 10
149.137559
 20
313.186332
 30
0.0
 11
152.137559
 21
316.186332
 31
0.0
  0
LINE
  8
LC-005-005-----0
  6
CONTINUOUS
  5
13E
 10
149.137559
 20
316.014759
 30
0.0
 11
152.137559
 21
319.014759
 31
0.0
  0
LINE
  8
LC-005-005-----0
  6
CONTINUOUS
  5
13F
 10
149.137559
 20
318.843186
 30
0.0
 11
152.137559
 21
321.843186
 31
0.0
  0
LINE
  8
LC-005-005-----0
  6
CONTINUOUS
  5
140
 10
149.137559
 20
321.671613
 30
0.0
 11
152.137559
 21
324.671613
 31
0.0
  0
LINE
  8
LC-005-005-----0
  6
CONTINUOUS
  5
141
 10
149.137559
 20
324.50004
 30
0.0
 11
152.137559
 21
327.50004
 31
0.0
  0
LINE
  8
LC-005-005-----0
  6
CONTINUOUS
  5
142
 10
191.823439
 20
367.185921
 30
0.0
 11
192.00609
 21
367.368572
 31
0.0
  0
LINE
  8
LC-005-005-----0
  6
CONTINUOUS
  5
143
 10
149.137559
 20
327.328468
 30
0.0
 11
152.137559
 21
330.328468
 31
0.0
  0
LINE
  8
LC-005-005-----0
  6
CONTINUOUS
  5
144
 10
188.995012
 20
367.185921
 30
0.0
 11
192.00609
 21
370.196999
 31
0.0
  0
LINE
  8
LC-005-005-----0
  6
CONTINUOUS
  5
145
 10
149.137559
 20
330.156895
 30
0.0
 11
152.137559
 21
333.156895
 31
0.0
  0
LINE
  8
LC-005-005-----0
  6
CONTINUOUS
  5
146
 10
185.1996
 20
366.218936
 30
0.0
 11
186.894068
 21
367.913404
 31
0.0
  0
LINE
  8
LC-005-005-----0
  6
CONTINUOUS
  5
147
 10
186.937559
 20
367.956895
 30
0.0
 11
192.00609
 21
373.025426
 31
0.0
  0
LINE
  8
LC-005-005-----0
  6
CONTINUOUS
  5
148
 10
149.137559
 20
332.985322
 30
0.0
 11
152.137559
 21
335.985322
 31
0.0
  0
LINE
  8
LC-005-005-----0
  6
CONTINUOUS
  5
149
 10
182.515031
 20
366.362794
 30
0.0
 11
184.065641
 21
367.913404
 31
0.0
  0
LINE
  8
LC-005-005-----0
  6
CONTINUOUS
  5
14A
 10
186.937559
 20
370.785322
 30
0.0
 11
192.00609
 21
375.853853
 31
0.0
  0
LINE
  8
LC-005-005-----0
  6
CONTINUOUS
  5
14B
 10
149.137559
 20
335.813749
 30
0.0
 11
152.137559
 21
338.813749
 31
0.0
  0
LINE
  8
LC-005-005-----0
  6
CONTINUOUS
  5
14C
 10
180.357672
 20
367.033862
 30
0.0
 11
181.837559
 21
368.513749
 31
0.0
  0
LINE
  8
LC-005-005-----0
  6
CONTINUOUS
  5
14D
 10
186.937559
 20
373.613749
 30
0.0
 11
192.00609
 21
378.68228
 31
0.0
  0
LINE
  8
LC-005-005-----0
  6
CONTINUOUS
  5
14E
 10
149.137559
 20
338.642176
 30
0.0
 11
152.137559
 21
341.642176
 31
0.0
  0
LINE
  8
LC-005-005-----0
  6
CONTINUOUS
  5
14F
 10
177.681304
 20
367.185921
 30
0.0
 11
181.837559
 21
371.342176
 31
0.0
  0
LINE
  8
LC-005-005-----0
  6
CONTINUOUS
  5
150
 10
186.937559
 20
376.442176
 30
0.0
 11
192.00609
 21
381.510707
 31
0.0
  0
LINE
  8
LC-005-005-----0
  6
CONTINUOUS
  5
151
 10
149.137559
 20
341.470603
 30
0.0
 11
152.137559
 21
344.470603
 31
0.0
  0
LINE
  8
LC-005-005-----0
  6
CONTINUOUS
  5
152
 10
174.852876
 20
367.185921
 30
0.0
 11
181.837559
 21
374.170603
 31
0.0
  0
LINE
  8
LC-005-005-----0
  6
CONTINUOUS
  5
153
 10
186.937559
 20
379.270603
 30
0.0
 11
189.324063
 21
381.657107
 31
0.0
  0
LINE
  8
LC-005-005-----0
  6
CONTINUOUS
  5
154
 10
149.137559
 20
344.29903
 30
0.0
 11
152.137559
 21
347.29903
 31
0.0
  0
LINE
  8
LC-005-005-----0
  6
CONTINUOUS
  5
155
 10
172.024449
 20
367.185921
 30
0.0
 11
181.837559
 21
376.99903
 31
0.0
  0
LINE
  8
LC-005-005-----0
  6
CONTINUOUS
  5
156
 10
149.137559
 20
347.127457
 30
0.0
 11
152.137559
 21
350.127457
 31
0.0
  0
LINE
  8
LC-005-005-----0
  6
CONTINUOUS
  5
157
 10
169.196022
 20
367.185921
 30
0.0
 11
172.199106
 21
370.189005
 31
0.0
  0
LINE
  8
LC-005-005-----0
  6
CONTINUOUS
  5
158
 10
174.387585
 20
372.377484
 30
0.0
 11
181.837559
 21
379.827457
 31
0.0
  0
LINE
  8
LC-005-005-----0
  6
CONTINUOUS
  5
159
 10
149.137559
 20
349.955885
 30
0.0
 11
152.137559
 21
352.955885
 31
0.0
  0
LINE
  8
LC-005-005-----0
  6
CONTINUOUS
  5
15A
 10
166.367595
 20
367.185921
 30
0.0
 11
169.370679
 21
370.189005
 31
0.0
  0
LINE
  8
LC-005-005-----0
  6
CONTINUOUS
  5
15B
 10
174.387585
 20
375.205911
 30
0.0
 11
180.838781
 21
381.657107
 31
0.0
  0
LINE
  8
LC-005-005-----0
  6
CONTINUOUS
  5
15C
 10
149.137559
 20
352.784312
 30
0.0
 11
152.137559
 21
355.784312
 31
0.0
  0
LINE
  8
LC-005-005-----0
  6
CONTINUOUS
  5
15D
 10
163.464683
 20
367.111436
 30
0.0
 11
166.542252
 21
370.189005
 31
0.0
  0
LINE
  8
LC-005-005-----0
  6
CONTINUOUS
  5
15E
 10
174.387585
 20
378.034338
 30
0.0
 11
178.419559
 21
382.066312
 31
0.0
  0
LINE
  8
LC-005-005-----0
  6
CONTINUOUS
  5
15F
 10
149.137559
 20
355.612739
 30
0.0
 11
152.137559
 21
358.612739
 31
0.0
  0
LINE
  8
LC-005-005-----0
  6
CONTINUOUS
  5
160
 10
160.560199
 20
367.035379
 30
0.0
 11
163.641925
 21
370.117105
 31
0.0
  0
LINE
  8
LC-005-005-----0
  6
CONTINUOUS
  5
161
 10
174.387585
 20
380.862765
 30
0.0
 11
176.708483
 21
383.183663
 31
0.0
  0
LINE
  8
LC-005-005-----0
  6
CONTINUOUS
  5
162
 10
149.137559
 20
358.441166
 30
0.0
 11
152.137559
 21
361.441166
 31
0.0
  0
LINE
  8
LC-005-005-----0
  6
CONTINUOUS
  5
163
 10
157.655715
 20
366.959322
 30
0.0
 11
160.737441
 21
370.041049
 31
0.0
  0
LINE
  8
LC-005-005-----0
  6
CONTINUOUS
  5
164
 10
149.137559
 20
361.269593
 30
0.0
 11
152.137559
 21
364.269593
 31
0.0
  0
LINE
  8
LC-005-005-----0
  6
CONTINUOUS
  5
165
 10
154.751232
 20
366.883266
 30
0.0
 11
157.832958
 21
369.964992
 31
0.0
  0
LINE
  8
LC-005-005-----0
  6
CONTINUOUS
  5
166
 10
149.137559
 20
364.09802
 30
0.0
 11
154.928474
 21
369.888936
 31
0.0
  0
LINE
  8
LC-005-005-----0
  6
CONTINUOUS
  5
167
 10
149.137559
 20
366.926447
 30
0.0
 11
152.02399
 21
369.812879
 31
0.0
  0
LINE
  8
LC-001-002-----0
  6
CONTINUOUS
 62
     1
  5
168
 10
49.246477
 20
367.185921
 30
0.0
 11
62.965956
 21
367.185921
 31
0.0
  0
LINE
  8
LC-001-002-----0
  6
CONTINUOUS
 62
     1
  5
169
 10
78.34333
 20
167.185921
 30
0.0
 11
77.137559
 21
171.685921
 31
0.0
  0
ARC
  8
LC-001-002-----0
  6
CONTINUOUS
 62
     1
  5
16A
 10
184.387559
 20
376.185911
 30
0.0
 40
10.0
 50
244.157941
 51
295.841807
  0
LINE
  8
LC-001-002-----0
  6
CONTINUOUS
 62
     1
  5
16B
 10
192.00609
 20
381.657107
 30
0.0
 11
192.00609
 21
367.185921
 31
0.0
  0
LINE
  8
LC-001-002-----0
  6
CONTINUOUS
 62
     1
  5
16C
 10
152.137559
 20
366.814824
 30
0.0
 11
166.466204
 21
367.190033
 31
0.0
  0
LINE
  8
LC-001-002-----0
  6
CONTINUOUS
 62
     1
  5
16D
 10
192.00609
 20
367.185921
 30
0.0
 11
188.746477
 21
367.185921
 31
0.0
  0
LINE
  8
LC-001-002-----0
  6
CONTINUOUS
 62
     1
  5
16E
 10
182.11343
 20
381.657107
 30
0.0
 11
186.625687
 21
381.657107
 31
0.0
  0
LINE
  8
LC-001-002-----0
  6
CONTINUOUS
 62
     1
  5
16F
 10
186.625687
 20
381.657107
 30
0.0
 11
186.937559
 21
381.657107
 31
0.0
  0
LINE
  8
LC-001-002-----0
  6
CONTINUOUS
 62
     1
  5
170
 10
149.137559
 20
369.737295
 30
0.0
 11
166.387673
 21
370.189005
 31
0.0
  0
LINE
  8
LC-001-002-----0
  6
CONTINUOUS
 62
     1
  5
171
 10
42.337559
 20
381.657107
 30
0.0
 11
45.97206
 21
381.657107
 31
0.0
  0
LINE
  8
LC-001-002-----0
  6
CONTINUOUS
 62
     1
  5
172
 10
149.137559
 20
167.185921
 30
0.0
 11
80.137559
 21
167.185921
 31
0.0
  0
LINE
  8
LC-001-002-----0
  6
CONTINUOUS
 62
     1
  5
173
 10
152.137549
 20
366.47951
 30
0.0
 11
152.137549
 21
366.479484
 31
0.0
  0
LINE
  8
LC-001-002-----0
  6
CONTINUOUS
 62
     1
  5
174
 10
77.137559
 20
366.814824
 30
0.0
 11
77.137559
 21
171.685921
 31
0.0
  0
LINE
  8
LC-001-002-----0
  6
CONTINUOUS
 62
     1
  5
175
 10
152.137559
 20
366.814824
 30
0.0
 11
152.137559
 21
171.685921
 31
0.0
  0
LINE
  8
LC-001-002-----0
  6
CONTINUOUS
 62
     1
  5
176
 10
80.137559
 20
369.737295
 30
0.0
 11
80.137559
 21
167.185921
 31
0.0
  0
LINE
  8
LC-001-002-----0
  6
CONTINUOUS
 62
     1
  5
177
 10
149.137559
 20
369.737295
 30
0.0
 11
149.137559
 21
167.185921
 31
0.0
  0
LINE
  8
LC-001-002-----0
  6
CONTINUOUS
 62
     1
  5
178
 10
150.931787
 20
167.185921
 30
0.0
 11
152.137559
 21
171.685921
 31
0.0
  0
LINE
  8
LC-001-002-----0
  6
CONTINUOUS
 62
     1
  5
179
 10
80.137559
 20
167.185921
 30
0.0
 11
78.34333
 21
167.185921
 31
0.0
  0
LINE
  8
LC-001-002-----0
  6
CONTINUOUS
 62
     1
  5
17A
 10
149.137559
 20
167.185921
 30
0.0
 11
150.931787
 21
167.185921
 31
0.0
  0
LINE
  8
LC-001-002-----0
  6
CONTINUOUS
 62
     1
  5
17B
 10
180.027174
 20
367.186631
 30
0.0
 11
179.137559
 21
367.186642
 31
0.0
  0
LINE
  8
LC-001-002-----0
  6
CONTINUOUS
 62
     1
  5
17C
 10
37.269028
 20
367.185921
 30
0.0
 11
40.52864
 21
367.185921
 31
0.0
  0
LINE
  8
LC-001-002-----0
  6
CONTINUOUS
 62
     1
  5
17D
 10
149.137559
 20
369.737295
 30
0.0
 11
114.637559
 21
369.736969
 31
0.0
  0
LINE
  8
LC-001-002-----0
  6
CONTINUOUS
 62
     1
  5
17E
 10
114.637559
 20
370.189005
 30
0.0
 11
174.387673
 21
370.189005
 31
0.0
  0
ARC
  8
LC-001-002-----0
  6
CONTINUOUS
 62
     1
  5
17F
 10
44.887559
 20
376.185911
 30
0.0
 40
10.0
 50
244.158193
 51
295.842059
  0
LINE
  8
LC-001-002-----0
  6
CONTINUOUS
 62
     1
  5
180
 10
80.137559
 20
369.737295
 30
0.0
 11
114.637559
 21
369.736969
 31
0.0
  0
LINE
  8
LC-001-002-----0
  6
CONTINUOUS
 62
     1
  5
181
 10
114.637559
 20
370.189005
 30
0.0
 11
62.887445
 21
370.189005
 31
0.0
  0
LINE
  8
LC-001-002-----0
  6
CONTINUOUS
 62
     1
  5
182
 10
80.137559
 20
369.737295
 30
0.0
 11
62.887445
 21
370.189005
 31
0.0
  0
LINE
  8
LC-001-002-----0
  6
CONTINUOUS
 62
     1
  5
183
 10
141.930482
 20
383.183404
 30
0.0
 11
141.930482
 21
386.237404
 31
0.0
  0
LINE
  8
LC-001-002-----0
  6
CONTINUOUS
 62
     1
  5
184
 10
141.930482
 20
386.237404
 30
0.0
 11
147.528559
 21
386.237404
 31
0.0
  0
LINE
  8
LC-001-002-----0
  6
CONTINUOUS
 62
     1
  5
185
 10
147.528559
 20
386.237404
 30
0.0
 11
147.528559
 21
383.183404
 31
0.0
  0
LINE
  8
LC-001-002-----0
  6
CONTINUOUS
 62
     1
  5
186
 10
40.655559
 20
382.166107
 30
0.0
 11
40.361687
 21
381.657107
 31
0.0
  0
LINE
  8
LC-001-002-----0
  6
CONTINUOUS
 62
     1
  5
187
 10
40.94943
 20
381.657107
 30
0.0
 11
40.655559
 21
382.166107
 31
0.0
  0
LINE
  8
LC-001-002-----0
  6
CONTINUOUS
 62
     1
  5
188
 10
45.97206
 20
381.657107
 30
0.0
 11
47.437559
 21
381.657107
 31
0.0
  0
LINE
  8
LC-001-002-----0
  6
CONTINUOUS
 62
     1
  5
189
 10
42.355559
 20
382.166107
 30
0.0
 11
42.130905
 21
381.776996
 31
0.0
  0
LINE
  8
LC-001-002-----0
  6
CONTINUOUS
 62
     1
  5
18A
 10
181.525687
 20
381.657107
 30
0.0
 11
181.819559
 21
382.166107
 31
0.0
  0
LINE
  8
LC-001-002-----0
  6
CONTINUOUS
 62
     1
  5
18B
 10
54.887532
 20
386.235815
 30
0.0
 11
51.855559
 21
386.235815
 31
0.0
  0
LINE
  8
LC-001-002-----0
  6
CONTINUOUS
 62
     1
  5
18C
 10
192.00609
 20
381.657107
 30
0.0
 11
190.355559
 21
381.657107
 31
0.0
  0
LINE
  8
LC-001-002-----0
  6
CONTINUOUS
 62
     1
  5
18D
 10
50.855559
 20
383.183404
 30
0.0
 11
50.855559
 21
381.656404
 31
0.0
  0
LINE
  8
LC-001-002-----0
  6
CONTINUOUS
 62
     1
  5
18E
 10
51.855559
 20
383.183537
 30
0.0
 11
51.855559
 21
386.235815
 31
0.0
  0
LINE
  8
LC-001-002-----0
  6
CONTINUOUS
 62
     1
  5
18F
 10
54.887532
 20
383.183404
 30
0.0
 11
114.637559
 21
383.183404
 31
0.0
  0
LINE
  8
LC-001-002-----0
  6
CONTINUOUS
 62
     1
  5
190
 10
181.837559
 20
381.657107
 30
0.0
 11
182.11343
 21
381.657107
 31
0.0
  0
LINE
  8
LC-001-002-----0
  6
CONTINUOUS
 62
     1
  5
191
 10
188.91343
 20
381.657107
 30
0.0
 11
190.355559
 21
381.657107
 31
0.0
  0
LINE
  8
LC-001-002-----0
  6
CONTINUOUS
 62
     1
  5
192
 10
54.887532
 20
383.183404
 30
0.0
 11
54.887532
 21
386.237404
 31
0.0
  0
LINE
  8
LC-001-002-----0
  6
CONTINUOUS
 62
     1
  5
193
 10
179.825687
 20
381.657107
 30
0.0
 11
180.119559
 21
382.166107
 31
0.0
  0
LINE
  8
LC-001-002-----0
  6
CONTINUOUS
 62
     1
  5
194
 10
180.119559
 20
382.166107
 30
0.0
 11
180.41343
 21
381.657107
 31
0.0
  0
LINE
  8
LC-001-002-----0
  6
CONTINUOUS
 62
     1
  5
195
 10
178.419559
 20
381.657107
 30
0.0
 11
180.41343
 21
381.657107
 31
0.0
  0
LINE
  8
LC-001-002-----0
  6
CONTINUOUS
 62
     1
  5
196
 10
42.64943
 20
381.657107
 30
0.0
 11
42.355559
 21
382.166107
 31
0.0
  0
LINE
  8
LC-001-002-----0
  6
CONTINUOUS
 62
     1
  5
197
 10
44.055559
 20
382.166107
 30
0.0
 11
43.761687
 21
381.657107
 31
0.0
  0
LINE
  8
LC-001-002-----0
  6
CONTINUOUS
 62
     1
  5
198
 10
44.34943
 20
381.657107
 30
0.0
 11
44.055559
 21
382.166107
 31
0.0
  0
LINE
  8
LC-001-002-----0
  6
CONTINUOUS
 62
     1
  5
199
 10
45.755559
 20
382.166107
 30
0.0
 11
45.461687
 21
381.657107
 31
0.0
  0
LINE
  8
LC-001-002-----0
  6
CONTINUOUS
 62
     1
  5
19A
 10
46.04943
 20
381.657107
 30
0.0
 11
45.755559
 21
382.166107
 31
0.0
  0
LINE
  8
LC-001-002-----0
  6
CONTINUOUS
 62
     1
  5
19B
 10
181.837559
 20
381.657107
 30
0.0
 11
181.837559
 21
367.913404
 31
0.0
  0
LINE
  8
LC-001-002-----0
  6
CONTINUOUS
 62
     1
  5
19C
 10
42.337559
 20
381.657107
 30
0.0
 11
37.269028
 21
381.657107
 31
0.0
  0
LINE
  8
LC-001-002-----0
  6
CONTINUOUS
 62
     1
  5
19D
 10
50.855559
 20
383.183404
 30
0.0
 11
50.855559
 21
381.656404
 31
0.0
  0
LINE
  8
LC-001-002-----0
  6
CONTINUOUS
 62
     1
  5
19E
 10
186.937559
 20
381.657107
 30
0.0
 11
186.937559
 21
367.913404
 31
0.0
  0
LINE
  8
LC-001-002-----0
  6
CONTINUOUS
 62
     1
  5
19F
 10
186.937559
 20
367.913404
 30
0.0
 11
181.837559
 21
367.913404
 31
0.0
  0
LINE
  8
LC-001-002-----0
  6
CONTINUOUS
 62
     1
  5
1A0
 10
47.455559
 20
382.166107
 30
0.0
 11
47.161687
 21
381.657107
 31
0.0
  0
LINE
  8
LC-001-002-----0
  6
CONTINUOUS
 62
     1
  5
1A1
 10
186.937559
 20
381.657107
 30
0.0
 11
188.91343
 21
381.657107
 31
0.0
  0
LINE
  8
LC-001-002-----0
  6
CONTINUOUS
 62
     1
  5
1A2
 10
42.337559
 20
367.913404
 30
0.0
 11
47.437559
 21
367.913404
 31
0.0
  0
LINE
  8
LC-001-002-----0
  6
CONTINUOUS
 62
     1
  5
1A3
 10
50.855559
 20
383.183404
 30
0.0
 11
51.855559
 21
383.183404
 31
0.0
  0
LINE
  8
LC-001-002-----0
  6
CONTINUOUS
 62
     1
  5
1A4
 10
47.74943
 20
381.657107
 30
0.0
 11
47.455559
 21
382.166107
 31
0.0
  0
LINE
  8
LC-001-002-----0
  6
CONTINUOUS
 62
     1
  5
1A5
 10
54.887532
 20
383.183404
 30
0.0
 11
54.887532
 21
370.187355
 31
0.0
  0
LINE
  8
LC-001-002-----0
  6
CONTINUOUS
 62
     1
  5
1A6
 10
178.419559
 20
383.183331
 30
0.0
 11
174.417673
 21
383.184107
 31
0.0
  0
LINE
  8
LC-001-002-----0
  6
CONTINUOUS
 62
     1
  5
1A7
 10
174.387673
 20
383.183404
 30
0.0
 11
174.387673
 21
370.187302
 31
0.0
  0
LINE
  8
LC-001-002-----0
  6
CONTINUOUS
 62
     1
  5
1A8
 10
114.637559
 20
383.183404
 30
0.0
 11
174.387673
 21
383.183404
 31
0.0
  0
LINE
  8
LC-001-002-----0
  6
CONTINUOUS
 62
     1
  5
1A9
 10
37.269028
 20
381.657107
 30
0.0
 11
37.269028
 21
367.305544
 31
0.0
  0
LINE
  8
LC-001-002-----0
  6
CONTINUOUS
 62
     1
  5
1AA
 10
49.155559
 20
382.166107
 30
0.0
 11
48.913759
 21
381.747298
 31
0.0
  0
LINE
  8
LC-001-002-----0
  6
CONTINUOUS
 62
     1
  5
1AB
 10
49.44943
 20
381.657107
 30
0.0
 11
49.155559
 21
382.166107
 31
0.0
  0
LINE
  8
LC-001-002-----0
  6
CONTINUOUS
 62
     1
  5
1AC
 10
54.816348
 20
386.235815
 30
0.0
 11
54.816348
 21
386.237353
 31
0.0
  0
LINE
  8
LC-001-002-----0
  6
CONTINUOUS
 62
     1
  5
1AD
 10
47.437559
 20
381.657107
 30
0.0
 11
50.855559
 21
381.657107
 31
0.0
  0
LINE
  8
LC-001-002-----0
  6
CONTINUOUS
 62
     1
  5
1AE
 10
183.225687
 20
381.657107
 30
0.0
 11
183.519559
 21
382.166107
 31
0.0
  0
LINE
  8
LC-001-002-----0
  6
CONTINUOUS
 62
     1
  5
1AF
 10
50.855559
 20
383.183404
 30
0.0
 11
50.855559
 21
381.656404
 31
0.0
  0
LINE
  8
LC-001-002-----0
  6
CONTINUOUS
 62
     1
  5
1B0
 10
47.437559
 20
381.657107
 30
0.0
 11
47.437559
 21
367.913404
 31
0.0
  0
LINE
  8
LC-001-002-----0
  6
CONTINUOUS
 62
     1
  5
1B1
 10
42.337559
 20
381.657107
 30
0.0
 11
42.337559
 21
367.913404
 31
0.0
  0
LINE
  8
LC-001-002-----0
  6
CONTINUOUS
 62
     1
  5
1B2
 10
178.419559
 20
383.183404
 30
0.0
 11
178.419559
 21
381.657107
 31
0.0
  0
LINE
  8
LC-001-002-----0
  6
CONTINUOUS
 62
     1
  5
1B3
 10
40.655559
 20
382.166107
 30
0.0
 11
49.155559
 21
382.166107
 31
0.0
  0
LINE
  8
LC-001-002-----0
  6
CONTINUOUS
 62
     1
  5
1B4
 10
188.619559
 20
382.166107
 30
0.0
 11
178.419559
 21
382.166107
 31
0.0
  0
LINE
  8
LC-001-002-----0
  6
CONTINUOUS
 62
     1
  5
1B5
 10
184.925687
 20
381.657107
 30
0.0
 11
185.219559
 21
382.166107
 31
0.0
  0
LINE
  8
LC-001-002-----0
  6
CONTINUOUS
 62
     1
  5
1B6
 10
186.625687
 20
381.657107
 30
0.0
 11
186.919559
 21
382.166107
 31
0.0
  0
LINE
  8
LC-001-002-----0
  6
CONTINUOUS
 62
     1
  5
1B7
 10
188.325687
 20
381.657107
 30
0.0
 11
188.619559
 21
382.166107
 31
0.0
  0
LINE
  8
LC-001-002-----0
  6
CONTINUOUS
 62
     1
  5
1B8
 10
188.619559
 20
382.166107
 30
0.0
 11
188.91343
 21
381.657107
 31
0.0
  0
LINE
  8
LC-001-002-----0
  6
CONTINUOUS
 62
     1
  5
1B9
 10
186.919559
 20
382.166107
 30
0.0
 11
187.21343
 21
381.657107
 31
0.0
  0
LINE
  8
LC-001-002-----0
  6
CONTINUOUS
 62
     1
  5
1BA
 10
185.219559
 20
382.166107
 30
0.0
 11
185.51343
 21
381.657107
 31
0.0
  0
LINE
  8
LC-001-002-----0
  6
CONTINUOUS
 62
     1
  5
1BB
 10
183.519559
 20
382.166107
 30
0.0
 11
183.81343
 21
381.657107
 31
0.0
  0
LINE
  8
LC-001-002-----0
  6
CONTINUOUS
 62
     1
  5
1BC
 10
181.819559
 20
382.166107
 30
0.0
 11
182.11343
 21
381.657107
 31
0.0
  0
LINE
  8
LC-001-002-----0
  6
CONTINUOUS
 62
     1
  5
1BD
 10
180.41343
 20
381.657107
 30
0.0
 11
181.837559
 21
381.657107
 31
0.0
  0
LINE
  8
LC-001-002-----0
  6
CONTINUOUS
 62
     1
  5
1BE
 10
166.426945
 20
367.189005
 30
0.0
 11
180.022278
 21
367.189005
 31
0.0
  0
LINE
  8
LC-001-002-----0
  6
CONTINUOUS
 62
     1
  5
1BF
 10
77.137559
 20
366.814824
 30
0.0
 11
62.965956
 21
367.185921
 31
0.0
  0
LINE
  8
LC-005-005-----0
  6
CONTINUOUS
  5
1C0
 10
191.871686
 20
367.185921
 30
0.0
 11
192.00609
 21
367.320324
 31
0.0
  0
LINE
  8
LC-005-005-----0
  6
CONTINUOUS
  5
1C1
 10
149.137559
 20
369.706627
 30
0.0
 11
149.169051
 21
369.73812
 31
0.0
  0
ENDSEC
  0
EOF
