  0
SECTION
  2
HEADER
  9
$ACADVER
  1
AC1009
  9
$INSBASE
 10
0.0
 20
0.0
 30
0.0
  9
$EXTMIN
 10
-90.220236
 20
-214.953
 30
0.0
  9
$EXTMAX
 10
749.779764
 20
379.047
 30
0.0
  9
$LIMMIN
 10
-90.220236
 20
-214.953
  9
$LIMMAX
 10
749.779764
 20
379.047
  9
$ORTHOMODE
 70
     0
  9
$REGENMODE
 70
     1
  9
$FILLMODE
 70
     1
  9
$QTEXTMODE
 70
     0
  9
$MIRRTEXT
 70
     1
  9
$DRAGMODE
 70
     2
  9
$LTSCALE
 40
2.0
  9
$OSMODE
 70
     0
  9
$ATTMODE
 70
     1
  9
$TEXTSIZE
 40
0.2
  9
$TRACEWID
 40
0.05
  9
$TEXTSTYLE
  7
STANDARD
  9
$CLAYER
  8
0
  9
$CELTYPE
  6
BYLAYER
  9
$CECOLOR
 62
     7
  9
$DIMSCALE
 40
2.0
  9
$DIMASZ
 40
3.5
  9
$DIMEXO
 40
0.0625
  9
$DIMDLI
 40
0.38
  9
$DIMRND
 40
0.0
  9
$DIMDLE
 40
0.0
  9
$DIMEXE
 40
0.18
  9
$DIMTP
 40
0.0
  9
$DIMTM
 40
0.0
  9
$DIMTXT
 40
3.5
  9
$DIMCEN
 40
0.09
  9
$DIMTSZ
 40
0.0
  9
$DIMTOL
 70
     0
  9
$DIMLIM
 70
     0
  9
$DIMTIH
 70
     1
  9
$DIMTOH
 70
     1
  9
$DIMSE1
 70
     0
  9
$DIMSE2
 70
     0
  9
$DIMTAD
 70
     1
  9
$DIMZIN
 70
     0
  9
$DIMBLK
  1

  9
$DIMASO
 70
     1
  9
$DIMSHO
 70
     1
  9
$DIMPOST
  1

  9
$DIMAPOST
  1

  9
$DIMALT
 70
     0
  9
$DIMALTD
 70
     2
  9
$DIMALTF
 40
25.4
  9
$DIMLFAC
 40
1.0
  9
$DIMTOFL
 70
     0
  9
$DIMTVP
 40
0.0
  9
$DIMTIX
 70
     0
  9
$DIMSOXD
 70
     0
  9
$DIMSAH
 70
     0
  9
$DIMBLK1
  1

  9
$DIMBLK2
  1

  9
$DIMSTYLE
  2
STANDARD
  9
$DIMCLRD
 70
     0
  9
$DIMCLRE
 70
     0
  9
$DIMCLRT
 70
     0
  9
$DIMTFAC
 40
1.0
  9
$DIMGAP
 40
0.09
  9
$LUNITS
 70
     2
  9
$LUPREC
 70
     2
  9
$AXISMODE
 70
     0
  9
$AXISUNIT
 10
0.0
 20
0.0
  9
$SKETCHINC
 40
0.1
  9
$FILLETRAD
 40
0.0
  9
$AUNITS
 70
     0
  9
$AUPREC
 70
     0
  9
$MENU
  1
acad
  9
$ELEVATION
 40
0.0
  9
$PELEVATION
 40
0.0
  9
$THICKNESS
 40
0.0
  9
$LIMCHECK
 70
     0
  9
$BLIPMODE
 70
     1
  9
$CHAMFERA
 40
0.0
  9
$CHAMFERB
 40
0.0
  9
$SKPOLY
 70
     0
  9
$TDCREATE
 40
0.000000000
  9
$TDUPDATE
 40
0.000000000
  9
$TDINDWG
 40
0.0000000000
  9
$TDUSRTIMER
 40
0.0000000000
  9
$USRTIMER
 70
     1
  9
$ANGBASE
 50
0.0
  9
$ANGDIR
 70
     0
  9
$PDMODE
 70
     0
  9
$PDSIZE
 40
0.0
  9
$PLINEWID
 40
0.0
  9
$COORDS
 70
     0
  9
$SPLFRAME
 70
     0
  9
$SPLINETYPE
 70
     6
  9
$SPLINESEGS
 70
     8
  9
$ATTDIA
 70
     0
  9
$ATTREQ
 70
     1
  9
$HANDLING
 70
     1
  9
$HANDSEED
  5
365
  9
$SURFTAB1
 70
     6
  9
$SURFTAB2
 70
     6
  9
$SURFTYPE
 70
     6
  9
$SURFU
 70
     6
  9
$SURFV
 70
     6
  9
$UCSNAME
  2

  9
$UCSORG
 10
0.0
 20
0.0
 30
0.0
  9
$UCSXDIR
 10
1.0
 20
0.0
 30
0.0
  9
$UCSYDIR
 10
0.0
 20
1.0
 30
0.0
  9
$PUCSNAME
  2

  9
$PUCSORG
 10
0.0
 20
0.0
 30
0.0
  9
$PUCSXDIR
 10
1.0
 20
0.0
 30
0.0
  9
$PUCSYDIR
 10
0.0
 20
1.0
 30
0.0
  9
$USERI1
 70
     0
  9
$USERI2
 70
     0
  9
$USERI3
 70
     0
  9
$USERI4
 70
     0
  9
$USERI5
 70
     0
  9
$USERR1
 40
0.0
  9
$USERR2
 40
0.0
  9
$USERR3
 40
0.0
  9
$USERR4
 40
0.0
  9
$USERR5
 40
0.0
  9
$WORLDVIEW
 70
     1
  9
$SHADEDGE
 70
     3
  9
$SHADEDIF
 70
    70
  9
$TILEMODE
 70
     1
  9
$MAXACTVP
 70
    16
  9
$PINSBASE
 10
0.0
 20
0.0
 30
0.0
  9
$PLIMCHECK
 70
     0
  9
$PEXTMIN
 10
1.000000E+20
 20
1.000000E+20
 30
1.000000E+20
  9
$PEXTMAX
 10
-1.000000E+20
 20
-1.000000E+20
 30
-1.000000E+20
  9
$PLIMMIN
 10
-90.220236
 20
-214.953
  9
$PLIMMAX
 10
749.779764
 20
379.047
  9
$UNITMODE
 70
     0
  9
$VISRETAIN
 70
     0
  9
$PLINEGEN
 70
     1
  9
$PSLTSCALE
 70
     0
  9
$TREEDEPTH
 70
  3020
  9
$DWGCODEPAGE
  3
dos850
  0
ENDSEC
  0
SECTION
  2
TABLES
  0
TABLE
  2
VPORT
 70
     1
  0
VPORT
  2
*ACTIVE
 70
     0
 10
0.0
 20
0.0
 11
1.0
 21
1.0
 12
420.0
 22
297.0
 13
0.0
 23
0.0
 14
1.0
 24
1.0
 15
0.0
 25
0.0
 16
0.0
 26
0.0
 36
1.0
 17
-90.220236
 27
-214.953
 37
0.0
 40
594.0
 41
1.604229
 42
50.0
 43
0.0
 44
0.0
 50
0.0
 51
0.0
 71
     0
 72
   100
 73
     1
 74
     1
 75
     0
 76
     0
 77
     0
 78
     0
  0
ENDTAB
  0
TABLE
  2
LTYPE
 70
     4
  0
LTYPE
  2
CONTINUOUS
 70
    64
  3
Solid line
 72
    65
 73
     0
 40
0.0
  0
LTYPE
  2
DASHED
 70
    64
  3
__ __ __ __ __
 72
    65
 73
     2
 40
6.25
 49
5.0
 49
-1.25
  0
LTYPE
  2
DASHDOT
 70
    64
  3
__ . __ . __ . __ . __
 72
    65
 73
     4
 40
7.5
 49
5.0
 49
-1.25
 49
0.0
 49
-1.25
  0
LTYPE
  2
CENTER
 70
    64
  3
__ . __ . __ . __ . __
 72
    65
 73
     4
 40
7.5
 49
5.0
 49
-1.25
 49
0.0
 49
-1.25
  0
ENDTAB
  0
TABLE
  2
LAYER
 70
    14
  0
LAYER
  2
0
 70
     0
 62
     7
  6
CONTINUOUS
  0
LAYER
  2
LC-INFO-1-2-MM-A3-0
 70
     1
 62
    -1
  6
CONTINUOUS
  0
LAYER
  2
LC-006-003-MTH-0
 70
     0
 62
     2
  6
CONTINUOUS
  0
LAYER
  2
LC-005-003-----0
 70
     0
 62
     2
  6
CONTINUOUS
  0
LAYER
  2
LC-007-003-MTG-0
 70
     0
 62
     2
  6
CONTINUOUS
  0
LAYER
  2
LC-008-005-----0
 70
     0
 62
     2
  6
CONTINUOUS
  0
LAYER
  2
LC-002-002-----0
 70
     0
 62
     1
  6
CONTINUOUS
  0
LAYER
  2
LC-009-000-----0
 70
     0
 62
     7
  6
CONTINUOUS
  0
LAYER
  2
LC-001-000-----0
 70
     0
 62
     7
  6
CONTINUOUS
  0
LAYER
  2
LC-003-002-RND-0
 70
     0
 62
     1
  6
CONTINUOUS
  0
LAYER
  2
LC-004-004-----0
 70
     0
 62
     1
  6
CONTINUOUS
  0
LAYER
  2
LC-010-007-KH--0
 70
     0
 62
     7
  6
DASHDOT
  0
LAYER
  2
LC-011-006-MLN-0
 70
     0
 62
     2
  6
CENTER
  0
LAYER
  2
LC-000
 70
     0
 62
     7
  6
CONTINUOUS
  0
ENDTAB
  0
TABLE
  2
STYLE
 70
     4
  0
STYLE
  2
STANDARD
 70
     0
 40
0.0
 41
1.0
 50
0.0
 71
     0
 42
0.0
  3
txt
  4

  0
STYLE
  2
LC-STANDARD
 70
    64
 40
0.0
 41
1.0
 50
0.0
 71
     0
 42
3.5
  3
MONOTXT
  4

  0
STYLE
  2
LC-TXTSTYLE-150-400-0-0-D2
 70
    64
 40
0.0
 41
1.0
 50
15.0
 71
     0
 42
3.5
  3
MONOTXT
  4

  0
STYLE
  2
LC-TXTSTYLE-150-400-0-0-D3
 70
    64
 40
0.0
 41
1.0
 50
15.0
 71
     0
 42
3.5
  3
LC-STANDARD
  4

  0
ENDTAB
  0
TABLE
  2
VIEW
 70
     0
  0
ENDTAB
  0
TABLE
  2
UCS
 70
     0
  0
ENDTAB
  0
TABLE
  2
APPID
 70
     1
  0
APPID
  2
ACAD
 70
     0
  0
ENDTAB
  0
TABLE
  2
DIMSTYLE
 70
     4
  0
DIMSTYLE
  2
STANDARD
 70
     0
  3

  4

  5

  6

  7

 40
1.0
 41
0.18
 42
0.0625
 43
0.38
 44
0.18
 45
0.0
 46
0.0
 47
0.0
 48
0.0
 71
     0
 72
     0
 73
     1
 74
     1
 75
     0
 76
     0
 77
     0
 78
     0
140
0.18
141
0.09
142
0.0
143
25.4
144
1.0
145
0.0
146
1.0
147
0.09
170
     0
171
     2
172
     0
173
     0
174
     0
175
     0
176
     0
177
     0
178
     0
  0
DIMSTYLE
  2
LC-STANDARD
 70
     0
  3

  4

  5

  6

  7

 40
1.0
 41
3.5
 42
0.0
 43
7.5
 44
1.8
 45
0.0
 46
0.0
 47
0.0
 48
0.0
 71
     0
 72
     0
 73
     0
 74
     0
 75
     0
 76
     0
 77
     1
 78
     8
140
3.5
141
0.0
142
0.0
143
25.4
144
1.0
145
0.0
146
0.71
147
1.5
170
     0
171
     2
172
     1
173
     0
174
     0
175
     0
176
     0
177
     0
178
     3
  0
DIMSTYLE
  2
LC-DIM-L-0090-02-02
 70
     0
  3

  4

  5

  6

  7

 40
2.0
 41
3.5
 42
0.0
 43
7.5
 44
1.8
 45
0.0
 46
0.0
 47
0.0
 48
0.0
 71
     0
 72
     0
 73
     0
 74
     0
 75
     0
 76
     0
 77
     1
 78
     8
140
9.0
141
0.0
142
0.0
143
25.4
144
1.0
145
0.0
146
0.71
147
1.5
170
     0
171
     2
172
     0
173
     0
174
     0
175
     0
176
     2
177
     2
178
     6
  0
DIMSTYLE
  2
LC-DIM-L-0090-01-02
 70
     0
  3

  4

  5

  6

  7

 40
2.0
 41
3.5
 42
0.0
 43
7.5
 44
1.8
 45
0.0
 46
0.0
 47
0.0
 48
0.0
 71
     0
 72
     0
 73
     0
 74
     0
 75
     0
 76
     0
 77
     1
 78
     8
140
9.0
141
0.0
142
0.0
143
25.4
144
1.0
145
0.0
146
0.71
147
1.5
170
     0
171
     2
172
     0
173
     0
174
     0
175
     0
176
     2
177
     2
178
     6
  0
ENDTAB
  0
ENDSEC
  0
SECTION
  2
BLOCKS
  0
BLOCK
  8
0
  5
24
  2
*D0
 70
    65
 10
0.0
 20
0.0
 30
0.0
  3
*D0
  0
LINE
  8
LC-006-003-MTH-0
  6
CONTINUOUS
  5
26
 10
356.224498
 20
-33.876838
 30
0.0
 11
394.987569
 21
-35.56927
 31
0.0
  0
LINE
  8
LC-006-003-MTH-0
  6
CONTINUOUS
  5
27
 10
358.405467
 20
16.07557
 30
0.0
 11
397.168538
 21
14.383138
 31
0.0
  0
LINE
  8
LC-005-003-----0
  6
CONTINUOUS
  5
29
 10
385.766652
 20
-53.029685
 30
0.0
 11
384.197848
 21
-35.098181
 31
0.0
  0
LINE
  8
LC-005-003-----0
  6
CONTINUOUS
  5
2A
 10
384.197848
 20
-35.098181
 30
0.0
 11
381.072181
 21
-52.82472
 31
0.0
  0
LINE
  8
LC-005-003-----0
  6
CONTINUOUS
  5
2B
 10
381.072181
 20
-52.82472
 30
0.0
 11
385.766652
 21
-53.029685
 31
0.0
  0
LINE
  8
LC-005-003-----0
  6
CONTINUOUS
  5
2C
 10
385.154624
 20
-53.04304
 30
0.0
 11
383.99371
 21
-39.773727
 31
0.0
  0
LINE
  8
LC-005-003-----0
  6
CONTINUOUS
  5
2D
 10
383.99371
 20
-39.773727
 30
0.0
 11
381.680716
 21
-52.891366
 31
0.0
  0
LINE
  8
LC-005-003-----0
  6
CONTINUOUS
  5
2E
 10
384.542597
 20
-53.056394
 30
0.0
 11
383.789571
 21
-44.449272
 31
0.0
  0
LINE
  8
LC-005-003-----0
  6
CONTINUOUS
  5
2F
 10
383.789571
 20
-44.449272
 30
0.0
 11
382.289251
 21
-52.958011
 31
0.0
  0
LINE
  8
LC-005-003-----0
  6
CONTINUOUS
  5
30
 10
383.930569
 20
-53.069749
 30
0.0
 11
383.585432
 21
-49.124818
 31
0.0
  0
LINE
  8
LC-005-003-----0
  6
CONTINUOUS
  5
31
 10
383.585432
 20
-49.124818
 30
0.0
 11
382.897785
 21
-53.024657
 31
0.0
  0
LINE
  8
LC-005-003-----0
  6
CONTINUOUS
  5
32
 10
384.810014
 20
32.785732
 30
0.0
 11
386.378818
 21
14.854227
 31
0.0
  0
LINE
  8
LC-005-003-----0
  6
CONTINUOUS
  5
33
 10
386.378818
 20
14.854227
 30
0.0
 11
389.504485
 21
32.580767
 31
0.0
  0
LINE
  8
LC-005-003-----0
  6
CONTINUOUS
  5
34
 10
389.504485
 20
32.580767
 30
0.0
 11
384.810014
 21
32.785732
 31
0.0
  0
LINE
  8
LC-005-003-----0
  6
CONTINUOUS
  5
35
 10
385.422042
 20
32.799086
 30
0.0
 11
386.582956
 21
19.529773
 31
0.0
  0
LINE
  8
LC-005-003-----0
  6
CONTINUOUS
  5
36
 10
386.582956
 20
19.529773
 30
0.0
 11
388.89595
 21
32.647412
 31
0.0
  0
LINE
  8
LC-005-003-----0
  6
CONTINUOUS
  5
37
 10
386.03407
 20
32.812441
 30
0.0
 11
386.787095
 21
24.205319
 31
0.0
  0
LINE
  8
LC-005-003-----0
  6
CONTINUOUS
  5
38
 10
386.787095
 20
24.205319
 30
0.0
 11
388.287415
 21
32.714057
 31
0.0
  0
LINE
  8
LC-005-003-----0
  6
CONTINUOUS
  5
39
 10
386.646097
 20
32.825795
 30
0.0
 11
386.991234
 21
28.880864
 31
0.0
  0
LINE
  8
LC-005-003-----0
  6
CONTINUOUS
  5
3A
 10
386.991234
 20
28.880864
 30
0.0
 11
387.678881
 21
32.780703
 31
0.0
  0
LINE
  8
LC-007-003-MTG-0
  6
CONTINUOUS
  5
3C
 10
383.09864
 20
-60.274196
 30
0.0
 11
390.409669
 21
107.175908
 31
0.0
  0
TEXT
  8
LC-005-003-----0
  6
CONTINUOUS
 62
     6
  5
3E
 10
382.628887
 20
44.328209
 30
0.0
 40
18.0
  1
DN50
 50
87.5
 41
0.9
 51
15.0
  7
LC-TXTSTYLE-150-400-0-0-D0
  0
ENDBLK
  8
0
  5
3F
  0
BLOCK
  8
0
  5
41
  2
*D1
 70
    65
 10
0.0
 20
0.0
 30
0.0
  3
*D1
  0
LINE
  8
LC-006-003-MTH-0
  6
CONTINUOUS
  5
42
 10
95.833445
 20
34.789617
 30
0.0
 11
95.833445
 21
154.8
 31
0.0
  0
LINE
  8
LC-006-003-MTH-0
  6
CONTINUOUS
  5
43
 10
325.833445
 20
34.789617
 30
0.0
 11
325.833445
 21
154.8
 31
0.0
  0
LINE
  8
LC-007-003-MTG-0
  6
CONTINUOUS
  5
44
 10
95.833445
 20
144.0
 30
0.0
 11
325.833445
 21
144.0
 31
0.0
  0
LINE
  8
LC-005-003-----0
  6
CONTINUOUS
  5
45
 10
113.679453
 20
146.349471
 30
0.0
 11
95.833445
 21
144.0
 31
0.0
  0
LINE
  8
LC-005-003-----0
  6
CONTINUOUS
  5
46
 10
95.833445
 20
144.0
 30
0.0
 11
113.679453
 21
141.650529
 31
0.0
  0
LINE
  8
LC-005-003-----0
  6
CONTINUOUS
  5
47
 10
113.679453
 20
141.650529
 30
0.0
 11
113.679453
 21
146.349471
 31
0.0
  0
LINE
  8
LC-005-003-----0
  6
CONTINUOUS
  5
48
 10
113.719491
 20
145.738609
 30
0.0
 11
100.513445
 21
144.0
 31
0.0
  0
LINE
  8
LC-005-003-----0
  6
CONTINUOUS
  5
49
 10
100.513445
 20
144.0
 30
0.0
 11
113.719491
 21
142.261391
 31
0.0
  0
LINE
  8
LC-005-003-----0
  6
CONTINUOUS
  5
4A
 10
113.759529
 20
145.127746
 30
0.0
 11
105.193445
 21
144.0
 31
0.0
  0
LINE
  8
LC-005-003-----0
  6
CONTINUOUS
  5
4B
 10
105.193445
 20
144.0
 30
0.0
 11
113.759529
 21
142.872254
 31
0.0
  0
LINE
  8
LC-005-003-----0
  6
CONTINUOUS
  5
4C
 10
113.799567
 20
144.516884
 30
0.0
 11
109.873445
 21
144.0
 31
0.0
  0
LINE
  8
LC-005-003-----0
  6
CONTINUOUS
  5
4D
 10
109.873445
 20
144.0
 30
0.0
 11
113.799567
 21
143.483116
 31
0.0
  0
LINE
  8
LC-005-003-----0
  6
CONTINUOUS
  5
4E
 10
307.987438
 20
141.650529
 30
0.0
 11
325.833445
 21
144.0
 31
0.0
  0
LINE
  8
LC-005-003-----0
  6
CONTINUOUS
  5
4F
 10
325.833445
 20
144.0
 30
0.0
 11
307.987438
 21
146.349471
 31
0.0
  0
LINE
  8
LC-005-003-----0
  6
CONTINUOUS
  5
50
 10
307.987438
 20
146.349471
 30
0.0
 11
307.987438
 21
141.650529
 31
0.0
  0
LINE
  8
LC-005-003-----0
  6
CONTINUOUS
  5
51
 10
307.9474
 20
142.261391
 30
0.0
 11
321.153445
 21
144.0
 31
0.0
  0
LINE
  8
LC-005-003-----0
  6
CONTINUOUS
  5
52
 10
321.153445
 20
144.0
 30
0.0
 11
307.9474
 21
145.738609
 31
0.0
  0
LINE
  8
LC-005-003-----0
  6
CONTINUOUS
  5
53
 10
307.907362
 20
142.872254
 30
0.0
 11
316.473445
 21
144.0
 31
0.0
  0
LINE
  8
LC-005-003-----0
  6
CONTINUOUS
  5
54
 10
316.473445
 20
144.0
 30
0.0
 11
307.907362
 21
145.127746
 31
0.0
  0
LINE
  8
LC-005-003-----0
  6
CONTINUOUS
  5
55
 10
307.867324
 20
143.483116
 30
0.0
 11
311.793445
 21
144.0
 31
0.0
  0
LINE
  8
LC-005-003-----0
  6
CONTINUOUS
  5
56
 10
311.793445
 20
144.0
 30
0.0
 11
307.867324
 21
144.516884
 31
0.0
  0
TEXT
  8
LC-005-003-----0
  6
CONTINUOUS
 62
     6
  5
57
 10
183.923027
 20
154.431999
 30
0.0
 40
18.0
  1
Ø230
 51
15.0
  7
LC-TXTSTYLE-150-400-0-0-D0
 72
     1
 11
208.414366
 21
154.431999
 31
0.0
  0
ENDBLK
  8
0
  5
58
  0
BLOCK
  8
0
  5
5A
  2
BLK1
 70
    64
 10
0.0
 20
0.0
 30
0.0
  3
BLK1
  0
ENDBLK
  8
0
  5
5B
  0
BLOCK
  8
0
  5
5D
  2
BLK2
 70
    64
 10
0.0
 20
0.0
 30
0.0
  3
BLK2
  0
ENDBLK
  8
0
  5
5E
  0
BLOCK
  8
0
  5
60
  2
BLK3
 70
    64
 10
0.0
 20
0.0
 30
0.0
  3
BLK3
  0
ENDBLK
  8
0
  5
61
  0
BLOCK
  8
0
  5
63
  2
*D5
 70
    65
 10
0.0
 20
0.0
 30
0.0
  3
*D5
  0
LINE
  8
LC-006-003-MTH-0
  6
CONTINUOUS
  5
64
 10
210.833489
 20
-27.528933
 30
0.0
 11
210.833489
 21
-90.8
 31
0.0
  0
LINE
  8
LC-006-003-MTH-0
  6
CONTINUOUS
  5
65
 10
360.83344
 20
-9.054255
 30
0.0
 11
360.83344
 21
-90.8
 31
0.0
  0
LINE
  8
LC-007-003-MTG-0
  6
CONTINUOUS
  5
66
 10
210.833489
 20
-80.0
 30
0.0
 11
360.83344
 21
-80.0
 31
0.0
  0
LINE
  8
LC-005-003-----0
  6
CONTINUOUS
  5
67
 10
228.679496
 20
-77.650529
 30
0.0
 11
210.833489
 21
-80.0
 31
0.0
  0
LINE
  8
LC-005-003-----0
  6
CONTINUOUS
  5
68
 10
210.833489
 20
-80.0
 30
0.0
 11
228.679496
 21
-82.349471
 31
0.0
  0
LINE
  8
LC-005-003-----0
  6
CONTINUOUS
  5
69
 10
228.679496
 20
-82.349471
 30
0.0
 11
228.679496
 21
-77.650529
 31
0.0
  0
LINE
  8
LC-005-003-----0
  6
CONTINUOUS
  5
6A
 10
228.719534
 20
-78.261391
 30
0.0
 11
215.513489
 21
-80.0
 31
0.0
  0
LINE
  8
LC-005-003-----0
  6
CONTINUOUS
  5
6B
 10
215.513489
 20
-80.0
 30
0.0
 11
228.719534
 21
-81.738609
 31
0.0
  0
LINE
  8
LC-005-003-----0
  6
CONTINUOUS
  5
6C
 10
228.759572
 20
-78.872254
 30
0.0
 11
220.193489
 21
-80.0
 31
0.0
  0
LINE
  8
LC-005-003-----0
  6
CONTINUOUS
  5
6D
 10
220.193489
 20
-80.0
 30
0.0
 11
228.759572
 21
-81.127746
 31
0.0
  0
LINE
  8
LC-005-003-----0
  6
CONTINUOUS
  5
6E
 10
228.79961
 20
-79.483116
 30
0.0
 11
224.873489
 21
-80.0
 31
0.0
  0
LINE
  8
LC-005-003-----0
  6
CONTINUOUS
  5
6F
 10
224.873489
 20
-80.0
 30
0.0
 11
228.79961
 21
-80.516884
 31
0.0
  0
LINE
  8
LC-005-003-----0
  6
CONTINUOUS
  5
70
 10
342.987433
 20
-82.349471
 30
0.0
 11
360.83344
 21
-80.0
 31
0.0
  0
LINE
  8
LC-005-003-----0
  6
CONTINUOUS
  5
71
 10
360.83344
 20
-80.0
 30
0.0
 11
342.987433
 21
-77.650529
 31
0.0
  0
LINE
  8
LC-005-003-----0
  6
CONTINUOUS
  5
72
 10
342.987433
 20
-77.650529
 30
0.0
 11
342.987433
 21
-82.349471
 31
0.0
  0
LINE
  8
LC-005-003-----0
  6
CONTINUOUS
  5
73
 10
342.947395
 20
-81.738609
 30
0.0
 11
356.15344
 21
-80.0
 31
0.0
  0
LINE
  8
LC-005-003-----0
  6
CONTINUOUS
  5
74
 10
356.15344
 20
-80.0
 30
0.0
 11
342.947395
 21
-78.261391
 31
0.0
  0
LINE
  8
LC-005-003-----0
  6
CONTINUOUS
  5
75
 10
342.907357
 20
-81.127746
 30
0.0
 11
351.47344
 21
-80.0
 31
0.0
  0
LINE
  8
LC-005-003-----0
  6
CONTINUOUS
  5
76
 10
351.47344
 20
-80.0
 30
0.0
 11
342.907357
 21
-78.872254
 31
0.0
  0
LINE
  8
LC-005-003-----0
  6
CONTINUOUS
  5
77
 10
342.867319
 20
-80.516884
 30
0.0
 11
346.79344
 21
-80.0
 31
0.0
  0
LINE
  8
LC-005-003-----0
  6
CONTINUOUS
  5
78
 10
346.79344
 20
-80.0
 30
0.0
 11
342.867319
 21
-79.483116
 31
0.0
  0
TEXT
  8
LC-005-003-----0
  6
CONTINUOUS
 62
     6
  5
79
 10
258.258643
 20
-69.568001
 30
0.0
 40
18.0
  1
150
 51
15.0
  7
LC-TXTSTYLE-150-400-0-0-D0
 72
     1
 11
277.392501
 21
-69.568001
 31
0.0
  0
ENDBLK
  8
0
  5
7A
  0
BLOCK
  8
0
  5
7C
  2
*D6
 70
    65
 10
0.0
 20
0.0
 30
0.0
  3
*D6
  0
LINE
  8
LC-006-003-MTH-0
  6
CONTINUOUS
  5
7D
 10
360.83344
 20
-9.054255
 30
0.0
 11
430.8
 21
-9.054255
 31
0.0
  0
LINE
  8
LC-006-003-MTH-0
  6
CONTINUOUS
  5
7E
 10
316.459096
 20
32.95186
 30
0.0
 11
430.8
 21
32.95186
 31
0.0
  0
LINE
  8
LC-007-003-MTG-0
  6
CONTINUOUS
  5
7F
 10
420.0
 20
-9.054255
 30
0.0
 11
420.0
 21
32.95186
 31
0.0
  0
LINE
  8
LC-005-003-----0
  6
CONTINUOUS
  5
80
 10
417.650529
 20
8.791753
 30
0.0
 11
420.0
 21
-9.054255
 31
0.0
  0
LINE
  8
LC-005-003-----0
  6
CONTINUOUS
  5
81
 10
420.0
 20
-9.054255
 30
0.0
 11
422.349471
 21
8.791753
 31
0.0
  0
LINE
  8
LC-005-003-----0
  6
CONTINUOUS
  5
82
 10
422.349471
 20
8.791753
 30
0.0
 11
417.650529
 21
8.791753
 31
0.0
  0
LINE
  8
LC-005-003-----0
  6
CONTINUOUS
  5
83
 10
418.261391
 20
8.831791
 30
0.0
 11
420.0
 21
-4.374255
 31
0.0
  0
LINE
  8
LC-005-003-----0
  6
CONTINUOUS
  5
84
 10
420.0
 20
-4.374255
 30
0.0
 11
421.738609
 21
8.831791
 31
0.0
  0
LINE
  8
LC-005-003-----0
  6
CONTINUOUS
  5
85
 10
418.872254
 20
8.871829
 30
0.0
 11
420.0
 21
0.305745
 31
0.0
  0
LINE
  8
LC-005-003-----0
  6
CONTINUOUS
  5
86
 10
420.0
 20
0.305745
 30
0.0
 11
421.127746
 21
8.871829
 31
0.0
  0
LINE
  8
LC-005-003-----0
  6
CONTINUOUS
  5
87
 10
419.483116
 20
8.911867
 30
0.0
 11
420.0
 21
4.985745
 31
0.0
  0
LINE
  8
LC-005-003-----0
  6
CONTINUOUS
  5
88
 10
420.0
 20
4.985745
 30
0.0
 11
420.516884
 21
8.911867
 31
0.0
  0
LINE
  8
LC-005-003-----0
  6
CONTINUOUS
  5
89
 10
422.349471
 20
15.105853
 30
0.0
 11
420.0
 21
32.95186
 31
0.0
  0
LINE
  8
LC-005-003-----0
  6
CONTINUOUS
  5
8A
 10
420.0
 20
32.95186
 30
0.0
 11
417.650529
 21
15.105853
 31
0.0
  0
LINE
  8
LC-005-003-----0
  6
CONTINUOUS
  5
8B
 10
417.650529
 20
15.105853
 30
0.0
 11
422.349471
 21
15.105853
 31
0.0
  0
LINE
  8
LC-005-003-----0
  6
CONTINUOUS
  5
8C
 10
421.738609
 20
15.065815
 30
0.0
 11
420.0
 21
28.27186
 31
0.0
  0
LINE
  8
LC-005-003-----0
  6
CONTINUOUS
  5
8D
 10
420.0
 20
28.27186
 30
0.0
 11
418.261391
 21
15.065815
 31
0.0
  0
LINE
  8
LC-005-003-----0
  6
CONTINUOUS
  5
8E
 10
421.127746
 20
15.025777
 30
0.0
 11
420.0
 21
23.59186
 31
0.0
  0
LINE
  8
LC-005-003-----0
  6
CONTINUOUS
  5
8F
 10
420.0
 20
23.59186
 30
0.0
 11
418.872254
 21
15.025777
 31
0.0
  0
LINE
  8
LC-005-003-----0
  6
CONTINUOUS
  5
90
 10
420.516884
 20
14.985739
 30
0.0
 11
420.0
 21
18.91186
 31
0.0
  0
LINE
  8
LC-005-003-----0
  6
CONTINUOUS
  5
91
 10
420.0
 20
18.91186
 30
0.0
 11
419.483116
 21
14.985739
 31
0.0
  0
TEXT
  8
LC-005-003-----0
  6
CONTINUOUS
 62
     6
  5
92
 10
414.968001
 20
2.881056
 30
0.0
 40
18.0
  1
42
 50
90.0
 51
15.0
  7
LC-TXTSTYLE-150-400-0-0-D0
 72
     1
 11
414.968001
 21
14.744049
 31
0.0
  0
ENDBLK
  8
0
  5
93
  0
BLOCK
  8
0
  5
95
  2
*D7
 70
    65
 10
0.0
 20
0.0
 30
0.0
  3
*D7
  0
LINE
  8
LC-006-003-MTH-0
  6
CONTINUOUS
  5
96
 10
205.09374
 20
-26.837284
 30
0.0
 11
73.2
 21
-26.837284
 31
0.0
  0
LINE
  8
LC-006-003-MTH-0
  6
CONTINUOUS
  5
97
 10
105.207795
 20
32.95186
 30
0.0
 11
73.2
 21
32.95186
 31
0.0
  0
LINE
  8
LC-007-003-MTG-0
  6
CONTINUOUS
  5
98
 10
84.0
 20
-26.837284
 30
0.0
 11
84.0
 21
32.95186
 31
0.0
  0
LINE
  8
LC-005-003-----0
  6
CONTINUOUS
  5
99
 10
81.650529
 20
-8.991277
 30
0.0
 11
84.0
 21
-26.837284
 31
0.0
  0
LINE
  8
LC-005-003-----0
  6
CONTINUOUS
  5
9A
 10
84.0
 20
-26.837284
 30
0.0
 11
86.349471
 21
-8.991277
 31
0.0
  0
LINE
  8
LC-005-003-----0
  6
CONTINUOUS
  5
9B
 10
86.349471
 20
-8.991277
 30
0.0
 11
81.650529
 21
-8.991277
 31
0.0
  0
LINE
  8
LC-005-003-----0
  6
CONTINUOUS
  5
9C
 10
82.261391
 20
-8.951239
 30
0.0
 11
84.0
 21
-22.157284
 31
0.0
  0
LINE
  8
LC-005-003-----0
  6
CONTINUOUS
  5
9D
 10
84.0
 20
-22.157284
 30
0.0
 11
85.738609
 21
-8.951239
 31
0.0
  0
LINE
  8
LC-005-003-----0
  6
CONTINUOUS
  5
9E
 10
82.872254
 20
-8.911201
 30
0.0
 11
84.0
 21
-17.477284
 31
0.0
  0
LINE
  8
LC-005-003-----0
  6
CONTINUOUS
  5
9F
 10
84.0
 20
-17.477284
 30
0.0
 11
85.127746
 21
-8.911201
 31
0.0
  0
LINE
  8
LC-005-003-----0
  6
CONTINUOUS
  5
A0
 10
83.483116
 20
-8.871162
 30
0.0
 11
84.0
 21
-12.797284
 31
0.0
  0
LINE
  8
LC-005-003-----0
  6
CONTINUOUS
  5
A1
 10
84.0
 20
-12.797284
 30
0.0
 11
84.516884
 21
-8.871162
 31
0.0
  0
LINE
  8
LC-005-003-----0
  6
CONTINUOUS
  5
A2
 10
86.349471
 20
15.105853
 30
0.0
 11
84.0
 21
32.95186
 31
0.0
  0
LINE
  8
LC-005-003-----0
  6
CONTINUOUS
  5
A3
 10
84.0
 20
32.95186
 30
0.0
 11
81.650529
 21
15.105853
 31
0.0
  0
LINE
  8
LC-005-003-----0
  6
CONTINUOUS
  5
A4
 10
81.650529
 20
15.105853
 30
0.0
 11
86.349471
 21
15.105853
 31
0.0
  0
LINE
  8
LC-005-003-----0
  6
CONTINUOUS
  5
A5
 10
85.738609
 20
15.065815
 30
0.0
 11
84.0
 21
28.27186
 31
0.0
  0
LINE
  8
LC-005-003-----0
  6
CONTINUOUS
  5
A6
 10
84.0
 20
28.27186
 30
0.0
 11
82.261391
 21
15.065815
 31
0.0
  0
LINE
  8
LC-005-003-----0
  6
CONTINUOUS
  5
A7
 10
85.127746
 20
15.025777
 30
0.0
 11
84.0
 21
23.59186
 31
0.0
  0
LINE
  8
LC-005-003-----0
  6
CONTINUOUS
  5
A8
 10
84.0
 20
23.59186
 30
0.0
 11
82.872254
 21
15.025777
 31
0.0
  0
LINE
  8
LC-005-003-----0
  6
CONTINUOUS
  5
A9
 10
84.516884
 20
14.985739
 30
0.0
 11
84.0
 21
18.91186
 31
0.0
  0
LINE
  8
LC-005-003-----0
  6
CONTINUOUS
  5
AA
 10
84.0
 20
18.91186
 30
0.0
 11
83.483116
 21
14.985739
 31
0.0
  0
TEXT
  8
LC-005-003-----0
  6
CONTINUOUS
 62
     6
  5
AB
 10
73.568001
 20
-6.010458
 30
0.0
 40
18.0
  1
60
 50
90.0
 51
15.0
  7
LC-TXTSTYLE-150-400-0-0-D0
 72
     1
 11
73.568001
 21
5.852534
 31
0.0
  0
ENDBLK
  8
0
  5
AC
  0
BLOCK
  8
0
  5
AE
  2
*X8
 70
    65
 10
268.531914
 20
31.633291
 30
0.0
  3
*X8
  0
LINE
  8
LC-008-005-----0
  6
CONTINUOUS
  5
B0
 10
312.696497
 20
35.510639
 30
0.0
 11
313.6053
 21
36.419442
 31
0.0
  0
LINE
  8
LC-008-005-----0
  6
CONTINUOUS
  5
B1
 10
309.104565
 20
34.747134
 30
0.0
 11
310.013371
 21
35.65594
 31
0.0
  0
LINE
  8
LC-008-005-----0
  6
CONTINUOUS
  5
B2
 10
305.512633
 20
33.983629
 30
0.0
 11
306.421442
 21
34.892438
 31
0.0
  0
LINE
  8
LC-008-005-----0
  6
CONTINUOUS
  5
B3
 10
301.920701
 20
33.220124
 30
0.0
 11
302.829512
 21
34.128936
 31
0.0
  0
LINE
  8
LC-008-005-----0
  6
CONTINUOUS
  5
B4
 10
298.328769
 20
32.456619
 30
0.0
 11
299.237583
 21
33.365433
 31
0.0
  0
LINE
  8
LC-008-005-----0
  6
CONTINUOUS
  5
B5
 10
294.736836
 20
31.693114
 30
0.0
 11
295.645654
 21
32.601931
 31
0.0
  0
LINE
  8
LC-008-005-----0
  6
CONTINUOUS
  5
B6
 10
291.848593
 20
31.633297
 30
0.0
 11
292.548591
 21
32.333296
 31
0.0
  0
LINE
  8
LC-008-005-----0
  6
CONTINUOUS
  5
B7
 10
289.081227
 20
31.694359
 30
0.0
 11
289.72017
 21
32.333302
 31
0.0
  0
LINE
  8
LC-008-005-----0
  6
CONTINUOUS
  5
B8
 10
287.601414
 20
33.042973
 30
0.0
 11
288.096389
 21
33.537948
 31
0.0
  0
LINE
  8
LC-008-005-----0
  6
CONTINUOUS
  5
B9
 10
285.863178
 20
34.133164
 30
0.0
 11
286.561375
 21
34.831361
 31
0.0
  0
LINE
  8
LC-008-005-----0
  6
CONTINUOUS
  5
BA
 10
277.37795
 20
34.133217
 30
0.0
 11
277.782406
 21
34.537673
 31
0.0
  0
LINE
  8
LC-008-005-----0
  6
CONTINUOUS
  5
BB
 10
273.549547
 20
33.133241
 30
0.0
 11
274.249542
 21
33.833237
 31
0.0
  0
LINE
  8
LC-008-005-----0
  6
CONTINUOUS
  5
BC
 10
274.981887
 20
34.565582
 30
0.0
 11
275.100053
 21
34.683747
 31
0.0
  0
LINE
  8
LC-008-005-----0
  6
CONTINUOUS
  5
BD
 10
269.426695
 20
31.838817
 30
0.0
 11
270.121141
 21
32.533262
 31
0.0
  0
LINE
  8
LC-008-005-----0
  6
CONTINUOUS
  5
BE
 10
270.721137
 20
33.133259
 30
0.0
 11
271.421133
 21
33.833254
 31
0.0
  0
ENDBLK
  8
0
  5
BF
  0
BLOCK
  8
0
  5
C1
  2
*X9
 70
    65
 10
104.449325
 20
31.6333
 30
0.0
  3
*X9
  0
LINE
  8
LC-008-005-----0
  6
CONTINUOUS
  5
C2
 10
150.635073
 20
31.841134
 30
0.0
 11
151.327209
 21
32.53327
 31
0.0
  0
LINE
  8
LC-008-005-----0
  6
CONTINUOUS
  5
C3
 10
151.927213
 20
33.133273
 30
0.0
 11
152.541083
 21
33.747143
 31
0.0
  0
LINE
  8
LC-008-005-----0
  6
CONTINUOUS
  5
C4
 10
149.098768
 20
33.133256
 30
0.0
 11
149.798772
 21
33.83326
 31
0.0
  0
LINE
  8
LC-008-005-----0
  6
CONTINUOUS
  5
C5
 10
146.621328
 20
33.484243
 30
0.0
 11
147.121328
 21
33.984243
 31
0.0
  0
LINE
  8
LC-008-005-----0
  6
CONTINUOUS
  5
C6
 10
144.441885
 20
34.133227
 30
0.0
 11
145.141889
 21
34.833231
 31
0.0
  0
LINE
  8
LC-008-005-----0
  6
CONTINUOUS
  5
C7
 10
135.95655
 20
34.133174
 30
0.0
 11
136.384581
 21
34.561204
 31
0.0
  0
LINE
  8
LC-008-005-----0
  6
CONTINUOUS
  5
C8
 10
130.628257
 20
31.633308
 30
0.0
 11
131.328259
 21
32.333309
 31
0.0
  0
LINE
  8
LC-008-005-----0
  6
CONTINUOUS
  5
C9
 10
127.799824
 20
31.633301
 30
0.0
 11
128.499825
 21
32.333303
 31
0.0
  0
LINE
  8
LC-008-005-----0
  6
CONTINUOUS
  5
CA
 10
125.364099
 20
32.026004
 30
0.0
 11
125.954287
 21
32.616191
 31
0.0
  0
LINE
  8
LC-008-005-----0
  6
CONTINUOUS
  5
CB
 10
123.031493
 20
32.521825
 30
0.0
 11
123.621679
 21
33.112011
 31
0.0
  0
LINE
  8
LC-008-005-----0
  6
CONTINUOUS
  5
CC
 10
120.698887
 20
33.017647
 30
0.0
 11
121.289072
 21
33.607831
 31
0.0
  0
LINE
  8
LC-008-005-----0
  6
CONTINUOUS
  5
CD
 10
118.366282
 20
33.513468
 30
0.0
 11
118.956465
 21
34.103651
 31
0.0
  0
LINE
  8
LC-008-005-----0
  6
CONTINUOUS
  5
CE
 10
116.033676
 20
34.009289
 30
0.0
 11
116.623858
 21
34.599471
 31
0.0
  0
LINE
  8
LC-008-005-----0
  6
CONTINUOUS
  5
CF
 10
113.70107
 20
34.50511
 30
0.0
 11
114.291251
 21
35.095292
 31
0.0
  0
LINE
  8
LC-008-005-----0
  6
CONTINUOUS
  5
D0
 10
111.368464
 20
35.000932
 30
0.0
 11
111.958644
 21
35.591112
 31
0.0
  0
LINE
  8
LC-008-005-----0
  6
CONTINUOUS
  5
D1
 10
109.035858
 20
35.496753
 30
0.0
 11
109.626037
 21
36.086932
 31
0.0
  0
LINE
  8
LC-008-005-----0
  6
CONTINUOUS
  5
D2
 10
106.694383
 20
35.983705
 30
0.0
 11
107.29343
 21
36.582752
 31
0.0
  0
LINE
  8
LC-008-005-----0
  6
CONTINUOUS
  5
D3
 10
105.015466
 20
37.133215
 30
0.0
 11
105.528739
 21
37.646488
 31
0.0
  0
ENDBLK
  8
0
  5
D4
  0
BLOCK
  8
0
  5
D6
  2
BLK4
 70
    64
 10
0.0
 20
0.0
 30
0.0
  3
BLK4
  0
ARC
  8
LC-002-002-----0
  6
CONTINUOUS
  5
D8
 10
262.851069
 20
16.239264
 30
0.0
 40
1.594108
 50
90.633458
 51
118.5256
  0
ARC
  8
LC-002-002-----0
  6
CONTINUOUS
  5
D9
 10
263.439776
 20
15.178156
 30
0.0
 40
2.80756
 50
118.740025
 51
137.83172
  0
ARC
  8
LC-002-002-----0
  6
CONTINUOUS
  5
DA
 10
267.404725
 20
11.837512
 30
0.0
 40
7.991053
 50
139.163342
 51
158.206617
  0
ARC
  8
LC-002-002-----0
  6
CONTINUOUS
  5
DB
 10
291.527489
 20
2.455247
 30
0.0
 40
33.873877
 50
158.619552
 51
173.092933
  0
ARC
  8
LC-002-002-----0
  6
CONTINUOUS
  5
DC
 10
337.173104
 20
-4.501774
 30
0.0
 40
80.037415
 50
172.078344
 51
180.195939
  0
ARC
  8
LC-002-002-----0
  6
CONTINUOUS
  5
DD
 10
337.17309
 20
-5.049228
 30
0.0
 40
80.037401
 50
179.804036
 51
187.921632
  0
ARC
  8
LC-002-002-----0
  6
CONTINUOUS
  5
DE
 10
291.527465
 20
-12.006231
 30
0.0
 40
33.873855
 50
186.907042
 51
201.38043
  0
ARC
  8
LC-002-002-----0
  6
CONTINUOUS
  5
DF
 10
267.404709
 20
-21.388484
 30
0.0
 40
7.991044
 50
201.793364
 51
220.836654
  0
ARC
  8
LC-002-002-----0
  6
CONTINUOUS
  5
E0
 10
263.439764
 20
-24.729124
 30
0.0
 40
2.807556
 50
222.168278
 51
241.259989
  0
ARC
  8
LC-002-002-----0
  6
CONTINUOUS
  5
E1
 10
262.851058
 20
-25.79023
 30
0.0
 40
1.594107
 50
241.474416
 51
269.36657
  0
ENDBLK
  8
0
  5
E2
  0
BLOCK
  8
0
  5
E4
  2
BLK5
 70
    64
 10
0.0
 20
0.0
 30
0.0
  3
BLK5
  0
ENDBLK
  8
0
  5
E5
  0
BLOCK
  8
0
  5
E7
  2
BLK6
 70
    64
 10
0.0
 20
0.0
 30
0.0
  3
BLK6
  0
ENDBLK
  8
0
  5
E8
  0
BLOCK
  8
0
  5
EA
  2
*X13
 70
    65
 10
287.333784
 20
26.833086
 30
0.0
  3
*X13
  0
LINE
  8
LC-008-005-----0
  6
CONTINUOUS
  5
EB
 10
293.333786
 20
29.106906
 30
0.0
 11
291.357605
 21
31.083087
 31
0.0
  0
LINE
  8
LC-008-005-----0
  6
DASHED
  5
ED
 10
292.431481
 20
27.180784
 30
0.0
 11
288.529171
 21
31.083094
 31
0.0
  0
LINE
  8
LC-008-005-----0
  6
DASHED
  5
EE
 10
291.114964
 20
27.083088
 30
0.0
 11
287.724373
 21
30.473679
 31
0.0
  0
ENDBLK
  8
0
  5
EF
  0
BLOCK
  8
0
  5
F1
  2
*X14
 70
    65
 10
128.333185
 20
26.833275
 30
0.0
  3
*X14
  0
LINE
  8
LC-008-005-----0
  6
CONTINUOUS
  5
F2
 10
134.333185
 20
29.715589
 30
0.0
 11
132.790108
 21
31.258665
 31
0.0
  0
LINE
  8
LC-008-005-----0
  6
DASHED
  5
F3
 10
133.735128
 20
27.485218
 30
0.0
 11
130.137071
 21
31.083275
 31
0.0
  0
LINE
  8
LC-008-005-----0
  6
DASHED
  5
F4
 10
132.884309
 20
26.921824
 30
0.0
 11
129.028021
 21
30.778111
 31
0.0
  0
LINE
  8
LC-008-005-----0
  6
CONTINUOUS
  5
F5
 10
129.947109
 20
27.030597
 30
0.0
 11
128.333185
 21
28.644521
 31
0.0
  0
ENDBLK
  8
0
  5
F6
  0
BLOCK
  8
0
  5
F8
  2
BLK7
 70
    64
 10
0.0
 20
0.0
 30
0.0
  3
BLK7
  0
ENDBLK
  8
0
  5
F9
  0
BLOCK
  8
0
  5
FB
  2
BLK8
 70
    64
 10
0.0
 20
0.0
 30
0.0
  3
BLK8
  0
ENDBLK
  8
0
  5
FC
  0
BLOCK
  8
0
  5
FE
  2
*X17
 70
    65
 10
152.833498
 20
23.833206
 30
0.0
  3
*X17
  0
LINE
  8
LC-008-005-----0
  6
CONTINUOUS
  5
FF
 10
267.077939
 20
23.833206
 30
0.0
 11
267.333491
 21
24.088758
 31
0.0
  0
LINE
  8
LC-008-005-----0
  6
CONTINUOUS
  5
100
 10
265.333491
 20
24.917185
 30
0.0
 11
267.333491
 21
26.917185
 31
0.0
  0
LINE
  8
LC-008-005-----0
  6
CONTINUOUS
  5
101
 10
265.333491
 20
27.745612
 30
0.0
 11
268.303658
 21
30.71578
 31
0.0
  0
LINE
  8
LC-008-005-----0
  6
CONTINUOUS
  5
102
 10
265.333491
 20
30.574039
 30
0.0
 11
267.333491
 21
32.574039
 31
0.0
  0
LINE
  8
LC-008-005-----0
  6
CONTINUOUS
  5
103
 10
265.333491
 20
33.402467
 30
0.0
 11
265.76423
 21
33.833206
 31
0.0
  0
LINE
  8
LC-008-005-----0
  6
CONTINUOUS
  5
104
 10
251.421241
 20
70.401905
 30
0.0
 11
252.214511
 21
71.195175
 31
0.0
  0
LINE
  8
LC-008-005-----0
  6
CONTINUOUS
  5
105
 10
250.00853
 20
71.817621
 30
0.0
 11
251.596868
 21
73.405959
 31
0.0
  0
LINE
  8
LC-008-005-----0
  6
CONTINUOUS
  5
106
 10
249.94093
 20
74.578449
 30
0.0
 11
250.979226
 21
75.616744
 31
0.0
  0
LINE
  8
LC-008-005-----0
  6
CONTINUOUS
  5
107
 10
249.94093
 20
77.406876
 30
0.0
 11
250.361583
 21
77.827528
 31
0.0
  0
LINE
  8
LC-008-005-----0
  6
CONTINUOUS
  5
108
 10
240.833491
 20
105.068989
 30
0.0
 11
242.833491
 21
107.068989
 31
0.0
  0
LINE
  8
LC-008-005-----0
  6
CONTINUOUS
  5
109
 10
240.833491
 20
107.897416
 30
0.0
 11
241.769281
 21
108.833206
 31
0.0
  0
LINE
  8
LC-008-005-----0
  6
CONTINUOUS
  5
10A
 10
154.333491
 20
24.225843
 30
0.0
 11
156.333491
 21
26.225843
 31
0.0
  0
LINE
  8
LC-008-005-----0
  6
CONTINUOUS
  5
10B
 10
154.333491
 20
27.05427
 30
0.0
 11
156.333491
 21
29.05427
 31
0.0
  0
LINE
  8
LC-008-005-----0
  6
CONTINUOUS
  5
10C
 10
153.558749
 20
29.107955
 30
0.0
 11
156.333491
 21
31.882697
 31
0.0
  0
LINE
  8
LC-008-005-----0
  6
CONTINUOUS
  5
10D
 10
154.333491
 20
32.711124
 30
0.0
 11
155.455572
 21
33.833206
 31
0.0
  0
LINE
  8
LC-008-005-----0
  6
CONTINUOUS
  5
10E
 10
215.141864
 20
104.833206
 30
0.0
 11
215.833491
 21
105.524833
 31
0.0
  0
LINE
  8
LC-008-005-----0
  6
CONTINUOUS
  5
10F
 10
212.313437
 20
104.833206
 30
0.0
 11
215.833491
 21
108.35326
 31
0.0
  0
LINE
  8
LC-008-005-----0
  6
CONTINUOUS
  5
110
 10
209.48501
 20
104.833206
 30
0.0
 11
213.48501
 21
108.833206
 31
0.0
  0
LINE
  8
LC-008-005-----0
  6
CONTINUOUS
  5
111
 10
206.656583
 20
104.833206
 30
0.0
 11
210.656583
 21
108.833206
 31
0.0
  0
LINE
  8
LC-008-005-----0
  6
CONTINUOUS
  5
112
 10
169.328156
 20
70.333206
 30
0.0
 11
171.726051
 21
72.731102
 31
0.0
  0
LINE
  8
LC-008-005-----0
  6
CONTINUOUS
  5
113
 10
205.833491
 20
106.838541
 30
0.0
 11
207.828156
 21
108.833206
 31
0.0
  0
LINE
  8
LC-008-005-----0
  6
CONTINUOUS
  5
114
 10
170.263039
 20
74.096517
 30
0.0
 11
171.726051
 21
75.559529
 31
0.0
  0
LINE
  8
LC-008-005-----0
  6
CONTINUOUS
  5
115
 10
171.359588
 20
78.021493
 30
0.0
 11
171.726051
 21
78.387956
 31
0.0
  0
LINE
  8
LC-008-005-----0
  6
CONTINUOUS
  5
116
 10
178.833491
 20
105.294386
 30
0.0
 11
180.833491
 21
107.294386
 31
0.0
  0
LINE
  8
LC-008-005-----0
  6
CONTINUOUS
  5
117
 10
178.833491
 20
108.122813
 30
0.0
 11
179.543885
 21
108.833206
 31
0.0
  0
ENDBLK
  8
0
  5
118
  0
BLOCK
  8
0
  5
11A
  2
BLK9
 70
    64
 10
0.0
 20
0.0
 30
0.0
  3
BLK9
  0
ENDBLK
  8
0
  5
11B
  0
BLOCK
  8
0
  5
11D
  2
BLK10
 70
    64
 10
0.0
 20
0.0
 30
0.0
  3
BLK10
  0
ENDBLK
  8
0
  5
11E
  0
BLOCK
  8
0
  5
120
  2
BLK11
 70
    64
 10
0.0
 20
0.0
 30
0.0
  3
BLK11
  0
ENDBLK
  8
0
  5
121
  0
BLOCK
  8
0
  5
123
  2
BLK12
 70
    64
 10
0.0
 20
0.0
 30
0.0
  3
BLK12
  0
ENDBLK
  8
0
  5
124
  0
BLOCK
  8
0
  5
126
  2
BLK13
 70
    64
 10
0.0
 20
0.0
 30
0.0
  3
BLK13
  0
ENDBLK
  8
0
  5
127
  0
BLOCK
  8
0
  5
129
  2
BLK14
 70
    64
 10
0.0
 20
0.0
 30
0.0
  3
BLK14
  0
ENDBLK
  8
0
  5
12A
  0
BLOCK
  8
0
  5
12C
  2
BLK15
 70
    64
 10
0.0
 20
0.0
 30
0.0
  3
BLK15
  0
ENDBLK
  8
0
  5
12D
  0
BLOCK
  8
0
  5
12F
  2
BLK16
 70
    64
 10
0.0
 20
0.0
 30
0.0
  3
BLK16
  0
ENDBLK
  8
0
  5
130
  0
BLOCK
  8
0
  5
132
  2
BLK17
 70
    64
 10
0.0
 20
0.0
 30
0.0
  3
BLK17
  0
ENDBLK
  8
0
  5
133
  0
BLOCK
  8
0
  5
135
  2
BLK18
 70
    64
 10
0.0
 20
0.0
 30
0.0
  3
BLK18
  0
ENDBLK
  8
0
  5
136
  0
BLOCK
  8
0
  5
138
  2
BLK19
 70
    64
 10
0.0
 20
0.0
 30
0.0
  3
BLK19
  0
ENDBLK
  8
0
  5
139
  0
ENDSEC
  0
SECTION
  2
ENTITIES
  0
VIEWPORT
  8
LC-000
  5
34E
 67
     1
 68
     1
 10
420.0
 20
297.0
 30
0.0
 40
840.0
 41
594.0
 69
     1
1001
ACAD
1000
MVIEW
1002
{
1070
    16
1010
0.0
1020
0.0
1030
0.0
1010
0.0
1020
0.0
1030
1.0
1040
0.0
1040
594.0
1040
420.0
1040
297.0
1040
50.0
1040
0.0
1040
0.0
1070
     0
1070
   100
1070
     1
1070
     1
1070
     0
1070
     0
1070
     0
1070
     0
1040
0.0
1040
0.0
1040
0.0
1040
1.0
1040
1.0
1040
0.0
1040
0.0
1070
     0
1002
{
1002
}
1002
}
  0
VIEWPORT
  8
0
  5
34F
 67
     1
 68
     1
 10
0.0
 20
0.0
 30
0.0
 40
0.0
 41
0.0
 69
     1
1001
ACAD
1000
MVIEW
1002
{
1070
    16
1010
0.0
1020
0.0
1030
0.0
1010
0.0
1020
0.0
1030
1.0
1040
0.0
1040
594.0
1040
0.0
1040
0.0
1040
50.0
1040
0.0
1040
0.0
1070
     0
1070
   100
1070
     0
1070
     1
1070
     0
1070
     0
1070
     0
1070
     0
1040
0.0
1040
0.0
1040
0.0
1040
0.5
1040
0.5
1040
0.5
1040
0.5
1070
     0
1002
{
1002
}
1002
}
  0
DIMENSION
  8
0
  5
13A
  2
*D0
 10
388.830593
 20
71.009103
 30
0.0
 11
388.830593
 21
71.009103
 31
0.0
 70
     1
  1
DN50
 13
358.405467
 23
16.07557
 33
0.0
 14
356.224498
 24
-33.876838
 34
0.0
  3
LC-DIM-L-0090-02-02
  0
DIMENSION
  8
0
  5
13B
  2
*D1
 10
205.61912
 20
144.0
 30
0.0
 11
205.61912
 21
144.0
 31
0.0
  1
%%c<>
 13
95.833445
 23
34.789617
 33
0.0
 14
325.833445
 24
34.789617
 34
0.0
  3
LC-DIM-L-0090-02-02
  0
INSERT
  8
0
  5
13D
  2
BLK1
 10
0.0
 20
0.0
 30
0.0
  0
INSERT
  8
0
  5
13E
  2
BLK2
 10
0.0
 20
0.0
 30
0.0
  0
INSERT
  8
0
  5
13F
  2
BLK3
 10
0.0
 20
0.0
 30
0.0
  0
DIMENSION
  8
0
  5
140
  2
*D5
 10
274.597255
 20
-80.0
 30
0.0
 11
274.597255
 21
-80.0
 31
0.0
 13
360.83344
 23
-9.054255
 33
0.0
 14
210.833489
 24
-27.528933
 34
0.0
  3
LC-DIM-L-0090-01-02
  0
DIMENSION
  8
0
  5
141
  2
*D6
 10
420.0
 20
11.948803
 30
0.0
 11
420.0
 21
11.948803
 31
0.0
  1
42
 13
316.459096
 23
32.95186
 33
0.0
 14
360.83344
 24
-9.054255
 34
0.0
 50
90.0
  3
LC-DIM-L-0090-02-02
  0
DIMENSION
  8
0
  5
142
  2
*D7
 10
84.0
 20
3.057288
 30
0.0
 11
84.0
 21
3.057288
 31
0.0
  1
60
 13
105.207795
 23
32.95186
 33
0.0
 14
205.09374
 24
-26.837284
 34
0.0
 50
90.0
  3
LC-DIM-L-0090-02-02
  0
INSERT
  8
0
  5
143
  2
*X8
 10
268.531914
 20
31.633291
 30
0.0
  0
INSERT
  8
0
  5
144
  2
*X9
 10
104.449325
 20
31.6333
 30
0.0
  0
INSERT
  8
0
  5
145
  2
BLK4
 10
0.0
 20
0.0
 30
0.0
  0
INSERT
  8
0
  5
147
  2
BLK5
 10
0.0
 20
0.0
 30
0.0
  0
INSERT
  8
0
  5
148
  2
BLK6
 10
0.0
 20
0.0
 30
0.0
  0
INSERT
  8
0
  5
149
  2
*X13
 10
287.333784
 20
26.833086
 30
0.0
  0
INSERT
  8
0
  5
14A
  2
*X14
 10
128.333185
 20
26.833275
 30
0.0
  0
INSERT
  8
0
  5
14B
  2
BLK7
 10
0.0
 20
0.0
 30
0.0
  0
INSERT
  8
0
  5
14C
  2
BLK8
 10
0.0
 20
0.0
 30
0.0
  0
INSERT
  8
0
  5
14D
  2
*X17
 10
152.833498
 20
23.833206
 30
0.0
  0
INSERT
  8
0
  5
14E
  2
BLK9
 10
0.0
 20
0.0
 30
0.0
  0
INSERT
  8
0
  5
14F
  2
BLK10
 10
0.0
 20
0.0
 30
0.0
  0
INSERT
  8
0
  5
150
  2
BLK11
 10
0.0
 20
0.0
 30
0.0
  0
INSERT
  8
0
  5
151
  2
BLK12
 10
0.0
 20
0.0
 30
0.0
  0
INSERT
  8
0
  5
152
  2
BLK13
 10
0.0
 20
0.0
 30
0.0
  0
INSERT
  8
0
  5
153
  2
BLK14
 10
0.0
 20
0.0
 30
0.0
  0
INSERT
  8
0
  5
154
  2
BLK15
 10
0.0
 20
0.0
 30
0.0
  0
INSERT
  8
0
  5
155
  2
BLK16
 10
0.0
 20
0.0
 30
0.0
  0
INSERT
  8
0
  5
156
  2
BLK17
 10
0.0
 20
0.0
 30
0.0
  0
INSERT
  8
0
  5
157
  2
BLK18
 10
0.0
 20
0.0
 30
0.0
  0
INSERT
  8
0
  5
158
  2
BLK19
 10
0.0
 20
0.0
 30
0.0
  0
LINE
  8
LC-002-002-----0
  6
CONTINUOUS
  5
159
 10
134.134501
 20
24.333275
 30
0.0
 11
134.134501
 21
16.831894
 31
0.0
  0
LINE
  8
LC-002-002-----0
  6
DASHDOT
 62
     2
  5
15B
 10
281.532419
 20
25.430877
 30
0.0
 11
281.532395
 21
37.331445
 31
0.0
  0
LINE
  8
LC-002-002-----0
  6
DASHDOT
 62
     2
  5
15C
 10
281.532435
 20
17.33242
 30
0.0
 11
281.532395
 21
37.331445
 31
0.0
  0
LINE
  8
LC-002-002-----0
  6
CONTINUOUS
  5
15D
 10
95.833445
 20
33.308473
 30
0.0
 11
95.833445
 21
34.789617
 31
0.0
  0
LINE
  8
LC-002-002-----0
  6
CONTINUOUS
  5
15E
 10
273.833558
 20
19.768059
 30
0.0
 11
273.833558
 21
24.333275
 31
0.0
  0
ARC
  8
LC-003-002-RND-0
  6
CONTINUOUS
  5
160
 10
97.833445
 20
34.789617
 30
0.0
 40
2.0
 50
88.101636
 51
180.0
  0
LINE
  8
LC-002-002-----0
  6
CONTINUOUS
  5
161
 10
287.531175
 20
36.332356
 30
0.0
 11
275.532435
 21
36.332352
 31
0.0
  0
LINE
  8
LC-004-004-----0
  6
CONTINUOUS
  5
163
 10
282.33117
 20
38.300346
 30
0.0
 11
282.331171
 21
37.331444
 31
0.0
  0
ARC
  8
LC-003-002-RND-0
  6
CONTINUOUS
  5
164
 10
323.833538
 20
34.789353
 30
0.0
 40
2.0
 50
359.999867
 51
91.89823
  0
LINE
  8
LC-008-005-----0
  6
CONTINUOUS
  5
165
 10
143.134549
 20
29.997464
 30
0.0
 11
143.47036
 21
30.333275
 31
0.0
  0
LINE
  8
LC-002-002-----0
  6
CONTINUOUS
  5
166
 10
134.134501
 20
16.831894
 30
0.0
 11
135.777081
 21
16.831894
 31
0.0
  0
LINE
  8
LC-004-004-----0
  6
CONTINUOUS
  5
167
 10
287.531171
 20
36.332356
 30
0.0
 11
287.531172
 21
34.832356
 31
0.0
  0
ARC
  8
LC-002-002-----0
  6
CONTINUOUS
  5
168
 10
281.531806
 20
28.334243
 30
0.0
 40
9.99811
 50
53.126525
 51
85.414218
  0
LINE
  8
LC-002-002-----0
  6
CONTINUOUS
  5
169
 10
280.732437
 20
37.331446
 30
0.0
 11
282.331171
 21
37.331444
 31
0.0
  0
LINE
  8
LC-004-004-----0
  6
CONTINUOUS
  5
16A
 10
275.532435
 20
36.332352
 30
0.0
 11
275.532432
 21
34.831455
 31
0.0
  0
ARC
  8
LC-002-002-----0
  6
CONTINUOUS
  5
16B
 10
281.531806
 20
28.334243
 30
0.0
 40
9.99811
 50
94.585801
 51
126.873516
  0
LINE
  8
LC-002-002-----0
  6
CONTINUOUS
  5
16C
 10
325.833535
 20
33.308205
 30
0.0
 11
325.833538
 21
34.789349
 31
0.0
  0
ARC
  8
LC-002-002-----0
  6
CONTINUOUS
  5
16D
 10
140.134533
 20
25.832595
 30
0.0
 40
10.0
 50
244.158193
 51
295.842059
  0
LINE
  8
LC-002-002-----0
  6
CONTINUOUS
  5
16E
 10
144.493452
 20
16.832584
 30
0.0
 11
156.631344
 21
16.832584
 31
0.0
  0
LINE
  8
LC-002-002-----0
  6
CONTINUOUS
  5
16F
 10
137.634533
 20
17.332584
 30
0.0
 11
142.634533
 21
17.332584
 31
0.0
  0
LINE
  8
LC-002-002-----0
  6
CONTINUOUS
  5
170
 10
280.732438
 20
38.300346
 30
0.0
 11
280.732437
 21
37.331446
 31
0.0
  0
LINE
  8
LC-002-002-----0
  6
CONTINUOUS
  5
171
 10
137.634533
 20
22.001266
 30
0.0
 11
137.634533
 21
17.332584
 31
0.0
  0
LINE
  8
LC-002-002-----0
  6
CONTINUOUS
  5
172
 10
142.634533
 20
21.998258
 30
0.0
 11
142.634533
 21
17.332584
 31
0.0
  0
LINE
  8
LC-002-002-----0
  6
DASHDOT
 62
     2
  5
173
 10
140.134508
 20
17.332584
 30
0.0
 11
140.134595
 21
37.33161
 31
0.0
  0
LINE
  8
LC-010-007-KH--0
  5
175
 10
210.833489
 20
26.833275
 30
0.0
 11
210.833489
 21
-37.870868
 31
0.0
  0
LINE
  8
LC-002-002-----0
  6
CONTINUOUS
  5
176
 10
150.635073
 20
31.833265
 30
0.0
 11
152.135079
 21
31.833275
 31
0.0
  0
ARC
  8
LC-003-002-RND-0
  6
CONTINUOUS
  5
177
 10
286.511228
 20
34.13316
 30
0.0
 40
0.7
 50
45.0
 51
89.999642
  0
LINE
  8
LC-002-002-----0
  6
CONTINUOUS
  5
178
 10
150.635073
 20
32.533265
 30
0.0
 11
150.635073
 21
31.833265
 31
0.0
  0
ARC
  8
LC-002-002-----0
  6
CONTINUOUS
  5
179
 10
107.449325
 20
38.887162
 30
0.0
 40
3.0
 50
200.557023
 51
257.999752
  0
LINE
  8
LC-002-002-----0
  6
CONTINUOUS
  5
17A
 10
152.135075
 20
32.533275
 30
0.0
 11
150.635073
 21
32.533265
 31
0.0
  0
ARC
  8
LC-003-002-RND-0
  6
CONTINUOUS
  5
17B
 10
275.532406
 20
34.133229
 30
0.0
 40
0.7
 50
89.999642
 51
143.129973
  0
LINE
  8
LC-002-002-----0
  6
CONTINUOUS
  5
17C
 10
146.674579
 20
33.413243
 30
0.0
 11
146.134581
 21
34.133237
 31
0.0
  0
ARC
  8
LC-003-002-RND-0
  6
CONTINUOUS
  5
17D
 10
274.432409
 20
33.833235
 30
0.0
 40
0.7
 50
269.999642
 51
323.129973
  0
ARC
  8
LC-002-002-----0
  6
CONTINUOUS
  5
17E
 10
132.241688
 20
32.633311
 30
0.0
 40
0.3
 50
270.000126
 51
315.0
  0
LINE
  8
LC-002-002-----0
  6
CONTINUOUS
  5
17F
 10
143.884581
 20
34.833223
 30
0.0
 11
146.134576
 21
34.833237
 31
0.0
  0
LINE
  8
LC-002-002-----0
  6
CONTINUOUS
  5
180
 10
134.116545
 20
34.833162
 30
0.0
 11
143.884581
 21
34.833223
 31
0.0
  0
LINE
  8
LC-002-002-----0
  6
CONTINUOUS
  5
181
 10
361.861229
 20
14.985973
 30
0.0
 11
361.793088
 21
13.425282
 31
0.0
  0
ARC
  8
LC-002-002-----0
  6
CONTINUOUS
  5
182
 10
210.833475
 20
-28.9927
 30
0.0
 40
48.825975
 50
15.619219
 51
90.0
  0
ARC
  8
LC-002-002-----0
  6
CONTINUOUS
  5
183
 10
210.833449
 20
-2.506065
 30
0.0
 40
24.99905
 50
223.326896
 51
267.500001
  0
ARC
  8
LC-002-002-----0
  6
CONTINUOUS
  5
184
 10
210.833449
 20
-2.506065
 30
0.0
 40
22.49905
 50
223.326896
 51
267.500001
  0
LINE
  8
LC-002-002-----0
  6
CONTINUOUS
  5
185
 10
194.466498
 20
-17.944011
 30
0.0
 11
158.833489
 21
19.833275
 31
0.0
  0
LINE
  8
LC-002-002-----0
  6
CONTINUOUS
  5
186
 10
192.647871
 20
-19.659411
 30
0.0
 11
158.227198
 21
16.832584
 31
0.0
  0
LINE
  8
LC-002-002-----0
  6
CONTINUOUS
  5
187
 10
359.830215
 20
-31.531885
 30
0.0
 11
209.852054
 21
-24.9837
 31
0.0
  0
LINE
  8
LC-002-002-----0
  6
CONTINUOUS
  5
188
 10
359.830215
 20
-31.531885
 30
0.0
 11
359.762074
 21
-33.092576
 31
0.0
  0
LINE
  8
LC-002-002-----0
  6
CONTINUOUS
  5
189
 10
292.333791
 20
31.083085
 30
0.0
 11
293.333788
 21
30.083083
 31
0.0
  0
LINE
  8
LC-002-002-----0
  6
CONTINUOUS
  5
18A
 10
274.833445
 20
31.833275
 30
0.0
 11
274.833445
 21
30.333275
 31
0.0
  0
LINE
  8
LC-002-002-----0
  6
CONTINUOUS
  5
18B
 10
286.833445
 20
30.333275
 30
0.0
 11
286.833445
 21
26.833275
 31
0.0
  0
LINE
  8
LC-002-002-----0
  6
CONTINUOUS
  5
18C
 10
274.833445
 20
30.333275
 30
0.0
 11
286.833445
 21
30.333275
 31
0.0
  0
LINE
  8
LC-002-002-----0
  6
CONTINUOUS
  5
18D
 10
286.833967
 20
26.833275
 30
0.0
 11
293.833967
 21
26.833275
 31
0.0
  0
LINE
  8
LC-002-002-----0
  6
CONTINUOUS
  5
18E
 10
293.833967
 20
26.833275
 30
0.0
 11
293.833967
 21
30.333275
 31
0.0
  0
LINE
  8
LC-002-002-----0
  6
CONTINUOUS
  5
18F
 10
273.833558
 20
24.333275
 30
0.0
 11
293.833967
 21
24.333275
 31
0.0
  0
LINE
  8
LC-002-002-----0
  6
CONTINUOUS
  5
190
 10
293.833967
 20
24.333275
 30
0.0
 11
296.282594
 21
26.781902
 31
0.0
  0
ARC
  8
LC-003-002-RND-0
  6
CONTINUOUS
  5
191
 10
135.155759
 20
34.133169
 30
0.0
 40
0.7
 50
90.000358
 51
135.0
  0
LINE
  8
LC-002-002-----0
  6
CONTINUOUS
  5
192
 10
274.833445
 20
31.833275
 30
0.0
 11
270.833558
 21
31.833275
 31
0.0
  0
LINE
  8
LC-002-002-----0
  6
CONTINUOUS
  5
193
 10
137.1358
 20
30.333275
 30
0.0
 11
134.833445
 21
30.333275
 31
0.0
  0
LINE
  8
LC-002-002-----0
  6
CONTINUOUS
  5
194
 10
293.833967
 20
30.333275
 30
0.0
 11
295.833445
 21
30.333275
 31
0.0
  0
LINE
  8
LC-002-002-----0
  6
CONTINUOUS
  5
195
 10
270.833558
 20
31.833275
 30
0.0
 11
270.833558
 21
19.833275
 31
0.0
  0
LINE
  8
LC-011-006-MLN-0
  6
DASHDOT
  5
198
 10
210.833502
 20
43.833206
 30
0.0
 11
210.833408
 21
-37.528933
 31
0.0
  0
LINE
  8
LC-008-005-----0
  6
CONTINUOUS
  5
199
 10
143.134547
 20
27.169035
 30
0.0
 11
146.298787
 21
30.333275
 31
0.0
  0
LINE
  8
LC-008-005-----0
  6
CONTINUOUS
  5
19A
 10
356.509228
 20
-33.813715
 30
0.0
 11
358.83453
 21
-31.488413
 31
0.0
  0
LINE
  8
LC-008-005-----0
  6
CONTINUOUS
  5
19B
 10
353.726733
 20
-33.767783
 30
0.0
 11
356.124429
 21
-31.370087
 31
0.0
  0
LINE
  8
LC-008-005-----0
  6
CONTINUOUS
  5
19C
 10
351.016631
 20
-33.649458
 30
0.0
 11
353.414327
 21
-31.251762
 31
0.0
  0
LINE
  8
LC-002-002-----0
  6
CONTINUOUS
  5
19D
 10
129.333185
 20
31.083275
 30
0.0
 11
128.333185
 21
30.083275
 31
0.0
  0
LINE
  8
LC-008-005-----0
  6
CONTINUOUS
  5
19E
 10
348.30653
 20
-33.531132
 30
0.0
 11
350.704226
 21
-31.133436
 31
0.0
  0
LINE
  8
LC-002-002-----0
  6
CONTINUOUS
  5
19F
 10
129.333185
 20
27.083275
 30
0.0
 11
128.333185
 21
28.083275
 31
0.0
  0
LINE
  8
LC-008-005-----0
  6
CONTINUOUS
  5
1A0
 10
345.596428
 20
-33.412807
 30
0.0
 11
347.994124
 21
-31.015111
 31
0.0
  0
LINE
  8
LC-002-002-----0
  6
CONTINUOUS
  5
1A1
 10
134.333185
 20
30.083275
 30
0.0
 11
133.333185
 21
31.083275
 31
0.0
  0
LINE
  8
LC-002-002-----0
  6
CONTINUOUS
  5
1A2
 10
292.333781
 20
27.083085
 30
0.0
 11
293.333784
 21
28.083083
 31
0.0
  0
LINE
  8
LC-002-002-----0
  6
CONTINUOUS
  5
1A3
 10
287.333788
 20
30.083097
 30
0.0
 11
288.333791
 21
31.083094
 31
0.0
  0
LINE
  8
LC-002-002-----0
  6
CONTINUOUS
  5
1A4
 10
133.333185
 20
27.083275
 30
0.0
 11
132.977522
 21
27.083275
 31
0.0
  0
LINE
  8
LC-008-005-----0
  6
CONTINUOUS
  5
1A5
 10
342.886326
 20
-33.294481
 30
0.0
 11
345.284022
 21
-30.896785
 31
0.0
  0
LINE
  8
LC-002-002-----0
  6
CONTINUOUS
  5
1A6
 10
128.333185
 20
28.083275
 30
0.0
 11
128.333185
 21
30.083275
 31
0.0
  0
LINE
  8
LC-002-002-----0
  6
CONTINUOUS
  5
1A7
 10
133.333185
 20
31.083275
 30
0.0
 11
132.977522
 21
31.083275
 31
0.0
  0
LINE
  8
LC-002-002-----0
  6
CONTINUOUS
  5
1A8
 10
134.333185
 20
30.083275
 30
0.0
 11
134.333185
 21
28.083275
 31
0.0
  0
LINE
  8
LC-002-002-----0
  6
CONTINUOUS
  5
1A9
 10
134.333185
 20
28.083275
 30
0.0
 11
133.333185
 21
27.083275
 31
0.0
  0
LINE
  8
LC-002-002-----0
  6
CONTINUOUS
  5
1AA
 10
146.833445
 20
31.833275
 30
0.0
 11
146.833445
 21
30.333275
 31
0.0
  0
LINE
  8
LC-002-002-----0
  6
CONTINUOUS
  5
1AB
 10
134.833445
 20
30.333275
 30
0.0
 11
134.833445
 21
26.833275
 31
0.0
  0
LINE
  8
LC-002-002-----0
  6
CONTINUOUS
  5
1AC
 10
293.333784
 20
28.083083
 30
0.0
 11
293.333788
 21
30.083083
 31
0.0
  0
LINE
  8
LC-002-002-----0
  6
CONTINUOUS
  5
1AD
 10
288.333781
 20
27.083094
 30
0.0
 11
288.689444
 21
27.083093
 31
0.0
  0
LINE
  8
LC-002-002-----0
  6
CONTINUOUS
  5
1AE
 10
146.833445
 20
30.333275
 30
0.0
 11
143.134549
 21
30.333275
 31
0.0
  0
LINE
  8
LC-002-002-----0
  6
CONTINUOUS
  5
1AF
 10
129.833185
 20
31.333275
 30
0.0
 11
129.977522
 21
31.083275
 31
0.0
  0
LINE
  8
LC-002-002-----0
  6
CONTINUOUS
  5
1B0
 10
287.333788
 20
30.083097
 30
0.0
 11
287.333784
 21
28.083097
 31
0.0
  0
LINE
  8
LC-002-002-----0
  6
CONTINUOUS
  5
1B1
 10
129.688847
 20
31.083275
 30
0.0
 11
129.833185
 21
31.333275
 31
0.0
  0
LINE
  8
LC-002-002-----0
  6
CONTINUOUS
  5
1B2
 10
131.188847
 20
31.083275
 30
0.0
 11
131.333185
 21
31.333275
 31
0.0
  0
LINE
  8
LC-002-002-----0
  6
CONTINUOUS
  5
1B3
 10
132.688847
 20
31.083275
 30
0.0
 11
132.833185
 21
31.333275
 31
0.0
  0
LINE
  8
LC-002-002-----0
  6
CONTINUOUS
  5
1B4
 10
262.833445
 20
19.833275
 30
0.0
 11
270.833558
 21
19.833275
 31
0.0
  0
LINE
  8
LC-002-002-----0
  6
CONTINUOUS
  5
1B5
 10
262.833445
 20
19.833275
 30
0.0
 11
270.833558
 21
19.833275
 31
0.0
  0
LINE
  8
LC-002-002-----0
  6
CONTINUOUS
  5
1B6
 10
262.833445
 20
17.833275
 30
0.0
 11
262.833445
 21
19.833275
 31
0.0
  0
LINE
  8
LC-002-002-----0
  6
CONTINUOUS
  5
1B7
 10
134.832924
 20
26.833275
 30
0.0
 11
127.832924
 21
26.833275
 31
0.0
  0
LINE
  8
LC-002-002-----0
  6
CONTINUOUS
  5
1B8
 10
127.832924
 20
26.833275
 30
0.0
 11
127.832924
 21
30.333275
 31
0.0
  0
LINE
  8
LC-002-002-----0
  6
CONTINUOUS
  5
1B9
 10
134.134501
 20
24.333275
 30
0.0
 11
127.832924
 21
24.333275
 31
0.0
  0
LINE
  8
LC-002-002-----0
  6
CONTINUOUS
  5
1BA
 10
132.833185
 20
26.833275
 30
0.0
 11
132.977522
 21
27.083275
 31
0.0
  0
LINE
  8
LC-002-002-----0
  6
CONTINUOUS
  5
1BB
 10
131.333185
 20
26.833275
 30
0.0
 11
131.477522
 21
27.083275
 31
0.0
  0
LINE
  8
LC-002-002-----0
  6
CONTINUOUS
  5
1BC
 10
129.833185
 20
26.833275
 30
0.0
 11
129.977522
 21
27.083275
 31
0.0
  0
LINE
  8
LC-002-002-----0
  6
CONTINUOUS
  5
1BD
 10
131.333185
 20
31.333275
 30
0.0
 11
131.477522
 21
31.083275
 31
0.0
  0
LINE
  8
LC-002-002-----0
  6
CONTINUOUS
  5
1BE
 10
132.833185
 20
31.333275
 30
0.0
 11
132.977522
 21
31.083275
 31
0.0
  0
LINE
  8
LC-002-002-----0
  6
CONTINUOUS
  5
1BF
 10
132.688847
 20
27.083275
 30
0.0
 11
132.833185
 21
26.833275
 31
0.0
  0
LINE
  8
LC-002-002-----0
  6
CONTINUOUS
  5
1C0
 10
131.188847
 20
27.083275
 30
0.0
 11
131.333185
 21
26.833275
 31
0.0
  0
ARC
  8
LC-002-002-----0
  6
CONTINUOUS
  5
1C1
 10
152.135073
 20
32.833275
 30
0.0
 40
1.0
 50
269.999003
 51
90.001713
  0
LINE
  8
LC-002-002-----0
  6
CONTINUOUS
  5
1C2
 10
289.425298
 20
32.333303
 30
0.0
 11
294.381826
 21
32.333292
 31
0.0
  0
LINE
  8
LC-002-002-----0
  6
CONTINUOUS
  5
1C3
 10
129.688847
 20
27.083275
 30
0.0
 11
129.833185
 21
26.833275
 31
0.0
  0
LINE
  8
LC-002-002-----0
  6
CONTINUOUS
  5
1C4
 10
127.832924
 20
24.333275
 30
0.0
 11
125.384297
 21
26.781902
 31
0.0
  0
LINE
  8
LC-002-002-----0
  6
CONTINUOUS
  5
1C5
 10
129.688847
 20
27.083275
 30
0.0
 11
129.333185
 21
27.083275
 31
0.0
  0
LINE
  8
LC-002-002-----0
  6
CONTINUOUS
  5
1C6
 10
131.188847
 20
27.083275
 30
0.0
 11
129.977522
 21
27.083275
 31
0.0
  0
LINE
  8
LC-002-002-----0
  6
CONTINUOUS
  5
1C7
 10
132.688847
 20
27.083275
 30
0.0
 11
131.477522
 21
27.083275
 31
0.0
  0
LINE
  8
LC-002-002-----0
  6
CONTINUOUS
  5
1C8
 10
132.688847
 20
31.083275
 30
0.0
 11
131.477522
 21
31.083275
 31
0.0
  0
LINE
  8
LC-002-002-----0
  6
CONTINUOUS
  5
1C9
 10
131.188847
 20
31.083275
 30
0.0
 11
129.977522
 21
31.083275
 31
0.0
  0
LINE
  8
LC-002-002-----0
  6
CONTINUOUS
  5
1CA
 10
129.688847
 20
31.083275
 30
0.0
 11
129.333185
 21
31.083275
 31
0.0
  0
LINE
  8
LC-002-002-----0
  6
CONTINUOUS
  5
1CB
 10
287.333784
 20
28.083097
 30
0.0
 11
288.333781
 21
27.083094
 31
0.0
  0
LINE
  8
LC-002-002-----0
  6
CONTINUOUS
  5
1CC
 10
291.833791
 20
31.333086
 30
0.0
 11
291.689453
 21
31.083086
 31
0.0
  0
LINE
  8
LC-002-002-----0
  6
CONTINUOUS
  5
1CD
 10
291.978128
 20
31.083086
 30
0.0
 11
291.833791
 21
31.333086
 31
0.0
  0
LINE
  8
LC-002-002-----0
  6
CONTINUOUS
  5
1CE
 10
274.432409
 20
33.833235
 30
0.0
 11
274.972407
 21
34.55323
 31
0.0
  0
LINE
  8
LC-002-002-----0
  6
CONTINUOUS
  5
1CF
 10
290.478128
 20
31.083089
 30
0.0
 11
290.333791
 21
31.33309
 31
0.0
  0
LINE
  8
LC-002-002-----0
  6
CONTINUOUS
  5
1D0
 10
288.978128
 20
31.083093
 30
0.0
 11
288.833791
 21
31.333093
 31
0.0
  0
LINE
  8
LC-002-002-----0
  6
CONTINUOUS
  5
1D1
 10
288.833781
 20
26.833093
 30
0.0
 11
288.689444
 21
27.083093
 31
0.0
  0
LINE
  8
LC-002-002-----0
  6
CONTINUOUS
  5
1D2
 10
290.333781
 20
26.83309
 30
0.0
 11
290.189444
 21
27.08309
 31
0.0
  0
LINE
  8
LC-002-002-----0
  6
CONTINUOUS
  5
1D3
 10
291.833781
 20
26.833086
 30
0.0
 11
291.689444
 21
27.083086
 31
0.0
  0
LINE
  8
LC-002-002-----0
  6
CONTINUOUS
  5
1D4
 10
290.333791
 20
31.33309
 30
0.0
 11
290.189453
 21
31.08309
 31
0.0
  0
LINE
  8
LC-002-002-----0
  6
CONTINUOUS
  5
1D5
 10
288.833791
 20
31.333093
 30
0.0
 11
288.689453
 21
31.083093
 31
0.0
  0
LINE
  8
LC-002-002-----0
  6
CONTINUOUS
  5
1D6
 10
288.978119
 20
27.083093
 30
0.0
 11
288.833781
 21
26.833093
 31
0.0
  0
LINE
  8
LC-002-002-----0
  6
CONTINUOUS
  5
1D7
 10
290.478119
 20
27.083089
 30
0.0
 11
290.333781
 21
26.83309
 31
0.0
  0
LINE
  8
LC-002-002-----0
  6
CONTINUOUS
  5
1D8
 10
291.978119
 20
27.083086
 30
0.0
 11
291.833781
 21
26.833086
 31
0.0
  0
LINE
  8
LC-002-002-----0
  6
CONTINUOUS
  5
1D9
 10
291.978119
 20
27.083086
 30
0.0
 11
292.333781
 21
27.083085
 31
0.0
  0
LINE
  8
LC-002-002-----0
  6
CONTINUOUS
  5
1DA
 10
290.478119
 20
27.083089
 30
0.0
 11
291.689444
 21
27.083086
 31
0.0
  0
LINE
  8
LC-002-002-----0
  6
CONTINUOUS
  5
1DB
 10
288.978119
 20
27.083093
 30
0.0
 11
290.189444
 21
27.08309
 31
0.0
  0
LINE
  8
LC-002-002-----0
  6
CONTINUOUS
  5
1DC
 10
288.978128
 20
31.083093
 30
0.0
 11
290.189453
 21
31.08309
 31
0.0
  0
LINE
  8
LC-002-002-----0
  6
CONTINUOUS
  5
1DD
 10
290.478128
 20
31.083089
 30
0.0
 11
291.689453
 21
31.083086
 31
0.0
  0
LINE
  8
LC-002-002-----0
  6
CONTINUOUS
  5
1DE
 10
291.978128
 20
31.083086
 30
0.0
 11
292.333791
 21
31.083085
 31
0.0
  0
LINE
  8
LC-002-002-----0
  6
CONTINUOUS
  5
1DF
 10
271.031914
 20
31.833257
 30
0.0
 11
269.531908
 21
31.833266
 31
0.0
  0
LINE
  8
LC-002-002-----0
  6
CONTINUOUS
  5
1E0
 10
169.211656
 20
70.333206
 30
0.0
 11
252.455326
 21
70.333206
 31
0.0
  0
LINE
  8
LC-002-002-----0
  6
CONTINUOUS
  5
1E1
 10
156.333491
 20
33.833206
 30
0.0
 11
210.833491
 21
33.833206
 31
0.0
  0
LINE
  8
LC-002-002-----0
  6
CONTINUOUS
  5
1E2
 10
159.014387
 20
33.833206
 30
0.0
 11
178.850171
 21
104.833206
 31
0.0
  0
LINE
  8
LC-002-002-----0
  6
CONTINUOUS
  5
1E3
 10
249.94093
 20
79.333206
 30
0.0
 11
171.726051
 21
79.333206
 31
0.0
  0
LINE
  8
LC-011-006-MLN-0
  6
DASHDOT
  5
1E4
 10
210.833491
 20
23.833206
 30
0.0
 11
210.833491
 21
109.115043
 31
0.0
  0
LINE
  8
LC-002-002-----0
  6
CONTINUOUS
  5
1E5
 10
217.07826
 20
79.333206
 30
0.0
 11
215.999734
 21
104.833206
 31
0.0
  0
ARC
  8
LC-002-002-----0
  6
CONTINUOUS
  5
1E6
 10
153.833498
 20
29.833206
 30
0.0
 40
1.0
 50
90.0
 51
180.0
  0
LINE
  8
LC-002-002-----0
  6
CONTINUOUS
  5
1E7
 10
149.833333
 20
31.833275
 30
0.0
 11
150.833333
 21
31.833275
 31
0.0
  0
LINE
  8
LC-002-002-----0
  6
CONTINUOUS
  5
1E8
 10
178.833491
 20
108.833206
 30
0.0
 11
178.691738
 21
108.833206
 31
0.0
  0
LINE
  8
LC-008-005-----0
  6
CONTINUOUS
  5
1E9
 10
340.176225
 20
-33.176156
 30
0.0
 11
342.573921
 21
-30.77846
 31
0.0
  0
LINE
  8
LC-008-005-----0
  6
CONTINUOUS
  5
1EA
 10
337.466123
 20
-33.05783
 30
0.0
 11
339.863819
 21
-30.660134
 31
0.0
  0
LINE
  8
LC-008-005-----0
  6
CONTINUOUS
  5
1EB
 10
334.756022
 20
-32.939505
 30
0.0
 11
337.153718
 21
-30.541809
 31
0.0
  0
LINE
  8
LC-002-002-----0
  6
CONTINUOUS
  5
1EC
 10
180.833491
 20
108.833206
 30
0.0
 11
210.833491
 21
108.833206
 31
0.0
  0
LINE
  8
LC-008-005-----0
  6
CONTINUOUS
  5
1ED
 10
332.04592
 20
-32.821179
 30
0.0
 11
334.443616
 21
-30.423483
 31
0.0
  0
LINE
  8
LC-002-002-----0
  6
CONTINUOUS
  5
1EE
 10
215.476027
 20
70.333206
 30
0.0
 11
217.0198
 21
33.833206
 31
0.0
  0
LINE
  8
LC-002-002-----0
  6
CONTINUOUS
  5
1EF
 10
204.588722
 20
79.333206
 30
0.0
 11
205.667248
 21
104.833206
 31
0.0
  0
LINE
  8
LC-008-005-----0
  6
CONTINUOUS
  5
1F0
 10
329.335818
 20
-32.702854
 30
0.0
 11
331.733514
 21
-30.305157
 31
0.0
  0
LINE
  8
LC-002-002-----0
  6
CONTINUOUS
  5
1F1
 10
206.190955
 20
70.333206
 30
0.0
 11
204.647182
 21
33.833206
 31
0.0
  0
LINE
  8
LC-002-002-----0
  6
CONTINUOUS
  5
1F2
 10
195.239375
 20
70.333206
 30
0.0
 11
190.713261
 21
33.833206
 31
0.0
  0
LINE
  8
LC-002-002-----0
  6
CONTINUOUS
  5
1F3
 10
180.833491
 20
104.833206
 30
0.0
 11
210.833491
 21
104.833206
 31
0.0
  0
LINE
  8
LC-008-005-----0
  6
CONTINUOUS
  5
1F4
 10
326.625717
 20
-32.584528
 30
0.0
 11
329.023413
 21
-30.186832
 31
0.0
  0
ARC
  8
LC-003-002-RND-0
  6
CONTINUOUS
  5
1F5
 10
178.404927
 20
95.833206
 30
0.0
 40
13.0
 50
88.110819
 51
165.0
  0
LINE
  8
LC-002-002-----0
  6
CONTINUOUS
  5
1F6
 10
193.391615
 20
70.333206
 30
0.0
 11
188.865502
 21
33.833206
 31
0.0
  0
LINE
  8
LC-002-002-----0
  6
CONTINUOUS
  5
1F7
 10
185.350507
 20
70.333206
 30
0.0
 11
178.150501
 21
33.833206
 31
0.0
  0
LINE
  8
LC-002-002-----0
  6
CONTINUOUS
  5
1F8
 10
183.837816
 20
70.333206
 30
0.0
 11
176.563794
 21
33.833206
 31
0.0
  0
LINE
  8
LC-008-005-----0
  6
CONTINUOUS
  5
1F9
 10
323.915615
 20
-32.466202
 30
0.0
 11
326.313311
 21
-30.068506
 31
0.0
  0
LINE
  8
LC-008-005-----0
  6
CONTINUOUS
  5
1FA
 10
321.205514
 20
-32.347877
 30
0.0
 11
323.60321
 21
-29.950181
 31
0.0
  0
LINE
  8
LC-002-002-----0
  6
CONTINUOUS
  5
1FB
 10
152.833498
 20
29.833206
 30
0.0
 11
154.333498
 21
28.333206
 31
0.0
  0
LINE
  8
LC-002-002-----0
  6
CONTINUOUS
  5
1FC
 10
156.333491
 20
23.833206
 30
0.0
 11
265.333491
 21
23.833206
 31
0.0
  0
LINE
  8
LC-002-002-----0
  6
CONTINUOUS
  5
1FD
 10
175.980741
 20
70.333206
 30
0.0
 11
166.59751
 21
33.833206
 31
0.0
  0
LINE
  8
LC-008-005-----0
  6
CONTINUOUS
  5
1FE
 10
318.495412
 20
-32.229551
 30
0.0
 11
320.893108
 21
-29.831855
 31
0.0
  0
LINE
  8
LC-002-002-----0
  6
CONTINUOUS
  5
1FF
 10
267.333491
 20
30.833206
 30
0.0
 11
267.333491
 21
33.833205
 31
0.0
  0
LINE
  8
LC-002-002-----0
  6
CONTINUOUS
  5
200
 10
154.333491
 20
33.833205
 30
0.0
 11
148.333491
 21
33.833222
 31
0.0
  0
LINE
  8
LC-002-002-----0
  6
CONTINUOUS
  5
201
 10
177.198263
 20
70.333206
 30
0.0
 11
167.815033
 21
33.833206
 31
0.0
  0
LINE
  8
LC-002-002-----0
  6
CONTINUOUS
  5
202
 10
171.338205
 20
70.333206
 30
0.0
 11
160.411201
 21
33.833206
 31
0.0
  0
LINE
  8
LC-002-002-----0
  6
CONTINUOUS
  5
203
 10
250.328777
 20
70.333206
 30
0.0
 11
261.255781
 21
33.833206
 31
0.0
  0
LINE
  8
LC-002-002-----0
  6
CONTINUOUS
  5
204
 10
146.833445
 20
31.833275
 30
0.0
 11
147.833333
 21
31.833275
 31
0.0
  0
LINE
  8
LC-002-002-----0
  6
CONTINUOUS
  5
205
 10
127.832924
 20
30.333275
 30
0.0
 11
125.833445
 21
30.333275
 31
0.0
  0
LINE
  8
LC-002-002-----0
  6
CONTINUOUS
  5
206
 10
150.833333
 20
31.833275
 30
0.0
 11
150.833333
 21
19.833275
 31
0.0
  0
LINE
  8
LC-002-002-----0
  6
CONTINUOUS
  5
207
 10
149.833333
 20
31.833275
 30
0.0
 11
147.833333
 21
31.833275
 31
0.0
  0
LINE
  8
LC-002-002-----0
  6
CONTINUOUS
  5
208
 10
215.833491
 20
108.833206
 30
0.0
 11
215.833491
 21
104.833206
 31
0.0
  0
LINE
  8
LC-002-002-----0
  6
CONTINUOUS
  5
209
 10
165.847891
 20
99.197854
 30
0.0
 11
148.333491
 21
33.833222
 31
0.0
  0
LINE
  8
LC-002-002-----0
  6
CONTINUOUS
  5
20A
 10
242.833491
 20
108.833206
 30
0.0
 11
242.975243
 21
108.833206
 31
0.0
  0
LINE
  8
LC-002-002-----0
  6
CONTINUOUS
  5
20B
 10
240.833491
 20
108.833206
 30
0.0
 11
240.833491
 21
104.833206
 31
0.0
  0
LINE
  8
LC-002-002-----0
  6
CONTINUOUS
  5
20C
 10
242.833491
 20
108.833206
 30
0.0
 11
240.833491
 21
108.833206
 31
0.0
  0
LINE
  8
LC-002-002-----0
  6
CONTINUOUS
  5
20D
 10
242.833491
 20
104.773502
 30
0.0
 11
242.833491
 21
108.833206
 31
0.0
  0
LINE
  8
LC-002-002-----0
  6
CONTINUOUS
  5
20E
 10
178.833491
 20
104.833206
 30
0.0
 11
178.833491
 21
108.833206
 31
0.0
  0
LINE
  8
LC-002-002-----0
  6
CONTINUOUS
  5
20F
 10
178.833491
 20
108.833206
 30
0.0
 11
180.833491
 21
108.833206
 31
0.0
  0
LINE
  8
LC-002-002-----0
  6
CONTINUOUS
  5
210
 10
180.833491
 20
108.833206
 30
0.0
 11
180.833491
 21
104.833206
 31
0.0
  0
LINE
  8
LC-002-002-----0
  6
CONTINUOUS
  5
211
 10
205.833491
 20
108.833206
 30
0.0
 11
205.833491
 21
104.833206
 31
0.0
  0
LINE
  8
LC-002-002-----0
  6
CONTINUOUS
  5
212
 10
199.517481
 20
104.833206
 30
0.0
 11
196.355402
 21
79.333206
 31
0.0
  0
LINE
  8
LC-002-002-----0
  6
CONTINUOUS
  5
213
 10
197.669722
 20
104.833206
 30
0.0
 11
194.507643
 21
79.333206
 31
0.0
  0
LINE
  8
LC-002-002-----0
  6
CONTINUOUS
  5
214
 10
202.664292
 20
33.833206
 30
0.0
 11
204.208065
 21
70.333206
 31
0.0
  0
LINE
  8
LC-002-002-----0
  6
CONTINUOUS
  5
215
 10
207.650138
 20
104.833206
 30
0.0
 11
206.571611
 21
79.333206
 31
0.0
  0
LINE
  8
LC-002-002-----0
  6
CONTINUOUS
  5
216
 10
192.155993
 20
104.833206
 30
0.0
 11
187.125851
 21
79.333206
 31
0.0
  0
LINE
  8
LC-002-002-----0
  6
CONTINUOUS
  5
217
 10
190.713261
 20
104.833206
 30
0.0
 11
185.631411
 21
79.333206
 31
0.0
  0
LINE
  8
LC-002-002-----0
  6
CONTINUOUS
  5
218
 10
186.067345
 20
104.833206
 30
0.0
 11
179.511937
 21
79.333206
 31
0.0
  0
LINE
  8
LC-002-002-----0
  6
CONTINUOUS
  5
219
 10
184.849822
 20
104.833206
 30
0.0
 11
178.294414
 21
79.333206
 31
0.0
  0
LINE
  8
LC-002-002-----0
  6
CONTINUOUS
  5
21A
 10
181.666468
 20
104.833206
 30
0.0
 11
174.032534
 21
79.333206
 31
0.0
  0
LINE
  8
LC-002-002-----0
  6
CONTINUOUS
  5
21B
 10
159.645834
 20
33.833206
 30
0.0
 11
170.572838
 21
70.333206
 31
0.0
  0
LINE
  8
LC-002-002-----0
  6
CONTINUOUS
  5
21C
 10
245.686241
 20
70.333206
 30
0.0
 11
255.069472
 21
33.833206
 31
0.0
  0
LINE
  8
LC-002-002-----0
  6
CONTINUOUS
  5
21D
 10
265.333491
 20
33.833206
 30
0.0
 11
210.833491
 21
33.833206
 31
0.0
  0
LINE
  8
LC-002-002-----0
  6
CONTINUOUS
  5
21E
 10
262.652595
 20
33.833206
 30
0.0
 11
252.455326
 21
70.333206
 31
0.0
  0
LINE
  8
LC-002-002-----0
  6
CONTINUOUS
  5
21F
 10
244.468718
 20
70.333206
 30
0.0
 11
253.851949
 21
33.833206
 31
0.0
  0
LINE
  8
LC-002-002-----0
  6
CONTINUOUS
  5
220
 10
237.829165
 20
70.333206
 30
0.0
 11
245.103187
 21
33.833206
 31
0.0
  0
LINE
  8
LC-002-002-----0
  6
CONTINUOUS
  5
221
 10
236.316474
 20
70.333206
 30
0.0
 11
243.516481
 21
33.833206
 31
0.0
  0
LINE
  8
LC-002-002-----0
  6
CONTINUOUS
  5
222
 10
156.333491
 20
28.333206
 30
0.0
 11
156.333491
 21
23.833206
 31
0.0
  0
LINE
  8
LC-002-002-----0
  6
CONTINUOUS
  5
223
 10
243.262055
 20
108.833206
 30
0.0
 11
210.833491
 21
108.833206
 31
0.0
  0
LINE
  8
LC-002-002-----0
  6
CONTINUOUS
  5
224
 10
228.275366
 20
70.333206
 30
0.0
 11
232.801479
 21
33.833206
 31
0.0
  0
LINE
  8
LC-002-002-----0
  6
CONTINUOUS
  5
225
 10
226.427607
 20
70.333206
 30
0.0
 11
230.95372
 21
33.833206
 31
0.0
  0
LINE
  8
LC-002-002-----0
  6
CONTINUOUS
  5
226
 10
265.333491
 20
28.333206
 30
0.0
 11
265.333491
 21
33.833206
 31
0.0
  0
LINE
  8
LC-002-002-----0
  6
CONTINUOUS
  5
227
 10
242.816811
 20
104.833206
 30
0.0
 11
210.833491
 21
104.833206
 31
0.0
  0
ARC
  8
LC-003-002-RND-0
  6
CONTINUOUS
  5
228
 10
243.262055
 20
95.833206
 30
0.0
 40
13.0
 50
15.0
 51
90.0
  0
LINE
  8
LC-002-002-----0
  6
CONTINUOUS
  5
229
 10
268.833484
 20
29.833206
 30
0.0
 11
267.333484
 21
28.333206
 31
0.0
  0
LINE
  8
LC-002-002-----0
  6
CONTINUOUS
  5
22A
 10
267.833484
 20
30.833206
 30
0.0
 11
267.333491
 21
30.833206
 31
0.0
  0
LINE
  8
LC-002-002-----0
  6
CONTINUOUS
  5
22B
 10
154.333491
 20
23.833206
 30
0.0
 11
156.333491
 21
23.833206
 31
0.0
  0
LINE
  8
LC-002-002-----0
  6
CONTINUOUS
  5
22C
 10
267.333491
 20
33.833205
 30
0.0
 11
265.333491
 21
33.833206
 31
0.0
  0
LINE
  8
LC-002-002-----0
  6
CONTINUOUS
  5
22D
 10
267.333491
 20
33.833205
 30
0.0
 11
273.333491
 21
33.833222
 31
0.0
  0
LINE
  8
LC-002-002-----0
  6
CONTINUOUS
  5
22E
 10
262.021148
 20
33.833206
 30
0.0
 11
251.094144
 21
70.333206
 31
0.0
  0
LINE
  8
LC-002-002-----0
  6
CONTINUOUS
  5
22F
 10
240.000513
 20
104.833206
 30
0.0
 11
247.634447
 21
79.333206
 31
0.0
  0
LINE
  8
LC-002-002-----0
  6
CONTINUOUS
  5
230
 10
236.81716
 20
104.833206
 30
0.0
 11
243.372568
 21
79.333206
 31
0.0
  0
LINE
  8
LC-002-002-----0
  6
CONTINUOUS
  5
231
 10
235.599637
 20
104.833206
 30
0.0
 11
242.155045
 21
79.333206
 31
0.0
  0
LINE
  8
LC-002-002-----0
  6
CONTINUOUS
  5
232
 10
230.95372
 20
104.833206
 30
0.0
 11
236.035571
 21
79.333206
 31
0.0
  0
LINE
  8
LC-002-002-----0
  6
CONTINUOUS
  5
233
 10
229.510989
 20
104.833206
 30
0.0
 11
234.54113
 21
79.333206
 31
0.0
  0
LINE
  8
LC-002-002-----0
  6
CONTINUOUS
  5
234
 10
214.016844
 20
104.833206
 30
0.0
 11
215.09537
 21
79.333206
 31
0.0
  0
LINE
  8
LC-002-002-----0
  6
CONTINUOUS
  5
235
 10
219.002689
 20
33.833206
 30
0.0
 11
217.458916
 21
70.333206
 31
0.0
  0
LINE
  8
LC-002-002-----0
  6
CONTINUOUS
  5
236
 10
223.997259
 20
104.833206
 30
0.0
 11
227.159338
 21
79.333206
 31
0.0
  0
LINE
  8
LC-002-002-----0
  6
CONTINUOUS
  5
237
 10
222.1495
 20
104.833206
 30
0.0
 11
225.311579
 21
79.333206
 31
0.0
  0
LINE
  8
LC-002-002-----0
  6
CONTINUOUS
  5
238
 10
249.94093
 20
79.333206
 30
0.0
 11
249.94093
 21
72.333206
 31
0.0
  0
LINE
  8
LC-002-002-----0
  6
CONTINUOUS
  5
239
 10
251.94093
 20
70.333206
 30
0.0
 11
252.455326
 21
70.333206
 31
0.0
  0
LINE
  8
LC-002-002-----0
  6
CONTINUOUS
  5
23A
 10
255.819091
 20
99.197854
 30
0.0
 11
273.333491
 21
33.833222
 31
0.0
  0
LINE
  8
LC-002-002-----0
  6
CONTINUOUS
  5
23B
 10
248.399814
 20
79.333206
 30
0.0
 11
240.76588
 21
104.833206
 31
0.0
  0
ARC
  8
LC-003-002-RND-0
  6
CONTINUOUS
  5
23C
 10
251.94093
 20
72.333206
 30
0.0
 40
2.0
 50
180.0
 51
270.0
  0
LINE
  8
LC-002-002-----0
  6
CONTINUOUS
  5
23D
 10
154.333491
 20
30.833206
 30
0.0
 11
154.333491
 21
33.833205
 31
0.0
  0
LINE
  8
LC-002-002-----0
  6
CONTINUOUS
  5
23E
 10
265.333491
 20
28.333206
 30
0.0
 11
265.333491
 21
23.833206
 31
0.0
  0
LINE
  8
LC-002-002-----0
  6
CONTINUOUS
  5
23F
 10
267.333491
 20
28.333206
 30
0.0
 11
267.333491
 21
23.833206
 31
0.0
  0
LINE
  8
LC-002-002-----0
  6
CONTINUOUS
  5
240
 10
267.333491
 20
23.833206
 30
0.0
 11
265.333491
 21
23.833206
 31
0.0
  0
LINE
  8
LC-002-002-----0
  6
CONTINUOUS
  5
241
 10
156.333491
 20
28.333206
 30
0.0
 11
156.333491
 21
33.833206
 31
0.0
  0
LINE
  8
LC-002-002-----0
  6
CONTINUOUS
  5
242
 10
154.333491
 20
28.333206
 30
0.0
 11
154.333491
 21
23.833206
 31
0.0
  0
ARC
  8
LC-002-002-----0
  6
CONTINUOUS
  5
243
 10
267.833484
 20
29.833206
 30
0.0
 40
1.0
 50
0.0
 51
90.0
  0
LINE
  8
LC-002-002-----0
  6
CONTINUOUS
  5
244
 10
153.833498
 20
30.833206
 30
0.0
 11
154.333491
 21
30.833206
 31
0.0
  0
LINE
  8
LC-002-002-----0
  6
CONTINUOUS
  5
245
 10
154.333491
 20
33.833205
 30
0.0
 11
156.333491
 21
33.833206
 31
0.0
  0
LINE
  8
LC-002-002-----0
  6
CONTINUOUS
  5
246
 10
180.833491
 20
104.833206
 30
0.0
 11
178.850171
 21
104.833206
 31
0.0
  0
LINE
  8
LC-002-002-----0
  6
CONTINUOUS
  5
247
 10
249.94093
 20
79.333206
 30
0.0
 11
242.833491
 21
104.773502
 31
0.0
  0
LINE
  8
LC-002-002-----0
  6
CONTINUOUS
  5
248
 10
249.94093
 20
79.333206
 30
0.0
 11
252.455326
 21
70.333206
 31
0.0
  0
LINE
  8
LC-002-002-----0
  6
CONTINUOUS
  5
249
 10
171.726051
 20
79.333206
 30
0.0
 11
171.726051
 21
72.333206
 31
0.0
  0
LINE
  8
LC-002-002-----0
  6
CONTINUOUS
  5
24A
 10
169.726051
 20
70.333206
 30
0.0
 11
169.211656
 21
70.333206
 31
0.0
  0
ARC
  8
LC-003-002-RND-0
  6
CONTINUOUS
  5
24B
 10
169.726051
 20
72.333206
 30
0.0
 40
2.0
 50
270.0
 51
0.0
  0
LINE
  8
LC-002-002-----0
  6
CONTINUOUS
  5
24C
 10
171.726051
 20
79.333206
 30
0.0
 11
169.211656
 21
70.333206
 31
0.0
  0
LINE
  8
LC-002-002-----0
  6
CONTINUOUS
  5
24D
 10
173.267167
 20
79.333206
 30
0.0
 11
180.901102
 21
104.833206
 31
0.0
  0
LINE
  8
LC-002-002-----0
  6
CONTINUOUS
  5
24E
 10
288.333791
 20
31.083094
 30
0.0
 11
288.689453
 21
31.083093
 31
0.0
  0
LINE
  8
LC-002-002-----0
  6
CONTINUOUS
  5
24F
 10
135.155759
 20
34.133169
 30
0.0
 11
132.948795
 21
31.926204
 31
0.0
  0
LINE
  8
LC-002-002-----0
  6
CONTINUOUS
  5
250
 10
285.282406
 20
34.833168
 30
0.0
 11
286.438293
 21
34.83316
 31
0.0
  0
ARC
  8
LC-003-002-RND-0
  6
CONTINUOUS
  5
251
 10
132.241688
 20
32.633311
 30
0.0
 40
1.0
 50
270.000575
 51
315.0
  0
ARC
  8
LC-003-002-RND-0
  6
CONTINUOUS
  5
252
 10
125.124654
 20
31.047336
 30
0.0
 40
1.0
 50
71.979716
 51
78.771206
  0
LINE
  8
LC-002-002-----0
  6
CONTINUOUS
  5
253
 10
104.640355
 20
37.833744
 30
0.0
 11
105.419983
 21
37.833742
 31
0.0
  0
LINE
  8
LC-002-002-----0
  6
CONTINUOUS
  5
254
 10
152.135067
 20
33.833275
 30
0.0
 11
147.234578
 21
33.833244
 31
0.0
  0
ARC
  8
LC-002-002-----0
  6
CONTINUOUS
  5
255
 10
107.449325
 20
38.887162
 30
0.0
 40
2.286465
 50
207.43357
 51
257.999752
  0
LINE
  8
LC-002-002-----0
  6
CONTINUOUS
  5
256
 10
146.134581
 20
34.133237
 30
0.0
 11
143.884581
 21
34.133223
 31
0.0
  0
ARC
  8
LC-003-002-RND-0
  6
CONTINUOUS
  5
257
 10
146.134581
 20
34.133237
 30
0.0
 40
0.7
 50
36.870027
 51
90.000358
  0
LINE
  8
LC-002-002-----0
  6
CONTINUOUS
  5
258
 10
143.884581
 20
34.133223
 30
0.0
 11
143.884581
 21
34.833223
 31
0.0
  0
LINE
  8
LC-002-002-----0
  6
CONTINUOUS
  5
259
 10
274.432404
 20
33.133235
 30
0.0
 11
269.531916
 21
33.133266
 31
0.0
  0
LINE
  8
LC-002-002-----0
  6
CONTINUOUS
  5
25A
 10
277.782406
 20
34.133214
 30
0.0
 11
285.282406
 21
34.133168
 31
0.0
  0
LINE
  8
LC-002-002-----0
  6
CONTINUOUS
  5
25B
 10
294.4554
 20
31.633291
 30
0.0
 11
289.425289
 21
31.633303
 31
0.0
  0
LINE
  8
LC-002-002-----0
  6
CONTINUOUS
  5
25C
 10
294.4554
 20
31.633291
 30
0.0
 11
314.847104
 21
35.967774
 31
0.0
  0
LINE
  8
LC-002-002-----0
  6
CONTINUOUS
  5
25D
 10
287.506906
 20
34.833154
 30
0.0
 11
277.782406
 21
34.833214
 31
0.0
  0
ARC
  8
LC-003-002-RND-0
  6
CONTINUOUS
  5
25E
 10
147.234578
 20
33.833244
 30
0.0
 40
0.7
 50
216.870027
 51
270.000358
  0
ARC
  8
LC-003-002-RND-0
  6
CONTINUOUS
  5
25F
 10
289.425299
 20
32.633303
 30
0.0
 40
1.0
 50
225.0
 51
269.999425
  0
ARC
  8
LC-003-002-RND-0
  6
CONTINUOUS
  5
260
 10
295.145478
 20
31.047336
 30
0.0
 40
1.0
 50
101.228794
 51
108.020284
  0
LINE
  8
LC-002-002-----0
  6
CONTINUOUS
  5
261
 10
132.241689
 20
32.333311
 30
0.0
 11
127.28516
 21
32.3333
 31
0.0
  0
LINE
  8
LC-002-002-----0
  6
CONTINUOUS
  5
262
 10
286.511228
 20
34.13316
 30
0.0
 11
288.718192
 21
31.926196
 31
0.0
  0
LINE
  8
LC-002-002-----0
  6
CONTINUOUS
  5
263
 10
317.026631
 20
37.833735
 30
0.0
 11
316.247004
 21
37.833734
 31
0.0
  0
ARC
  8
LC-002-002-----0
  6
CONTINUOUS
  5
264
 10
269.531914
 20
32.833266
 30
0.0
 40
1.0
 50
89.998287
 51
270.000997
  0
ARC
  8
LC-002-002-----0
  6
CONTINUOUS
  5
265
 10
314.217662
 20
38.887153
 30
0.0
 40
3.0
 50
282.000248
 51
339.442977
  0
LINE
  8
LC-002-002-----0
  6
CONTINUOUS
  5
266
 10
274.992408
 20
33.413234
 30
0.0
 11
275.532406
 21
34.133229
 31
0.0
  0
LINE
  8
LC-002-002-----0
  6
CONTINUOUS
  5
267
 10
135.155759
 20
34.133169
 30
0.0
 11
136.384581
 21
34.133176
 31
0.0
  0
ARC
  8
LC-002-002-----0
  6
CONTINUOUS
  5
268
 10
289.425299
 20
32.633303
 30
0.0
 40
0.3
 50
225.0
 51
269.999874
  0
LINE
  8
LC-002-002-----0
  6
CONTINUOUS
  5
269
 10
269.531912
 20
32.533266
 30
0.0
 11
271.031914
 21
32.533257
 31
0.0
  0
LINE
  8
LC-002-002-----0
  6
CONTINUOUS
  5
26A
 10
271.031914
 20
32.533257
 30
0.0
 11
271.031914
 21
31.833257
 31
0.0
  0
ARC
  8
LC-002-002-----0
  6
CONTINUOUS
  5
26B
 10
269.531914
 20
32.833266
 30
0.0
 40
0.3
 50
89.990988
 51
270.008296
  0
LINE
  8
LC-002-002-----0
  6
CONTINUOUS
  5
26C
 10
147.234578
 20
33.833244
 30
0.0
 11
146.69458
 21
34.553239
 31
0.0
  0
ARC
  8
LC-002-002-----0
  6
CONTINUOUS
  5
26D
 10
152.135073
 20
32.833275
 30
0.0
 40
0.3
 50
269.991704
 51
90.009012
  0
LINE
  8
LC-002-002-----0
  6
CONTINUOUS
  5
26E
 10
136.384581
 20
34.833176
 30
0.0
 11
135.155755
 21
34.833169
 31
0.0
  0
LINE
  8
LC-002-002-----0
  6
CONTINUOUS
  5
26F
 10
275.532406
 20
34.133229
 30
0.0
 11
277.782406
 21
34.133214
 31
0.0
  0
LINE
  8
LC-002-002-----0
  6
CONTINUOUS
  5
270
 10
277.782406
 20
34.133214
 30
0.0
 11
277.782406
 21
34.833214
 31
0.0
  0
LINE
  8
LC-002-002-----0
  6
CONTINUOUS
  5
271
 10
287.006202
 20
34.628135
 30
0.0
 11
289.213167
 21
32.421171
 31
0.0
  0
LINE
  8
LC-002-002-----0
  6
CONTINUOUS
  5
272
 10
277.782406
 20
34.833214
 30
0.0
 11
275.53241
 21
34.833229
 31
0.0
  0
LINE
  8
LC-002-002-----0
  6
CONTINUOUS
  5
273
 10
134.660784
 20
34.628143
 30
0.0
 11
132.45382
 21
32.421179
 31
0.0
  0
LINE
  8
LC-002-002-----0
  6
CONTINUOUS
  5
274
 10
286.511228
 20
34.13316
 30
0.0
 11
285.282406
 21
34.133168
 31
0.0
  0
LINE
  8
LC-002-002-----0
  6
CONTINUOUS
  5
275
 10
285.282406
 20
34.133168
 30
0.0
 11
285.282406
 21
34.833168
 31
0.0
  0
LINE
  8
LC-002-002-----0
  6
CONTINUOUS
  5
276
 10
269.53192
 20
33.833266
 30
0.0
 11
274.432409
 21
33.833235
 31
0.0
  0
LINE
  8
LC-002-002-----0
  6
CONTINUOUS
  5
277
 10
136.384581
 20
34.133176
 30
0.0
 11
136.384581
 21
34.833176
 31
0.0
  0
LINE
  8
LC-002-002-----0
  6
CONTINUOUS
  5
278
 10
127.28516
 20
32.3333
 30
0.0
 11
106.973932
 21
36.650664
 31
0.0
  0
LINE
  8
LC-002-002-----0
  6
CONTINUOUS
  5
279
 10
147.234583
 20
33.133244
 30
0.0
 11
152.135071
 21
33.133275
 31
0.0
  0
LINE
  8
LC-002-002-----0
  6
CONTINUOUS
  5
27A
 10
127.211587
 20
31.6333
 30
0.0
 11
106.819883
 21
35.967783
 31
0.0
  0
LINE
  8
LC-002-002-----0
  6
CONTINUOUS
  5
27B
 10
137.135811
 20
34.133181
 30
0.0
 11
136.384581
 21
34.133176
 31
0.0
  0
LINE
  8
LC-002-002-----0
  6
CONTINUOUS
  5
27C
 10
294.381826
 20
32.333292
 30
0.0
 11
314.693054
 21
36.650655
 31
0.0
  0
ARC
  8
LC-002-002-----0
  6
CONTINUOUS
  5
27D
 10
314.217662
 20
38.887153
 30
0.0
 40
2.286465
 50
282.000248
 51
332.56643
  0
LINE
  8
LC-002-002-----0
  6
CONTINUOUS
  5
27E
 10
127.211587
 20
31.6333
 30
0.0
 11
132.241698
 21
31.633311
 31
0.0
  0
LINE
  8
LC-002-002-----0
  6
CONTINUOUS
  5
27F
 10
143.884581
 20
34.133223
 30
0.0
 11
143.134551
 21
34.133219
 31
0.0
  0
LINE
  8
LC-004-004-----0
  6
CONTINUOUS
 62
     2
  5
280
 10
138.135808
 20
33.332524
 30
0.0
 11
138.135776
 21
21.332524
 31
0.0
  0
LINE
  8
LC-004-004-----0
  6
CONTINUOUS
 62
     2
  5
281
 10
142.134551
 20
33.331608
 30
0.0
 11
142.134543
 21
21.331609
 31
0.0
  0
LINE
  8
LC-002-002-----0
  6
DASHDOT
 62
     2
  5
282
 10
140.134508
 20
17.332584
 30
0.0
 11
140.134595
 21
37.33161
 31
0.0
  0
LINE
  8
LC-002-002-----0
  6
CONTINUOUS
  5
283
 10
134.135812
 20
36.332535
 30
0.0
 11
146.134553
 21
36.332503
 31
0.0
  0
LINE
  8
LC-004-004-----0
  6
CONTINUOUS
  5
284
 10
139.335822
 20
38.300513
 30
0.0
 11
139.335819
 21
37.33161
 31
0.0
  0
LINE
  8
LC-004-004-----0
  6
CONTINUOUS
  5
285
 10
140.934554
 20
38.300509
 30
0.0
 11
140.934554
 21
37.331609
 31
0.0
  0
LINE
  8
LC-004-004-----0
  6
CONTINUOUS
  5
286
 10
134.135817
 20
36.332535
 30
0.0
 11
134.135812
 21
34.832535
 31
0.0
  0
ARC
  8
LC-002-002-----0
  6
CONTINUOUS
  5
287
 10
140.135163
 20
28.334408
 30
0.0
 40
9.99811
 50
94.585648
 51
126.873341
  0
LINE
  8
LC-002-002-----0
  6
CONTINUOUS
  5
288
 10
140.934553
 20
37.331609
 30
0.0
 11
139.335819
 21
37.33161
 31
0.0
  0
LINE
  8
LC-004-004-----0
  6
CONTINUOUS
  5
289
 10
146.134553
 20
36.332503
 30
0.0
 11
146.134552
 21
34.831606
 31
0.0
  0
ARC
  8
LC-002-002-----0
  6
CONTINUOUS
  5
28A
 10
140.135163
 20
28.334408
 30
0.0
 40
9.99811
 50
53.12635
 51
85.414066
  0
LINE
  8
LC-004-004-----0
  6
CONTINUOUS
  5
28B
 10
137.135812
 20
34.832527
 30
0.0
 11
137.13578
 21
22.832527
 31
0.0
  0
LINE
  8
LC-004-004-----0
  6
CONTINUOUS
  5
28C
 10
143.134552
 20
34.831608
 30
0.0
 11
143.134544
 21
22.831608
 31
0.0
  0
LINE
  8
LC-004-004-----0
  6
CONTINUOUS
 62
     2
  5
28D
 10
143.134551
 20
33.331608
 30
0.0
 11
138.135808
 21
33.331611
 31
0.0
  0
LINE
  8
LC-004-004-----0
  6
CONTINUOUS
  5
28E
 10
137.13578
 20
22.832527
 30
0.0
 11
140.13578
 21
22.832519
 31
0.0
  0
LINE
  8
LC-004-004-----0
  6
CONTINUOUS
  5
28F
 10
137.13578
 20
22.832527
 30
0.0
 11
140.135767
 21
17.832519
 31
0.0
  0
LINE
  8
LC-004-004-----0
  6
CONTINUOUS
  5
290
 10
143.134544
 20
22.831608
 30
0.0
 11
140.134541
 21
17.83161
 31
0.0
  0
LINE
  8
LC-004-004-----0
  6
CONTINUOUS
  5
291
 10
143.134544
 20
22.831608
 30
0.0
 11
140.134544
 21
22.83161
 31
0.0
  0
LINE
  8
LC-004-004-----0
  6
CONTINUOUS
 62
     2
  5
292
 10
137.135808
 20
33.332527
 30
0.0
 11
138.135808
 21
33.332524
 31
0.0
  0
LINE
  8
LC-008-005-----0
  6
CONTINUOUS
  5
293
 10
315.785311
 20
-32.111226
 30
0.0
 11
318.183007
 21
-29.71353
 31
0.0
  0
LINE
  8
LC-008-005-----0
  6
CONTINUOUS
  5
294
 10
361.341915
 20
13.445378
 30
0.0
 11
361.814603
 21
13.918067
 31
0.0
  0
LINE
  8
LC-008-005-----0
  6
CONTINUOUS
  5
295
 10
313.075209
 20
-31.9929
 30
0.0
 11
315.472905
 21
-29.595204
 31
0.0
  0
LINE
  8
LC-008-005-----0
  6
CONTINUOUS
  5
296
 10
358.634103
 20
13.565993
 30
0.0
 11
360.487285
 21
15.419176
 31
0.0
  0
LINE
  8
LC-008-005-----0
  6
CONTINUOUS
  5
297
 10
310.365107
 20
-31.874575
 30
0.0
 11
312.762803
 21
-29.476879
 31
0.0
  0
LINE
  8
LC-008-005-----0
  6
CONTINUOUS
  5
298
 10
355.92629
 20
13.686608
 30
0.0
 11
358.319026
 21
16.079344
 31
0.0
  0
LINE
  8
LC-008-005-----0
  6
CONTINUOUS
  5
299
 10
307.655006
 20
-31.756249
 30
0.0
 11
310.052702
 21
-29.358553
 31
0.0
  0
LINE
  8
LC-008-005-----0
  6
CONTINUOUS
  5
29A
 10
353.218478
 20
13.807223
 30
0.0
 11
355.608925
 21
16.19767
 31
0.0
  0
LINE
  8
LC-008-005-----0
  6
CONTINUOUS
  5
29B
 10
304.944904
 20
-31.637924
 30
0.0
 11
307.3426
 21
-29.240228
 31
0.0
  0
LINE
  8
LC-008-005-----0
  6
CONTINUOUS
  5
29C
 10
350.510666
 20
13.927838
 30
0.0
 11
352.898823
 21
16.315995
 31
0.0
  0
LINE
  8
LC-008-005-----0
  6
CONTINUOUS
  5
29D
 10
302.234803
 20
-31.519598
 30
0.0
 11
304.632499
 21
-29.121902
 31
0.0
  0
LINE
  8
LC-008-005-----0
  6
CONTINUOUS
  5
29E
 10
347.802854
 20
14.048453
 30
0.0
 11
350.188722
 21
16.434321
 31
0.0
  0
LINE
  8
LC-008-005-----0
  6
CONTINUOUS
  5
29F
 10
299.524701
 20
-31.401273
 30
0.0
 11
301.922397
 21
-29.003577
 31
0.0
  0
LINE
  8
LC-008-005-----0
  6
CONTINUOUS
  5
2A0
 10
345.095042
 20
14.169068
 30
0.0
 11
347.47862
 21
16.552646
 31
0.0
  0
LINE
  8
LC-008-005-----0
  6
CONTINUOUS
  5
2A1
 10
296.814599
 20
-31.282947
 30
0.0
 11
299.212295
 21
-28.885251
 31
0.0
  0
LINE
  8
LC-008-005-----0
  6
CONTINUOUS
  5
2A2
 10
342.38723
 20
14.289683
 30
0.0
 11
344.768519
 21
16.670972
 31
0.0
  0
LINE
  8
LC-008-005-----0
  6
CONTINUOUS
  5
2A3
 10
294.104498
 20
-31.164622
 30
0.0
 11
296.502194
 21
-28.766925
 31
0.0
  0
LINE
  8
LC-008-005-----0
  6
CONTINUOUS
  5
2A4
 10
339.679418
 20
14.410298
 30
0.0
 11
342.058417
 21
16.789298
 31
0.0
  0
LINE
  8
LC-008-005-----0
  6
CONTINUOUS
  5
2A5
 10
291.394396
 20
-31.046296
 30
0.0
 11
293.792092
 21
-28.6486
 31
0.0
  0
LINE
  8
LC-008-005-----0
  6
CONTINUOUS
  5
2A6
 10
336.971606
 20
14.530913
 30
0.0
 11
339.348315
 21
16.907623
 31
0.0
  0
LINE
  8
LC-008-005-----0
  6
CONTINUOUS
  5
2A7
 10
288.684295
 20
-30.92797
 30
0.0
 11
291.081991
 21
-28.530274
 31
0.0
  0
LINE
  8
LC-008-005-----0
  6
CONTINUOUS
  5
2A8
 10
334.263793
 20
14.651528
 30
0.0
 11
336.638214
 21
17.025949
 31
0.0
  0
LINE
  8
LC-008-005-----0
  6
CONTINUOUS
  5
2A9
 10
285.974193
 20
-30.809645
 30
0.0
 11
288.371889
 21
-28.411949
 31
0.0
  0
LINE
  8
LC-008-005-----0
  6
CONTINUOUS
  5
2AA
 10
331.555981
 20
14.772143
 30
0.0
 11
333.928112
 21
17.144274
 31
0.0
  0
LINE
  8
LC-008-005-----0
  6
CONTINUOUS
  5
2AB
 10
283.264091
 20
-30.691319
 30
0.0
 11
285.661787
 21
-28.293623
 31
0.0
  0
LINE
  8
LC-008-005-----0
  6
CONTINUOUS
  5
2AC
 10
328.848169
 20
14.892758
 30
0.0
 11
331.218011
 21
17.2626
 31
0.0
  0
LINE
  8
LC-008-005-----0
  6
CONTINUOUS
  5
2AD
 10
280.55399
 20
-30.572994
 30
0.0
 11
282.951686
 21
-28.175298
 31
0.0
  0
LINE
  8
LC-008-005-----0
  6
CONTINUOUS
  5
2AE
 10
326.140357
 20
15.013373
 30
0.0
 11
328.507909
 21
17.380926
 31
0.0
  0
LINE
  8
LC-008-005-----0
  6
CONTINUOUS
  5
2AF
 10
277.843888
 20
-30.454668
 30
0.0
 11
280.241584
 21
-28.056972
 31
0.0
  0
LINE
  8
LC-008-005-----0
  6
CONTINUOUS
  5
2B0
 10
323.432545
 20
15.133988
 30
0.0
 11
325.797808
 21
17.499251
 31
0.0
  0
LINE
  8
LC-008-005-----0
  6
CONTINUOUS
  5
2B1
 10
275.133787
 20
-30.336343
 30
0.0
 11
277.531483
 21
-27.938647
 31
0.0
  0
LINE
  8
LC-008-005-----0
  6
CONTINUOUS
  5
2B2
 10
320.724733
 20
15.254603
 30
0.0
 11
323.087706
 21
17.617577
 31
0.0
  0
LINE
  8
LC-008-005-----0
  6
CONTINUOUS
  5
2B3
 10
272.423685
 20
-30.218017
 30
0.0
 11
274.821381
 21
-27.820321
 31
0.0
  0
LINE
  8
LC-008-005-----0
  6
CONTINUOUS
  5
2B4
 10
318.016921
 20
15.375218
 30
0.0
 11
320.377605
 21
17.735902
 31
0.0
  0
LINE
  8
LC-008-005-----0
  6
CONTINUOUS
  5
2B5
 10
269.713583
 20
-30.099692
 30
0.0
 11
272.11128
 21
-27.701996
 31
0.0
  0
LINE
  8
LC-008-005-----0
  6
CONTINUOUS
  5
2B6
 10
315.309109
 20
15.495833
 30
0.0
 11
317.667503
 21
17.854228
 31
0.0
  0
LINE
  8
LC-008-005-----0
  6
CONTINUOUS
  5
2B7
 10
267.003482
 20
-29.981366
 30
0.0
 11
269.401178
 21
-27.58367
 31
0.0
  0
LINE
  8
LC-008-005-----0
  6
CONTINUOUS
  5
2B8
 10
312.601296
 20
15.616448
 30
0.0
 11
314.957402
 21
17.972554
 31
0.0
  0
LINE
  8
LC-008-005-----0
  6
CONTINUOUS
  5
2B9
 10
264.29338
 20
-29.863041
 30
0.0
 11
266.691076
 21
-27.465345
 31
0.0
  0
LINE
  8
LC-008-005-----0
  6
CONTINUOUS
  5
2BA
 10
309.893484
 20
15.737063
 30
0.0
 11
312.2473
 21
18.090879
 31
0.0
  0
LINE
  8
LC-008-005-----0
  6
CONTINUOUS
  5
2BB
 10
261.583279
 20
-29.744715
 30
0.0
 11
263.980975
 21
-27.347019
 31
0.0
  0
LINE
  8
LC-008-005-----0
  6
CONTINUOUS
  5
2BC
 10
307.185672
 20
15.857678
 30
0.0
 11
309.537199
 21
18.209205
 31
0.0
  0
LINE
  8
LC-008-005-----0
  6
CONTINUOUS
  5
2BD
 10
324.578769
 20
33.250776
 30
0.0
 11
325.833538
 21
34.505544
 31
0.0
  0
LINE
  8
LC-008-005-----0
  6
CONTINUOUS
  5
2BE
 10
258.873177
 20
-29.62639
 30
0.0
 11
261.270873
 21
-27.228694
 31
0.0
  0
LINE
  8
LC-008-005-----0
  6
CONTINUOUS
  5
2BF
 10
304.47786
 20
15.978293
 30
0.0
 11
306.827097
 21
18.32753
 31
0.0
  0
LINE
  8
LC-008-005-----0
  6
CONTINUOUS
  5
2C0
 10
321.642238
 20
33.142671
 30
0.0
 11
325.327036
 21
36.82747
 31
0.0
  0
LINE
  8
LC-008-005-----0
  6
CONTINUOUS
  5
2C1
 10
256.163076
 20
-29.508064
 30
0.0
 11
258.560772
 21
-27.110368
 31
0.0
  0
LINE
  8
LC-008-005-----0
  6
CONTINUOUS
  5
2C2
 10
301.770048
 20
16.098908
 30
0.0
 11
304.116995
 21
18.445856
 31
0.0
  0
LINE
  8
LC-008-005-----0
  6
CONTINUOUS
  5
2C3
 10
318.705706
 20
33.034566
 30
0.0
 11
322.405831
 21
36.734691
 31
0.0
  0
LINE
  8
LC-008-005-----0
  6
CONTINUOUS
  5
2C4
 10
253.452974
 20
-29.389739
 30
0.0
 11
255.85067
 21
-26.992042
 31
0.0
  0
LINE
  8
LC-008-005-----0
  6
CONTINUOUS
  5
2C5
 10
299.062236
 20
16.219523
 30
0.0
 11
301.406894
 21
18.564181
 31
0.0
  0
LINE
  8
LC-008-005-----0
  6
CONTINUOUS
  5
2C6
 10
315.501847
 20
32.659134
 30
0.0
 11
319.484626
 21
36.641913
 31
0.0
  0
LINE
  8
LC-008-005-----0
  6
CONTINUOUS
  5
2C7
 10
250.742872
 20
-29.271413
 30
0.0
 11
253.140568
 21
-26.873717
 31
0.0
  0
LINE
  8
LC-008-005-----0
  6
CONTINUOUS
  5
2C8
 10
296.354424
 20
16.340138
 30
0.0
 11
298.696792
 21
18.682507
 31
0.0
  0
LINE
  8
LC-008-005-----0
  6
CONTINUOUS
  5
2C9
 10
311.427482
 20
31.413197
 30
0.0
 11
316.56342
 21
36.549135
 31
0.0
  0
LINE
  8
LC-008-005-----0
  6
CONTINUOUS
  5
2CA
 10
248.032771
 20
-29.153087
 30
0.0
 11
250.430467
 21
-26.755391
 31
0.0
  0
LINE
  8
LC-008-005-----0
  6
CONTINUOUS
  5
2CB
 10
293.646612
 20
16.460753
 30
0.0
 11
295.986691
 21
18.800833
 31
0.0
  0
LINE
  8
LC-008-005-----0
  6
CONTINUOUS
  5
2CC
 10
307.353117
 20
30.167259
 30
0.0
 11
312.66508
 21
35.479222
 31
0.0
  0
LINE
  8
LC-008-005-----0
  6
CONTINUOUS
  5
2CD
 10
245.322669
 20
-29.034762
 30
0.0
 11
247.720365
 21
-26.637066
 31
0.0
  0
LINE
  8
LC-008-005-----0
  6
CONTINUOUS
  5
2CE
 10
290.938799
 20
16.581368
 30
0.0
 11
293.276589
 21
18.919158
 31
0.0
  0
LINE
  8
LC-008-005-----0
  6
CONTINUOUS
  5
2CF
 10
303.278753
 20
28.921322
 30
0.0
 11
308.591118
 21
34.233687
 31
0.0
  0
LINE
  8
LC-008-005-----0
  6
CONTINUOUS
  5
2D0
 10
242.612568
 20
-28.916436
 30
0.0
 11
245.010264
 21
-26.51874
 31
0.0
  0
LINE
  8
LC-008-005-----0
  6
CONTINUOUS
  5
2D1
 10
288.230987
 20
16.701983
 30
0.0
 11
290.566488
 21
19.037484
 31
0.0
  0
LINE
  8
LC-008-005-----0
  6
CONTINUOUS
  5
2D2
 10
299.204388
 20
27.675384
 30
0.0
 11
304.517155
 21
32.988151
 31
0.0
  0
LINE
  8
LC-008-005-----0
  6
CONTINUOUS
  5
2D3
 10
239.902466
 20
-28.798111
 30
0.0
 11
242.300162
 21
-26.400415
 31
0.0
  0
LINE
  8
LC-008-005-----0
  6
CONTINUOUS
  5
2D4
 10
285.523175
 20
16.822598
 30
0.0
 11
287.856386
 21
19.155809
 31
0.0
  0
LINE
  8
LC-008-005-----0
  6
CONTINUOUS
  5
2D5
 10
293.033852
 20
24.333275
 30
0.0
 11
300.443193
 21
31.742616
 31
0.0
  0
LINE
  8
LC-008-005-----0
  6
CONTINUOUS
  5
2D6
 10
237.192364
 20
-28.679785
 30
0.0
 11
239.59006
 21
-26.282089
 31
0.0
  0
LINE
  8
LC-008-005-----0
  6
CONTINUOUS
  5
2D7
 10
282.815363
 20
16.943213
 30
0.0
 11
285.146285
 21
19.274135
 31
0.0
  0
LINE
  8
LC-008-005-----0
  6
CONTINUOUS
  5
2D8
 10
290.205424
 20
24.333275
 30
0.0
 11
292.705424
 21
26.833275
 31
0.0
  0
LINE
  8
LC-008-005-----0
  6
CONTINUOUS
  5
2D9
 10
293.833967
 20
27.961818
 30
0.0
 11
296.36923
 21
30.497081
 31
0.0
  0
LINE
  8
LC-008-005-----0
  6
CONTINUOUS
  5
2DA
 10
234.482263
 20
-28.56146
 30
0.0
 11
236.879959
 21
-26.163764
 31
0.0
  0
LINE
  8
LC-008-005-----0
  6
CONTINUOUS
  5
2DB
 10
280.107551
 20
17.063828
 30
0.0
 11
282.436183
 21
19.392461
 31
0.0
  0
LINE
  8
LC-008-005-----0
  6
CONTINUOUS
  5
2DC
 10
287.376997
 20
24.333275
 30
0.0
 11
289.876997
 21
26.833275
 31
0.0
  0
LINE
  8
LC-008-005-----0
  6
CONTINUOUS
  5
2DD
 10
231.772161
 20
-28.443134
 30
0.0
 11
234.169857
 21
-26.045438
 31
0.0
  0
LINE
  8
LC-008-005-----0
  6
CONTINUOUS
  5
2DE
 10
277.399739
 20
17.184443
 30
0.0
 11
279.726082
 21
19.510786
 31
0.0
  0
LINE
  8
LC-008-005-----0
  6
CONTINUOUS
  5
2DF
 10
284.54857
 20
24.333275
 30
0.0
 11
287.04857
 21
26.833275
 31
0.0
  0
LINE
  8
LC-008-005-----0
  6
CONTINUOUS
  5
2E0
 10
229.06206
 20
-28.324809
 30
0.0
 11
231.459756
 21
-25.927113
 31
0.0
  0
LINE
  8
LC-008-005-----0
  6
CONTINUOUS
  5
2E1
 10
274.691927
 20
17.305058
 30
0.0
 11
277.01598
 21
19.629112
 31
0.0
  0
LINE
  8
LC-008-005-----0
  6
CONTINUOUS
  5
2E2
 10
281.720143
 20
24.333275
 30
0.0
 11
286.833445
 21
29.446577
 31
0.0
  0
LINE
  8
LC-008-005-----0
  6
CONTINUOUS
  5
2E3
 10
226.351958
 20
-28.206483
 30
0.0
 11
228.749654
 21
-25.808787
 31
0.0
  0
LINE
  8
LC-008-005-----0
  6
CONTINUOUS
  5
2E4
 10
271.984115
 20
17.425673
 30
0.0
 11
274.305879
 21
19.747437
 31
0.0
  0
LINE
  8
LC-008-005-----0
  6
CONTINUOUS
  5
2E5
 10
278.891716
 20
24.333275
 30
0.0
 11
284.891716
 21
30.333275
 31
0.0
  0
LINE
  8
LC-008-005-----0
  6
CONTINUOUS
  5
2E6
 10
223.641856
 20
-28.088158
 30
0.0
 11
226.039553
 21
-25.690462
 31
0.0
  0
LINE
  8
LC-008-005-----0
  6
CONTINUOUS
  5
2E7
 10
269.276302
 20
17.546288
 30
0.0
 11
273.833558
 21
22.103544
 31
0.0
  0
LINE
  8
LC-008-005-----0
  6
CONTINUOUS
  5
2E8
 10
277.460138
 20
24.333266
 30
0.0
 11
283.497436
 21
30.370564
 31
0.0
  0
LINE
  8
LC-008-005-----0
  6
CONTINUOUS
  5
2E9
 10
220.931755
 20
-27.969832
 30
0.0
 11
223.329451
 21
-25.572136
 31
0.0
  0
LINE
  8
LC-008-005-----0
  6
CONTINUOUS
  5
2EA
 10
266.56849
 20
17.666903
 30
0.0
 11
268.734862
 21
19.833275
 31
0.0
  0
LINE
  8
LC-008-005-----0
  6
CONTINUOUS
  5
2EB
 10
270.833558
 20
21.931971
 30
0.0
 11
279.234862
 21
30.333275
 31
0.0
  0
LINE
  8
LC-008-005-----0
  6
CONTINUOUS
  5
2EC
 10
218.221653
 20
-27.851507
 30
0.0
 11
220.619349
 21
-25.45381
 31
0.0
  0
LINE
  8
LC-008-005-----0
  6
CONTINUOUS
  5
2ED
 10
263.860678
 20
17.787518
 30
0.0
 11
265.906435
 21
19.833275
 31
0.0
  0
LINE
  8
LC-008-005-----0
  6
CONTINUOUS
  5
2EE
 10
270.833558
 20
24.760398
 30
0.0
 11
276.406435
 21
30.333275
 31
0.0
  0
LINE
  8
LC-008-005-----0
  6
CONTINUOUS
  5
2EF
 10
215.511552
 20
-27.733181
 30
0.0
 11
217.909248
 21
-25.335485
 31
0.0
  0
LINE
  8
LC-008-005-----0
  6
CONTINUOUS
  5
2F0
 10
262.833445
 20
19.588713
 30
0.0
 11
263.078007
 21
19.833275
 31
0.0
  0
LINE
  8
LC-008-005-----0
  6
CONTINUOUS
  5
2F1
 10
270.833558
 20
27.588825
 30
0.0
 11
274.833445
 21
31.588713
 31
0.0
  0
LINE
  8
LC-008-005-----0
  6
CONTINUOUS
  5
2F2
 10
212.80145
 20
-27.614855
 30
0.0
 11
215.199146
 21
-25.217159
 31
0.0
  0
LINE
  8
LC-008-005-----0
  6
CONTINUOUS
  5
2F3
 10
270.833558
 20
30.417252
 30
0.0
 11
272.24958
 21
31.833275
 31
0.0
  0
LINE
  8
LC-008-005-----0
  6
CONTINUOUS
  5
2F4
 10
210.091349
 20
-27.49653
 30
0.0
 11
212.489045
 21
-25.098834
 31
0.0
  0
LINE
  8
LC-008-005-----0
  6
CONTINUOUS
  5
2F5
 10
207.480246
 20
-27.279206
 30
0.0
 11
209.779057
 21
-24.980395
 31
0.0
  0
LINE
  8
LC-008-005-----0
  6
CONTINUOUS
  5
2F6
 10
205.09374
 20
-26.837284
 30
0.0
 11
207.218257
 21
-24.712767
 31
0.0
  0
LINE
  8
LC-008-005-----0
  6
CONTINUOUS
  5
2F7
 10
202.8923
 20
-26.210297
 30
0.0
 11
204.895261
 21
-24.207336
 31
0.0
  0
LINE
  8
LC-008-005-----0
  6
CONTINUOUS
  5
2F8
 10
200.849336
 20
-25.424834
 30
0.0
 11
202.765396
 21
-23.508774
 31
0.0
  0
LINE
  8
LC-008-005-----0
  6
CONTINUOUS
  5
2F9
 10
198.947193
 20
-24.49855
 30
0.0
 11
200.801151
 21
-22.644591
 31
0.0
  0
LINE
  8
LC-008-005-----0
  6
CONTINUOUS
  5
2FA
 10
197.17395
 20
-23.443366
 30
0.0
 11
198.98487
 21
-21.632445
 31
0.0
  0
LINE
  8
LC-008-005-----0
  6
CONTINUOUS
  5
2FB
 10
195.521688
 20
-22.2672
 30
0.0
 11
197.305219
 21
-20.483669
 31
0.0
  0
LINE
  8
LC-008-005-----0
  6
CONTINUOUS
  5
2FC
 10
193.985515
 20
-20.974947
 30
0.0
 11
195.75535
 21
-19.205112
 31
0.0
  0
LINE
  8
LC-008-005-----0
  6
CONTINUOUS
  5
2FD
 10
192.562807
 20
-19.569227
 30
0.0
 11
194.331328
 21
-17.800706
 31
0.0
  0
LINE
  8
LC-008-005-----0
  6
CONTINUOUS
  5
2FE
 10
191.189902
 20
-18.113705
 30
0.0
 11
192.958423
 21
-16.345184
 31
0.0
  0
LINE
  8
LC-008-005-----0
  6
CONTINUOUS
  5
2FF
 10
189.816997
 20
-16.658183
 30
0.0
 11
191.585518
 21
-14.889662
 31
0.0
  0
LINE
  8
LC-008-005-----0
  6
CONTINUOUS
  5
300
 10
188.444092
 20
-15.202661
 30
0.0
 11
190.212613
 21
-13.43414
 31
0.0
  0
LINE
  8
LC-008-005-----0
  6
CONTINUOUS
  5
301
 10
187.071187
 20
-13.747139
 30
0.0
 11
188.839707
 21
-11.978618
 31
0.0
  0
LINE
  8
LC-008-005-----0
  6
CONTINUOUS
  5
302
 10
185.698281
 20
-12.291617
 30
0.0
 11
187.466802
 21
-10.523096
 31
0.0
  0
LINE
  8
LC-008-005-----0
  6
CONTINUOUS
  5
303
 10
184.325376
 20
-10.836095
 30
0.0
 11
186.093897
 21
-9.067574
 31
0.0
  0
LINE
  8
LC-008-005-----0
  6
CONTINUOUS
  5
304
 10
182.952471
 20
-9.380573
 30
0.0
 11
184.720992
 21
-7.612052
 31
0.0
  0
LINE
  8
LC-008-005-----0
  6
CONTINUOUS
  5
305
 10
181.579566
 20
-7.925051
 30
0.0
 11
183.348087
 21
-6.15653
 31
0.0
  0
LINE
  8
LC-008-005-----0
  6
CONTINUOUS
  5
306
 10
180.206661
 20
-6.469529
 30
0.0
 11
181.975182
 21
-4.701008
 31
0.0
  0
LINE
  8
LC-008-005-----0
  6
CONTINUOUS
  5
307
 10
178.833756
 20
-5.014007
 30
0.0
 11
180.602277
 21
-3.245486
 31
0.0
  0
LINE
  8
LC-008-005-----0
  6
CONTINUOUS
  5
308
 10
177.460851
 20
-3.558485
 30
0.0
 11
179.229371
 21
-1.789964
 31
0.0
  0
LINE
  8
LC-008-005-----0
  6
CONTINUOUS
  5
309
 10
176.087945
 20
-2.102963
 30
0.0
 11
177.856466
 21
-0.334443
 31
0.0
  0
LINE
  8
LC-008-005-----0
  6
CONTINUOUS
  5
30A
 10
174.71504
 20
-0.647441
 30
0.0
 11
176.483561
 21
1.121079
 31
0.0
  0
LINE
  8
LC-008-005-----0
  6
CONTINUOUS
  5
30B
 10
173.342135
 20
0.808081
 30
0.0
 11
175.110656
 21
2.576601
 31
0.0
  0
LINE
  8
LC-008-005-----0
  6
CONTINUOUS
  5
30C
 10
171.96923
 20
2.263603
 30
0.0
 11
173.737751
 21
4.032123
 31
0.0
  0
LINE
  8
LC-008-005-----0
  6
CONTINUOUS
  5
30D
 10
170.596325
 20
3.719125
 30
0.0
 11
172.364846
 21
5.487645
 31
0.0
  0
LINE
  8
LC-008-005-----0
  6
CONTINUOUS
  5
30E
 10
169.22342
 20
5.174647
 30
0.0
 11
170.991941
 21
6.943167
 31
0.0
  0
LINE
  8
LC-008-005-----0
  6
CONTINUOUS
  5
30F
 10
167.850515
 20
6.630169
 30
0.0
 11
169.619036
 21
8.398689
 31
0.0
  0
LINE
  8
LC-008-005-----0
  6
CONTINUOUS
  5
310
 10
166.477609
 20
8.085691
 30
0.0
 11
168.24613
 21
9.854211
 31
0.0
  0
LINE
  8
LC-008-005-----0
  6
CONTINUOUS
  5
311
 10
165.104704
 20
9.541213
 30
0.0
 11
166.873225
 21
11.309733
 31
0.0
  0
LINE
  8
LC-008-005-----0
  6
CONTINUOUS
  5
312
 10
163.731799
 20
10.996734
 30
0.0
 11
165.50032
 21
12.765255
 31
0.0
  0
LINE
  8
LC-008-005-----0
  6
CONTINUOUS
  5
313
 10
162.358894
 20
12.452256
 30
0.0
 11
164.127415
 21
14.220777
 31
0.0
  0
LINE
  8
LC-008-005-----0
  6
CONTINUOUS
  5
314
 10
160.985989
 20
13.907778
 30
0.0
 11
162.75451
 21
15.676299
 31
0.0
  0
LINE
  8
LC-008-005-----0
  6
CONTINUOUS
  5
315
 10
159.613084
 20
15.3633
 30
0.0
 11
161.381605
 21
17.131821
 31
0.0
  0
LINE
  8
LC-008-005-----0
  6
CONTINUOUS
  5
316
 10
158.240179
 20
16.818822
 30
0.0
 11
160.0087
 21
18.587343
 31
0.0
  0
LINE
  8
LC-008-005-----0
  6
CONTINUOUS
  5
317
 10
155.425513
 20
16.832584
 30
0.0
 11
158.426204
 21
19.833275
 31
0.0
  0
LINE
  8
LC-008-005-----0
  6
CONTINUOUS
  5
318
 10
152.597086
 20
16.832584
 30
0.0
 11
155.597777
 21
19.833275
 31
0.0
  0
LINE
  8
LC-008-005-----0
  6
CONTINUOUS
  5
319
 10
149.768659
 20
16.832584
 30
0.0
 11
152.76935
 21
19.833275
 31
0.0
  0
LINE
  8
LC-008-005-----0
  6
CONTINUOUS
  5
31A
 10
146.940232
 20
16.832584
 30
0.0
 11
150.833333
 21
20.725686
 31
0.0
  0
LINE
  8
LC-008-005-----0
  6
CONTINUOUS
  5
31B
 10
143.812918
 20
16.533697
 30
0.0
 11
150.833333
 21
23.554113
 31
0.0
  0
LINE
  8
LC-008-005-----0
  6
CONTINUOUS
  5
31C
 10
140.284513
 20
15.833719
 30
0.0
 11
141.783378
 21
17.332584
 31
0.0
  0
LINE
  8
LC-008-005-----0
  6
CONTINUOUS
  5
31D
 10
137.744719
 20
16.122353
 30
0.0
 11
138.954951
 21
17.332584
 31
0.0
  0
LINE
  8
LC-008-005-----0
  6
CONTINUOUS
  5
31E
 10
135.675649
 20
16.881709
 30
0.0
 11
137.634533
 21
18.840594
 31
0.0
  0
LINE
  8
LC-008-005-----0
  6
CONTINUOUS
  5
31F
 10
134.134501
 20
18.168989
 30
0.0
 11
137.634533
 21
21.669021
 31
0.0
  0
LINE
  8
LC-008-005-----0
  6
CONTINUOUS
  5
320
 10
146.833445
 20
30.867933
 30
0.0
 11
147.798787
 21
31.833275
 31
0.0
  0
LINE
  8
LC-008-005-----0
  6
CONTINUOUS
  5
321
 10
134.134501
 20
20.997416
 30
0.0
 11
137.135783
 21
23.998698
 31
0.0
  0
LINE
  8
LC-008-005-----0
  6
CONTINUOUS
  5
322
 10
134.134501
 20
23.825843
 30
0.0
 11
137.135791
 21
26.827133
 31
0.0
  0
LINE
  8
LC-008-005-----0
  6
CONTINUOUS
  5
323
 10
131.813506
 20
24.333275
 30
0.0
 11
134.313506
 21
26.833275
 31
0.0
  0
LINE
  8
LC-008-005-----0
  6
CONTINUOUS
  5
324
 10
134.833445
 20
27.353215
 30
0.0
 11
137.135799
 21
29.655568
 31
0.0
  0
LINE
  8
LC-008-005-----0
  6
CONTINUOUS
  5
325
 10
128.985078
 20
24.333275
 30
0.0
 11
131.485078
 21
26.833275
 31
0.0
  0
LINE
  8
LC-008-005-----0
  6
CONTINUOUS
  5
326
 10
134.833445
 20
30.181642
 30
0.0
 11
134.985078
 21
30.333275
 31
0.0
  0
LINE
  8
LC-008-005-----0
  6
CONTINUOUS
  5
327
 10
126.994787
 20
25.171411
 30
0.0
 11
128.656651
 21
26.833275
 31
0.0
  0
LINE
  8
LC-008-005-----0
  6
CONTINUOUS
  5
328
 10
125.580574
 20
26.585625
 30
0.0
 11
127.832924
 21
28.837974
 31
0.0
  0
LINE
  8
LC-008-005-----0
  6
CONTINUOUS
  5
329
 10
123.51887
 20
27.352348
 30
0.0
 11
126.499797
 21
30.333275
 31
0.0
  0
LINE
  8
LC-008-005-----0
  6
CONTINUOUS
  5
32A
 10
121.35282
 20
28.014724
 30
0.0
 11
124.17761
 21
30.839515
 31
0.0
  0
LINE
  8
LC-008-005-----0
  6
CONTINUOUS
  5
32B
 10
119.186769
 20
28.677101
 30
0.0
 11
122.011445
 21
31.501777
 31
0.0
  0
LINE
  8
LC-008-005-----0
  6
CONTINUOUS
  5
32C
 10
117.020718
 20
29.339478
 30
0.0
 11
119.845281
 21
32.16404
 31
0.0
  0
LINE
  8
LC-008-005-----0
  6
CONTINUOUS
  5
32D
 10
114.854668
 20
30.001854
 30
0.0
 11
117.679117
 21
32.826303
 31
0.0
  0
LINE
  8
LC-008-005-----0
  6
CONTINUOUS
  5
32E
 10
112.688617
 20
30.664231
 30
0.0
 11
115.512953
 21
33.488566
 31
0.0
  0
LINE
  8
LC-008-005-----0
  6
CONTINUOUS
  5
32F
 10
110.522567
 20
31.326607
 30
0.0
 11
113.346788
 21
34.150829
 31
0.0
  0
LINE
  8
LC-008-005-----0
  6
CONTINUOUS
  5
330
 10
108.356516
 20
31.988984
 30
0.0
 11
111.180624
 21
34.813092
 31
0.0
  0
LINE
  8
LC-008-005-----0
  6
CONTINUOUS
  5
331
 10
106.190466
 20
32.65136
 30
0.0
 11
109.01446
 21
35.475355
 31
0.0
  0
LINE
  8
LC-008-005-----0
  6
CONTINUOUS
  5
332
 10
103.717405
 20
33.006727
 30
0.0
 11
106.848296
 21
36.137618
 31
0.0
  0
LINE
  8
LC-008-005-----0
  6
CONTINUOUS
  5
333
 10
100.989406
 20
33.107155
 30
0.0
 11
104.452074
 21
36.569823
 31
0.0
  0
LINE
  8
LC-008-005-----0
  6
CONTINUOUS
  5
334
 10
98.261407
 20
33.207583
 30
0.0
 11
101.710714
 21
36.65689
 31
0.0
  0
LINE
  8
LC-008-005-----0
  6
CONTINUOUS
  5
335
 10
95.833445
 20
33.608049
 30
0.0
 11
98.969353
 21
36.743956
 31
0.0
  0
LINE
  8
LC-008-005-----0
  6
CONTINUOUS
  5
336
 10
143.134545
 20
24.340606
 30
0.0
 11
150.627214
 21
31.833275
 31
0.0
  0
LINE
  8
LC-008-005-----0
  6
CONTINUOUS
  5
337
 10
142.634533
 20
21.012167
 30
0.0
 11
150.833333
 21
29.210967
 31
0.0
  0
LINE
  8
LC-008-005-----0
  6
CONTINUOUS
  5
338
 10
142.634533
 20
18.18374
 30
0.0
 11
150.833333
 21
26.38254
 31
0.0
  0
LINE
  8
LC-002-002-----0
  6
CONTINUOUS
  5
339
 10
358.405467
 20
16.07557
 30
0.0
 11
273.833558
 21
19.768059
 31
0.0
  0
LINE
  8
LC-002-002-----0
  6
CONTINUOUS
  5
33A
 10
105.548516
 20
36.535
 30
0.0
 11
97.899363
 21
36.777939
 31
0.0
  0
LINE
  8
LC-002-002-----0
  6
CONTINUOUS
  5
33B
 10
150.833419
 20
19.833275
 30
0.0
 11
158.833489
 21
19.833275
 31
0.0
  0
LINE
  8
LC-011-006-MLN-0
  6
DASHDOT
  5
33C
 10
360.862365
 20
-9.055518
 30
0.0
 11
200.864752
 21
-2.069871
 31
0.0
  0
LINE
  8
LC-002-002-----0
  6
CONTINUOUS
  5
33D
 10
150.833419
 20
19.833275
 30
0.0
 11
150.833419
 21
23.833275
 31
0.0
  0
LINE
  8
LC-002-002-----0
  6
CONTINUOUS
  5
33E
 10
125.833445
 20
30.333275
 30
0.0
 11
105.548516
 21
36.535
 31
0.0
  0
LINE
  8
LC-002-002-----0
  6
CONTINUOUS
  5
33F
 10
361.793088
 20
13.425282
 30
0.0
 11
359.830215
 21
-31.531885
 31
0.0
  0
LINE
  8
LC-002-002-----0
  6
CONTINUOUS
  5
340
 10
270.833558
 20
31.832584
 30
0.0
 11
270.833558
 21
19.833275
 31
0.0
  0
LINE
  8
LC-002-002-----0
  6
CONTINUOUS
  5
341
 10
125.384297
 20
26.781902
 30
0.0
 11
105.207795
 21
32.95186
 31
0.0
  0
LINE
  8
LC-002-002-----0
  6
CONTINUOUS
  5
342
 10
361.861229
 20
14.985973
 30
0.0
 11
358.405467
 21
16.07557
 31
0.0
  0
LINE
  8
LC-002-002-----0
  6
CONTINUOUS
  5
343
 10
359.762074
 20
-33.092576
 30
0.0
 11
356.224498
 21
-33.876838
 31
0.0
  0
LINE
  8
LC-002-002-----0
  6
CONTINUOUS
  5
344
 10
105.207795
 20
32.95186
 30
0.0
 11
95.833445
 21
33.296965
 31
0.0
  0
LINE
  8
LC-002-002-----0
  6
CONTINUOUS
  5
345
 10
316.459096
 20
32.95186
 30
0.0
 11
325.833535
 21
33.296968
 31
0.0
  0
LINE
  8
LC-002-002-----0
  6
CONTINUOUS
  5
346
 10
296.282594
 20
26.781902
 30
0.0
 11
316.459096
 21
32.95186
 31
0.0
  0
LINE
  8
LC-002-002-----0
  6
CONTINUOUS
  5
347
 10
295.833445
 20
30.333275
 30
0.0
 11
316.118375
 21
36.535
 31
0.0
  0
LINE
  8
LC-002-002-----0
  6
CONTINUOUS
  5
348
 10
316.118375
 20
36.535
 30
0.0
 11
323.767617
 21
36.777942
 31
0.0
  0
LINE
  8
LC-002-002-----0
  6
CONTINUOUS
  5
349
 10
147.633333
 20
16.832584
 30
0.0
 11
158.227198
 21
16.832584
 31
0.0
  0
LINE
  8
LC-002-002-----0
  6
CONTINUOUS
  5
34A
 10
361.793088
 20
13.425282
 30
0.0
 11
262.833445
 21
17.833275
 31
0.0
  0
LINE
  8
LC-002-002-----0
  6
CONTINUOUS
  5
34B
 10
356.224498
 20
-33.876838
 30
0.0
 11
209.743006
 21
-27.481321
 31
0.0
  0
LINE
  8
LC-002-002-----0
  6
CONTINUOUS
  5
34C
 10
158.833489
 20
19.833275
 30
0.0
 11
262.833445
 21
19.833275
 31
0.0
  0
ENDSEC
  0
EOF
