  0
SECTION
  2
HEADER
  9
$ACADVER
  1
AC1015
  9
$ACADMAINTVER
 70
     6
  9
$DWGCODEPAGE
  3
ANSI_1252
  9
$INSBASE
 10
0.0
 20
0.0
 30
0.0
  9
$EXTMIN
 10
-213.964515
 20
-186.717
 30
0.0
  9
$EXTMAX
 10
626.035485
 20
407.283
 30
0.0
  9
$LIMMIN
 10
-213.964515
 20
-186.717
  9
$LIMMAX
 10
626.035485
 20
407.283
  9
$ORTHOMODE
 70
     0
  9
$REGENMODE
 70
     1
  9
$FILLMODE
 70
     1
  9
$QTEXTMODE
 70
     0
  9
$MIRRTEXT
 70
     1
  9
$LTSCALE
 40
2.0
  9
$ATTMODE
 70
     1
  9
$TEXTSIZE
 40
2.5
  9
$TRACEWID
 40
1.0
  9
$TEXTSTYLE
  7
Standard
  9
$CLAYER
  8
0
  9
$CELTYPE
  6
ByLayer
  9
$CECOLOR
 62
     7
  9
$CELTSCALE
 40
1.0
  9
$DISPSILH
 70
     0
  9
$DIMSCALE
 40
2.0
  9
$DIMASZ
 40
3.5
  9
$DIMEXO
 40
0.625
  9
$DIMDLI
 40
3.75
  9
$DIMRND
 40
0.0
  9
$DIMDLE
 40
0.0
  9
$DIMEXE
 40
1.25
  9
$DIMTP
 40
0.0
  9
$DIMTM
 40
0.0
  9
$DIMTXT
 40
3.5
  9
$DIMCEN
 40
2.5
  9
$DIMTSZ
 40
0.0
  9
$DIMTOL
 70
     0
  9
$DIMLIM
 70
     0
  9
$DIMTIH
 70
     0
  9
$DIMTOH
 70
     0
  9
$DIMSE1
 70
     0
  9
$DIMSE2
 70
     0
  9
$DIMTAD
 70
     1
  9
$DIMZIN
 70
     8
  9
$DIMBLK
  1

  9
$DIMASO
 70
     1
  9
$DIMSHO
 70
     1
  9
$DIMPOST
  1

  9
$DIMAPOST
  1

  9
$DIMALT
 70
     0
  9
$DIMALTD
 70
     3
  9
$DIMALTF
 40
0.03937
  9
$DIMLFAC
 40
1.0
  9
$DIMTOFL
 70
     1
  9
$DIMTVP
 40
0.0
  9
$DIMTIX
 70
     0
  9
$DIMSOXD
 70
     0
  9
$DIMSAH
 70
     0
  9
$DIMBLK1
  1

  9
$DIMBLK2
  1

  9
$DIMSTYLE
  2
ISO-25
  9
$DIMCLRD
 70
     0
  9
$DIMCLRE
 70
     0
  9
$DIMCLRT
 70
     0
  9
$DIMTFAC
 40
1.0
  9
$DIMGAP
 40
0.625
  9
$DIMJUST
 70
     0
  9
$DIMSD1
 70
     0
  9
$DIMSD2
 70
     0
  9
$DIMTOLJ
 70
     0
  9
$DIMTZIN
 70
     8
  9
$DIMALTZ
 70
     0
  9
$DIMALTTZ
 70
     0
  9
$DIMUPT
 70
     0
  9
$DIMDEC
 70
     2
  9
$DIMTDEC
 70
     2
  9
$DIMALTU
 70
     2
  9
$DIMALTTD
 70
     3
  9
$DIMTXSTY
  7
Standard
  9
$DIMAUNIT
 70
     0
  9
$DIMADEC
 70
     0
  9
$DIMALTRND
 40
0.0
  9
$DIMAZIN
 70
     0
  9
$DIMDSEP
 70
    44
  9
$DIMATFIT
 70
     3
  9
$DIMFRAC
 70
     0
  9
$DIMLDRBLK
  1

  9
$DIMLUNIT
 70
     2
  9
$DIMLWD
 70
    -2
  9
$DIMLWE
 70
    -2
  9
$DIMTMOVE
 70
     0
  9
$LUNITS
 70
     2
  9
$LUPREC
 70
     4
  9
$SKETCHINC
 40
1.0
  9
$FILLETRAD
 40
10.0
  9
$AUNITS
 70
     0
  9
$AUPREC
 70
     0
  9
$MENU
  1
.
  9
$ELEVATION
 40
0.0
  9
$PELEVATION
 40
0.0
  9
$THICKNESS
 40
0.0
  9
$LIMCHECK
 70
     0
  9
$CHAMFERA
 40
10.0
  9
$CHAMFERB
 40
10.0
  9
$CHAMFERC
 40
20.0
  9
$CHAMFERD
 40
0.0
  9
$SKPOLY
 70
     0
  9
$TDCREATE
 40
2456107.597621065
  9
$TDUCREATE
 40
2456107.514287732
  9
$TDUPDATE
 40
2456107.597621076
  9
$TDUUPDATE
 40
2456107.514287743
  9
$TDINDWG
 40
0.0000000116
  9
$TDUSRTIMER
 40
0.0000000116
  9
$USRTIMER
 70
     1
  9
$ANGBASE
 50
0.0
  9
$ANGDIR
 70
     0
  9
$PDMODE
 70
     0
  9
$PDSIZE
 40
0.0
  9
$PLINEWID
 40
0.0
  9
$SPLFRAME
 70
     0
  9
$SPLINETYPE
 70
     6
  9
$SPLINESEGS
 70
     8
  9
$HANDSEED
  5
173
  9
$SURFTAB1
 70
     6
  9
$SURFTAB2
 70
     6
  9
$SURFTYPE
 70
     6
  9
$SURFU
 70
     6
  9
$SURFV
 70
     6
  9
$UCSBASE
  2

  9
$UCSNAME
  2

  9
$UCSORG
 10
0.0
 20
0.0
 30
0.0
  9
$UCSXDIR
 10
1.0
 20
0.0
 30
0.0
  9
$UCSYDIR
 10
0.0
 20
1.0
 30
0.0
  9
$UCSORTHOREF
  2

  9
$UCSORTHOVIEW
 70
     0
  9
$UCSORGTOP
 10
0.0
 20
0.0
 30
0.0
  9
$UCSORGBOTTOM
 10
0.0
 20
0.0
 30
0.0
  9
$UCSORGLEFT
 10
0.0
 20
0.0
 30
0.0
  9
$UCSORGRIGHT
 10
0.0
 20
0.0
 30
0.0
  9
$UCSORGFRONT
 10
0.0
 20
0.0
 30
0.0
  9
$UCSORGBACK
 10
0.0
 20
0.0
 30
0.0
  9
$PUCSBASE
  2

  9
$PUCSNAME
  2

  9
$PUCSORG
 10
0.0
 20
0.0
 30
0.0
  9
$PUCSXDIR
 10
1.0
 20
0.0
 30
0.0
  9
$PUCSYDIR
 10
0.0
 20
1.0
 30
0.0
  9
$PUCSORTHOREF
  2

  9
$PUCSORTHOVIEW
 70
     0
  9
$PUCSORGTOP
 10
0.0
 20
0.0
 30
0.0
  9
$PUCSORGBOTTOM
 10
0.0
 20
0.0
 30
0.0
  9
$PUCSORGLEFT
 10
0.0
 20
0.0
 30
0.0
  9
$PUCSORGRIGHT
 10
0.0
 20
0.0
 30
0.0
  9
$PUCSORGFRONT
 10
0.0
 20
0.0
 30
0.0
  9
$PUCSORGBACK
 10
0.0
 20
0.0
 30
0.0
  9
$USERI1
 70
     0
  9
$USERI2
 70
     0
  9
$USERI3
 70
     0
  9
$USERI4
 70
     0
  9
$USERI5
 70
     0
  9
$USERR1
 40
0.0
  9
$USERR2
 40
0.0
  9
$USERR3
 40
0.0
  9
$USERR4
 40
0.0
  9
$USERR5
 40
0.0
  9
$WORLDVIEW
 70
     1
  9
$SHADEDGE
 70
     3
  9
$SHADEDIF
 70
    70
  9
$TILEMODE
 70
     1
  9
$MAXACTVP
 70
    64
  9
$PINSBASE
 10
0.0
 20
0.0
 30
0.0
  9
$PLIMCHECK
 70
     0
  9
$PEXTMIN
 10
-213.964515
 20
-186.717
 30
0.0
  9
$PEXTMAX
 10
626.035485
 20
407.283
 30
0.0
  9
$PLIMMIN
 10
-213.964515
 20
-186.717
  9
$PLIMMAX
 10
626.035485
 20
407.283
  9
$UNITMODE
 70
     0
  9
$VISRETAIN
 70
     1
  9
$PLINEGEN
 70
     0
  9
$PSLTSCALE
 70
     1
  9
$TREEDEPTH
 70
  3020
  9
$CMLSTYLE
  2
Standard
  9
$CMLJUST
 70
     0
  9
$CMLSCALE
 40
20.0
  9
$PROXYGRAPHICS
 70
     1
  9
$MEASUREMENT
 70
     1
  9
$CELWEIGHT
370
    -1
  9
$ENDCAPS
280
     0
  9
$JOINSTYLE
280
     0
  9
$LWDISPLAY
290
     0
  9
$INSUNITS
 70
     4
  9
$HYPERLINKBASE
  1

  9
$STYLESHEET
  1

  9
$XEDIT
290
     1
  9
$CEPSNTYPE
380
     0
  9
$PSTYLEMODE
290
     1
  9
$FINGERPRINTGUID
  2
{FAEB1C30-E019-11D5-929B-00C0DF256EC4}
  9
$VERSIONGUID
  2
{FAEB1C32-E019-11D5-929B-00C0DF256EC4}
  9
$EXTNAMES
290
     1
  9
$PSVPSCALE
 40
0.0
  9
$OLESTARTUP
290
     0
  0
ENDSEC
  0
SECTION
  2
CLASSES
  0
CLASS
  1
ACDBDICTIONARYWDFLT
  2
AcDbDictionaryWithDefault
  3
ObjectDBX Classes
 90
        0
280
     0
281
     0
  0
CLASS
  1
ACDBPLACEHOLDER
  2
AcDbPlaceHolder
  3
ObjectDBX Classes
 90
        0
280
     0
281
     0
  0
CLASS
  1
LAYOUT
  2
AcDbLayout
  3
ObjectDBX Classes
 90
        0
280
     0
281
     0
  0
ENDSEC
  0
SECTION
  2
TABLES
  0
TABLE
  2
VPORT
  5
8
330
0
100
AcDbSymbolTable
 70
     2
  0
VPORT
  5
29
330
8
100
AcDbSymbolTableRecord
100
AcDbViewportTableRecord
  2
*ACTIVE
 70
     0
 10
0.0
 20
0.0
 11
1.0
 21
1.0
 12
206.035485
 22
110.283
 13
0.0
 23
0.0
 14
1.0
 24
1.0
 15
0.0
 25
0.0
 16
0.0
 26
0.0
 36
1.0
 17
0.0
 27
0.0
 37
0.0
 40
594.0
 41
1.414141
 42
50.0
 43
0.0
 44
0.0
 50
0.0
 51
0.0
 71
    16
 72
   100
 73
     1
 74
     0
 75
     0
 76
     0
 77
     0
 78
     0
281
     0
 65
     0
110
0.0
120
0.0
130
0.0
111
1.0
121
0.0
131
0.0
112
0.0
122
1.0
132
0.0
 79
     0
146
0.0
  0
ENDTAB
  0
TABLE
  2
LTYPE
  5
5
330
0
100
AcDbSymbolTable
 70
     3
  0
LTYPE
  5
14
330
5
100
AcDbSymbolTableRecord
100
AcDbLinetypeTableRecord
  2
ByBlock
 70
     0
  3

 72
    65
 73
     0
 40
0.0
  0
LTYPE
  5
15
330
5
100
AcDbSymbolTableRecord
100
AcDbLinetypeTableRecord
  2
ByLayer
 70
     0
  3

 72
    65
 73
     0
 40
0.0
  0
LTYPE
  5
16
330
5
100
AcDbSymbolTableRecord
100
AcDbLinetypeTableRecord
  2
Continuous
 70
     0
  3
Solid line
 72
    65
 73
     0
 40
0.0
  0
LTYPE
  5
2A
330
5
100
AcDbSymbolTableRecord
100
AcDbLinetypeTableRecord
  2
DASHED
 70
     0
  3
__ __ __ __ __
 72
    65
 73
     2
 40
6.25
 49
5.0
 74
     4
 75
     0
340
0
 46
1.0
 50
0.0
 44
0.0
 45
0.0
 49
-1.25
 74
     4
 75
     0
340
0
 46
1.0
 50
0.0
 44
0.0
 45
0.0
  0
LTYPE
  5
44
330
5
100
AcDbSymbolTableRecord
100
AcDbLinetypeTableRecord
  2
DASHDOT
 70
     0
  3
__ . __ . __ . __ . __
 72
    65
 73
     4
 40
7.5
 49
5.0
 74
     4
 75
     0
340
0
 46
1.0
 50
0.0
 44
0.0
 45
0.0
 49
-1.25
 74
     4
 75
     0
340
0
 46
1.0
 50
0.0
 44
0.0
 45
0.0
 49
0.0
 74
     4
 75
     0
340
0
 46
1.0
 50
0.0
 44
0.0
 45
0.0
 49
-1.25
 74
     4
 75
     0
340
0
 46
1.0
 50
0.0
 44
0.0
 45
0.0
  0
ENDTAB
  0
TABLE
  2
LAYER
  5
2
330
0
100
AcDbSymbolTable
 70
     9
  0
LAYER
  5
10
330
2
100
AcDbSymbolTableRecord
100
AcDbLayerTableRecord
  2
0
 70
     0
 62
     7
  6
Continuous
370
    -3
390
F
  0
LAYER
  5
2B
330
2
100
AcDbSymbolTableRecord
100
AcDbLayerTableRecord
  2
LC-INFO-1-2-mm-A3-0
 70
     1
 62
     7
  6
ByBlock
370
    -3
390
F
  0
LAYER
  5
2C
330
2
100
AcDbSymbolTableRecord
100
AcDbLayerTableRecord
  2
LC-CUT-HIDDEN
 70
     0
 62
     7
  6
DASHED
370
    -3
390
F
  0
LAYER
  5
2D
330
2
100
AcDbSymbolTableRecord
100
AcDbLayerTableRecord
  2
LC-VIEWPORT
 70
     0
 62
     7
  6
ByBlock
370
    -3
390
F
  0
LAYER
  5
2E
330
2
100
AcDbSymbolTableRecord
100
AcDbLayerTableRecord
  2
LC-3D-HIDDEN
 70
     0
 62
     9
  6
DASHED
370
    -3
390
F
  0
LAYER
  5
30
330
2
100
AcDbSymbolTableRecord
100
AcDbLayerTableRecord
  2
LC-001-002-----0
 70
     0
 62
     1
  6
ByBlock
370
    -3
390
F
  0
LAYER
  5
34
330
2
100
AcDbSymbolTableRecord
100
AcDbLayerTableRecord
  2
LC-002-003-----0
 70
     0
 62
     2
  6
ByBlock
370
    -3
390
F
  0
LAYER
  5
36
330
2
100
AcDbSymbolTableRecord
100
AcDbLayerTableRecord
  2
Defpoints
 70
     0
 62
     7
  6
Continuous
290
     0
370
    -3
390
F
  0
LAYER
  5
D0
330
2
100
AcDbSymbolTableRecord
100
AcDbLayerTableRecord
  2
LC-003-005-----0
 70
     0
 62
     2
  6
ByBlock
370
    -3
390
F
  0
ENDTAB
  0
TABLE
  2
STYLE
  5
3
330
0
100
AcDbSymbolTable
 70
     3
  0
STYLE
  5
11
330
3
100
AcDbSymbolTableRecord
100
AcDbTextStyleTableRecord
  2
Standard
 70
     0
 40
0.0
 41
1.0
 50
0.0
 71
     0
 42
2.5
  3
txt
  4

  0
STYLE
  5
2F
330
3
100
AcDbSymbolTableRecord
100
AcDbTextStyleTableRecord
  2
LCTX15-400-0-0-Arial
 70
     0
 40
0.0
 41
0.9
 50
0.0
 71
     0
 42
3.5
  3

  4

1001
ACAD
1000
Arial
1071
 16777218
  0
STYLE
  5
32
330
3
100
AcDbSymbolTableRecord
100
AcDbTextStyleTableRecord
  2
LCTX15-400-0-0pDIN-Schrift
 70
     0
 40
2.5
 41
0.8
 50
15.0
 71
     0
 42
3.5
  3
STANDARD
  4

  0
ENDTAB
  0
TABLE
  2
VIEW
  5
6
330
0
100
AcDbSymbolTable
 70
     0
  0
ENDTAB
  0
TABLE
  2
UCS
  5
7
330
0
100
AcDbSymbolTable
 70
     0
  0
ENDTAB
  0
TABLE
  2
APPID
  5
9
330
0
100
AcDbSymbolTable
 70
     1
  0
APPID
  5
12
330
9
100
AcDbSymbolTableRecord
100
AcDbRegAppTableRecord
  2
ACAD
 70
     0
  0
ENDTAB
  0
TABLE
  2
DIMSTYLE
  5
A
330
0
100
AcDbSymbolTable
 70
     3
100
AcDbDimStyleTable
  0
DIMSTYLE
105
27
330
A
100
AcDbSymbolTableRecord
100
AcDbDimStyleTableRecord
  2
ISO-25
 70
     0
 41
2.5
 42
0.625
 43
3.75
 44
1.25
 73
     0
 74
     0
 77
     1
 78
     8
140
2.5
141
2.5
143
0.03937
147
0.625
171
     3
172
     1
271
     2
272
     2
274
     3
278
    44
283
     0
284
     8
340
11
  0
DIMSTYLE
105
33
102
{ACAD_REACTORS
330
35
330
C0
102
}
330
A
100
AcDbSymbolTableRecord
100
AcDbDimStyleTableRecord
  2
LC-DIM-L-0140-02-02
 70
     0
 40
2.0
 41
14.0
 42
0.0
 43
7.5
 44
1.8
 73
     0
 74
     0
 77
     1
 78
     8
 79
     2
140
14.0
141
0.0
146
0.71
147
1.5
176
     2
177
     2
178
     2
179
     2
271
     2
278
    44
289
     1
340
32
  0
DIMSTYLE
105
47
102
{ACAD_REACTORS
330
48
330
5D
102
}
330
A
100
AcDbSymbolTableRecord
100
AcDbDimStyleTableRecord
  2
LC-DIM-L-0140-01-02
 70
     0
 40
2.0
 41
14.0
 42
0.0
 43
7.5
 44
1.8
 73
     0
 74
     0
 77
     1
 78
     8
 79
     2
140
14.0
141
0.0
146
0.71
147
1.5
176
     2
177
     2
178
     2
179
     1
271
     1
278
    44
289
     1
340
32
  0
ENDTAB
  0
TABLE
  2
BLOCK_RECORD
  5
1
330
0
100
AcDbSymbolTable
 70
     7
  0
BLOCK_RECORD
  5
1F
330
1
100
AcDbSymbolTableRecord
100
AcDbBlockTableRecord
  2
*Model_Space
340
22
  0
BLOCK_RECORD
  5
1B
330
1
100
AcDbSymbolTableRecord
100
AcDbBlockTableRecord
  2
*Paper_Space
340
1E
  0
BLOCK_RECORD
  5
23
330
1
100
AcDbSymbolTableRecord
100
AcDbBlockTableRecord
  2
*Paper_Space0
340
26
  0
BLOCK_RECORD
  5
37
330
1
100
AcDbSymbolTableRecord
100
AcDbBlockTableRecord
  2
*D1
340
0
  0
BLOCK_RECORD
  5
49
330
1
100
AcDbSymbolTableRecord
100
AcDbBlockTableRecord
  2
*D2
340
0
  0
BLOCK_RECORD
  5
5E
330
1
100
AcDbSymbolTableRecord
100
AcDbBlockTableRecord
  2
*D3
340
0
  0
BLOCK_RECORD
  5
C1
330
1
100
AcDbSymbolTableRecord
100
AcDbBlockTableRecord
  2
*D4
340
0
  0
BLOCK_RECORD
  5
CD
330
1
100
AcDbSymbolTableRecord
100
AcDbBlockTableRecord
  2
*X15
340
0
102
{BLKREFS
331
140
102
}
  0
BLOCK_RECORD
  5
141
330
1
100
AcDbSymbolTableRecord
100
AcDbBlockTableRecord
  2
*X26
340
0
102
{BLKREFS
331
171
102
}
  0
ENDTAB
  0
ENDSEC
  0
SECTION
  2
BLOCKS
  0
BLOCK
  5
20
330
1F
100
AcDbEntity
  8
0
100
AcDbBlockBegin
  2
*Model_Space
 70
     0
 71
     0
 10
0.0
 20
0.0
 30
0.0
  3
*Model_Space
  1

  0
ENDBLK
  5
21
330
1F
100
AcDbEntity
  8
0
100
AcDbBlockEnd
  0
BLOCK
  5
1C
330
1B
100
AcDbEntity
 67
     1
  8
0
100
AcDbBlockBegin
  2
*Paper_Space
 70
     0
 71
     0
 10
0.0
 20
0.0
 30
0.0
  3
*Paper_Space
  1

  0
ENDBLK
  5
1D
330
1B
100
AcDbEntity
 67
     1
  8
0
100
AcDbBlockEnd
  0
BLOCK
  5
24
330
23
100
AcDbEntity
  8
0
100
AcDbBlockBegin
  2
*Paper_Space0
 70
     0
 71
     0
 10
0.0
 20
0.0
 30
0.0
  3
*Paper_Space0
  1

  0
ENDBLK
  5
25
330
23
100
AcDbEntity
  8
0
100
AcDbBlockEnd
  0
BLOCK
  5
41
330
37
100
AcDbEntity
  8
0
100
AcDbBlockBegin
  2
*D1
 70
     1
 71
     0
 10
0.0
 20
0.0
 30
0.0
  3
*D1
  1

  0
LINE
  5
38
330
37
100
AcDbEntity
  8
LC-002-003-----0
 62
     2
370
    -2
100
AcDbLine
 10
278.358932
 20
175.601339
 30
0.0
 11
317.921242
 21
173.874011
 31
0.0
  0
LINE
  5
39
330
37
100
AcDbEntity
  8
LC-002-003-----0
 62
     2
370
    -2
100
AcDbLine
 10
275.087478
 20
100.672722
 30
0.0
 11
314.649788
 21
98.945395
 31
0.0
  0
LINE
  5
3A
330
37
100
AcDbEntity
  8
LC-002-003-----0
 62
     2
370
    -2
100
AcDbLine
 10
313.103326
 20
146.057691
 30
0.0
 11
312.274557
 21
127.075775
 31
0.0
  0
SOLID
  5
3B
330
37
100
AcDbEntity
  8
LC-002-003-----0
 62
     2
100
AcDbTrace
 10
317.765551
 20
145.854134
 30
0.0
 11
308.441101
 21
146.261248
 31
0.0
 12
314.324668
 22
174.031041
 32
0.0
 13
314.324668
 23
174.031041
 33
0.0
  0
SOLID
  5
3C
330
37
100
AcDbEntity
  8
LC-002-003-----0
 62
     2
100
AcDbTrace
 10
307.612332
 20
127.279332
 30
0.0
 11
316.936782
 21
126.872217
 31
0.0
 12
311.053214
 22
99.102424
 32
0.0
 13
311.053214
 23
99.102424
 33
0.0
  0
MTEXT
  5
3D
330
37
100
AcDbEntity
  8
LC-002-003-----0
 62
     2
100
AcDbMText
 10
282.409044
 20
149.151096
 30
0.0
 40
28.0
 41
0.0
 71
     5
 72
     1
  1
\A1; DN70 
  7
LCTX15-400-0-0pDIN-Schrift
 11
0.04361938736533601
 21
0.9990482215818578
 31
0.0
 73
     1
 44
1.0
  0
POINT
  5
3E
330
37
100
AcDbEntity
  8
Defpoints
 62
     0
100
AcDbPoint
 10
278.358932
 20
175.601339
 30
0.0
  0
POINT
  5
3F
330
37
100
AcDbEntity
  8
Defpoints
 62
     0
100
AcDbPoint
 10
275.087478
 20
100.672722
 30
0.0
  0
POINT
  5
40
330
37
100
AcDbEntity
  8
Defpoints
 62
     0
100
AcDbPoint
 10
311.053214
 20
99.102424
 30
0.0
  0
ENDBLK
  5
42
330
37
100
AcDbEntity
  8
0
100
AcDbBlockEnd
  0
BLOCK
  5
53
330
49
100
AcDbEntity
  8
0
100
AcDbBlockBegin
  2
*D2
 70
     1
 71
     0
 10
0.0
 20
0.0
 30
0.0
  3
*D2
  1

  0
LINE
  5
4A
330
49
100
AcDbEntity
  8
LC-002-003-----0
 62
     2
370
    -2
100
AcDbLine
 10
54.219848
 20
189.883806
 30
0.0
 11
54.219848
 21
227.6
 31
0.0
  0
LINE
  5
4B
330
49
100
AcDbEntity
  8
LC-002-003-----0
 62
     2
370
    -2
100
AcDbLine
 10
206.219762
 20
189.883806
 30
0.0
 11
206.219762
 21
227.6
 31
0.0
  0
LINE
  5
4C
330
49
100
AcDbEntity
  8
LC-002-003-----0
 62
     2
370
    -2
100
AcDbLine
 10
82.219848
 20
224.0
 30
0.0
 11
178.219762
 21
224.0
 31
0.0
  0
SOLID
  5
4D
330
49
100
AcDbEntity
  8
LC-002-003-----0
 62
     2
100
AcDbTrace
 10
82.219848
 20
228.666667
 30
0.0
 11
82.219848
 21
219.333333
 31
0.0
 12
54.219848
 22
224.0
 32
0.0
 13
54.219848
 23
224.0
 33
0.0
  0
SOLID
  5
4E
330
49
100
AcDbEntity
  8
LC-002-003-----0
 62
     2
100
AcDbTrace
 10
178.219762
 20
219.333333
 30
0.0
 11
178.219762
 21
228.666667
 31
0.0
 12
206.219762
 22
224.0
 32
0.0
 13
206.219762
 23
224.0
 33
0.0
  0
MTEXT
  5
4F
330
49
100
AcDbEntity
  8
LC-002-003-----0
 62
     2
100
AcDbMText
 10
129.406431
 20
254.8
 30
0.0
 40
28.0
 41
0.0
 71
     5
 72
     1
  1
%%c\A1;152
  7
LCTX15-400-0-0pDIN-Schrift
 73
     1
 44
1.0
  0
POINT
  5
50
330
49
100
AcDbEntity
  8
Defpoints
 62
     0
100
AcDbPoint
 10
54.219848
 20
189.883806
 30
0.0
  0
POINT
  5
51
330
49
100
AcDbEntity
  8
Defpoints
 62
     0
100
AcDbPoint
 10
206.219762
 20
189.883806
 30
0.0
  0
POINT
  5
52
330
49
100
AcDbEntity
  8
Defpoints
 62
     0
100
AcDbPoint
 10
206.219762
 20
224.0
 30
0.0
  0
ENDBLK
  5
54
330
49
100
AcDbEntity
  8
0
100
AcDbBlockEnd
  0
BLOCK
  5
68
330
5E
100
AcDbEntity
  8
0
100
AcDbBlockBegin
  2
*D3
 70
     1
 71
     0
 10
0.0
 20
0.0
 30
0.0
  3
*D3
  1

  0
LINE
  5
5F
330
5E
100
AcDbEntity
  8
LC-002-003-----0
 62
     2
370
    -2
100
AcDbLine
 10
280.241663
 20
137.983411
 30
0.0
 11
280.241663
 21
36.4
 31
0.0
  0
LINE
  5
60
330
5E
100
AcDbEntity
  8
LC-002-003-----0
 62
     2
370
    -2
100
AcDbLine
 10
130.219874
 20
106.997779
 30
0.0
 11
130.219874
 21
36.4
 31
0.0
  0
LINE
  5
61
330
5E
100
AcDbEntity
  8
LC-002-003-----0
 62
     2
370
    -2
100
AcDbLine
 10
252.241663
 20
40.0
 30
0.0
 11
158.219874
 21
40.0
 31
0.0
  0
SOLID
  5
62
330
5E
100
AcDbEntity
  8
LC-002-003-----0
 62
     2
100
AcDbTrace
 10
252.241663
 20
35.333333
 30
0.0
 11
252.241663
 21
44.666667
 31
0.0
 12
280.241663
 22
40.0
 32
0.0
 13
280.241663
 23
40.0
 33
0.0
  0
SOLID
  5
63
330
5E
100
AcDbEntity
  8
LC-002-003-----0
 62
     2
100
AcDbTrace
 10
158.219874
 20
44.666667
 30
0.0
 11
158.219874
 21
35.333333
 31
0.0
 12
130.219874
 22
40.0
 32
0.0
 13
130.219874
 23
40.0
 33
0.0
  0
MTEXT
  5
64
330
5E
100
AcDbEntity
  8
LC-002-003-----0
 62
     2
100
AcDbMText
 10
233.626739
 20
70.8
 30
0.0
 40
28.0
 41
0.0
 71
     5
 72
     1
  1
\A1;150
  7
LCTX15-400-0-0pDIN-Schrift
 73
     1
 44
1.0
  0
POINT
  5
65
330
5E
100
AcDbEntity
  8
Defpoints
 62
     0
100
AcDbPoint
 10
280.241663
 20
137.983411
 30
0.0
  0
POINT
  5
66
330
5E
100
AcDbEntity
  8
Defpoints
 62
     0
100
AcDbPoint
 10
130.219874
 20
106.997779
 30
0.0
  0
POINT
  5
67
330
5E
100
AcDbEntity
  8
Defpoints
 62
     0
100
AcDbPoint
 10
130.219874
 20
40.0
 30
0.0
  0
ENDBLK
  5
69
330
5E
100
AcDbEntity
  8
0
100
AcDbBlockEnd
  0
BLOCK
  5
CB
330
C1
100
AcDbEntity
  8
0
100
AcDbBlockBegin
  2
*D4
 70
     1
 71
     0
 10
0.0
 20
0.0
 30
0.0
  3
*D4
  1

  0
LINE
  5
C2
330
C1
100
AcDbEntity
  8
LC-002-003-----0
 62
     2
370
    -2
100
AcDbLine
 10
275.087478
 20
100.672722
 30
0.0
 11
35.651167
 21
100.672722
 31
0.0
  0
LINE
  5
C3
330
C1
100
AcDbEntity
  8
LC-002-003-----0
 62
     2
370
    -2
100
AcDbLine
 10
54.219762
 20
183.883806
 30
0.0
 11
35.651167
 21
183.883806
 31
0.0
  0
LINE
  5
C4
330
C1
100
AcDbEntity
  8
LC-002-003-----0
 62
     2
370
    -2
100
AcDbLine
 10
39.251167
 20
128.672722
 30
0.0
 11
39.251167
 21
155.883806
 31
0.0
  0
SOLID
  5
C5
330
C1
100
AcDbEntity
  8
LC-002-003-----0
 62
     2
100
AcDbTrace
 10
34.5845
 20
128.672722
 30
0.0
 11
43.917833
 21
128.672722
 31
0.0
 12
39.251167
 22
100.672722
 32
0.0
 13
39.251167
 23
100.672722
 33
0.0
  0
SOLID
  5
C6
330
C1
100
AcDbEntity
  8
LC-002-003-----0
 62
     2
100
AcDbTrace
 10
43.917833
 20
155.883806
 30
0.0
 11
34.5845
 21
155.883806
 31
0.0
 12
39.251167
 22
183.883806
 32
0.0
 13
39.251167
 23
183.883806
 33
0.0
  0
MTEXT
  5
C7
330
C1
100
AcDbEntity
  8
LC-002-003-----0
 62
     2
100
AcDbMText
 10
8.451167
 20
142.278264
 30
0.0
 40
28.0
 41
0.0
 71
     5
 72
     1
  1
\A1;85
  7
LCTX15-400-0-0pDIN-Schrift
 11
6.123031769111886E-17
 21
1.0
 31
0.0
 73
     1
 44
1.0
  0
POINT
  5
C8
330
C1
100
AcDbEntity
  8
Defpoints
 62
     0
100
AcDbPoint
 10
275.087478
 20
100.672722
 30
0.0
  0
POINT
  5
C9
330
C1
100
AcDbEntity
  8
Defpoints
 62
     0
100
AcDbPoint
 10
54.219762
 20
183.883806
 30
0.0
  0
POINT
  5
CA
330
C1
100
AcDbEntity
  8
Defpoints
 62
     0
100
AcDbPoint
 10
39.251167
 20
183.883806
 30
0.0
  0
ENDBLK
  5
CC
330
C1
100
AcDbEntity
  8
0
100
AcDbBlockEnd
  0
BLOCK
  5
CE
330
CD
100
AcDbEntity
  8
0
100
AcDbBlockBegin
  2
*X15
 70
     1
 71
     0
 10
0.0
 20
0.0
 30
0.0
  3
*X15
  1

  4
*X1
  0
LINE
  5
D1
330
CD
100
AcDbEntity
  8
LC-003-005-----0
 62
     7
370
    25
100
AcDbLine
 10
276.305157
 20
100.942675
 30
0.0
 11
278.393253
 21
103.030771
 31
0.0
  0
LINE
  5
D2
330
CD
100
AcDbEntity
  8
LC-003-005-----0
 62
     7
370
    25
100
AcDbLine
 10
273.285455
 20
100.7514
 30
0.0
 11
275.683151
 21
103.149096
 31
0.0
  0
LINE
  5
D3
330
CD
100
AcDbEntity
  8
LC-003-005-----0
 62
     7
370
    25
100
AcDbLine
 10
270.575353
 20
100.869726
 30
0.0
 11
272.97305
 21
103.267422
 31
0.0
  0
LINE
  5
D4
330
CD
100
AcDbEntity
  8
LC-003-005-----0
 62
     7
370
    25
100
AcDbLine
 10
267.865252
 20
100.988052
 30
0.0
 11
270.262948
 21
103.385748
 31
0.0
  0
LINE
  5
D5
330
CD
100
AcDbEntity
  8
LC-003-005-----0
 62
     7
370
    25
100
AcDbLine
 10
265.15515
 20
101.106377
 30
0.0
 11
267.552846
 21
103.504073
 31
0.0
  0
LINE
  5
D6
330
CD
100
AcDbEntity
  8
LC-003-005-----0
 62
     7
370
    25
100
AcDbLine
 10
262.445049
 20
101.224703
 30
0.0
 11
264.842745
 21
103.622399
 31
0.0
  0
LINE
  5
D7
330
CD
100
AcDbEntity
  8
LC-003-005-----0
 62
     7
370
    25
100
AcDbLine
 10
259.734947
 20
101.343028
 30
0.0
 11
262.132643
 21
103.740724
 31
0.0
  0
LINE
  5
D8
330
CD
100
AcDbEntity
  8
LC-003-005-----0
 62
     7
370
    25
100
AcDbLine
 10
257.024846
 20
101.461354
 30
0.0
 11
259.422542
 21
103.85905
 31
0.0
  0
LINE
  5
D9
330
CD
100
AcDbEntity
  8
LC-003-005-----0
 62
     7
370
    25
100
AcDbLine
 10
254.314744
 20
101.57968
 30
0.0
 11
256.71244
 21
103.977376
 31
0.0
  0
LINE
  5
DA
330
CD
100
AcDbEntity
  8
LC-003-005-----0
 62
     7
370
    25
100
AcDbLine
 10
251.604643
 20
101.698005
 30
0.0
 11
254.002339
 21
104.095701
 31
0.0
  0
LINE
  5
DB
330
CD
100
AcDbEntity
  8
LC-003-005-----0
 62
     7
370
    25
100
AcDbLine
 10
248.894541
 20
101.816331
 30
0.0
 11
251.292237
 21
104.214027
 31
0.0
  0
LINE
  5
DC
330
CD
100
AcDbEntity
  8
LC-003-005-----0
 62
     7
370
    25
100
AcDbLine
 10
246.18444
 20
101.934656
 30
0.0
 11
248.582136
 21
104.332352
 31
0.0
  0
LINE
  5
DD
330
CD
100
AcDbEntity
  8
LC-003-005-----0
 62
     7
370
    25
100
AcDbLine
 10
243.474338
 20
102.052982
 30
0.0
 11
245.872034
 21
104.450678
 31
0.0
  0
LINE
  5
DE
330
CD
100
AcDbEntity
  8
LC-003-005-----0
 62
     7
370
    25
100
AcDbLine
 10
240.764237
 20
102.171307
 30
0.0
 11
243.161933
 21
104.569004
 31
0.0
  0
LINE
  5
DF
330
CD
100
AcDbEntity
  8
LC-003-005-----0
 62
     7
370
    25
100
AcDbLine
 10
238.054135
 20
102.289633
 30
0.0
 11
240.451831
 21
104.687329
 31
0.0
  0
LINE
  5
E0
330
CD
100
AcDbEntity
  8
LC-003-005-----0
 62
     7
370
    25
100
AcDbLine
 10
235.344034
 20
102.407959
 30
0.0
 11
237.74173
 21
104.805655
 31
0.0
  0
LINE
  5
E1
330
CD
100
AcDbEntity
  8
LC-003-005-----0
 62
     7
370
    25
100
AcDbLine
 10
232.633932
 20
102.526284
 30
0.0
 11
235.031628
 21
104.92398
 31
0.0
  0
LINE
  5
E2
330
CD
100
AcDbEntity
  8
LC-003-005-----0
 62
     7
370
    25
100
AcDbLine
 10
229.92383
 20
102.64461
 30
0.0
 11
232.321526
 21
105.042306
 31
0.0
  0
LINE
  5
E3
330
CD
100
AcDbEntity
  8
LC-003-005-----0
 62
     7
370
    25
100
AcDbLine
 10
227.213729
 20
102.762935
 30
0.0
 11
229.611425
 21
105.160631
 31
0.0
  0
LINE
  5
E4
330
CD
100
AcDbEntity
  8
LC-003-005-----0
 62
     7
370
    25
100
AcDbLine
 10
224.503627
 20
102.881261
 30
0.0
 11
226.901323
 21
105.278957
 31
0.0
  0
LINE
  5
E5
330
CD
100
AcDbEntity
  8
LC-003-005-----0
 62
     7
370
    25
100
AcDbLine
 10
221.793526
 20
102.999587
 30
0.0
 11
224.191222
 21
105.397283
 31
0.0
  0
LINE
  5
E6
330
CD
100
AcDbEntity
  8
LC-003-005-----0
 62
     7
370
    25
100
AcDbLine
 10
219.083424
 20
103.117912
 30
0.0
 11
221.48112
 21
105.515608
 31
0.0
  0
LINE
  5
E7
330
CD
100
AcDbEntity
  8
LC-003-005-----0
 62
     7
370
    25
100
AcDbLine
 10
216.373323
 20
103.236238
 30
0.0
 11
218.771019
 21
105.633934
 31
0.0
  0
LINE
  5
E8
330
CD
100
AcDbEntity
  8
LC-003-005-----0
 62
     7
370
    25
100
AcDbLine
 10
213.663221
 20
103.354563
 30
0.0
 11
216.060917
 21
105.752259
 31
0.0
  0
LINE
  5
E9
330
CD
100
AcDbEntity
  8
LC-003-005-----0
 62
     7
370
    25
100
AcDbLine
 10
210.95312
 20
103.472889
 30
0.0
 11
213.350816
 21
105.870585
 31
0.0
  0
LINE
  5
EA
330
CD
100
AcDbEntity
  8
LC-003-005-----0
 62
     7
370
    25
100
AcDbLine
 10
208.243018
 20
103.591215
 30
0.0
 11
210.640714
 21
105.988911
 31
0.0
  0
LINE
  5
EB
330
CD
100
AcDbEntity
  8
LC-003-005-----0
 62
     7
370
    25
100
AcDbLine
 10
205.532917
 20
103.70954
 30
0.0
 11
207.930613
 21
106.107236
 31
0.0
  0
LINE
  5
EC
330
CD
100
AcDbEntity
  8
LC-003-005-----0
 62
     7
370
    25
100
AcDbLine
 10
202.822815
 20
103.827866
 30
0.0
 11
205.220511
 21
106.225562
 31
0.0
  0
LINE
  5
ED
330
CD
100
AcDbEntity
  8
LC-003-005-----0
 62
     7
370
    25
100
AcDbLine
 10
200.112714
 20
103.946191
 30
0.0
 11
202.51041
 21
106.343887
 31
0.0
  0
LINE
  5
EE
330
CD
100
AcDbEntity
  8
LC-003-005-----0
 62
     7
370
    25
100
AcDbLine
 10
197.402612
 20
104.064517
 30
0.0
 11
199.800308
 21
106.462213
 31
0.0
  0
LINE
  5
EF
330
CD
100
AcDbEntity
  8
LC-003-005-----0
 62
     7
370
    25
100
AcDbLine
 10
194.69251
 20
104.182842
 30
0.0
 11
197.090207
 21
106.580539
 31
0.0
  0
LINE
  5
F0
330
CD
100
AcDbEntity
  8
LC-003-005-----0
 62
     7
370
    25
100
AcDbLine
 10
191.982409
 20
104.301168
 30
0.0
 11
194.380105
 21
106.698864
 31
0.0
  0
LINE
  5
F1
330
CD
100
AcDbEntity
  8
LC-003-005-----0
 62
     7
370
    25
100
AcDbLine
 10
189.272307
 20
104.419494
 30
0.0
 11
191.670003
 21
106.81719
 31
0.0
  0
LINE
  5
F2
330
CD
100
AcDbEntity
  8
LC-003-005-----0
 62
     7
370
    25
100
AcDbLine
 10
186.562206
 20
104.537819
 30
0.0
 11
188.959902
 21
106.935515
 31
0.0
  0
LINE
  5
F3
330
CD
100
AcDbEntity
  8
LC-003-005-----0
 62
     7
370
    25
100
AcDbLine
 10
183.852104
 20
104.656145
 30
0.0
 11
186.2498
 21
107.053841
 31
0.0
  0
LINE
  5
F4
330
CD
100
AcDbEntity
  8
LC-003-005-----0
 62
     7
370
    25
100
AcDbLine
 10
181.142003
 20
104.77447
 30
0.0
 11
183.539699
 21
107.172166
 31
0.0
  0
LINE
  5
F5
330
CD
100
AcDbEntity
  8
LC-003-005-----0
 62
     7
370
    25
100
AcDbLine
 10
178.431901
 20
104.892796
 30
0.0
 11
180.829597
 21
107.290492
 31
0.0
  0
LINE
  5
F6
330
CD
100
AcDbEntity
  8
LC-003-005-----0
 62
     7
370
    25
100
AcDbLine
 10
175.7218
 20
105.011122
 30
0.0
 11
178.119496
 21
107.408818
 31
0.0
  0
LINE
  5
F7
330
CD
100
AcDbEntity
  8
LC-003-005-----0
 62
     7
370
    25
100
AcDbLine
 10
173.011698
 20
105.129447
 30
0.0
 11
175.409394
 21
107.527143
 31
0.0
  0
LINE
  5
F8
330
CD
100
AcDbEntity
  8
LC-003-005-----0
 62
     7
370
    25
100
AcDbLine
 10
170.301597
 20
105.247773
 30
0.0
 11
172.699293
 21
107.645469
 31
0.0
  0
LINE
  5
F9
330
CD
100
AcDbEntity
  8
LC-003-005-----0
 62
     7
370
    25
100
AcDbLine
 10
167.591495
 20
105.366098
 30
0.0
 11
169.989191
 21
107.763794
 31
0.0
  0
LINE
  5
FA
330
CD
100
AcDbEntity
  8
LC-003-005-----0
 62
     7
370
    25
100
AcDbLine
 10
164.881394
 20
105.484424
 30
0.0
 11
167.27909
 21
107.88212
 31
0.0
  0
LINE
  5
FB
330
CD
100
AcDbEntity
  8
LC-003-005-----0
 62
     7
370
    25
100
AcDbLine
 10
162.171292
 20
105.60275
 30
0.0
 11
164.568988
 21
108.000446
 31
0.0
  0
LINE
  5
FC
330
CD
100
AcDbEntity
  8
LC-003-005-----0
 62
     7
370
    25
100
AcDbLine
 10
159.46119
 20
105.721075
 30
0.0
 11
161.858887
 21
108.118771
 31
0.0
  0
LINE
  5
FD
330
CD
100
AcDbEntity
  8
LC-003-005-----0
 62
     7
370
    25
100
AcDbLine
 10
156.751089
 20
105.839401
 30
0.0
 11
159.148785
 21
108.237097
 31
0.0
  0
LINE
  5
FE
330
CD
100
AcDbEntity
  8
LC-003-005-----0
 62
     7
370
    25
100
AcDbLine
 10
154.040987
 20
105.957726
 30
0.0
 11
156.438683
 21
108.355422
 31
0.0
  0
LINE
  5
FF
330
CD
100
AcDbEntity
  8
LC-003-005-----0
 62
     7
370
    25
100
AcDbLine
 10
151.330886
 20
106.076052
 30
0.0
 11
153.728582
 21
108.473748
 31
0.0
  0
LINE
  5
100
330
CD
100
AcDbEntity
  8
LC-003-005-----0
 62
     7
370
    25
100
AcDbLine
 10
148.620784
 20
106.194377
 30
0.0
 11
151.01848
 21
108.592074
 31
0.0
  0
LINE
  5
101
330
CD
100
AcDbEntity
  8
LC-003-005-----0
 62
     7
370
    25
100
AcDbLine
 10
145.910683
 20
106.312703
 30
0.0
 11
148.308379
 21
108.710399
 31
0.0
  0
LINE
  5
102
330
CD
100
AcDbEntity
  8
LC-003-005-----0
 62
     7
370
    25
100
AcDbLine
 10
143.200581
 20
106.431029
 30
0.0
 11
145.598277
 21
108.828725
 31
0.0
  0
LINE
  5
103
330
CD
100
AcDbEntity
  8
LC-003-005-----0
 62
     7
370
    25
100
AcDbLine
 10
140.49048
 20
106.549354
 30
0.0
 11
142.888176
 21
108.94705
 31
0.0
  0
LINE
  5
104
330
CD
100
AcDbEntity
  8
LC-003-005-----0
 62
     7
370
    25
100
AcDbLine
 10
137.780378
 20
106.66768
 30
0.0
 11
140.178074
 21
109.065376
 31
0.0
  0
LINE
  5
105
330
CD
100
AcDbEntity
  8
LC-003-005-----0
 62
     7
370
    25
100
AcDbLine
 10
135.070277
 20
106.786005
 30
0.0
 11
137.467973
 21
109.183701
 31
0.0
  0
LINE
  5
106
330
CD
100
AcDbEntity
  8
LC-003-005-----0
 62
     7
370
    25
100
AcDbLine
 10
132.360175
 20
106.904331
 30
0.0
 11
134.757871
 21
109.302027
 31
0.0
  0
LINE
  5
107
330
CD
100
AcDbEntity
  8
LC-003-005-----0
 62
     7
370
    25
100
AcDbLine
 10
129.650074
 20
107.022657
 30
0.0
 11
132.04777
 21
109.420353
 31
0.0
  0
LINE
  5
108
330
CD
100
AcDbEntity
  8
LC-003-005-----0
 62
     7
370
    25
100
AcDbLine
 10
126.952589
 20
107.153599
 30
0.0
 11
129.337668
 21
109.538678
 31
0.0
  0
LINE
  5
109
330
CD
100
AcDbEntity
  8
LC-003-005-----0
 62
     7
370
    25
100
AcDbLine
 10
124.392548
 20
107.421985
 30
0.0
 11
126.654487
 21
109.683924
 31
0.0
  0
LINE
  5
10A
330
CD
100
AcDbEntity
  8
LC-003-005-----0
 62
     7
370
    25
100
AcDbLine
 10
121.981519
 20
107.839383
 30
0.0
 11
124.130453
 21
109.988317
 31
0.0
  0
LINE
  5
10B
330
CD
100
AcDbEntity
  8
LC-003-005-----0
 62
     7
370
    25
100
AcDbLine
 10
119.70014
 20
108.386431
 30
0.0
 11
121.760001
 21
110.446293
 31
0.0
  0
LINE
  5
10C
330
CD
100
AcDbEntity
  8
LC-003-005-----0
 62
     7
370
    25
100
AcDbLine
 10
117.534222
 20
109.048941
 30
0.0
 11
119.522901
 21
111.03762
 31
0.0
  0
LINE
  5
10D
330
CD
100
AcDbEntity
  8
LC-003-005-----0
 62
     7
370
    25
100
AcDbLine
 10
115.473102
 20
109.816248
 30
0.0
 11
117.404512
 21
111.747658
 31
0.0
  0
LINE
  5
10E
330
CD
100
AcDbEntity
  8
LC-003-005-----0
 62
     7
370
    25
100
AcDbLine
 10
113.508635
 20
110.680207
 30
0.0
 11
115.393969
 21
112.565542
 31
0.0
  0
LINE
  5
10F
330
CD
100
AcDbEntity
  8
LC-003-005-----0
 62
     7
370
    25
100
AcDbLine
 10
111.634546
 20
111.634546
 30
0.0
 11
113.483091
 21
113.483091
 31
0.0
  0
LINE
  5
110
330
CD
100
AcDbEntity
  8
LC-003-005-----0
 62
     7
370
    25
100
AcDbLine
 10
109.846005
 20
112.674432
 30
0.0
 11
111.665687
 21
114.494114
 31
0.0
  0
LINE
  5
111
330
CD
100
AcDbEntity
  8
LC-003-005-----0
 62
     7
370
    25
100
AcDbLine
 10
108.139329
 20
113.796183
 30
0.0
 11
109.937104
 21
115.593958
 31
0.0
  0
LINE
  5
112
330
CD
100
AcDbEntity
  8
LC-003-005-----0
 62
     7
370
    25
100
AcDbLine
 10
106.51179
 20
114.997072
 30
0.0
 11
108.293926
 21
116.779208
 31
0.0
  0
LINE
  5
113
330
CD
100
AcDbEntity
  8
LC-003-005-----0
 62
     7
370
    25
100
AcDbLine
 10
104.961473
 20
116.275181
 30
0.0
 11
106.733778
 21
118.047487
 31
0.0
  0
LINE
  5
114
330
CD
100
AcDbEntity
  8
LC-003-005-----0
 62
     7
370
    25
100
AcDbLine
 10
103.487187
 20
117.629323
 30
0.0
 11
105.255189
 21
119.397325
 31
0.0
  0
LINE
  5
115
330
CD
100
AcDbEntity
  8
LC-003-005-----0
 62
     7
370
    25
100
AcDbLine
 10
102.088417
 20
119.05898
 30
0.0
 11
103.857523
 21
120.828086
 31
0.0
  0
LINE
  5
116
330
CD
100
AcDbEntity
  8
LC-003-005-----0
 62
     7
370
    25
100
AcDbLine
 10
100.765294
 20
120.564284
 30
0.0
 11
102.540943
 21
122.339932
 31
0.0
  0
LINE
  5
117
330
CD
100
AcDbEntity
  8
LC-003-005-----0
 62
     7
370
    25
100
AcDbLine
 10
99.518606
 20
122.146023
 30
0.0
 11
101.306419
 21
123.933836
 31
0.0
  0
LINE
  5
118
330
CD
100
AcDbEntity
  8
LC-003-005-----0
 62
     7
370
    25
100
AcDbLine
 10
98.349832
 20
123.805676
 30
0.0
 11
100.155782
 21
125.611626
 31
0.0
  0
LINE
  5
119
330
CD
100
AcDbEntity
  8
LC-003-005-----0
 62
     7
370
    25
100
AcDbLine
 10
97.261206
 20
125.545477
 30
0.0
 11
99.091813
 21
127.376084
 31
0.0
  0
LINE
  5
11A
330
CD
100
AcDbEntity
  8
LC-003-005-----0
 62
     7
370
    25
100
AcDbLine
 10
96.255829
 20
127.368527
 30
0.0
 11
98.118405
 21
129.231104
 31
0.0
  0
LINE
  5
11B
330
CD
100
AcDbEntity
  8
LC-003-005-----0
 62
     7
370
    25
100
AcDbLine
 10
95.337822
 20
129.278948
 30
0.0
 11
97.240798
 21
131.181924
 31
0.0
  0
LINE
  5
11C
330
CD
100
AcDbEntity
  8
LC-003-005-----0
 62
     7
370
    25
100
AcDbLine
 10
94.509788
 20
131.27934
 30
0.0
 11
96.437002
 21
133.206554
 31
0.0
  0
LINE
  5
11D
330
CD
100
AcDbEntity
  8
LC-003-005-----0
 62
     7
370
    25
100
AcDbLine
 10
93.709625
 20
133.307605
 30
0.0
 11
95.636839
 21
135.234819
 31
0.0
  0
LINE
  5
11E
330
CD
100
AcDbEntity
  8
LC-003-005-----0
 62
     7
370
    25
100
AcDbLine
 10
92.909463
 20
135.33587
 30
0.0
 11
94.836677
 21
137.263084
 31
0.0
  0
LINE
  5
11F
330
CD
100
AcDbEntity
  8
LC-003-005-----0
 62
     7
370
    25
100
AcDbLine
 10
92.109301
 20
137.364135
 30
0.0
 11
94.036515
 21
139.291349
 31
0.0
  0
LINE
  5
120
330
CD
100
AcDbEntity
  8
LC-003-005-----0
 62
     7
370
    25
100
AcDbLine
 10
91.309138
 20
139.392399
 30
0.0
 11
93.236352
 21
141.319614
 31
0.0
  0
LINE
  5
121
330
CD
100
AcDbEntity
  8
LC-003-005-----0
 62
     7
370
    25
100
AcDbLine
 10
90.508976
 20
141.420664
 30
0.0
 11
92.43619
 21
143.347878
 31
0.0
  0
LINE
  5
122
330
CD
100
AcDbEntity
  8
LC-003-005-----0
 62
     7
370
    25
100
AcDbLine
 10
89.708813
 20
143.448929
 30
0.0
 11
91.636028
 21
145.376143
 31
0.0
  0
LINE
  5
123
330
CD
100
AcDbEntity
  8
LC-003-005-----0
 62
     7
370
    25
100
AcDbLine
 10
88.908651
 20
145.477194
 30
0.0
 11
90.835865
 21
147.404408
 31
0.0
  0
LINE
  5
124
330
CD
100
AcDbEntity
  8
LC-003-005-----0
 62
     7
370
    25
100
AcDbLine
 10
88.108489
 20
147.505458
 30
0.0
 11
90.035703
 21
149.432673
 31
0.0
  0
LINE
  5
125
330
CD
100
AcDbEntity
  8
LC-003-005-----0
 62
     7
370
    25
100
AcDbLine
 10
87.308326
 20
149.533723
 30
0.0
 11
89.235541
 21
151.460937
 31
0.0
  0
LINE
  5
126
330
CD
100
AcDbEntity
  8
LC-003-005-----0
 62
     7
370
    25
100
AcDbLine
 10
86.508164
 20
151.561988
 30
0.0
 11
88.435378
 21
153.489202
 31
0.0
  0
LINE
  5
127
330
CD
100
AcDbEntity
  8
LC-003-005-----0
 62
     7
370
    25
100
AcDbLine
 10
85.708002
 20
153.590253
 30
0.0
 11
87.635216
 21
155.517467
 31
0.0
  0
LINE
  5
128
330
CD
100
AcDbEntity
  8
LC-003-005-----0
 62
     7
370
    25
100
AcDbLine
 10
84.907839
 20
155.618517
 30
0.0
 11
86.835054
 21
157.545732
 31
0.0
  0
LINE
  5
129
330
CD
100
AcDbEntity
  8
LC-003-005-----0
 62
     7
370
    25
100
AcDbLine
 10
84.107677
 20
157.646782
 30
0.0
 11
86.034891
 21
159.573996
 31
0.0
  0
LINE
  5
12A
330
CD
100
AcDbEntity
  8
LC-003-005-----0
 62
     7
370
    25
100
AcDbLine
 10
83.307515
 20
159.675047
 30
0.0
 11
85.234729
 21
161.602261
 31
0.0
  0
LINE
  5
12B
330
CD
100
AcDbEntity
  8
LC-003-005-----0
 62
     7
370
    25
100
AcDbLine
 10
82.507352
 20
161.703312
 30
0.0
 11
84.434566
 21
163.630526
 31
0.0
  0
LINE
  5
12C
330
CD
100
AcDbEntity
  8
LC-003-005-----0
 62
     7
370
    25
100
AcDbLine
 10
81.70719
 20
163.731577
 30
0.0
 11
83.634404
 21
165.658791
 31
0.0
  0
LINE
  5
12D
330
CD
100
AcDbEntity
  8
LC-003-005-----0
 62
     7
370
    25
100
AcDbLine
 10
80.907028
 20
165.759841
 30
0.0
 11
82.834242
 21
167.687056
 31
0.0
  0
LINE
  5
12E
330
CD
100
AcDbEntity
  8
LC-003-005-----0
 62
     7
370
    25
100
AcDbLine
 10
80.106865
 20
167.788106
 30
0.0
 11
82.034079
 21
169.71532
 31
0.0
  0
LINE
  5
12F
330
CD
100
AcDbEntity
  8
LC-003-005-----0
 62
     7
370
    25
100
AcDbLine
 10
79.306703
 20
169.816371
 30
0.0
 11
81.233917
 21
171.743585
 31
0.0
  0
LINE
  5
130
330
CD
100
AcDbEntity
  8
LC-003-005-----0
 62
     7
370
    25
100
AcDbLine
 10
78.506541
 20
171.844636
 30
0.0
 11
80.433755
 21
173.77185
 31
0.0
  0
LINE
  5
131
330
CD
100
AcDbEntity
  8
LC-003-005-----0
 62
     7
370
    25
100
AcDbLine
 10
77.706378
 20
173.8729
 30
0.0
 11
79.633592
 21
175.800115
 31
0.0
  0
LINE
  5
132
330
CD
100
AcDbEntity
  8
LC-003-005-----0
 62
     7
370
    25
100
AcDbLine
 10
76.906216
 20
175.901165
 30
0.0
 11
78.83343
 21
177.828379
 31
0.0
  0
LINE
  5
133
330
CD
100
AcDbEntity
  8
LC-003-005-----0
 62
     7
370
    25
100
AcDbLine
 10
74.559739
 20
176.383116
 30
0.0
 11
77.560429
 21
179.383806
 31
0.0
  0
LINE
  5
134
330
CD
100
AcDbEntity
  8
LC-003-005-----0
 62
     7
370
    25
100
AcDbLine
 10
71.731312
 20
176.383116
 30
0.0
 11
74.732002
 21
179.383806
 31
0.0
  0
LINE
  5
135
330
CD
100
AcDbEntity
  8
LC-003-005-----0
 62
     7
370
    25
100
AcDbLine
 10
68.902885
 20
176.383116
 30
0.0
 11
71.903575
 21
179.383806
 31
0.0
  0
LINE
  5
136
330
CD
100
AcDbEntity
  8
LC-003-005-----0
 62
     7
370
    25
100
AcDbLine
 10
67.01965
 20
177.328308
 30
0.0
 11
70.21965
 21
180.528308
 31
0.0
  0
LINE
  5
137
330
CD
100
AcDbEntity
  8
LC-003-005-----0
 62
     7
370
    25
100
AcDbLine
 10
67.01965
 20
180.156735
 30
0.0
 11
70.21965
 21
183.356735
 31
0.0
  0
LINE
  5
138
330
CD
100
AcDbEntity
  8
LC-003-005-----0
 62
     7
370
    25
100
AcDbLine
 10
67.01965
 20
182.985162
 30
0.0
 11
70.21965
 21
186.185162
 31
0.0
  0
LINE
  5
139
330
CD
100
AcDbEntity
  8
LC-003-005-----0
 62
     7
370
    25
100
AcDbLine
 10
65.089867
 20
183.883806
 30
0.0
 11
70.21965
 21
189.013589
 31
0.0
  0
LINE
  5
13A
330
CD
100
AcDbEntity
  8
LC-003-005-----0
 62
     7
370
    25
100
AcDbLine
 10
62.26144
 20
183.883806
 30
0.0
 11
69.76144
 21
191.383806
 31
0.0
  0
LINE
  5
13B
330
CD
100
AcDbEntity
  8
LC-003-005-----0
 62
     7
370
    25
100
AcDbLine
 10
59.433012
 20
183.883806
 30
0.0
 11
65.48083
 21
189.931623
 31
0.0
  0
LINE
  5
13C
330
CD
100
AcDbEntity
  8
LC-003-005-----0
 62
     7
370
    25
100
AcDbLine
 10
66.219762
 20
190.670556
 30
0.0
 11
66.933012
 21
191.383806
 31
0.0
  0
LINE
  5
13D
330
CD
100
AcDbEntity
  8
LC-003-005-----0
 62
     7
370
    25
100
AcDbLine
 10
56.604585
 20
183.883806
 30
0.0
 11
62.604585
 21
189.883806
 31
0.0
  0
LINE
  5
13E
330
CD
100
AcDbEntity
  8
LC-003-005-----0
 62
     7
370
    25
100
AcDbLine
 10
54.219762
 20
184.32741
 30
0.0
 11
59.776158
 21
189.883806
 31
0.0
  0
LINE
  5
13F
330
CD
100
AcDbEntity
  8
LC-003-005-----0
 62
     7
370
    25
100
AcDbLine
 10
54.219762
 20
187.155837
 30
0.0
 11
57.303205
 21
190.239279
 31
0.0
  0
ENDBLK
  5
CF
330
CD
100
AcDbEntity
  8
0
100
AcDbBlockEnd
  0
BLOCK
  5
142
330
141
100
AcDbEntity
  8
0
100
AcDbBlockBegin
  2
*X26
 70
     1
 71
     0
 10
0.0
 20
0.0
 30
0.0
  3
*X26
  1

  4
*X2
  0
LINE
  5
144
330
141
100
AcDbEntity
  8
LC-003-005-----0
 62
     7
370
    25
100
AcDbLine
 10
280.487363
 20
173.007133
 30
0.0
 11
281.806601
 21
174.32637
 31
0.0
  0
LINE
  5
145
330
141
100
AcDbEntity
  8
LC-003-005-----0
 62
     7
370
    25
100
AcDbLine
 10
277.779538
 20
173.127735
 30
0.0
 11
279.799069
 21
175.147266
 31
0.0
  0
LINE
  5
146
330
141
100
AcDbEntity
  8
LC-003-005-----0
 62
     7
370
    25
100
AcDbLine
 10
275.071713
 20
173.248337
 30
0.0
 11
277.463798
 21
175.640421
 31
0.0
  0
LINE
  5
147
330
141
100
AcDbEntity
  8
LC-003-005-----0
 62
     7
370
    25
100
AcDbLine
 10
272.363888
 20
173.368939
 30
0.0
 11
274.753696
 21
175.758747
 31
0.0
  0
LINE
  5
148
330
141
100
AcDbEntity
  8
LC-003-005-----0
 62
     7
370
    25
100
AcDbLine
 10
269.656063
 20
173.489541
 30
0.0
 11
272.043595
 21
175.877073
 31
0.0
  0
LINE
  5
149
330
141
100
AcDbEntity
  8
LC-003-005-----0
 62
     7
370
    25
100
AcDbLine
 10
266.948238
 20
173.610143
 30
0.0
 11
269.333493
 21
175.995398
 31
0.0
  0
LINE
  5
14A
330
141
100
AcDbEntity
  8
LC-003-005-----0
 62
     7
370
    25
100
AcDbLine
 10
264.240413
 20
173.730745
 30
0.0
 11
266.623392
 21
176.113724
 31
0.0
  0
LINE
  5
14B
330
141
100
AcDbEntity
  8
LC-003-005-----0
 62
     7
370
    25
100
AcDbLine
 10
261.532587
 20
173.851346
 30
0.0
 11
263.91329
 21
176.232049
 31
0.0
  0
LINE
  5
14C
330
141
100
AcDbEntity
  8
LC-003-005-----0
 62
     7
370
    25
100
AcDbLine
 10
258.824762
 20
173.971948
 30
0.0
 11
261.203189
 21
176.350375
 31
0.0
  0
LINE
  5
14D
330
141
100
AcDbEntity
  8
LC-003-005-----0
 62
     7
370
    25
100
AcDbLine
 10
256.116937
 20
174.09255
 30
0.0
 11
258.493087
 21
176.468701
 31
0.0
  0
LINE
  5
14E
330
141
100
AcDbEntity
  8
LC-003-005-----0
 62
     7
370
    25
100
AcDbLine
 10
253.409112
 20
174.213152
 30
0.0
 11
255.782986
 21
176.587026
 31
0.0
  0
LINE
  5
14F
330
141
100
AcDbEntity
  8
LC-003-005-----0
 62
     7
370
    25
100
AcDbLine
 10
250.701287
 20
174.333754
 30
0.0
 11
253.072884
 21
176.705352
 31
0.0
  0
LINE
  5
150
330
141
100
AcDbEntity
  8
LC-003-005-----0
 62
     7
370
    25
100
AcDbLine
 10
247.993462
 20
174.454356
 30
0.0
 11
250.362783
 21
176.823677
 31
0.0
  0
LINE
  5
151
330
141
100
AcDbEntity
  8
LC-003-005-----0
 62
     7
370
    25
100
AcDbLine
 10
245.285636
 20
174.574958
 30
0.0
 11
247.652681
 21
176.942003
 31
0.0
  0
LINE
  5
152
330
141
100
AcDbEntity
  8
LC-003-005-----0
 62
     7
370
    25
100
AcDbLine
 10
242.577811
 20
174.69556
 30
0.0
 11
244.942579
 21
177.060328
 31
0.0
  0
LINE
  5
153
330
141
100
AcDbEntity
  8
LC-003-005-----0
 62
     7
370
    25
100
AcDbLine
 10
239.869986
 20
174.816162
 30
0.0
 11
242.232478
 21
177.178654
 31
0.0
  0
LINE
  5
154
330
141
100
AcDbEntity
  8
LC-003-005-----0
 62
     7
370
    25
100
AcDbLine
 10
237.162161
 20
174.936764
 30
0.0
 11
239.522376
 21
177.29698
 31
0.0
  0
LINE
  5
155
330
141
100
AcDbEntity
  8
LC-003-005-----0
 62
     7
370
    25
100
AcDbLine
 10
234.454336
 20
175.057366
 30
0.0
 11
236.812275
 21
177.415305
 31
0.0
  0
LINE
  5
156
330
141
100
AcDbEntity
  8
LC-003-005-----0
 62
     7
370
    25
100
AcDbLine
 10
231.746511
 20
175.177968
 30
0.0
 11
234.102173
 21
177.533631
 31
0.0
  0
LINE
  5
157
330
141
100
AcDbEntity
  8
LC-003-005-----0
 62
     7
370
    25
100
AcDbLine
 10
229.038685
 20
175.29857
 30
0.0
 11
231.392072
 21
177.651956
 31
0.0
  0
LINE
  5
158
330
141
100
AcDbEntity
  8
LC-003-005-----0
 62
     7
370
    25
100
AcDbLine
 10
226.33086
 20
175.419172
 30
0.0
 11
228.68197
 21
177.770282
 31
0.0
  0
LINE
  5
159
330
141
100
AcDbEntity
  8
LC-003-005-----0
 62
     7
370
    25
100
AcDbLine
 10
223.623035
 20
175.539774
 30
0.0
 11
225.971869
 21
177.888608
 31
0.0
  0
LINE
  5
15A
330
141
100
AcDbEntity
  8
LC-003-005-----0
 62
     7
370
    25
100
AcDbLine
 10
220.91521
 20
175.660376
 30
0.0
 11
223.261767
 21
178.006933
 31
0.0
  0
LINE
  5
15B
330
141
100
AcDbEntity
  8
LC-003-005-----0
 62
     7
370
    25
100
AcDbLine
 10
218.207385
 20
175.780978
 30
0.0
 11
220.551666
 21
178.125259
 31
0.0
  0
LINE
  5
15C
330
141
100
AcDbEntity
  8
LC-003-005-----0
 62
     7
370
    25
100
AcDbLine
 10
215.49956
 20
175.90158
 30
0.0
 11
217.841564
 21
178.243584
 31
0.0
  0
LINE
  5
15D
330
141
100
AcDbEntity
  8
LC-003-005-----0
 62
     7
370
    25
100
AcDbLine
 10
212.791735
 20
176.022182
 30
0.0
 11
215.131463
 21
178.36191
 31
0.0
  0
LINE
  5
15E
330
141
100
AcDbEntity
  8
LC-003-005-----0
 62
     7
370
    25
100
AcDbLine
 10
210.083909
 20
176.142784
 30
0.0
 11
212.421361
 21
178.480236
 31
0.0
  0
LINE
  5
15F
330
141
100
AcDbEntity
  8
LC-003-005-----0
 62
     7
370
    25
100
AcDbLine
 10
207.376084
 20
176.263386
 30
0.0
 11
209.711259
 21
178.598561
 31
0.0
  0
LINE
  5
160
330
141
100
AcDbEntity
  8
LC-003-005-----0
 62
     7
370
    25
100
AcDbLine
 10
204.668259
 20
176.383988
 30
0.0
 11
207.001158
 21
178.716887
 31
0.0
  0
LINE
  5
161
330
141
100
AcDbEntity
  8
LC-003-005-----0
 62
     7
370
    25
100
AcDbLine
 10
201.960434
 20
176.50459
 30
0.0
 11
204.291056
 21
178.835212
 31
0.0
  0
LINE
  5
162
330
141
100
AcDbEntity
  8
LC-003-005-----0
 62
     7
370
    25
100
AcDbLine
 10
199.252609
 20
176.625192
 30
0.0
 11
201.580955
 21
178.953538
 31
0.0
  0
LINE
  5
163
330
141
100
AcDbEntity
  8
LC-003-005-----0
 62
     7
370
    25
100
AcDbLine
 10
196.544784
 20
176.745794
 30
0.0
 11
198.870853
 21
179.071863
 31
0.0
  0
LINE
  5
164
330
141
100
AcDbEntity
  8
LC-003-005-----0
 62
     7
370
    25
100
AcDbLine
 10
203.682796
 20
183.883806
 30
0.0
 11
206.219762
 21
186.420772
 31
0.0
  0
LINE
  5
165
330
141
100
AcDbEntity
  8
LC-003-005-----0
 62
     7
370
    25
100
AcDbLine
 10
193.836958
 20
176.866396
 30
0.0
 11
196.160752
 21
179.190189
 31
0.0
  0
LINE
  5
166
330
141
100
AcDbEntity
  8
LC-003-005-----0
 62
     7
370
    25
100
AcDbLine
 10
200.854369
 20
183.883806
 30
0.0
 11
206.219762
 21
189.249199
 31
0.0
  0
LINE
  5
167
330
141
100
AcDbEntity
  8
LC-003-005-----0
 62
     7
370
    25
100
AcDbLine
 10
191.129133
 20
176.986998
 30
0.0
 11
193.45065
 21
179.308515
 31
0.0
  0
LINE
  5
168
330
141
100
AcDbEntity
  8
LC-003-005-----0
 62
     7
370
    25
100
AcDbLine
 10
198.025942
 20
183.883806
 30
0.0
 11
204.025942
 21
189.883806
 31
0.0
  0
LINE
  5
169
330
141
100
AcDbEntity
  8
LC-003-005-----0
 62
     7
370
    25
100
AcDbLine
 10
188.421308
 20
177.1076
 30
0.0
 11
193.219874
 21
181.906166
 31
0.0
  0
LINE
  5
16A
330
141
100
AcDbEntity
  8
LC-003-005-----0
 62
     7
370
    25
100
AcDbLine
 10
195.197514
 20
183.883806
 30
0.0
 11
201.394632
 21
190.080923
 31
0.0
  0
LINE
  5
16B
330
141
100
AcDbEntity
  8
LC-003-005-----0
 62
     7
370
    25
100
AcDbLine
 10
185.713483
 20
177.228202
 30
0.0
 11
187.869087
 21
179.383806
 31
0.0
  0
LINE
  5
16C
330
141
100
AcDbEntity
  8
LC-003-005-----0
 62
     7
370
    25
100
AcDbLine
 10
190.219874
 20
181.734593
 30
0.0
 11
198.369087
 21
189.883806
 31
0.0
  0
LINE
  5
16D
330
141
100
AcDbEntity
  8
LC-003-005-----0
 62
     7
370
    25
100
AcDbLine
 10
183.005658
 20
177.348804
 30
0.0
 11
185.04066
 21
179.383806
 31
0.0
  0
LINE
  5
16E
330
141
100
AcDbEntity
  8
LC-003-005-----0
 62
     7
370
    25
100
AcDbLine
 10
190.219874
 20
184.56302
 30
0.0
 11
195.54066
 21
189.883806
 31
0.0
  0
LINE
  5
16F
330
141
100
AcDbEntity
  8
LC-003-005-----0
 62
     7
370
    25
100
AcDbLine
 10
190.219874
 20
187.391447
 30
0.0
 11
194.212233
 21
191.383806
 31
0.0
  0
LINE
  5
170
330
141
100
AcDbEntity
  8
LC-003-005-----0
 62
     7
370
    25
100
AcDbLine
 10
190.219874
 20
190.219874
 30
0.0
 11
191.383806
 21
191.383806
 31
0.0
  0
ENDBLK
  5
143
330
141
100
AcDbEntity
  8
0
100
AcDbBlockEnd
  0
ENDSEC
  0
SECTION
  2
ENTITIES
  0
LINE
  5
31
102
{ACAD_REACTORS
330
172
102
}
330
1F
100
AcDbEntity
  8
LC-001-002-----0
 62
     7
370
    50
100
AcDbLine
 10
70.21965
 20
191.383116
 30
0.0
 11
190.219874
 21
191.383116
 31
0.0
  0
DIMENSION
  5
35
330
1F
100
AcDbEntity
  8
LC-002-003-----0
 62
     7
370
    25
100
AcDbDimension
  2
*D1
 10
311.053214
 20
99.102424
 30
0.0
 11
282.409044
 21
149.151096
 31
0.0
 70
   160
  1
 DN70 
 71
     5
 42
75.0
 53
87.5
  3
LC-DIM-L-0140-02-02
100
AcDbAlignedDimension
 13
278.358932
 23
175.601339
 33
0.0
 14
275.087478
 24
100.672722
 34
0.0
 50
87.5
100
AcDbRotatedDimension
  0
LINE
  5
43
102
{ACAD_REACTORS
330
172
102
}
330
1F
100
AcDbEntity
  8
LC-001-002-----0
 62
     7
370
    50
100
AcDbLine
 10
193.219874
 20
179.318591
 30
0.0
 11
193.219874
 21
183.883806
 31
0.0
  0
LINE
  5
45
102
{ACAD_REACTORS
330
172
102
}
330
1F
100
AcDbEntity
  8
LC-001-002-----0
  6
DASHDOT
 62
     7
370
    25
100
AcDbLine
 10
130.219805
 20
191.383116
 30
0.0
 11
130.219805
 21
109.500163
 31
0.0
  0
LINE
  5
46
102
{ACAD_REACTORS
330
172
102
}
330
1F
100
AcDbEntity
  8
LC-001-002-----0
 62
     7
370
    50
100
AcDbLine
 10
202.931087
 20
189.883806
 30
0.0
 11
203.219762
 21
190.383806
 31
0.0
  0
DIMENSION
  5
48
330
1F
100
AcDbEntity
  8
LC-002-003-----0
 62
     7
370
    25
100
AcDbDimension
  2
*D2
 10
206.219762
 20
224.0
 30
0.0
 11
129.406431
 21
254.8
 31
0.0
 70
   160
  1
%%c<>
 71
     5
 42
151.999914
  3
LC-DIM-L-0140-01-02
100
AcDbAlignedDimension
 13
54.219848
 23
189.883806
 33
0.0
 14
206.219762
 24
189.883806
 34
0.0
100
AcDbRotatedDimension
  0
LINE
  5
55
102
{ACAD_REACTORS
330
172
102
}
330
1F
100
AcDbEntity
  8
LC-001-002-----0
  6
DASHDOT
 62
     7
370
    25
100
AcDbLine
 10
130.219805
 20
144.533507
 30
0.0
 11
280.219874
 21
137.984363
 31
0.0
  0
LINE
  5
56
102
{ACAD_REACTORS
330
172
102
}
330
1F
100
AcDbEntity
  8
LC-001-002-----0
 62
     7
370
    50
100
AcDbLine
 10
200.931087
 20
189.883806
 30
0.0
 11
201.219762
 21
190.383806
 31
0.0
  0
LINE
  5
57
102
{ACAD_REACTORS
330
172
102
}
330
1F
100
AcDbEntity
  8
LC-001-002-----0
 62
     7
370
    50
100
AcDbLine
 10
198.931087
 20
189.883806
 30
0.0
 11
199.219762
 21
190.383806
 31
0.0
  0
LINE
  5
58
102
{ACAD_REACTORS
330
172
102
}
330
1F
100
AcDbEntity
  8
LC-001-002-----0
 62
     7
370
    50
100
AcDbLine
 10
196.931087
 20
189.883806
 30
0.0
 11
197.219762
 21
190.383806
 31
0.0
  0
LINE
  5
59
102
{ACAD_REACTORS
330
172
102
}
330
1F
100
AcDbEntity
  8
LC-001-002-----0
 62
     7
370
    50
100
AcDbLine
 10
203.219762
 20
190.383806
 30
0.0
 11
203.508437
 21
189.883806
 31
0.0
  0
LINE
  5
5A
102
{ACAD_REACTORS
330
172
102
}
330
1F
100
AcDbEntity
  8
LC-001-002-----0
 62
     7
370
    50
100
AcDbLine
 10
201.219762
 20
190.383806
 30
0.0
 11
201.508437
 21
189.883806
 31
0.0
  0
LINE
  5
5B
102
{ACAD_REACTORS
330
172
102
}
330
1F
100
AcDbEntity
  8
LC-001-002-----0
 62
     7
370
    50
100
AcDbLine
 10
199.219762
 20
190.383806
 30
0.0
 11
199.508437
 21
189.883806
 31
0.0
  0
LINE
  5
5C
102
{ACAD_REACTORS
330
172
102
}
330
1F
100
AcDbEntity
  8
LC-001-002-----0
 62
     7
370
    50
100
AcDbLine
 10
203.508437
 20
189.883806
 30
0.0
 11
204.931087
 21
189.883806
 31
0.0
  0
DIMENSION
  5
5D
330
1F
100
AcDbEntity
  8
LC-002-003-----0
 62
     7
370
    25
100
AcDbDimension
  2
*D3
 10
130.219874
 20
40.0
 30
0.0
 11
233.626739
 21
70.8
 31
0.0
 70
   160
 71
     5
 42
150.021789
  3
LC-DIM-L-0140-01-02
100
AcDbAlignedDimension
 13
280.241663
 23
137.983411
 33
0.0
 14
130.219874
 24
106.997779
 34
0.0
100
AcDbRotatedDimension
  0
LINE
  5
6A
102
{ACAD_REACTORS
330
172
102
}
330
1F
100
AcDbEntity
  8
LC-001-002-----0
 62
     7
370
    50
100
AcDbLine
 10
205.219762
 20
190.383806
 30
0.0
 11
203.219762
 21
190.383806
 31
0.0
  0
LINE
  5
6B
102
{ACAD_REACTORS
330
172
102
}
330
1F
100
AcDbEntity
  8
LC-001-002-----0
 62
     7
370
    50
100
AcDbLine
 10
195.219762
 20
190.383806
 30
0.0
 11
194.219762
 21
190.383806
 31
0.0
  0
LINE
  5
6C
102
{ACAD_REACTORS
330
172
102
}
330
1F
100
AcDbEntity
  8
LC-001-002-----0
 62
     7
370
    50
100
AcDbLine
 10
281.814694
 20
174.511742
 30
0.0
 11
281.746553
 21
172.951051
 31
0.0
  0
ELLIPSE
  5
6D
102
{ACAD_REACTORS
330
172
102
}
330
1F
100
AcDbEntity
  8
LC-001-002-----0
 62
     7
370
    50
100
AcDbEllipse
 10
182.219762
 20
142.26314
 30
0.0
 11
0.0
 21
-35.12066586652923
 31
0.0
210
0.0
220
0.0
230
1.0
 40
0.385961
 41
0.0
 42
3.052229502918378
  0
LINE
  5
6E
102
{ACAD_REACTORS
330
172
102
}
330
1F
100
AcDbEntity
  8
LC-001-002-----0
 62
     7
370
    50
100
AcDbLine
 10
97.025622
 20
131.714509
 30
0.0
 11
78.219805
 21
179.383806
 31
0.0
  0
ARC
  5
6F
102
{ACAD_REACTORS
330
172
102
}
330
1F
100
AcDbEntity
  8
LC-001-002-----0
 62
     7
370
    50
100
AcDbCircle
 10
129.579778
 20
144.557315
 30
0.0
 40
34.99586744490199
100
AcDbArc
 50
201.529525
 51
267.5
  0
LINE
  5
70
102
{ACAD_REACTORS
330
172
102
}
330
1F
100
AcDbEntity
  8
LC-001-002-----0
 62
     7
370
    50
100
AcDbLine
 10
94.700051
 20
130.797058
 30
0.0
 11
76.716084
 21
176.383116
 31
0.0
  0
ARC
  5
71
102
{ACAD_REACTORS
330
172
102
}
330
1F
100
AcDbEntity
  8
LC-001-002-----0
 62
     7
370
    50
100
AcDbCircle
 10
130.219805
 20
140.925647
 30
0.0
 40
38.45815942802838
100
AcDbArc
 50
359.710305
 51
90.0
  0
ARC
  5
72
102
{ACAD_REACTORS
330
172
102
}
330
1F
100
AcDbEntity
  8
LC-001-002-----0
 62
     7
370
    50
100
AcDbCircle
 10
129.579778
 20
144.557315
 30
0.0
 40
37.4958674449011
100
AcDbArc
 50
201.529525
 51
267.5
  0
LINE
  5
73
102
{ACAD_REACTORS
330
172
102
}
330
1F
100
AcDbEntity
  8
LC-001-002-----0
 62
     7
370
    50
100
AcDbLine
 10
278.693196
 20
103.017675
 30
0.0
 11
128.05328
 21
109.594756
 31
0.0
  0
LINE
  5
74
102
{ACAD_REACTORS
330
172
102
}
330
1F
100
AcDbEntity
  8
LC-001-002-----0
 62
     7
370
    50
100
AcDbLine
 10
278.693196
 20
103.017675
 30
0.0
 11
278.625054
 21
101.456984
 31
0.0
  0
LINE
  5
75
102
{ACAD_REACTORS
330
172
102
}
330
1F
100
AcDbEntity
  8
LC-001-002-----0
 62
     7
370
    50
100
AcDbLine
 10
194.219762
 20
191.383806
 30
0.0
 11
194.219762
 21
189.883806
 31
0.0
  0
LINE
  5
76
102
{ACAD_REACTORS
330
172
102
}
330
1F
100
AcDbEntity
  8
LC-001-002-----0
 62
     7
370
    50
100
AcDbLine
 10
206.219762
 20
189.883806
 30
0.0
 11
206.219762
 21
183.883806
 31
0.0
  0
LINE
  5
77
102
{ACAD_REACTORS
330
172
102
}
330
1F
100
AcDbEntity
  8
LC-001-002-----0
 62
     7
370
    50
100
AcDbLine
 10
194.219762
 20
189.883806
 30
0.0
 11
194.931087
 21
189.883806
 31
0.0
  0
LINE
  5
78
102
{ACAD_REACTORS
330
172
102
}
330
1F
100
AcDbEntity
  8
LC-001-002-----0
 62
     7
370
    50
100
AcDbLine
 10
193.219874
 20
183.883806
 30
0.0
 11
206.219762
 21
183.883806
 31
0.0
  0
LINE
  5
79
102
{ACAD_REACTORS
330
172
102
}
330
1F
100
AcDbEntity
  8
LC-001-002-----0
 62
     7
370
    50
100
AcDbLine
 10
194.219762
 20
191.383806
 30
0.0
 11
190.219874
 21
191.383806
 31
0.0
  0
LINE
  5
7A
102
{ACAD_REACTORS
330
172
102
}
330
1F
100
AcDbEntity
  8
LC-001-002-----0
 62
     7
370
    50
100
AcDbLine
 10
194.931087
 20
189.883806
 30
0.0
 11
195.219762
 21
190.383806
 31
0.0
  0
LINE
  5
7B
102
{ACAD_REACTORS
330
172
102
}
330
1F
100
AcDbEntity
  8
LC-001-002-----0
 62
     7
370
    50
100
AcDbLine
 10
195.219762
 20
190.383806
 30
0.0
 11
195.508437
 21
189.883806
 31
0.0
  0
LINE
  5
7C
102
{ACAD_REACTORS
330
172
102
}
330
1F
100
AcDbEntity
  8
LC-001-002-----0
 62
     7
370
    50
100
AcDbLine
 10
57.219762
 20
190.383806
 30
0.0
 11
59.219762
 21
190.383806
 31
0.0
  0
LINE
  5
7D
102
{ACAD_REACTORS
330
172
102
}
330
1F
100
AcDbEntity
  8
LC-001-002-----0
 62
     7
370
    50
100
AcDbLine
 10
205.219762
 20
190.383806
 30
0.0
 11
205.508437
 21
189.883806
 31
0.0
  0
LINE
  5
7E
102
{ACAD_REACTORS
330
172
102
}
330
1F
100
AcDbEntity
  8
LC-001-002-----0
 62
     7
370
    50
100
AcDbLine
 10
204.931087
 20
189.883806
 30
0.0
 11
205.219762
 21
190.383806
 31
0.0
  0
LINE
  5
7F
102
{ACAD_REACTORS
330
172
102
}
330
1F
100
AcDbEntity
  8
LC-001-002-----0
 62
     7
370
    50
100
AcDbLine
 10
205.508437
 20
189.883806
 30
0.0
 11
206.219762
 21
189.883806
 31
0.0
  0
LINE
  5
80
102
{ACAD_REACTORS
330
172
102
}
330
1F
100
AcDbEntity
  8
LC-001-002-----0
 62
     7
370
    50
100
AcDbLine
 10
58.931087
 20
189.883806
 30
0.0
 11
57.508437
 21
189.883806
 31
0.0
  0
LINE
  5
81
102
{ACAD_REACTORS
330
172
102
}
330
1F
100
AcDbEntity
  8
LC-001-002-----0
 62
     7
370
    50
100
AcDbLine
 10
197.219762
 20
190.383806
 30
0.0
 11
197.508437
 21
189.883806
 31
0.0
  0
LINE
  5
82
102
{ACAD_REACTORS
330
172
102
}
330
1F
100
AcDbEntity
  8
LC-001-002-----0
 62
     7
370
    50
100
AcDbLine
 10
203.219762
 20
190.383806
 30
0.0
 11
201.219762
 21
190.383806
 31
0.0
  0
LINE
  5
83
102
{ACAD_REACTORS
330
172
102
}
330
1F
100
AcDbEntity
  8
LC-001-002-----0
 62
     7
370
    50
100
AcDbLine
 10
201.219762
 20
190.383806
 30
0.0
 11
199.219762
 21
190.383806
 31
0.0
  0
LINE
  5
84
102
{ACAD_REACTORS
330
172
102
}
330
1F
100
AcDbEntity
  8
LC-001-002-----0
 62
     7
370
    50
100
AcDbLine
 10
190.219874
 20
191.383806
 30
0.0
 11
190.219874
 21
179.383806
 31
0.0
  0
LINE
  5
85
102
{ACAD_REACTORS
330
172
102
}
330
1F
100
AcDbEntity
  8
LC-001-002-----0
 62
     7
370
    50
100
AcDbLine
 10
199.219762
 20
190.383806
 30
0.0
 11
197.219762
 21
190.383806
 31
0.0
  0
LINE
  5
86
102
{ACAD_REACTORS
330
172
102
}
330
1F
100
AcDbEntity
  8
LC-001-002-----0
 62
     7
370
    50
100
AcDbLine
 10
57.508437
 20
189.883806
 30
0.0
 11
57.219762
 21
190.383806
 31
0.0
  0
LINE
  5
87
102
{ACAD_REACTORS
330
172
102
}
330
1F
100
AcDbEntity
  8
LC-001-002-----0
 62
     7
370
    50
100
AcDbLine
 10
57.219762
 20
190.383806
 30
0.0
 11
56.931087
 21
189.883806
 31
0.0
  0
LINE
  5
88
102
{ACAD_REACTORS
330
172
102
}
330
1F
100
AcDbEntity
  8
LC-001-002-----0
 62
     7
370
    50
100
AcDbLine
 10
59.219762
 20
190.383806
 30
0.0
 11
58.931087
 21
189.883806
 31
0.0
  0
LINE
  5
89
102
{ACAD_REACTORS
330
172
102
}
330
1F
100
AcDbEntity
  8
LC-001-002-----0
 62
     7
370
    50
100
AcDbLine
 10
59.508437
 20
189.883806
 30
0.0
 11
59.219762
 21
190.383806
 31
0.0
  0
LINE
  5
8A
102
{ACAD_REACTORS
330
172
102
}
330
1F
100
AcDbEntity
  8
LC-001-002-----0
 62
     7
370
    50
100
AcDbLine
 10
60.931087
 20
189.883806
 30
0.0
 11
59.508437
 21
189.883806
 31
0.0
  0
LINE
  5
8B
102
{ACAD_REACTORS
330
172
102
}
330
1F
100
AcDbEntity
  8
LC-001-002-----0
 62
     7
370
    50
100
AcDbLine
 10
59.219762
 20
190.383806
 30
0.0
 11
61.219762
 21
190.383806
 31
0.0
  0
LINE
  5
8C
102
{ACAD_REACTORS
330
172
102
}
330
1F
100
AcDbEntity
  8
LC-001-002-----0
 62
     7
370
    50
100
AcDbLine
 10
61.219762
 20
190.383806
 30
0.0
 11
60.931087
 21
189.883806
 31
0.0
  0
LINE
  5
8D
102
{ACAD_REACTORS
330
172
102
}
330
1F
100
AcDbEntity
  8
LC-001-002-----0
 62
     7
370
    50
100
AcDbLine
 10
56.931087
 20
189.883806
 30
0.0
 11
55.508437
 21
189.883806
 31
0.0
  0
LINE
  5
8E
102
{ACAD_REACTORS
330
172
102
}
330
1F
100
AcDbEntity
  8
LC-001-002-----0
 62
     7
370
    50
100
AcDbLine
 10
55.219762
 20
190.383806
 30
0.0
 11
57.219762
 21
190.383806
 31
0.0
  0
LINE
  5
8F
102
{ACAD_REACTORS
330
172
102
}
330
1F
100
AcDbEntity
  8
LC-001-002-----0
 62
     7
370
    50
100
AcDbLine
 10
61.508437
 20
189.883806
 30
0.0
 11
61.219762
 21
190.383806
 31
0.0
  0
LINE
  5
90
102
{ACAD_REACTORS
330
172
102
}
330
1F
100
AcDbEntity
  8
LC-001-002-----0
 62
     7
370
    50
100
AcDbLine
 10
65.219762
 20
190.383806
 30
0.0
 11
66.219762
 21
190.383806
 31
0.0
  0
LINE
  5
91
102
{ACAD_REACTORS
330
172
102
}
330
1F
100
AcDbEntity
  8
LC-001-002-----0
 62
     7
370
    50
100
AcDbLine
 10
66.219762
 20
191.383806
 30
0.0
 11
66.219762
 21
189.883806
 31
0.0
  0
LINE
  5
92
102
{ACAD_REACTORS
330
172
102
}
330
1F
100
AcDbEntity
  8
LC-001-002-----0
 62
     7
370
    50
100
AcDbLine
 10
54.219762
 20
189.883806
 30
0.0
 11
54.219762
 21
183.883806
 31
0.0
  0
LINE
  5
93
102
{ACAD_REACTORS
330
172
102
}
330
1F
100
AcDbEntity
  8
LC-001-002-----0
 62
     7
370
    50
100
AcDbLine
 10
66.219762
 20
189.883806
 30
0.0
 11
65.508437
 21
189.883806
 31
0.0
  0
LINE
  5
94
102
{ACAD_REACTORS
330
172
102
}
330
1F
100
AcDbEntity
  8
LC-001-002-----0
 62
     7
370
    50
100
AcDbLine
 10
61.219762
 20
190.383806
 30
0.0
 11
63.219762
 21
190.383806
 31
0.0
  0
LINE
  5
95
102
{ACAD_REACTORS
330
172
102
}
330
1F
100
AcDbEntity
  8
LC-001-002-----0
 62
     7
370
    50
100
AcDbLine
 10
182.219762
 20
179.383806
 30
0.0
 11
190.219874
 21
179.383806
 31
0.0
  0
LINE
  5
96
102
{ACAD_REACTORS
330
172
102
}
330
1F
100
AcDbEntity
  8
LC-001-002-----0
 62
     7
370
    50
100
AcDbLine
 10
182.219762
 20
179.383806
 30
0.0
 11
190.219874
 21
179.383806
 31
0.0
  0
LINE
  5
97
102
{ACAD_REACTORS
330
172
102
}
330
1F
100
AcDbEntity
  8
LC-001-002-----0
 62
     7
370
    50
100
AcDbLine
 10
182.219762
 20
177.383806
 30
0.0
 11
182.219762
 21
179.383806
 31
0.0
  0
LINE
  5
98
102
{ACAD_REACTORS
330
172
102
}
330
1F
100
AcDbEntity
  8
LC-001-002-----0
 62
     7
370
    50
100
AcDbLine
 10
67.01965
 20
183.883806
 30
0.0
 11
54.219762
 21
183.883806
 31
0.0
  0
LINE
  5
99
102
{ACAD_REACTORS
330
172
102
}
330
1F
100
AcDbEntity
  8
LC-001-002-----0
 62
     7
370
    50
100
AcDbLine
 10
69.21965
 20
191.383806
 30
0.0
 11
70.21965
 21
191.383806
 31
0.0
  0
LINE
  5
9A
102
{ACAD_REACTORS
330
172
102
}
330
1F
100
AcDbEntity
  8
LC-001-002-----0
 62
     7
370
    50
100
AcDbLine
 10
65.508437
 20
189.883806
 30
0.0
 11
65.219762
 21
190.383806
 31
0.0
  0
LINE
  5
9B
102
{ACAD_REACTORS
330
172
102
}
330
1F
100
AcDbEntity
  8
LC-001-002-----0
 62
     7
370
    50
100
AcDbLine
 10
65.219762
 20
190.383806
 30
0.0
 11
64.931087
 21
189.883806
 31
0.0
  0
LINE
  5
9C
102
{ACAD_REACTORS
330
172
102
}
330
1F
100
AcDbEntity
  8
LC-001-002-----0
 62
     7
370
    50
100
AcDbLine
 10
62.931087
 20
189.883806
 30
0.0
 11
61.508437
 21
189.883806
 31
0.0
  0
LINE
  5
9D
102
{ACAD_REACTORS
330
172
102
}
330
1F
100
AcDbEntity
  8
LC-001-002-----0
 62
     7
370
    50
100
AcDbLine
 10
55.219762
 20
190.383806
 30
0.0
 11
54.931087
 21
189.883806
 31
0.0
  0
LINE
  5
9E
102
{ACAD_REACTORS
330
172
102
}
330
1F
100
AcDbEntity
  8
LC-001-002-----0
 62
     7
370
    50
100
AcDbLine
 10
55.508437
 20
189.883806
 30
0.0
 11
55.219762
 21
190.383806
 31
0.0
  0
LINE
  5
9F
102
{ACAD_REACTORS
330
172
102
}
330
1F
100
AcDbEntity
  8
LC-001-002-----0
 62
     7
370
    50
100
AcDbLine
 10
54.931087
 20
189.883806
 30
0.0
 11
54.219762
 21
189.883806
 31
0.0
  0
LINE
  5
A0
102
{ACAD_REACTORS
330
172
102
}
330
1F
100
AcDbEntity
  8
LC-001-002-----0
 62
     7
370
    50
100
AcDbLine
 10
63.219762
 20
190.383806
 30
0.0
 11
62.931087
 21
189.883806
 31
0.0
  0
LINE
  5
A1
102
{ACAD_REACTORS
330
172
102
}
330
1F
100
AcDbEntity
  8
LC-001-002-----0
 62
     7
370
    50
100
AcDbLine
 10
63.508437
 20
189.883806
 30
0.0
 11
63.219762
 21
190.383806
 31
0.0
  0
LINE
  5
A2
102
{ACAD_REACTORS
330
172
102
}
330
1F
100
AcDbEntity
  8
LC-001-002-----0
 62
     7
370
    50
100
AcDbLine
 10
63.219762
 20
190.383806
 30
0.0
 11
65.219762
 21
190.383806
 31
0.0
  0
LINE
  5
A3
102
{ACAD_REACTORS
330
172
102
}
330
1F
100
AcDbEntity
  8
LC-001-002-----0
 62
     7
370
    50
100
AcDbLine
 10
64.931087
 20
189.883806
 30
0.0
 11
63.508437
 21
189.883806
 31
0.0
  0
LINE
  5
A4
102
{ACAD_REACTORS
330
172
102
}
330
1F
100
AcDbEntity
  8
LC-001-002-----0
 62
     7
370
    50
100
AcDbLine
 10
66.219762
 20
191.383806
 30
0.0
 11
67.21965
 21
191.383806
 31
0.0
  0
LINE
  5
A5
102
{ACAD_REACTORS
330
172
102
}
330
1F
100
AcDbEntity
  8
LC-001-002-----0
 62
     7
370
    50
100
AcDbLine
 10
70.21965
 20
191.383806
 30
0.0
 11
70.21965
 21
179.383806
 31
0.0
  0
LINE
  5
A6
102
{ACAD_REACTORS
330
172
102
}
330
1F
100
AcDbEntity
  8
LC-001-002-----0
 62
     7
370
    50
100
AcDbLine
 10
69.21965
 20
191.383806
 30
0.0
 11
67.21965
 21
191.383806
 31
0.0
  0
LINE
  5
A7
102
{ACAD_REACTORS
330
172
102
}
330
1F
100
AcDbEntity
  8
LC-001-002-----0
 62
     7
370
    50
100
AcDbLine
 10
197.219762
 20
190.383806
 30
0.0
 11
195.219762
 21
190.383806
 31
0.0
  0
LINE
  5
A8
102
{ACAD_REACTORS
330
172
102
}
330
1F
100
AcDbEntity
  8
LC-001-002-----0
 62
     7
370
    50
100
AcDbLine
 10
201.508437
 20
189.883806
 30
0.0
 11
202.931087
 21
189.883806
 31
0.0
  0
LINE
  5
A9
102
{ACAD_REACTORS
330
172
102
}
330
1F
100
AcDbEntity
  8
LC-001-002-----0
 62
     7
370
    50
100
AcDbLine
 10
199.508437
 20
189.883806
 30
0.0
 11
200.931087
 21
189.883806
 31
0.0
  0
LINE
  5
AA
102
{ACAD_REACTORS
330
172
102
}
330
1F
100
AcDbEntity
  8
LC-001-002-----0
 62
     7
370
    50
100
AcDbLine
 10
197.508437
 20
189.883806
 30
0.0
 11
198.931087
 21
189.883806
 31
0.0
  0
LINE
  5
AB
102
{ACAD_REACTORS
330
172
102
}
330
1F
100
AcDbEntity
  8
LC-001-002-----0
 62
     7
370
    50
100
AcDbLine
 10
195.508437
 20
189.883806
 30
0.0
 11
196.931087
 21
189.883806
 31
0.0
  0
LINE
  5
AC
102
{ACAD_REACTORS
330
172
102
}
330
1F
100
AcDbEntity
  8
LC-001-002-----0
 62
     7
370
    50
100
AcDbLine
 10
185.181309
 20
191.383116
 30
0.0
 11
185.181309
 21
194.383116
 31
0.0
  0
LINE
  5
AD
102
{ACAD_REACTORS
330
172
102
}
330
1F
100
AcDbEntity
  8
LC-001-002-----0
 62
     7
370
    50
100
AcDbLine
 10
185.181309
 20
194.383116
 30
0.0
 11
181.633121
 21
194.383116
 31
0.0
  0
LINE
  5
AE
102
{ACAD_REACTORS
330
172
102
}
330
1F
100
AcDbEntity
  8
LC-001-002-----0
 62
     7
370
    50
100
AcDbLine
 10
181.633121
 20
194.383116
 30
0.0
 11
181.633121
 21
191.383116
 31
0.0
  0
LINE
  5
AF
102
{ACAD_REACTORS
330
172
102
}
330
1F
100
AcDbEntity
  8
LC-001-002-----0
 62
     7
370
    50
100
AcDbLine
 10
184.461548
 20
191.383116
 30
0.0
 11
184.461548
 21
194.383116
 31
0.0
  0
LINE
  5
B0
102
{ACAD_REACTORS
330
172
102
}
330
1F
100
AcDbEntity
  8
LC-001-002-----0
 62
     7
370
    50
100
AcDbLine
 10
78.806403
 20
191.383116
 30
0.0
 11
78.806403
 21
194.383116
 31
0.0
  0
LINE
  5
B1
102
{ACAD_REACTORS
330
172
102
}
330
1F
100
AcDbEntity
  8
LC-001-002-----0
 62
     7
370
    50
100
AcDbLine
 10
78.806403
 20
194.383116
 30
0.0
 11
75.258215
 21
194.383116
 31
0.0
  0
LINE
  5
B2
102
{ACAD_REACTORS
330
172
102
}
330
1F
100
AcDbEntity
  8
LC-001-002-----0
 62
     7
370
    50
100
AcDbLine
 10
75.258215
 20
194.383116
 30
0.0
 11
75.258215
 21
191.383116
 31
0.0
  0
LINE
  5
B3
102
{ACAD_REACTORS
330
172
102
}
330
1F
100
AcDbEntity
  8
LC-001-002-----0
 62
     7
370
    50
100
AcDbLine
 10
75.977976
 20
194.383116
 30
0.0
 11
75.977976
 21
191.383116
 31
0.0
  0
LINE
  5
B4
102
{ACAD_REACTORS
330
172
102
}
330
1F
100
AcDbEntity
  8
LC-001-002-----0
 62
     7
370
    50
100
AcDbLine
 10
67.01965
 20
183.883806
 30
0.0
 11
67.01965
 21
176.383116
 31
0.0
  0
LINE
  5
B5
102
{ACAD_REACTORS
330
172
102
}
330
1F
100
AcDbEntity
  8
LC-001-002-----0
 62
     7
370
    50
100
AcDbLine
 10
278.358932
 20
175.601339
 30
0.0
 11
193.219874
 21
179.318591
 31
0.0
  0
LINE
  5
B6
102
{ACAD_REACTORS
330
172
102
}
330
1F
100
AcDbEntity
  8
LC-001-002-----0
 62
     7
370
    50
100
AcDbLine
 10
70.219736
 20
179.383806
 30
0.0
 11
78.219805
 21
179.383806
 31
0.0
  0
LINE
  5
B7
102
{ACAD_REACTORS
330
172
102
}
330
1F
100
AcDbEntity
  8
LC-001-002-----0
 62
     7
370
    50
100
AcDbLine
 10
70.219736
 20
179.383806
 30
0.0
 11
70.219736
 21
183.383806
 31
0.0
  0
LINE
  5
B8
102
{ACAD_REACTORS
330
172
102
}
330
1F
100
AcDbEntity
  8
LC-001-002-----0
 62
     7
370
    50
100
AcDbLine
 10
281.746553
 20
172.951051
 30
0.0
 11
278.693196
 21
103.017675
 31
0.0
  0
LINE
  5
B9
102
{ACAD_REACTORS
330
172
102
}
330
1F
100
AcDbEntity
  8
LC-001-002-----0
 62
     7
370
    50
100
AcDbLine
 10
190.219874
 20
191.383116
 30
0.0
 11
190.219874
 21
179.383806
 31
0.0
  0
LINE
  5
BA
102
{ACAD_REACTORS
330
172
102
}
330
1F
100
AcDbEntity
  8
LC-001-002-----0
 62
     7
370
    50
100
AcDbLine
 10
281.814694
 20
174.511742
 30
0.0
 11
278.358932
 21
175.601339
 31
0.0
  0
LINE
  5
BB
102
{ACAD_REACTORS
330
172
102
}
330
1F
100
AcDbEntity
  8
LC-001-002-----0
 62
     7
370
    50
100
AcDbLine
 10
278.625054
 20
101.456984
 30
0.0
 11
275.087478
 21
100.672722
 31
0.0
  0
LINE
  5
BC
102
{ACAD_REACTORS
330
172
102
}
330
1F
100
AcDbEntity
  8
LC-001-002-----0
 62
     7
370
    50
100
AcDbLine
 10
67.01965
 20
176.383116
 30
0.0
 11
76.716084
 21
176.383116
 31
0.0
  0
LINE
  5
BD
102
{ACAD_REACTORS
330
172
102
}
330
1F
100
AcDbEntity
  8
LC-001-002-----0
 62
     7
370
    50
100
AcDbLine
 10
281.746553
 20
172.951051
 30
0.0
 11
182.219762
 21
177.383806
 31
0.0
  0
LINE
  5
BE
102
{ACAD_REACTORS
330
172
102
}
330
1F
100
AcDbEntity
  8
LC-001-002-----0
 62
     7
370
    50
100
AcDbLine
 10
275.087478
 20
100.672722
 30
0.0
 11
128.038793
 21
107.093007
 31
0.0
  0
LINE
  5
BF
102
{ACAD_REACTORS
330
172
102
}
330
1F
100
AcDbEntity
  8
LC-001-002-----0
 62
     7
370
    50
100
AcDbLine
 10
78.219805
 20
179.383806
 30
0.0
 11
182.219762
 21
179.383806
 31
0.0
  0
DIMENSION
  5
C0
330
1F
100
AcDbEntity
  8
LC-002-003-----0
 62
     7
370
    25
100
AcDbDimension
  2
*D4
 10
39.251167
 20
183.883806
 30
0.0
 11
8.451167
 21
142.278264
 31
0.0
 70
   160
  1
85
 71
     5
 42
83.211084
 53
90.0
  3
LC-DIM-L-0140-02-02
100
AcDbAlignedDimension
 13
275.087478
 23
100.672722
 33
0.0
 14
54.219762
 24
183.883806
 34
0.0
 50
90.0
100
AcDbRotatedDimension
  0
INSERT
  5
140
102
{ACAD_REACTORS
330
172
102
}
330
1F
100
AcDbEntity
  8
LC-003-005-----0
 62
     7
370
    25
100
AcDbBlockReference
  2
*X15
 10
0.0
 20
0.0
 30
0.0
  0
INSERT
  5
171
102
{ACAD_REACTORS
330
172
102
}
330
1F
100
AcDbEntity
  8
LC-003-005-----0
 62
     7
370
    25
100
AcDbBlockReference
  2
*X26
 10
0.0
 20
0.0
 30
0.0
  0
ENDSEC
  0
SECTION
  2
OBJECTS
  0
DICTIONARY
  5
C
330
0
100
AcDbDictionary
281
     1
  3
ACAD_GROUP
350
D
  3
ACAD_LAYOUT
350
1A
  3
ACAD_MLINESTYLE
350
17
  3
ACAD_PLOTSETTINGS
350
19
  3
ACAD_PLOTSTYLENAME
350
E
  0
DICTIONARY
  5
D
102
{ACAD_REACTORS
330
C
102
}
330
C
100
AcDbDictionary
281
     1
  3
LCGROUP11
350
172
  0
DICTIONARY
  5
1A
102
{ACAD_REACTORS
330
C
102
}
330
C
100
AcDbDictionary
281
     1
  3
Layout1
350
1E
  3
Layout2
350
26
  3
Model
350
22
  0
DICTIONARY
  5
17
102
{ACAD_REACTORS
330
C
102
}
330
C
100
AcDbDictionary
281
     1
  3
Standard
350
18
  0
DICTIONARY
  5
19
102
{ACAD_REACTORS
330
C
102
}
330
C
100
AcDbDictionary
281
     1
  0
ACDBDICTIONARYWDFLT
  5
E
102
{ACAD_REACTORS
330
C
102
}
330
C
100
AcDbDictionary
281
     1
  3
Normal
350
F
100
AcDbDictionaryWithDefault
340
F
  0
GROUP
  5
172
102
{ACAD_REACTORS
330
D
102
}
330
D
100
AcDbGroup
300
Körper
 70
     1
 71
     1
340
31
340
43
340
45
340
46
340
55
340
56
340
57
340
58
340
59
340
5A
340
5B
340
5C
340
6A
340
6B
340
6C
340
6D
340
6E
340
6F
340
70
340
71
340
72
340
73
340
74
340
75
340
76
340
77
340
78
340
79
340
7A
340
7B
340
7C
340
7D
340
7E
340
7F
340
80
340
81
340
82
340
83
340
84
340
85
340
86
340
87
340
88
340
89
340
8A
340
8B
340
8C
340
8D
340
8E
340
8F
340
90
340
91
340
92
340
93
340
94
340
95
340
96
340
97
340
98
340
99
340
9A
340
9B
340
9C
340
9D
340
9E
340
9F
340
A0
340
A1
340
A2
340
A3
340
A4
340
A5
340
A6
340
A7
340
A8
340
A9
340
AA
340
AB
340
AC
340
AD
340
AE
340
AF
340
B0
340
B1
340
B2
340
B3
340
B4
340
B5
340
B6
340
B7
340
B8
340
B9
340
BA
340
BB
340
BC
340
BD
340
BE
340
BF
340
140
340
171
  0
LAYOUT
  5
1E
102
{ACAD_REACTORS
330
1A
102
}
330
1A
100
AcDbPlotSettings
  1

  2

  4

  6

 40
0.0
 41
0.0
 42
0.0
 43
0.0
 44
0.0
 45
0.0
 46
0.0
 47
0.0
 48
0.0
 49
0.0
140
0.0
141
0.0
142
1.0
143
1.0
 70
   688
 72
     0
 73
     0
 74
     5
  7

 75
    16
147
1.0
148
0.0
149
0.0
100
AcDbLayout
  1
Layout1
 70
     1
 71
     1
 10
-213.964515
 20
-186.717
 11
626.035485
 21
407.283
 12
0.0
 22
0.0
 32
0.0
 14
-213.964515
 24
-186.717
 34
0.0
 15
626.035485
 25
407.283
 35
0.0
146
0.0
 13
0.0
 23
0.0
 33
0.0
 16
1.0
 26
0.0
 36
0.0
 17
0.0
 27
1.0
 37
0.0
 76
     0
330
1B
  0
LAYOUT
  5
26
102
{ACAD_REACTORS
330
1A
102
}
330
1A
100
AcDbPlotSettings
  1

  2

  4

  6

 40
0.0
 41
0.0
 42
0.0
 43
0.0
 44
0.0
 45
0.0
 46
0.0
 47
0.0
 48
0.0
 49
0.0
140
0.0
141
0.0
142
1.0
143
1.0
 70
   688
 72
     0
 73
     0
 74
     5
  7

 75
    16
147
1.0
148
0.0
149
0.0
100
AcDbLayout
  1
Layout2
 70
     1
 71
     2
 10
0.0
 20
0.0
 11
0.0
 21
0.0
 12
0.0
 22
0.0
 32
0.0
 14
0.0
 24
0.0
 34
0.0
 15
0.0
 25
0.0
 35
0.0
146
0.0
 13
0.0
 23
0.0
 33
0.0
 16
1.0
 26
0.0
 36
0.0
 17
0.0
 27
1.0
 37
0.0
 76
     0
330
23
  0
LAYOUT
  5
22
102
{ACAD_REACTORS
330
1A
102
}
330
1A
100
AcDbPlotSettings
  1

  2

  4

  6

 40
0.0
 41
0.0
 42
0.0
 43
0.0
 44
0.0
 45
0.0
 46
0.0
 47
0.0
 48
0.0
 49
0.0
140
0.0
141
0.0
142
1.0
143
1.0
 70
  1776
 72
     0
 73
     0
 74
     0
  7

 75
     0
147
1.0
148
0.0
149
0.0
100
AcDbLayout
  1
Model
 70
     1
 71
     0
 10
-213.964515
 20
-186.717
 11
626.035485
 21
407.283
 12
0.0
 22
0.0
 32
0.0
 14
-213.964515
 24
-186.717
 34
0.0
 15
626.035485
 25
407.283
 35
0.0
146
0.0
 13
0.0
 23
0.0
 33
0.0
 16
1.0
 26
0.0
 36
0.0
 17
0.0
 27
1.0
 37
0.0
 76
     0
330
1F
  0
MLINESTYLE
  5
18
102
{ACAD_REACTORS
330
17
102
}
330
17
100
AcDbMlineStyle
  2
Standard
 70
     0
  3

 62
   256
 51
90.0
 52
90.0
 71
     2
 49
0.5
 62
   256
  6
BYLAYER
 49
-0.5
 62
   256
  6
BYLAYER
  0
ACDBPLACEHOLDER
  5
F
102
{ACAD_REACTORS
330
E
102
}
330
E
  0
ENDSEC
  0
EOF
