  0
SECTION
  2
HEADER
  9
$ACADVER
  1
AC1015
  9
$ACADMAINTVER
 70
     6
  9
$DWGCODEPAGE
  3
DOS850
  9
$INSBASE
 10
0.0
 20
0.0
 30
0.0
  9
$EXTMIN
 10
-213.964515
 20
-203.943
 30
0.0
  9
$EXTMAX
 10
626.035485
 20
390.057
 30
0.0
  9
$LIMMIN
 10
-213.964515
 20
-203.943
  9
$LIMMAX
 10
626.035485
 20
390.057
  9
$ORTHOMODE
 70
     0
  9
$REGENMODE
 70
     1
  9
$FILLMODE
 70
     1
  9
$QTEXTMODE
 70
     0
  9
$MIRRTEXT
 70
     1
  9
$LTSCALE
 40
2.0
  9
$ATTMODE
 70
     1
  9
$TEXTSIZE
 40
0.2
  9
$TRACEWID
 40
0.05
  9
$TEXTSTYLE
  7
Standard
  9
$CLAYER
  8
0
  9
$CELTYPE
  6
ByBlock
  9
$CECOLOR
 62
     7
  9
$CELTSCALE
 40
1.0
  9
$DISPSILH
 70
     0
  9
$DIMSCALE
 40
2.0
  9
$DIMASZ
 40
3.5
  9
$DIMEXO
 40
0.0625
  9
$DIMDLI
 40
0.38
  9
$DIMRND
 40
0.0
  9
$DIMDLE
 40
0.0
  9
$DIMEXE
 40
0.18
  9
$DIMTP
 40
0.0
  9
$DIMTM
 40
0.0
  9
$DIMTXT
 40
3.5
  9
$DIMCEN
 40
0.09
  9
$DIMTSZ
 40
0.0
  9
$DIMTOL
 70
     0
  9
$DIMLIM
 70
     0
  9
$DIMTIH
 70
     1
  9
$DIMTOH
 70
     1
  9
$DIMSE1
 70
     0
  9
$DIMSE2
 70
     0
  9
$DIMTAD
 70
     1
  9
$DIMZIN
 70
     0
  9
$DIMBLK
  1

  9
$DIMASO
 70
     1
  9
$DIMSHO
 70
     1
  9
$DIMPOST
  1

  9
$DIMAPOST
  1

  9
$DIMALT
 70
     0
  9
$DIMALTD
 70
     2
  9
$DIMALTF
 40
25.4
  9
$DIMLFAC
 40
1.0
  9
$DIMTOFL
 70
     0
  9
$DIMTVP
 40
0.0
  9
$DIMTIX
 70
     0
  9
$DIMSOXD
 70
     0
  9
$DIMSAH
 70
     0
  9
$DIMBLK1
  1

  9
$DIMBLK2
  1

  9
$DIMSTYLE
  2
Standard
  9
$DIMCLRD
 70
     0
  9
$DIMCLRE
 70
     0
  9
$DIMCLRT
 70
     0
  9
$DIMTFAC
 40
1.0
  9
$DIMGAP
 40
0.09
  9
$DIMJUST
 70
     0
  9
$DIMSD1
 70
     0
  9
$DIMSD2
 70
     0
  9
$DIMTOLJ
 70
     1
  9
$DIMTZIN
 70
     0
  9
$DIMALTZ
 70
     0
  9
$DIMALTTZ
 70
     0
  9
$DIMUPT
 70
     0
  9
$DIMDEC
 70
     4
  9
$DIMTDEC
 70
     4
  9
$DIMALTU
 70
     2
  9
$DIMALTTD
 70
     2
  9
$DIMTXSTY
  7
Standard
  9
$DIMAUNIT
 70
     0
  9
$DIMADEC
 70
     0
  9
$DIMALTRND
 40
0.0
  9
$DIMAZIN
 70
     0
  9
$DIMDSEP
 70
     0
  9
$DIMATFIT
 70
     3
  9
$DIMFRAC
 70
     0
  9
$DIMLDRBLK
  1

  9
$DIMLUNIT
 70
     2
  9
$DIMLWD
 70
     0
  9
$DIMLWE
 70
     0
  9
$DIMTMOVE
 70
     0
  9
$LUNITS
 70
     2
  9
$LUPREC
 70
     6
  9
$SKETCHINC
 40
0.1
  9
$FILLETRAD
 40
0.0
  9
$AUNITS
 70
     0
  9
$AUPREC
 70
     0
  9
$MENU
  1
acad
  9
$ELEVATION
 40
0.0
  9
$PELEVATION
 40
0.0
  9
$THICKNESS
 40
0.0
  9
$LIMCHECK
 70
     0
  9
$CHAMFERA
 40
0.0
  9
$CHAMFERB
 40
0.0
  9
$CHAMFERC
 40
0.0
  9
$CHAMFERD
 40
0.0
  9
$SKPOLY
 70
     0
  9
$TDCREATE
 40
0.000000000
  9
$TDUCREATE
 40
0.000000000
  9
$TDUPDATE
 40
0.000000000
  9
$TDUUPDATE
 40
0.000000000
  9
$TDINDWG
 40
0.0000000000
  9
$TDUSRTIMER
 40
0.0000000000
  9
$USRTIMER
 70
     1
  9
$ANGBASE
 50
0.0
  9
$ANGDIR
 70
     0
  9
$PDMODE
 70
     0
  9
$PDSIZE
 40
0.0
  9
$PLINEWID
 40
0.0
  9
$SPLFRAME
 70
     0
  9
$SPLINETYPE
 70
     6
  9
$SPLINESEGS
 70
     8
  9
$HANDSEED
  5
1A0
  9
$SURFTAB1
 70
     6
  9
$SURFTAB2
 70
     6
  9
$SURFTYPE
 70
     6
  9
$SURFU
 70
     6
  9
$SURFV
 70
     6
  9
$UCSBASE
  2

  9
$UCSNAME
  2

  9
$UCSORG
 10
0.0
 20
0.0
 30
0.0
  9
$UCSXDIR
 10
1.0
 20
0.0
 30
0.0
  9
$UCSYDIR
 10
0.0
 20
1.0
 30
0.0
  9
$UCSORTHOREF
  2

  9
$UCSORTHOVIEW
 70
     0
  9
$UCSORGTOP
 10
0.0
 20
0.0
 30
0.0
  9
$UCSORGBOTTOM
 10
0.0
 20
0.0
 30
0.0
  9
$UCSORGLEFT
 10
0.0
 20
0.0
 30
0.0
  9
$UCSORGRIGHT
 10
0.0
 20
0.0
 30
0.0
  9
$UCSORGFRONT
 10
0.0
 20
0.0
 30
0.0
  9
$UCSORGBACK
 10
0.0
 20
0.0
 30
0.0
  9
$PUCSBASE
  2

  9
$PUCSNAME
  2

  9
$PUCSORG
 10
0.0
 20
0.0
 30
0.0
  9
$PUCSXDIR
 10
1.0
 20
0.0
 30
0.0
  9
$PUCSYDIR
 10
0.0
 20
1.0
 30
0.0
  9
$PUCSORTHOREF
  2

  9
$PUCSORTHOVIEW
 70
     0
  9
$PUCSORGTOP
 10
0.0
 20
0.0
 30
0.0
  9
$PUCSORGBOTTOM
 10
0.0
 20
0.0
 30
0.0
  9
$PUCSORGLEFT
 10
0.0
 20
0.0
 30
0.0
  9
$PUCSORGRIGHT
 10
0.0
 20
0.0
 30
0.0
  9
$PUCSORGFRONT
 10
0.0
 20
0.0
 30
0.0
  9
$PUCSORGBACK
 10
0.0
 20
0.0
 30
0.0
  9
$USERI1
 70
     0
  9
$USERI2
 70
     0
  9
$USERI3
 70
     0
  9
$USERI4
 70
     0
  9
$USERI5
 70
     0
  9
$USERR1
 40
0.0
  9
$USERR2
 40
0.0
  9
$USERR3
 40
0.0
  9
$USERR4
 40
0.0
  9
$USERR5
 40
0.0
  9
$WORLDVIEW
 70
     1
  9
$SHADEDGE
 70
     3
  9
$SHADEDIF
 70
    70
  9
$TILEMODE
 70
     1
  9
$MAXACTVP
 70
    16
  9
$PINSBASE
 10
0.0
 20
0.0
 30
0.0
  9
$PLIMCHECK
 70
     0
  9
$PEXTMIN
 10
-213.964515
 20
-203.943
 30
0.0
  9
$PEXTMAX
 10
626.035485
 20
390.057
 30
0.0
  9
$PLIMMIN
 10
-213.964515
 20
-203.943
  9
$PLIMMAX
 10
626.035485
 20
390.057
  9
$UNITMODE
 70
     0
  9
$VISRETAIN
 70
     0
  9
$PLINEGEN
 70
     1
  9
$PSLTSCALE
 70
     0
  9
$TREEDEPTH
 70
  3020
  9
$CMLSTYLE
  2
Standard
  9
$CMLJUST
 70
     0
  9
$CMLSCALE
 40
1.0
  9
$PROXYGRAPHICS
 70
     0
  9
$MEASUREMENT
 70
     0
  9
$CELWEIGHT
370
     0
  9
$ENDCAPS
280
     0
  9
$JOINSTYLE
280
     0
  9
$LWDISPLAY
290
     0
  9
$INSUNITS
 70
     0
  9
$HYPERLINKBASE
  1

  9
$STYLESHEET
  1

  9
$XEDIT
290
     1
  9
$CEPSNTYPE
380
     0
  9
$PSTYLEMODE
290
     1
  9
$FINGERPRINTGUID
  2

  9
$VERSIONGUID
  2

  9
$EXTNAMES
290
     1
  9
$PSVPSCALE
 40
0.0
  0
ENDSEC
  0
SECTION
  2
CLASSES
  0
CLASS
  1
LWPOLYLINE
  2
AcDbPolyline
  3
AutoCAD 2000
 90
        0
280
     0
281
     1
  0
CLASS
  1
IMAGE
  2
AcDbRasterImage
  3
ISM
 90
      127
280
     0
281
     1
  0
CLASS
  1
OLE2FRAME
  2
AcDbOle2Frame
  3
AutoCAD 2000
 90
        0
280
     0
281
     1
  0
CLASS
  1
HATCH
  2
AcDbHatch
  3
AutoCAD 2000
 90
        0
280
     0
281
     1
  0
CLASS
  1
DICTIONARYVAR
  2
AcDbDictionaryVar
  3
AutoCAD 2000
 90
        0
280
     0
281
     0
  0
CLASS
  1
RASTERVARIABLES
  2
AcDbRasterVariables
  3
ISM
 90
        0
280
     0
281
     0
  0
CLASS
  1
IMAGEDEF
  2
AcDbRasterImageDef
  3
ISM
 90
        0
280
     0
281
     0
  0
CLASS
  1
IMAGEDEF_REACTOR
  2
AcDbRasterImageDefReactor
  3
ISM
 90
        1
280
     0
281
     0
  0
CLASS
  1
IDBUFFER
  2
AcDbIdBuffer
  3
AutoCAD 2000
 90
        0
280
     0
281
     0
  0
CLASS
  1
SPATIAL_FILTER
  2
AcDbSpatialFilter
  3
AutoCAD 2000
 90
        0
280
     0
281
     0
  0
CLASS
  1
XRECORD
  2
AcDbXrecord
  3
AutoCAD 2000
 90
        0
280
     0
281
     0
  0
CLASS
  1
SORTENTSTABLE
  2
AcDbSortentsTable
  3
AutoCAD 2000
 90
        0
280
     0
281
     0
  0
CLASS
  1
LAYER_INDEX
  2
AcDbLayerIndex
  3
AutoCAD 2000
 90
        0
280
     0
281
     0
  0
CLASS
  1
SPATIAL_INDEX
  2
AcDbSpatialIndex
  3
AutoCAD 2000
 90
        0
280
     0
281
     0
  0
CLASS
  1
OBJECT_PTR
  2
CAseDLPNTableRecord
  3
"ASE-LPNTableRecord"
 90
        1
280
     0
281
     0
  0
CLASS
  1
LAYOUT
  2
AcDbLayout
  3
AutoCAD 2000
 90
        0
280
     0
281
     0
  0
CLASS
  1
PLOTSETTINGS
  2
AcDbPlotSettings
  3
AutoCAD 2000
 90
        0
280
     0
281
     0
  0
CLASS
  1
ACDBDICTIONARYWDFLT
  2
AcDbDictionaryWithDefault
  3
AutoCAD 2000
 90
        0
280
     0
281
     0
  0
CLASS
  1
ACDBPLACEHOLDER
  2
AcDbPlaceHolder
  3
AutoCAD 2000
 90
        0
280
     0
281
     0
  0
ENDSEC
  0
SECTION
  2
TABLES
  0
TABLE
  2
VPORT
  5
7
100
AcDbSymbolTable
 70
     1
  0
VPORT
  5
15
100
AcDbSymbolTableRecord
100
AcDbViewportTableRecord
  2
*ACTIVE
 70
     0
 10
0.0
 20
0.0
 11
1.0
 21
1.0
 12
420.0
 22
297.0
 13
0.0
 23
0.0
 14
1.0
 24
1.0
 15
0.0
 25
0.0
 16
0.0
 26
0.0
 36
1.0
 17
-213.964515
 27
-203.943
 37
0.0
 40
594.0
 41
1.604229
 42
50.0
 43
0.0
 44
0.0
 50
0.0
 51
0.0
 71
     0
 72
   100
 73
     1
 74
     1
 75
     0
 76
     0
 77
     0
 78
     0
281
     0
 65
     0
110
0.0
120
0.0
130
0.0
111
1.0
121
0.0
131
0.0
112
0.0
122
1.0
132
0.0
345
0
346
0
 79
     0
146
0.0
  0
ENDTAB
  0
TABLE
  2
LTYPE
  5
4
100
AcDbSymbolTable
 70
     5
  0
LTYPE
  5
11
100
AcDbSymbolTableRecord
100
AcDbLinetypeTableRecord
  2
ByBlock
 70
    64
  3

 72
    65
 73
     0
 40
0.0
  0
LTYPE
  5
12
100
AcDbSymbolTableRecord
100
AcDbLinetypeTableRecord
  2
ByLayer
 70
    64
  3

 72
    65
 73
     0
 40
0.0
  0
LTYPE
  5
13
100
AcDbSymbolTableRecord
100
AcDbLinetypeTableRecord
  2
Continuous
 70
    64
  3
Solid line
 72
    65
 73
     0
 40
0.0
  0
LTYPE
  5
23
100
AcDbSymbolTableRecord
100
AcDbLinetypeTableRecord
  2
DASHED
 70
    64
  3
__ __ __ __ __
 72
    65
 73
     2
 40
6.25
 49
5.0
 74
     0
 49
-1.25
 74
     0
  0
LTYPE
  5
4C
100
AcDbSymbolTableRecord
100
AcDbLinetypeTableRecord
  2
DASHDOT
 70
    64
  3
__ . __ . __ . __ . __
 72
    65
 73
     4
 40
7.5
 49
5.0
 74
     0
 49
-1.25
 74
     0
 49
0.0
 74
     0
 49
-1.25
 74
     0
  0
ENDTAB
  0
TABLE
  2
LAYER
  5
2
100
AcDbSymbolTable
 70
    11
  0
LAYER
  5
14
100
AcDbSymbolTableRecord
100
AcDbLayerTableRecord
  2
0
 70
     0
 62
     7
  6
Continuous
290
     1
370
    -3
390
1D
  0
LAYER
  5
24
100
AcDbSymbolTableRecord
100
AcDbLayerTableRecord
  2
LC-INFO-1-2-mm-A3-0
 70
     1
 62
   255
  6
ByBlock
290
     1
370
    -3
390
1D
  0
LAYER
  5
25
100
AcDbSymbolTableRecord
100
AcDbLayerTableRecord
  2
LC-3D-HIDDEN
 70
     0
 62
     9
  6
DASHED
290
     1
370
    -3
390
1D
  0
LAYER
  5
26
100
AcDbSymbolTableRecord
100
AcDbLayerTableRecord
  2
LC-CUT-HIDDEN
 70
     0
 62
     9
  6
DASHED
290
     1
370
    -3
390
1D
  0
LAYER
  5
27
100
AcDbSymbolTableRecord
100
AcDbLayerTableRecord
  2
LC-VIEWPORT
 70
     0
 62
     7
  6
ByBlock
290
     1
370
    -3
390
1D
  0
LAYER
  5
2A
100
AcDbSymbolTableRecord
100
AcDbLayerTableRecord
  2
LC-001-002-----0
 70
     0
 62
     1
  6
ByBlock
290
     1
370
    -3
390
1D
  0
LAYER
  5
30
100
AcDbSymbolTableRecord
100
AcDbLayerTableRecord
  2
LC-002-003-MTH-0
 70
     0
 62
     2
  6
ByBlock
290
     1
370
    -3
390
1D
  0
LAYER
  5
33
100
AcDbSymbolTableRecord
100
AcDbLayerTableRecord
  2
LC-003-003-----0
 70
     0
 62
     2
  6
ByBlock
290
     1
370
    -3
390
1D
  0
LAYER
  5
46
100
AcDbSymbolTableRecord
100
AcDbLayerTableRecord
  2
LC-004-003-MTG-0
 70
     0
 62
     2
  6
ByBlock
290
     1
370
    -3
390
1D
  0
LAYER
  5
8C
100
AcDbSymbolTableRecord
100
AcDbLayerTableRecord
  2
LC-005-007-KH--0
 70
     0
 62
    44
  6
DASHDOT
290
     1
370
    -3
390
1D
  0
LAYER
  5
102
100
AcDbSymbolTableRecord
100
AcDbLayerTableRecord
  2
LC-006-005-----0
 70
     0
 62
     2
  6
ByBlock
290
     1
370
    -3
390
1D
  0
ENDTAB
  0
TABLE
  2
STYLE
  5
3
100
AcDbSymbolTable
 70
     3
  0
STYLE
  5
17
100
AcDbSymbolTableRecord
100
AcDbTextStyleTableRecord
  2
Standard
 70
     0
 40
0.0
 41
1.0
 50
0.0
 71
     0
 42
0.0
  3
txt
  4

  0
STYLE
  5
29
100
AcDbSymbolTableRecord
100
AcDbTextStyleTableRecord
  2
LCTX15-400-0-0-ARIAL
 70
    64
 40
3.5
 41
1.0
 50
0.0
 71
     0
 42
0.0
  3
Arial
  4

1001
ACAD
1000
Arial
1071
 16777216
  0
STYLE
  5
2D
100
AcDbSymbolTableRecord
100
AcDbTextStyleTableRecord
  2
LCTX15-400-0-0-DIN-SCHRIFTP
 70
    64
 40
0.0
 41
1.0
 50
1.5
 71
     0
 42
3.5
  3
STANDARD
  4

  0
ENDTAB
  0
TABLE
  2
VIEW
  5
5
100
AcDbSymbolTable
 70
     0
  0
ENDTAB
  0
TABLE
  2
UCS
  5
6
100
AcDbSymbolTable
 70
     0
  0
ENDTAB
  0
TABLE
  2
APPID
  5
8
100
AcDbSymbolTable
 70
     1
  0
APPID
  5
16
100
AcDbSymbolTableRecord
100
AcDbRegAppTableRecord
  2
ACAD
 70
     0
  0
ENDTAB
  0
TABLE
  2
DIMSTYLE
  5
9
100
AcDbSymbolTable
 70
     3
100
AcDbDimStyleTable
 71
     0
  0
DIMSTYLE
105
18
100
AcDbSymbolTableRecord
100
AcDbDimStyleTableRecord
  2
Standard
 70
     0
  3

  4

 40
1.0
 41
0.18
 42
0.0625
 43
0.38
 44
0.18
 45
0.0
 46
0.0
 47
0.0
 48
0.0
 71
     0
 72
     0
 73
     1
 74
     1
 75
     0
 76
     0
 77
     0
 78
     0
 79
     0
140
0.18
141
0.09
142
0.0
143
25.4
144
1.0
145
0.0
146
1.0
147
0.09
148
0.0
170
     0
171
     2
172
     0
173
     0
174
     0
175
     0
176
     0
177
     0
178
     0
179
     0
271
     4
272
     4
273
     2
274
     2
275
     0
276
     0
277
     2
278
    46
279
     0
280
     0
281
     0
282
     0
283
     1
284
     0
285
     0
286
     0
288
     0
289
     0
340
17
341
0
342
0
343
0
344
0
371
    -2
372
    -2
  0
DIMSTYLE
105
2C
100
AcDbSymbolTableRecord
100
AcDbDimStyleTableRecord
  2
LC-DIM-L-0140-02-02
 70
     0
  3

  4

 40
2.0
 41
3.5
 42
0.0
 43
7.5
 44
1.8
 45
0.0
 46
0.0
 47
0.0
 48
0.0
 71
     0
 72
     0
 73
     0
 74
     0
 75
     0
 76
     0
 77
     1
 78
     8
 79
     0
140
14.0
141
0.0
142
0.0
143
25.4
144
1.0
145
0.0
146
0.71
147
1.5
148
0.0
170
     0
171
     2
172
     0
173
     0
174
     0
175
     0
176
     2
177
     2
178
     2
179
     2
271
     2
272
     4
273
     2
274
     2
275
     0
276
     0
277
     2
278
    44
279
     0
280
     0
281
     0
282
     0
283
     1
284
     0
285
     0
286
     0
288
     0
289
     0
340
2D
341
0
342
0
343
0
344
0
371
    -3
372
     0
  0
DIMSTYLE
105
50
100
AcDbSymbolTableRecord
100
AcDbDimStyleTableRecord
  2
LC-DIM-L-0140-01-02
 70
     0
  3

  4

 40
2.0
 41
3.5
 42
0.0
 43
7.5
 44
1.8
 45
0.0
 46
0.0
 47
0.0
 48
0.0
 71
     0
 72
     0
 73
     0
 74
     0
 75
     0
 76
     0
 77
     1
 78
     8
 79
     0
140
14.0
141
0.0
142
0.0
143
25.4
144
1.0
145
0.0
146
0.71
147
1.5
148
0.0
170
     0
171
     2
172
     0
173
     0
174
     0
175
     0
176
     2
177
     2
178
     2
179
     1
271
     1
272
     4
273
     2
274
     2
275
     0
276
     0
277
     2
278
    44
279
     0
280
     0
281
     0
282
     0
283
     1
284
     0
285
     0
286
     0
288
     0
289
     0
340
2D
341
0
342
0
343
0
344
0
371
    -3
372
     0
  0
ENDTAB
  0
TABLE
  2
BLOCK_RECORD
  5
1
100
AcDbSymbolTable
 70
     6
  0
BLOCK_RECORD
  5
A
100
AcDbSymbolTableRecord
100
AcDbBlockTableRecord
  2
*MODEL_SPACE
340
20
  0
BLOCK_RECORD
  5
B
100
AcDbSymbolTableRecord
100
AcDbBlockTableRecord
  2
*PAPER_SPACE
340
21
  0
BLOCK_RECORD
  5
2E
100
AcDbSymbolTableRecord
100
AcDbBlockTableRecord
  2
*D0
340
0
  0
BLOCK_RECORD
  5
51
100
AcDbSymbolTableRecord
100
AcDbBlockTableRecord
  2
*D1
340
0
  0
BLOCK_RECORD
  5
72
100
AcDbSymbolTableRecord
100
AcDbBlockTableRecord
  2
*D2
340
0
  0
BLOCK_RECORD
  5
E5
100
AcDbSymbolTableRecord
100
AcDbBlockTableRecord
  2
*D3
340
0
  0
BLOCK_RECORD
  5
100
100
AcDbSymbolTableRecord
100
AcDbBlockTableRecord
  2
*X4
340
0
102
{BLKREFS
331
16A
102
}
  0
BLOCK_RECORD
  5
16B
100
AcDbSymbolTableRecord
100
AcDbBlockTableRecord
  2
*X5
340
0
102
{BLKREFS
331
19D
102
}
  0
ENDTAB
  0
ENDSEC
  0
SECTION
  2
BLOCKS
  0
BLOCK
  5
D
100
AcDbEntity
  8
0
390
0
100
AcDbBlockBegin
  2
*MODEL_SPACE
 70
     0
 10
0.0
 20
0.0
 30
0.0
  3
*MODEL_SPACE
  1

  0
ENDBLK
  5
E
100
AcDbEntity
  8
0
390
0
100
AcDbBlockEnd
  0
BLOCK
  5
F
100
AcDbEntity
 67
     1
  8
0
390
0
100
AcDbBlockBegin
  2
*PAPER_SPACE
 70
     0
 10
0.0
 20
0.0
 30
0.0
  3
*PAPER_SPACE
  1

  0
ENDBLK
  5
10
100
AcDbEntity
 67
     1
  8
0
390
0
100
AcDbBlockEnd
  0
BLOCK
  5
2F
100
AcDbEntity
  8
0
390
0
100
AcDbBlockBegin
  2
*D0
 70
    65
 10
0.0
 20
0.0
 30
0.0
  3
*D0
  1

  0
LINE
  5
31
100
AcDbEntity
  8
LC-002-003-MTH-0
370
    25
390
0
 62
     2
100
AcDbLine
 10
300.875759
 20
84.246381
 30
0.0
 11
357.621704
 21
81.768932
 31
0.0
  0
LINE
  5
32
100
AcDbEntity
  8
LC-002-003-MTH-0
370
    25
390
0
 62
     2
100
AcDbLine
 10
303.056612
 20
134.198794
 30
0.0
 11
359.802557
 21
131.721345
 31
0.0
  0
LINE
  5
34
100
AcDbEntity
  8
LC-003-003-----0
370
    25
390
0
 62
     2
100
AcDbLine
 10
343.278118
 20
54.608253
 30
0.0
 11
340.837692
 21
82.501699
 31
0.0
  0
LINE
  5
35
100
AcDbEntity
  8
LC-003-003-----0
370
    25
390
0
 62
     2
100
AcDbLine
 10
340.837692
 20
82.501699
 30
0.0
 11
335.975607
 21
54.92707
 31
0.0
  0
LINE
  5
36
100
AcDbEntity
  8
LC-003-003-----0
370
    25
390
0
 62
     2
100
AcDbLine
 10
335.975607
 20
54.92707
 30
0.0
 11
343.278118
 21
54.608253
 31
0.0
  0
LINE
  5
37
100
AcDbEntity
  8
LC-003-003-----0
370
    25
390
0
 62
     2
100
AcDbLine
 10
342.326075
 20
54.587477
 30
0.0
 11
340.52016
 21
75.228627
 31
0.0
  0
LINE
  5
38
100
AcDbEntity
  8
LC-003-003-----0
370
    25
390
0
 62
     2
100
AcDbLine
 10
340.52016
 20
75.228627
 30
0.0
 11
336.922217
 21
54.823402
 31
0.0
  0
LINE
  5
39
100
AcDbEntity
  8
LC-003-003-----0
370
    25
390
0
 62
     2
100
AcDbLine
 10
341.374032
 20
54.566701
 30
0.0
 11
340.202628
 21
67.955555
 31
0.0
  0
LINE
  5
3A
100
AcDbEntity
  8
LC-003-003-----0
370
    25
390
0
 62
     2
100
AcDbLine
 10
340.202628
 20
67.955555
 30
0.0
 11
337.868827
 21
54.719734
 31
0.0
  0
LINE
  5
3B
100
AcDbEntity
  8
LC-003-003-----0
370
    25
390
0
 62
     2
100
AcDbLine
 10
340.421989
 20
54.545925
 30
0.0
 11
339.885095
 21
60.682484
 31
0.0
  0
LINE
  5
3C
100
AcDbEntity
  8
LC-003-003-----0
370
    25
390
0
 62
     2
100
AcDbLine
 10
339.885095
 20
60.682484
 30
0.0
 11
338.815437
 21
54.616065
 31
0.0
  0
LINE
  5
3D
100
AcDbEntity
  8
LC-003-003-----0
370
    25
390
0
 62
     2
100
AcDbLine
 10
340.578119
 20
160.347558
 30
0.0
 11
343.018545
 21
132.454112
 31
0.0
  0
LINE
  5
3E
100
AcDbEntity
  8
LC-003-003-----0
370
    25
390
0
 62
     2
100
AcDbLine
 10
343.018545
 20
132.454112
 30
0.0
 11
347.88063
 21
160.02874
 31
0.0
  0
LINE
  5
3F
100
AcDbEntity
  8
LC-003-003-----0
370
    25
390
0
 62
     2
100
AcDbLine
 10
347.88063
 20
160.02874
 30
0.0
 11
340.578119
 21
160.347558
 31
0.0
  0
LINE
  5
40
100
AcDbEntity
  8
LC-003-003-----0
370
    25
390
0
 62
     2
100
AcDbLine
 10
341.530162
 20
160.368334
 30
0.0
 11
343.336077
 21
139.727184
 31
0.0
  0
LINE
  5
41
100
AcDbEntity
  8
LC-003-003-----0
370
    25
390
0
 62
     2
100
AcDbLine
 10
343.336077
 20
139.727184
 30
0.0
 11
346.93402
 21
160.132409
 31
0.0
  0
LINE
  5
42
100
AcDbEntity
  8
LC-003-003-----0
370
    25
390
0
 62
     2
100
AcDbLine
 10
342.482205
 20
160.38911
 30
0.0
 11
343.653609
 21
147.000256
 31
0.0
  0
LINE
  5
43
100
AcDbEntity
  8
LC-003-003-----0
370
    25
390
0
 62
     2
100
AcDbLine
 10
343.653609
 20
147.000256
 30
0.0
 11
345.98741
 21
160.236077
 31
0.0
  0
LINE
  5
44
100
AcDbEntity
  8
LC-003-003-----0
370
    25
390
0
 62
     2
100
AcDbLine
 10
343.434248
 20
160.409885
 30
0.0
 11
343.971142
 21
154.273327
 31
0.0
  0
LINE
  5
45
100
AcDbEntity
  8
LC-003-003-----0
370
    25
390
0
 62
     2
100
AcDbLine
 10
343.971142
 20
154.273327
 30
0.0
 11
345.0408
 21
160.339746
 31
0.0
  0
LINE
  5
47
100
AcDbEntity
  8
LC-004-003-MTG-0
370
    25
390
0
 62
     2
100
AcDbLine
 10
339.127903
 20
43.339005
 30
0.0
 11
349.549938
 21
282.055604
 31
0.0
  0
TEXT
  5
48
100
AcDbEntity
  8
LC-003-003-----0
370
    -2
390
0
 62
     7
100
AcDbText
 10
337.097883
 20
176.302243
 30
0.0
 40
28.0
  1
 DN50 
 50
87.500133
 41
0.9
 51
15.0
  7
LCTX15-400-0-0-ARIAL
100
AcDbText
  0
ENDBLK
  5
49
100
AcDbEntity
  8
0
390
0
100
AcDbBlockEnd
  0
BLOCK
  5
52
100
AcDbEntity
  8
0
390
0
100
AcDbBlockBegin
  2
*D1
 70
    65
 10
0.0
 20
0.0
 30
0.0
  3
*D1
  1

  0
LINE
  5
53
100
AcDbEntity
  8
LC-002-003-MTH-0
370
    25
390
0
 62
     2
100
AcDbLine
 10
79.484639
 20
148.456156
 30
0.0
 11
79.484579
 21
200.256156
 31
0.0
  0
LINE
  5
54
100
AcDbEntity
  8
LC-002-003-MTH-0
370
    25
390
0
 62
     2
100
AcDbLine
 10
231.484557
 20
148.456333
 30
0.0
 11
231.484496
 21
200.256333
 31
0.0
  0
LINE
  5
55
100
AcDbEntity
  8
LC-004-003-MTG-0
370
    25
390
0
 62
     2
100
AcDbLine
 10
79.484599
 20
183.456156
 30
0.0
 11
231.484516
 21
183.456333
 31
0.0
  0
LINE
  5
56
100
AcDbEntity
  8
LC-003-003-----0
370
    25
390
0
 62
     2
100
AcDbLine
 10
107.24505
 20
187.110921
 30
0.0
 11
79.484599
 21
183.456156
 31
0.0
  0
LINE
  5
57
100
AcDbEntity
  8
LC-003-003-----0
370
    25
390
0
 62
     2
100
AcDbLine
 10
79.484599
 20
183.456156
 30
0.0
 11
107.245059
 21
179.801455
 31
0.0
  0
LINE
  5
58
100
AcDbEntity
  8
LC-003-003-----0
370
    25
390
0
 62
     2
100
AcDbLine
 10
107.245059
 20
179.801455
 30
0.0
 11
107.24505
 21
187.110921
 31
0.0
  0
LINE
  5
59
100
AcDbEntity
  8
LC-003-003-----0
370
    25
390
0
 62
     2
100
AcDbLine
 10
107.307333
 20
186.160691
 30
0.0
 11
86.764599
 21
183.456164
 31
0.0
  0
LINE
  5
5A
100
AcDbEntity
  8
LC-003-003-----0
370
    25
390
0
 62
     2
100
AcDbLine
 10
86.764599
 20
183.456164
 30
0.0
 11
107.307339
 21
180.751685
 31
0.0
  0
LINE
  5
5B
100
AcDbEntity
  8
LC-003-003-----0
370
    25
390
0
 62
     2
100
AcDbLine
 10
107.369615
 20
185.21046
 30
0.0
 11
94.044599
 21
183.456173
 31
0.0
  0
LINE
  5
5C
100
AcDbEntity
  8
LC-003-003-----0
370
    25
390
0
 62
     2
100
AcDbLine
 10
94.044599
 20
183.456173
 30
0.0
 11
107.36962
 21
181.701916
 31
0.0
  0
LINE
  5
5D
100
AcDbEntity
  8
LC-003-003-----0
370
    25
390
0
 62
     2
100
AcDbLine
 10
107.431898
 20
184.260229
 30
0.0
 11
101.324599
 21
183.456181
 31
0.0
  0
LINE
  5
5E
100
AcDbEntity
  8
LC-003-003-----0
370
    25
390
0
 62
     2
100
AcDbLine
 10
101.324599
 20
183.456181
 30
0.0
 11
107.4319
 21
182.652147
 31
0.0
  0
LINE
  5
5F
100
AcDbEntity
  8
LC-003-003-----0
370
    25
390
0
 62
     2
100
AcDbLine
 10
203.724064
 20
179.801567
 30
0.0
 11
231.484516
 21
183.456333
 31
0.0
  0
LINE
  5
60
100
AcDbEntity
  8
LC-003-003-----0
370
    25
390
0
 62
     2
100
AcDbLine
 10
231.484516
 20
183.456333
 30
0.0
 11
203.724056
 21
187.111034
 31
0.0
  0
LINE
  5
61
100
AcDbEntity
  8
LC-003-003-----0
370
    25
390
0
 62
     2
100
AcDbLine
 10
203.724056
 20
187.111034
 30
0.0
 11
203.724064
 21
179.801567
 31
0.0
  0
LINE
  5
62
100
AcDbEntity
  8
LC-003-003-----0
370
    25
390
0
 62
     2
100
AcDbLine
 10
203.661782
 20
180.751797
 30
0.0
 11
224.204516
 21
183.456324
 31
0.0
  0
LINE
  5
63
100
AcDbEntity
  8
LC-003-003-----0
370
    25
390
0
 62
     2
100
AcDbLine
 10
224.204516
 20
183.456324
 30
0.0
 11
203.661775
 21
186.160803
 31
0.0
  0
LINE
  5
64
100
AcDbEntity
  8
LC-003-003-----0
370
    25
390
0
 62
     2
100
AcDbLine
 10
203.599499
 20
181.702028
 30
0.0
 11
216.924516
 21
183.456316
 31
0.0
  0
LINE
  5
65
100
AcDbEntity
  8
LC-003-003-----0
370
    25
390
0
 62
     2
100
AcDbLine
 10
216.924516
 20
183.456316
 30
0.0
 11
203.599495
 21
185.210572
 31
0.0
  0
LINE
  5
66
100
AcDbEntity
  8
LC-003-003-----0
370
    25
390
0
 62
     2
100
AcDbLine
 10
203.537217
 20
182.652259
 30
0.0
 11
209.644516
 21
183.456307
 31
0.0
  0
LINE
  5
67
100
AcDbEntity
  8
LC-003-003-----0
370
    25
390
0
 62
     2
100
AcDbLine
 10
209.644516
 20
183.456307
 30
0.0
 11
203.537215
 21
184.260341
 31
0.0
  0
TEXT
  5
68
100
AcDbEntity
  8
LC-003-003-----0
370
    -2
390
0
 62
     7
100
AcDbText
 10
96.930065
 20
191.28373
 30
0.0
 40
28.0
  1
%%c152
 50
0.000067
 41
0.9
 51
15.0
  7
LCTX15-400-0-0-ARIAL
 72
     1
 11
159.930065
 21
191.283803
 31
0.0
100
AcDbText
  0
ENDBLK
  5
69
100
AcDbEntity
  8
0
390
0
100
AcDbBlockEnd
  0
BLOCK
  5
73
100
AcDbEntity
  8
0
390
0
100
AcDbBlockBegin
  2
*D2
 70
    65
 10
0.0
 20
0.0
 30
0.0
  3
*D2
  1

  0
LINE
  5
74
100
AcDbEntity
  8
LC-002-003-MTH-0
370
    25
390
0
 62
     2
100
AcDbLine
 10
155.484735
 20
90.593948
 30
0.0
 11
155.484735
 21
22.40051
 31
0.0
  0
LINE
  5
75
100
AcDbEntity
  8
LC-002-003-MTH-0
370
    25
390
0
 62
     2
100
AcDbLine
 10
305.484644
 20
109.068975
 30
0.0
 11
305.484644
 21
22.40051
 31
0.0
  0
LINE
  5
76
100
AcDbEntity
  8
LC-004-003-MTG-0
370
    25
390
0
 62
     2
100
AcDbLine
 10
155.484735
 20
39.20051
 30
0.0
 11
196.280156
 21
39.20051
 31
0.0
  0
LINE
  5
77
100
AcDbEntity
  8
LC-004-003-MTG-0
370
    25
390
0
 62
     2
100
AcDbLine
 10
279.183089
 20
39.20051
 30
0.0
 11
305.484644
 21
39.20051
 31
0.0
  0
LINE
  5
78
100
AcDbEntity
  8
LC-003-003-----0
370
    25
390
0
 62
     2
100
AcDbLine
 10
183.245191
 20
42.855243
 30
0.0
 11
155.484735
 21
39.20051
 31
0.0
  0
LINE
  5
79
100
AcDbEntity
  8
LC-003-003-----0
370
    25
390
0
 62
     2
100
AcDbLine
 10
155.484735
 20
39.20051
 30
0.0
 11
183.245191
 21
35.545777
 31
0.0
  0
LINE
  5
7A
100
AcDbEntity
  8
LC-003-003-----0
370
    25
390
0
 62
     2
100
AcDbLine
 10
183.245191
 20
35.545777
 30
0.0
 11
183.245191
 21
42.855243
 31
0.0
  0
LINE
  5
7B
100
AcDbEntity
  8
LC-003-003-----0
370
    25
390
0
 62
     2
100
AcDbLine
 10
183.307472
 20
41.905013
 30
0.0
 11
162.764735
 21
39.20051
 31
0.0
  0
LINE
  5
7C
100
AcDbEntity
  8
LC-003-003-----0
370
    25
390
0
 62
     2
100
AcDbLine
 10
162.764735
 20
39.20051
 30
0.0
 11
183.307472
 21
36.496007
 31
0.0
  0
LINE
  5
7D
100
AcDbEntity
  8
LC-003-003-----0
370
    25
390
0
 62
     2
100
AcDbLine
 10
183.369754
 20
40.954782
 30
0.0
 11
170.044735
 21
39.20051
 31
0.0
  0
LINE
  5
7E
100
AcDbEntity
  8
LC-003-003-----0
370
    25
390
0
 62
     2
100
AcDbLine
 10
170.044735
 20
39.20051
 30
0.0
 11
183.369754
 21
37.446238
 31
0.0
  0
LINE
  5
7F
100
AcDbEntity
  8
LC-003-003-----0
370
    25
390
0
 62
     2
100
AcDbLine
 10
183.432035
 20
40.004551
 30
0.0
 11
177.324735
 21
39.20051
 31
0.0
  0
LINE
  5
80
100
AcDbEntity
  8
LC-003-003-----0
370
    25
390
0
 62
     2
100
AcDbLine
 10
177.324735
 20
39.20051
 30
0.0
 11
183.432035
 21
38.396469
 31
0.0
  0
LINE
  5
81
100
AcDbEntity
  8
LC-003-003-----0
370
    25
390
0
 62
     2
100
AcDbLine
 10
279.183089
 20
35.737845
 30
0.0
 11
305.484644
 21
39.20051
 31
0.0
  0
LINE
  5
82
100
AcDbEntity
  8
LC-003-003-----0
370
    25
390
0
 62
     2
100
AcDbLine
 10
305.484644
 20
39.20051
 30
0.0
 11
279.183089
 21
42.663175
 31
0.0
  0
LINE
  5
83
100
AcDbEntity
  8
LC-003-003-----0
370
    25
390
0
 62
     2
100
AcDbLine
 10
279.183089
 20
36.696275
 30
0.0
 11
298.204644
 21
39.20051
 31
0.0
  0
LINE
  5
84
100
AcDbEntity
  8
LC-003-003-----0
370
    25
390
0
 62
     2
100
AcDbLine
 10
298.204644
 20
39.20051
 30
0.0
 11
279.183089
 21
41.704745
 31
0.0
  0
LINE
  5
85
100
AcDbEntity
  8
LC-003-003-----0
370
    25
390
0
 62
     2
100
AcDbLine
 10
279.183089
 20
37.654705
 30
0.0
 11
290.924644
 21
39.20051
 31
0.0
  0
LINE
  5
86
100
AcDbEntity
  8
LC-003-003-----0
370
    25
390
0
 62
     2
100
AcDbLine
 10
290.924644
 20
39.20051
 30
0.0
 11
279.183089
 21
40.746315
 31
0.0
  0
LINE
  5
87
100
AcDbEntity
  8
LC-003-003-----0
370
    25
390
0
 62
     2
100
AcDbLine
 10
279.183089
 20
38.613135
 30
0.0
 11
283.644644
 21
39.20051
 31
0.0
  0
LINE
  5
88
100
AcDbEntity
  8
LC-003-003-----0
370
    25
390
0
 62
     2
100
AcDbLine
 10
283.644644
 20
39.20051
 30
0.0
 11
279.183089
 21
39.787885
 31
0.0
  0
TEXT
  5
89
100
AcDbEntity
  8
LC-003-003-----0
370
    -2
390
0
 62
     7
100
AcDbText
 10
208.204849
 20
47.028064
 30
0.0
 40
28.0
  1
150
 41
0.9
 51
15.0
  7
LCTX15-400-0-0-ARIAL
 72
     1
 11
234.832849
 21
47.028064
 31
0.0
100
AcDbText
  0
ENDBLK
  5
8A
100
AcDbEntity
  8
0
390
0
100
AcDbBlockEnd
  0
BLOCK
  5
E6
100
AcDbEntity
  8
0
390
0
100
AcDbBlockBegin
  2
*D3
 70
    65
 10
0.0
 20
0.0
 30
0.0
  3
*D3
  1

  0
LINE
  5
E7
100
AcDbEntity
  8
LC-002-003-MTH-0
370
    25
390
0
 62
     2
100
AcDbLine
 10
300.875759
 20
84.246381
 30
0.0
 11
41.17537
 21
84.246381
 31
0.0
  0
LINE
  5
E8
100
AcDbEntity
  8
LC-002-003-MTH-0
370
    25
390
0
 62
     2
100
AcDbLine
 10
79.484571
 20
142.455979
 30
0.0
 11
63.57537
 21
142.455979
 31
0.0
  0
LINE
  5
E9
100
AcDbEntity
  8
LC-003-003-----0
370
    25
390
0
 62
     2
100
AcDbLine
 10
61.630103
 20
56.485925
 30
0.0
 11
57.97537
 21
84.246381
 31
0.0
  0
LINE
  5
EA
100
AcDbEntity
  8
LC-003-003-----0
370
    25
390
0
 62
     2
100
AcDbLine
 10
57.97537
 20
84.246381
 30
0.0
 11
54.320637
 21
56.485925
 31
0.0
  0
LINE
  5
EB
100
AcDbEntity
  8
LC-003-003-----0
370
    25
390
0
 62
     2
100
AcDbLine
 10
54.320637
 20
56.485925
 30
0.0
 11
61.630103
 21
56.485925
 31
0.0
  0
LINE
  5
EC
100
AcDbEntity
  8
LC-003-003-----0
370
    25
390
0
 62
     2
100
AcDbLine
 10
60.679873
 20
56.423644
 30
0.0
 11
57.97537
 21
76.966381
 31
0.0
  0
LINE
  5
ED
100
AcDbEntity
  8
LC-003-003-----0
370
    25
390
0
 62
     2
100
AcDbLine
 10
57.97537
 20
76.966381
 30
0.0
 11
55.270867
 21
56.423644
 31
0.0
  0
LINE
  5
EE
100
AcDbEntity
  8
LC-003-003-----0
370
    25
390
0
 62
     2
100
AcDbLine
 10
59.729642
 20
56.361362
 30
0.0
 11
57.97537
 21
69.686381
 31
0.0
  0
LINE
  5
EF
100
AcDbEntity
  8
LC-003-003-----0
370
    25
390
0
 62
     2
100
AcDbLine
 10
57.97537
 20
69.686381
 30
0.0
 11
56.221098
 21
56.361362
 31
0.0
  0
LINE
  5
F0
100
AcDbEntity
  8
LC-003-003-----0
370
    25
390
0
 62
     2
100
AcDbLine
 10
58.779411
 20
56.299081
 30
0.0
 11
57.97537
 21
62.406381
 31
0.0
  0
LINE
  5
F1
100
AcDbEntity
  8
LC-003-003-----0
370
    25
390
0
 62
     2
100
AcDbLine
 10
57.97537
 20
62.406381
 30
0.0
 11
57.171329
 21
56.299081
 31
0.0
  0
LINE
  5
F2
100
AcDbEntity
  8
LC-003-003-----0
370
    25
390
0
 62
     2
100
AcDbLine
 10
54.320637
 20
170.216435
 30
0.0
 11
56.564371
 21
153.17358
 31
0.0
  0
LINE
  5
F3
100
AcDbEntity
  8
LC-003-003-----0
370
    25
390
0
 62
     2
100
AcDbLine
 10
59.386369
 20
153.17358
 30
0.0
 11
61.630103
 21
170.216435
 31
0.0
  0
LINE
  5
F4
100
AcDbEntity
  8
LC-003-003-----0
370
    25
390
0
 62
     2
100
AcDbLine
 10
61.630103
 20
170.216435
 30
0.0
 11
54.320637
 21
170.216435
 31
0.0
  0
LINE
  5
F5
100
AcDbEntity
  8
LC-003-003-----0
370
    25
390
0
 62
     2
100
AcDbLine
 10
55.270867
 20
170.278716
 30
0.0
 11
57.522801
 21
153.17358
 31
0.0
  0
LINE
  5
F6
100
AcDbEntity
  8
LC-003-003-----0
370
    25
390
0
 62
     2
100
AcDbLine
 10
58.427939
 20
153.17358
 30
0.0
 11
60.679873
 21
170.278716
 31
0.0
  0
LINE
  5
F7
100
AcDbEntity
  8
LC-003-003-----0
370
    25
390
0
 62
     2
100
AcDbLine
 10
56.221098
 20
170.340998
 30
0.0
 11
57.97537
 21
157.015979
 31
0.0
  0
LINE
  5
F8
100
AcDbEntity
  8
LC-003-003-----0
370
    25
390
0
 62
     2
100
AcDbLine
 10
57.97537
 20
157.015979
 30
0.0
 11
59.729642
 21
170.340998
 31
0.0
  0
LINE
  5
F9
100
AcDbEntity
  8
LC-003-003-----0
370
    25
390
0
 62
     2
100
AcDbLine
 10
57.171329
 20
170.403279
 30
0.0
 11
57.97537
 21
164.295979
 31
0.0
  0
LINE
  5
FA
100
AcDbEntity
  8
LC-003-003-----0
370
    25
390
0
 62
     2
100
AcDbLine
 10
57.97537
 20
164.295979
 30
0.0
 11
58.779411
 21
170.403279
 31
0.0
  0
LINE
  5
FB
100
AcDbEntity
  8
LC-004-003-MTG-0
370
    25
390
0
 62
     2
100
AcDbLine
 10
57.97537
 20
45.046381
 30
0.0
 11
57.97537
 21
88.022647
 31
0.0
  0
LINE
  5
FC
100
AcDbEntity
  8
LC-004-003-MTG-0
370
    25
390
0
 62
     2
100
AcDbLine
 10
57.97537
 20
153.17358
 30
0.0
 11
57.97537
 21
181.655979
 31
0.0
  0
TEXT
  5
FD
100
AcDbEntity
  8
LC-003-003-----0
370
    -2
390
0
 62
     7
100
AcDbText
 10
50.147816
 20
99.94734
 30
0.0
 40
28.0
  1
60
 50
90.0
 41
0.9
 51
15.0
  7
LCTX15-400-0-0-ARIAL
 72
     1
 11
50.147816
 21
117.69934
 31
0.0
100
AcDbText
  0
ENDBLK
  5
FE
100
AcDbEntity
  8
0
390
0
100
AcDbBlockEnd
  0
BLOCK
  5
101
100
AcDbEntity
  8
0
390
0
100
AcDbBlockBegin
  2
*X4
 70
    65
 10
0.0
 20
0.0
 30
0.0
  3
*X4
  1

  0
LINE
  5
103
100
AcDbEntity
  8
LC-006-005-----0
370
    25
390
0
 62
     2
100
AcDbLine
 10
302.365553
 20
84.576664
 30
0.0
 11
304.384466
 21
86.595578
 31
0.0
  0
LINE
  5
104
100
AcDbEntity
  8
LC-006-005-----0
370
    25
390
0
 62
     2
100
AcDbLine
 10
299.276657
 20
84.316196
 30
0.0
 11
301.674358
 21
86.713897
 31
0.0
  0
LINE
  5
105
100
AcDbEntity
  8
LC-006-005-----0
370
    25
390
0
 62
     2
100
AcDbLine
 10
296.56655
 20
84.434515
 30
0.0
 11
298.964251
 21
86.832216
 31
0.0
  0
LINE
  5
106
100
AcDbEntity
  8
LC-006-005-----0
370
    25
390
0
 62
     2
100
AcDbLine
 10
293.856442
 20
84.552835
 30
0.0
 11
296.254143
 21
86.950536
 31
0.0
  0
LINE
  5
107
100
AcDbEntity
  8
LC-006-005-----0
370
    25
390
0
 62
     2
100
AcDbLine
 10
291.146334
 20
84.671154
 30
0.0
 11
293.544036
 21
87.068855
 31
0.0
  0
LINE
  5
108
100
AcDbEntity
  8
LC-006-005-----0
370
    25
390
0
 62
     2
100
AcDbLine
 10
288.436227
 20
84.789474
 30
0.0
 11
290.833928
 21
87.187175
 31
0.0
  0
LINE
  5
109
100
AcDbEntity
  8
LC-006-005-----0
370
    25
390
0
 62
     2
100
AcDbLine
 10
285.726119
 20
84.907793
 30
0.0
 11
288.12382
 21
87.305494
 31
0.0
  0
LINE
  5
10A
100
AcDbEntity
  8
LC-006-005-----0
370
    25
390
0
 62
     2
100
AcDbLine
 10
283.016011
 20
85.026113
 30
0.0
 11
285.413713
 21
87.423814
 31
0.0
  0
LINE
  5
10B
100
AcDbEntity
  8
LC-006-005-----0
370
    25
390
0
 62
     2
100
AcDbLine
 10
280.305904
 20
85.144432
 30
0.0
 11
282.703605
 21
87.542133
 31
0.0
  0
LINE
  5
10C
100
AcDbEntity
  8
LC-006-005-----0
370
    25
390
0
 62
     2
100
AcDbLine
 10
277.595796
 20
85.262752
 30
0.0
 11
279.993497
 21
87.660453
 31
0.0
  0
LINE
  5
10D
100
AcDbEntity
  8
LC-006-005-----0
370
    25
390
0
 62
     2
100
AcDbLine
 10
274.885688
 20
85.381071
 30
0.0
 11
277.28339
 21
87.778772
 31
0.0
  0
LINE
  5
10E
100
AcDbEntity
  8
LC-006-005-----0
370
    25
390
0
 62
     2
100
AcDbLine
 10
272.175581
 20
85.499391
 30
0.0
 11
274.573282
 21
87.897092
 31
0.0
  0
LINE
  5
10F
100
AcDbEntity
  8
LC-006-005-----0
370
    25
390
0
 62
     2
100
AcDbLine
 10
269.465473
 20
85.61771
 30
0.0
 11
271.863174
 21
88.015411
 31
0.0
  0
LINE
  5
110
100
AcDbEntity
  8
LC-006-005-----0
370
    25
390
0
 62
     2
100
AcDbLine
 10
266.755366
 20
85.73603
 30
0.0
 11
269.153067
 21
88.133731
 31
0.0
  0
LINE
  5
111
100
AcDbEntity
  8
LC-006-005-----0
370
    25
390
0
 62
     2
100
AcDbLine
 10
264.045258
 20
85.854349
 30
0.0
 11
266.442959
 21
88.25205
 31
0.0
  0
LINE
  5
112
100
AcDbEntity
  8
LC-006-005-----0
370
    25
390
0
 62
     2
100
AcDbLine
 10
261.33515
 20
85.972669
 30
0.0
 11
263.732851
 21
88.37037
 31
0.0
  0
LINE
  5
113
100
AcDbEntity
  8
LC-006-005-----0
370
    25
390
0
 62
     2
100
AcDbLine
 10
258.625043
 20
86.090988
 30
0.0
 11
261.022744
 21
88.488689
 31
0.0
  0
LINE
  5
114
100
AcDbEntity
  8
LC-006-005-----0
370
    25
390
0
 62
     2
100
AcDbLine
 10
255.914935
 20
86.209307
 30
0.0
 11
258.312636
 21
88.607009
 31
0.0
  0
LINE
  5
115
100
AcDbEntity
  8
LC-006-005-----0
370
    25
390
0
 62
     2
100
AcDbLine
 10
253.204827
 20
86.327627
 30
0.0
 11
255.602528
 21
88.725328
 31
0.0
  0
LINE
  5
116
100
AcDbEntity
  8
LC-006-005-----0
370
    25
390
0
 62
     2
100
AcDbLine
 10
250.49472
 20
86.445946
 30
0.0
 11
252.892421
 21
88.843648
 31
0.0
  0
LINE
  5
117
100
AcDbEntity
  8
LC-006-005-----0
370
    25
390
0
 62
     2
100
AcDbLine
 10
247.784612
 20
86.564266
 30
0.0
 11
250.182313
 21
88.961967
 31
0.0
  0
LINE
  5
118
100
AcDbEntity
  8
LC-006-005-----0
370
    25
390
0
 62
     2
100
AcDbLine
 10
245.074504
 20
86.682585
 30
0.0
 11
247.472206
 21
89.080287
 31
0.0
  0
LINE
  5
119
100
AcDbEntity
  8
LC-006-005-----0
370
    25
390
0
 62
     2
100
AcDbLine
 10
242.364397
 20
86.800905
 30
0.0
 11
244.762098
 21
89.198606
 31
0.0
  0
LINE
  5
11A
100
AcDbEntity
  8
LC-006-005-----0
370
    25
390
0
 62
     2
100
AcDbLine
 10
239.654289
 20
86.919224
 30
0.0
 11
242.05199
 21
89.316925
 31
0.0
  0
LINE
  5
11B
100
AcDbEntity
  8
LC-006-005-----0
370
    25
390
0
 62
     2
100
AcDbLine
 10
236.944181
 20
87.037544
 30
0.0
 11
239.341883
 21
89.435245
 31
0.0
  0
LINE
  5
11C
100
AcDbEntity
  8
LC-006-005-----0
370
    25
390
0
 62
     2
100
AcDbLine
 10
234.234074
 20
87.155863
 30
0.0
 11
236.631775
 21
89.553564
 31
0.0
  0
LINE
  5
11D
100
AcDbEntity
  8
LC-006-005-----0
370
    25
390
0
 62
     2
100
AcDbLine
 10
231.523966
 20
87.274183
 30
0.0
 11
233.921667
 21
89.671884
 31
0.0
  0
LINE
  5
11E
100
AcDbEntity
  8
LC-006-005-----0
370
    25
390
0
 62
     2
100
AcDbLine
 10
228.813858
 20
87.392502
 30
0.0
 11
231.21156
 21
89.790203
 31
0.0
  0
LINE
  5
11F
100
AcDbEntity
  8
LC-006-005-----0
370
    25
390
0
 62
     2
100
AcDbLine
 10
226.103751
 20
87.510822
 30
0.0
 11
228.501452
 21
89.908523
 31
0.0
  0
LINE
  5
120
100
AcDbEntity
  8
LC-006-005-----0
370
    25
390
0
 62
     2
100
AcDbLine
 10
223.393643
 20
87.629141
 30
0.0
 11
225.791344
 21
90.026842
 31
0.0
  0
LINE
  5
121
100
AcDbEntity
  8
LC-006-005-----0
370
    25
390
0
 62
     2
100
AcDbLine
 10
220.683536
 20
87.747461
 30
0.0
 11
223.081237
 21
90.145162
 31
0.0
  0
LINE
  5
122
100
AcDbEntity
  8
LC-006-005-----0
370
    25
390
0
 62
     2
100
AcDbLine
 10
217.973428
 20
87.86578
 30
0.0
 11
220.371129
 21
90.263481
 31
0.0
  0
LINE
  5
123
100
AcDbEntity
  8
LC-006-005-----0
370
    25
390
0
 62
     2
100
AcDbLine
 10
215.26332
 20
87.9841
 30
0.0
 11
217.661021
 21
90.381801
 31
0.0
  0
LINE
  5
124
100
AcDbEntity
  8
LC-006-005-----0
370
    25
390
0
 62
     2
100
AcDbLine
 10
212.553213
 20
88.102419
 30
0.0
 11
214.950914
 21
90.50012
 31
0.0
  0
LINE
  5
125
100
AcDbEntity
  8
LC-006-005-----0
370
    25
390
0
 62
     2
100
AcDbLine
 10
209.843105
 20
88.220739
 30
0.0
 11
212.240806
 21
90.61844
 31
0.0
  0
LINE
  5
126
100
AcDbEntity
  8
LC-006-005-----0
370
    25
390
0
 62
     2
100
AcDbLine
 10
207.132997
 20
88.339058
 30
0.0
 11
209.530698
 21
90.736759
 31
0.0
  0
LINE
  5
127
100
AcDbEntity
  8
LC-006-005-----0
370
    25
390
0
 62
     2
100
AcDbLine
 10
204.42289
 20
88.457378
 30
0.0
 11
206.820591
 21
90.855079
 31
0.0
  0
LINE
  5
128
100
AcDbEntity
  8
LC-006-005-----0
370
    25
390
0
 62
     2
100
AcDbLine
 10
201.712782
 20
88.575697
 30
0.0
 11
204.110483
 21
90.973398
 31
0.0
  0
LINE
  5
129
100
AcDbEntity
  8
LC-006-005-----0
370
    25
390
0
 62
     2
100
AcDbLine
 10
199.002674
 20
88.694016
 30
0.0
 11
201.400376
 21
91.091718
 31
0.0
  0
LINE
  5
12A
100
AcDbEntity
  8
LC-006-005-----0
370
    25
390
0
 62
     2
100
AcDbLine
 10
196.292567
 20
88.812336
 30
0.0
 11
198.690268
 21
91.210037
 31
0.0
  0
LINE
  5
12B
100
AcDbEntity
  8
LC-006-005-----0
370
    25
390
0
 62
     2
100
AcDbLine
 10
193.582459
 20
88.930655
 30
0.0
 11
195.98016
 21
91.328357
 31
0.0
  0
LINE
  5
12C
100
AcDbEntity
  8
LC-006-005-----0
370
    25
390
0
 62
     2
100
AcDbLine
 10
190.872351
 20
89.048975
 30
0.0
 11
193.270053
 21
91.446676
 31
0.0
  0
LINE
  5
12D
100
AcDbEntity
  8
LC-006-005-----0
370
    25
390
0
 62
     2
100
AcDbLine
 10
188.162244
 20
89.167294
 30
0.0
 11
190.559945
 21
91.564996
 31
0.0
  0
LINE
  5
12E
100
AcDbEntity
  8
LC-006-005-----0
370
    25
390
0
 62
     2
100
AcDbLine
 10
185.452136
 20
89.285614
 30
0.0
 11
187.849837
 21
91.683315
 31
0.0
  0
LINE
  5
12F
100
AcDbEntity
  8
LC-006-005-----0
370
    25
390
0
 62
     2
100
AcDbLine
 10
182.742028
 20
89.403933
 30
0.0
 11
185.13973
 21
91.801635
 31
0.0
  0
LINE
  5
130
100
AcDbEntity
  8
LC-006-005-----0
370
    25
390
0
 62
     2
100
AcDbLine
 10
180.031921
 20
89.522253
 30
0.0
 11
182.429622
 21
91.919954
 31
0.0
  0
LINE
  5
131
100
AcDbEntity
  8
LC-006-005-----0
370
    25
390
0
 62
     2
100
AcDbLine
 10
177.321813
 20
89.640572
 30
0.0
 11
179.719514
 21
92.038273
 31
0.0
  0
LINE
  5
132
100
AcDbEntity
  8
LC-006-005-----0
370
    25
390
0
 62
     2
100
AcDbLine
 10
174.611706
 20
89.758892
 30
0.0
 11
177.009407
 21
92.156593
 31
0.0
  0
LINE
  5
133
100
AcDbEntity
  8
LC-006-005-----0
370
    25
390
0
 62
     2
100
AcDbLine
 10
171.901598
 20
89.877211
 30
0.0
 11
174.299299
 21
92.274912
 31
0.0
  0
LINE
  5
134
100
AcDbEntity
  8
LC-006-005-----0
370
    25
390
0
 62
     2
100
AcDbLine
 10
169.19149
 20
89.995531
 30
0.0
 11
171.589191
 21
92.393232
 31
0.0
  0
LINE
  5
135
100
AcDbEntity
  8
LC-006-005-----0
370
    25
390
0
 62
     2
100
AcDbLine
 10
166.481383
 20
90.11385
 30
0.0
 11
168.879084
 21
92.511551
 31
0.0
  0
LINE
  5
136
100
AcDbEntity
  8
LC-006-005-----0
370
    25
390
0
 62
     2
100
AcDbLine
 10
163.771275
 20
90.23217
 30
0.0
 11
166.168976
 21
92.629871
 31
0.0
  0
LINE
  5
137
100
AcDbEntity
  8
LC-006-005-----0
370
    25
390
0
 62
     2
100
AcDbLine
 10
161.061167
 20
90.350489
 30
0.0
 11
163.458868
 21
92.74819
 31
0.0
  0
LINE
  5
138
100
AcDbEntity
  8
LC-006-005-----0
370
    25
390
0
 62
     2
100
AcDbLine
 10
158.35106
 20
90.468809
 30
0.0
 11
160.748761
 21
92.86651
 31
0.0
  0
LINE
  5
139
100
AcDbEntity
  8
LC-006-005-----0
370
    25
390
0
 62
     2
100
AcDbLine
 10
155.640952
 20
90.587128
 30
0.0
 11
158.038653
 21
92.984829
 31
0.0
  0
LINE
  5
13A
100
AcDbEntity
  8
LC-006-005-----0
370
    25
390
0
 62
     2
100
AcDbLine
 10
152.969961
 20
90.744564
 30
0.0
 11
155.328546
 21
93.103149
 31
0.0
  0
LINE
  5
13B
100
AcDbEntity
  8
LC-006-005-----0
370
    25
390
0
 62
     2
100
AcDbLine
 10
150.513902
 20
91.116933
 30
0.0
 11
152.689088
 21
93.292118
 31
0.0
  0
LINE
  5
13C
100
AcDbEntity
  8
LC-006-005-----0
370
    25
390
0
 62
     2
100
AcDbLine
 10
148.254634
 20
91.686092
 30
0.0
 11
150.293392
 21
93.724849
 31
0.0
  0
LINE
  5
13D
100
AcDbEntity
  8
LC-006-005-----0
370
    25
390
0
 62
     2
100
AcDbLine
 10
146.161445
 20
92.42133
 30
0.0
 11
148.103191
 21
94.363075
 31
0.0
  0
LINE
  5
13E
100
AcDbEntity
  8
LC-006-005-----0
370
    25
390
0
 62
     2
100
AcDbLine
 10
144.214177
 20
93.302488
 30
0.0
 11
146.086387
 21
95.174699
 31
0.0
  0
LINE
  5
13F
100
AcDbEntity
  8
LC-006-005-----0
370
    25
390
0
 62
     2
100
AcDbLine
 10
142.399251
 20
94.31599
 30
0.0
 11
144.222573
 21
96.139312
 31
0.0
  0
LINE
  5
140
100
AcDbEntity
  8
LC-006-005-----0
370
    25
390
0
 62
     2
100
AcDbLine
 10
140.70756
 20
95.452726
 30
0.0
 11
142.498582
 21
97.243748
 31
0.0
  0
LINE
  5
141
100
AcDbEntity
  8
LC-006-005-----0
370
    25
390
0
 62
     2
100
AcDbLine
 10
139.133284
 20
96.706877
 30
0.0
 11
140.906218
 21
98.479811
 31
0.0
  0
LINE
  5
142
100
AcDbEntity
  8
LC-006-005-----0
370
    25
390
0
 62
     2
100
AcDbLine
 10
137.673233
 20
98.075254
 30
0.0
 11
139.441058
 21
99.843078
 31
0.0
  0
LINE
  5
143
100
AcDbEntity
  8
LC-006-005-----0
370
    25
390
0
 62
     2
100
AcDbLine
 10
136.296213
 20
99.52666
 30
0.0
 11
138.064733
 21
101.295181
 31
0.0
  0
LINE
  5
144
100
AcDbEntity
  8
LC-006-005-----0
370
    25
390
0
 62
     2
100
AcDbLine
 10
134.923304
 20
100.982179
 30
0.0
 11
136.691825
 21
102.750699
 31
0.0
  0
LINE
  5
145
100
AcDbEntity
  8
LC-006-005-----0
370
    25
390
0
 62
     2
100
AcDbLine
 10
133.550396
 20
102.437697
 30
0.0
 11
135.318916
 21
104.206218
 31
0.0
  0
LINE
  5
146
100
AcDbEntity
  8
LC-006-005-----0
370
    25
390
0
 62
     2
100
AcDbLine
 10
132.177487
 20
103.893216
 30
0.0
 11
133.946008
 21
105.661737
 31
0.0
  0
LINE
  5
147
100
AcDbEntity
  8
LC-006-005-----0
370
    25
390
0
 62
     2
100
AcDbLine
 10
130.804579
 20
105.348735
 30
0.0
 11
132.5731
 21
107.117255
 31
0.0
  0
LINE
  5
148
100
AcDbEntity
  8
LC-006-005-----0
370
    25
390
0
 62
     2
100
AcDbLine
 10
129.43167
 20
106.804253
 30
0.0
 11
131.200191
 21
108.572774
 31
0.0
  0
LINE
  5
149
100
AcDbEntity
  8
LC-006-005-----0
370
    25
390
0
 62
     2
100
AcDbLine
 10
128.058762
 20
108.259772
 30
0.0
 11
129.827283
 21
110.028293
 31
0.0
  0
LINE
  5
14A
100
AcDbEntity
  8
LC-006-005-----0
370
    25
390
0
 62
     2
100
AcDbLine
 10
126.685854
 20
109.715291
 30
0.0
 11
128.454374
 21
111.483812
 31
0.0
  0
LINE
  5
14B
100
AcDbEntity
  8
LC-006-005-----0
370
    25
390
0
 62
     2
100
AcDbLine
 10
125.312945
 20
111.170809
 30
0.0
 11
127.081466
 21
112.93933
 31
0.0
  0
LINE
  5
14C
100
AcDbEntity
  8
LC-006-005-----0
370
    25
390
0
 62
     2
100
AcDbLine
 10
123.940037
 20
112.626328
 30
0.0
 11
125.708557
 21
114.394849
 31
0.0
  0
LINE
  5
14D
100
AcDbEntity
  8
LC-006-005-----0
370
    25
390
0
 62
     2
100
AcDbLine
 10
122.567128
 20
114.081847
 30
0.0
 11
124.335649
 21
115.850368
 31
0.0
  0
LINE
  5
14E
100
AcDbEntity
  8
LC-006-005-----0
370
    25
390
0
 62
     2
100
AcDbLine
 10
121.19422
 20
115.537366
 30
0.0
 11
122.962741
 21
117.305886
 31
0.0
  0
LINE
  5
14F
100
AcDbEntity
  8
LC-006-005-----0
370
    25
390
0
 62
     2
100
AcDbLine
 10
119.821311
 20
116.992884
 30
0.0
 11
121.589832
 21
118.761405
 31
0.0
  0
LINE
  5
150
100
AcDbEntity
  8
LC-006-005-----0
370
    25
390
0
 62
     2
100
AcDbLine
 10
118.448403
 20
118.448403
 30
0.0
 11
120.216924
 21
120.216924
 31
0.0
  0
LINE
  5
151
100
AcDbEntity
  8
LC-006-005-----0
370
    25
390
0
 62
     2
100
AcDbLine
 10
117.075495
 20
119.903922
 30
0.0
 11
118.844015
 21
121.672442
 31
0.0
  0
LINE
  5
152
100
AcDbEntity
  8
LC-006-005-----0
370
    25
390
0
 62
     2
100
AcDbLine
 10
115.702586
 20
121.35944
 30
0.0
 11
117.471107
 21
123.127961
 31
0.0
  0
LINE
  5
153
100
AcDbEntity
  8
LC-006-005-----0
370
    25
390
0
 62
     2
100
AcDbLine
 10
114.329678
 20
122.814959
 30
0.0
 11
116.098198
 21
124.58348
 31
0.0
  0
LINE
  5
154
100
AcDbEntity
  8
LC-006-005-----0
370
    25
390
0
 62
     2
100
AcDbLine
 10
112.956769
 20
124.270478
 30
0.0
 11
114.72529
 21
126.038999
 31
0.0
  0
LINE
  5
155
100
AcDbEntity
  8
LC-006-005-----0
370
    25
390
0
 62
     2
100
AcDbLine
 10
111.583861
 20
125.725996
 30
0.0
 11
113.352382
 21
127.494517
 31
0.0
  0
LINE
  5
156
100
AcDbEntity
  8
LC-006-005-----0
370
    25
390
0
 62
     2
100
AcDbLine
 10
110.210952
 20
127.181515
 30
0.0
 11
111.979473
 21
128.950036
 31
0.0
  0
LINE
  5
157
100
AcDbEntity
  8
LC-006-005-----0
370
    25
390
0
 62
     2
100
AcDbLine
 10
108.838044
 20
128.637034
 30
0.0
 11
110.606565
 21
130.405555
 31
0.0
  0
LINE
  5
158
100
AcDbEntity
  8
LC-006-005-----0
370
    25
390
0
 62
     2
100
AcDbLine
 10
107.465136
 20
130.092553
 30
0.0
 11
109.233656
 21
131.861073
 31
0.0
  0
LINE
  5
159
100
AcDbEntity
  8
LC-006-005-----0
370
    25
390
0
 62
     2
100
AcDbLine
 10
106.092227
 20
131.548071
 30
0.0
 11
107.860748
 21
133.316592
 31
0.0
  0
LINE
  5
15A
100
AcDbEntity
  8
LC-006-005-----0
370
    25
390
0
 62
     2
100
AcDbLine
 10
104.719319
 20
133.00359
 30
0.0
 11
106.487839
 21
134.772111
 31
0.0
  0
LINE
  5
15B
100
AcDbEntity
  8
LC-006-005-----0
370
    25
390
0
 62
     2
100
AcDbLine
 10
103.34641
 20
134.459109
 30
0.0
 11
105.114931
 21
136.227629
 31
0.0
  0
LINE
  5
15C
100
AcDbEntity
  8
LC-006-005-----0
370
    25
390
0
 62
     2
100
AcDbLine
 10
101.014213
 20
134.955338
 30
0.0
 11
103.742023
 21
137.683148
 31
0.0
  0
LINE
  5
15D
100
AcDbEntity
  8
LC-006-005-----0
370
    25
390
0
 62
     2
100
AcDbLine
 10
98.185779
 20
134.955332
 30
0.0
 11
101.186477
 21
137.956029
 31
0.0
  0
LINE
  5
15E
100
AcDbEntity
  8
LC-006-005-----0
370
    25
390
0
 62
     2
100
AcDbLine
 10
95.357345
 20
134.955325
 30
0.0
 11
98.358043
 21
137.956023
 31
0.0
  0
LINE
  5
15F
100
AcDbEntity
  8
LC-006-005-----0
370
    25
390
0
 62
     2
100
AcDbLine
 10
92.528912
 20
134.955319
 30
0.0
 11
95.529609
 21
137.956016
 31
0.0
  0
LINE
  5
160
100
AcDbEntity
  8
LC-006-005-----0
370
    25
390
0
 62
     2
100
AcDbLine
 10
92.28447
 20
137.539304
 30
0.0
 11
95.484463
 21
140.739297
 31
0.0
  0
LINE
  5
161
100
AcDbEntity
  8
LC-006-005-----0
370
    25
390
0
 62
     2
100
AcDbLine
 10
92.284463
 20
140.367725
 30
0.0
 11
95.484456
 21
143.567717
 31
0.0
  0
LINE
  5
162
100
AcDbEntity
  8
LC-006-005-----0
370
    25
390
0
 62
     2
100
AcDbLine
 10
91.544318
 20
142.456007
 30
0.0
 11
95.484449
 21
146.396138
 31
0.0
  0
LINE
  5
163
100
AcDbEntity
  8
LC-006-005-----0
370
    25
390
0
 62
     2
100
AcDbLine
 10
88.715885
 20
142.456
 30
0.0
 11
95.484443
 21
149.224558
 31
0.0
  0
LINE
  5
164
100
AcDbEntity
  8
LC-006-005-----0
370
    25
390
0
 62
     2
100
AcDbLine
 10
85.887451
 20
142.455994
 30
0.0
 11
93.387468
 21
149.956011
 31
0.0
  0
LINE
  5
165
100
AcDbEntity
  8
LC-006-005-----0
370
    25
390
0
 62
     2
100
AcDbLine
 10
83.059017
 20
142.455987
 30
0.0
 11
89.059031
 21
148.456001
 31
0.0
  0
LINE
  5
166
100
AcDbEntity
  8
LC-006-005-----0
370
    25
390
0
 62
     2
100
AcDbLine
 10
80.230584
 20
142.45598
 30
0.0
 11
86.574614
 21
148.80001
 31
0.0
  0
LINE
  5
167
100
AcDbEntity
  8
LC-006-005-----0
370
    25
390
0
 62
     2
100
AcDbLine
 10
79.484566
 20
144.53839
 30
0.0
 11
83.402164
 21
148.455988
 31
0.0
  0
LINE
  5
168
100
AcDbEntity
  8
LC-006-005-----0
370
    25
390
0
 62
     2
100
AcDbLine
 10
79.484559
 20
147.36681
 30
0.0
 11
80.700209
 21
148.58246
 31
0.0
  0
ENDBLK
  5
169
100
AcDbEntity
  8
0
390
0
100
AcDbBlockEnd
  0
BLOCK
  5
16C
100
AcDbEntity
  8
0
390
0
100
AcDbBlockBegin
  2
*X5
 70
    65
 10
0.0
 20
0.0
 30
0.0
  3
*X5
  1

  0
LINE
  5
16D
100
AcDbEntity
  8
LC-006-005-----0
370
    25
390
0
 62
     2
100
AcDbLine
 10
304.183274
 20
131.64922
 30
0.0
 11
305.8516
 21
133.317545
 31
0.0
  0
LINE
  5
16E
100
AcDbEntity
  8
LC-006-005-----0
370
    25
390
0
 62
     2
100
AcDbLine
 10
301.475456
 20
131.769829
 30
0.0
 11
303.701189
 21
133.995562
 31
0.0
  0
LINE
  5
16F
100
AcDbEntity
  8
LC-006-005-----0
370
    25
390
0
 62
     2
100
AcDbLine
 10
298.767638
 20
131.890437
 30
0.0
 11
301.158849
 21
134.281648
 31
0.0
  0
LINE
  5
170
100
AcDbEntity
  8
LC-006-005-----0
370
    25
390
0
 62
     2
100
AcDbLine
 10
296.05982
 20
132.011046
 30
0.0
 11
298.448741
 21
134.399968
 31
0.0
  0
LINE
  5
171
100
AcDbEntity
  8
LC-006-005-----0
370
    25
390
0
 62
     2
100
AcDbLine
 10
293.352001
 20
132.131655
 30
0.0
 11
295.738633
 21
134.518287
 31
0.0
  0
LINE
  5
172
100
AcDbEntity
  8
LC-006-005-----0
370
    25
390
0
 62
     2
100
AcDbLine
 10
290.644183
 20
132.252264
 30
0.0
 11
293.028526
 21
134.636607
 31
0.0
  0
LINE
  5
173
100
AcDbEntity
  8
LC-006-005-----0
370
    25
390
0
 62
     2
100
AcDbLine
 10
287.936365
 20
132.372873
 30
0.0
 11
290.318418
 21
134.754926
 31
0.0
  0
LINE
  5
174
100
AcDbEntity
  8
LC-006-005-----0
370
    25
390
0
 62
     2
100
AcDbLine
 10
285.228547
 20
132.493482
 30
0.0
 11
287.608311
 21
134.873246
 31
0.0
  0
LINE
  5
175
100
AcDbEntity
  8
LC-006-005-----0
370
    25
390
0
 62
     2
100
AcDbLine
 10
282.520729
 20
132.614091
 30
0.0
 11
284.898203
 21
134.991565
 31
0.0
  0
LINE
  5
176
100
AcDbEntity
  8
LC-006-005-----0
370
    25
390
0
 62
     2
100
AcDbLine
 10
279.812911
 20
132.7347
 30
0.0
 11
282.188095
 21
135.109885
 31
0.0
  0
LINE
  5
177
100
AcDbEntity
  8
LC-006-005-----0
370
    25
390
0
 62
     2
100
AcDbLine
 10
277.105092
 20
132.855309
 30
0.0
 11
279.477988
 21
135.228204
 31
0.0
  0
LINE
  5
178
100
AcDbEntity
  8
LC-006-005-----0
370
    25
390
0
 62
     2
100
AcDbLine
 10
274.397274
 20
132.975918
 30
0.0
 11
276.76788
 21
135.346524
 31
0.0
  0
LINE
  5
179
100
AcDbEntity
  8
LC-006-005-----0
370
    25
390
0
 62
     2
100
AcDbLine
 10
271.689456
 20
133.096527
 30
0.0
 11
274.057773
 21
135.464843
 31
0.0
  0
LINE
  5
17A
100
AcDbEntity
  8
LC-006-005-----0
370
    25
390
0
 62
     2
100
AcDbLine
 10
268.981638
 20
133.217136
 30
0.0
 11
271.347665
 21
135.583163
 31
0.0
  0
LINE
  5
17B
100
AcDbEntity
  8
LC-006-005-----0
370
    25
390
0
 62
     2
100
AcDbLine
 10
266.27382
 20
133.337745
 30
0.0
 11
268.637557
 21
135.701483
 31
0.0
  0
LINE
  5
17C
100
AcDbEntity
  8
LC-006-005-----0
370
    25
390
0
 62
     2
100
AcDbLine
 10
263.566002
 20
133.458354
 30
0.0
 11
265.92745
 21
135.819802
 31
0.0
  0
LINE
  5
17D
100
AcDbEntity
  8
LC-006-005-----0
370
    25
390
0
 62
     2
100
AcDbLine
 10
260.858183
 20
133.578963
 30
0.0
 11
263.217342
 21
135.938122
 31
0.0
  0
LINE
  5
17E
100
AcDbEntity
  8
LC-006-005-----0
370
    25
390
0
 62
     2
100
AcDbLine
 10
258.150365
 20
133.699572
 30
0.0
 11
260.507235
 21
136.056441
 31
0.0
  0
LINE
  5
17F
100
AcDbEntity
  8
LC-006-005-----0
370
    25
390
0
 62
     2
100
AcDbLine
 10
255.442547
 20
133.820181
 30
0.0
 11
257.797127
 21
136.174761
 31
0.0
  0
LINE
  5
180
100
AcDbEntity
  8
LC-006-005-----0
370
    25
390
0
 62
     2
100
AcDbLine
 10
252.734729
 20
133.94079
 30
0.0
 11
255.087019
 21
136.29308
 31
0.0
  0
LINE
  5
181
100
AcDbEntity
  8
LC-006-005-----0
370
    25
390
0
 62
     2
100
AcDbLine
 10
250.026911
 20
134.061399
 30
0.0
 11
252.376912
 21
136.4114
 31
0.0
  0
LINE
  5
182
100
AcDbEntity
  8
LC-006-005-----0
370
    25
390
0
 62
     2
100
AcDbLine
 10
247.319093
 20
134.182008
 30
0.0
 11
249.666804
 21
136.529719
 31
0.0
  0
LINE
  5
183
100
AcDbEntity
  8
LC-006-005-----0
370
    25
390
0
 62
     2
100
AcDbLine
 10
244.611274
 20
134.302617
 30
0.0
 11
246.956697
 21
136.648039
 31
0.0
  0
LINE
  5
184
100
AcDbEntity
  8
LC-006-005-----0
370
    25
390
0
 62
     2
100
AcDbLine
 10
241.903456
 20
134.423225
 30
0.0
 11
244.246589
 21
136.766358
 31
0.0
  0
LINE
  5
185
100
AcDbEntity
  8
LC-006-005-----0
370
    25
390
0
 62
     2
100
AcDbLine
 10
239.195638
 20
134.543834
 30
0.0
 11
241.536481
 21
136.884678
 31
0.0
  0
LINE
  5
186
100
AcDbEntity
  8
LC-006-005-----0
370
    25
390
0
 62
     2
100
AcDbLine
 10
236.48782
 20
134.664443
 30
0.0
 11
238.826374
 21
137.002997
 31
0.0
  0
LINE
  5
187
100
AcDbEntity
  8
LC-006-005-----0
370
    25
390
0
 62
     2
100
AcDbLine
 10
233.780002
 20
134.785052
 30
0.0
 11
236.116266
 21
137.121317
 31
0.0
  0
LINE
  5
188
100
AcDbEntity
  8
LC-006-005-----0
370
    25
390
0
 62
     2
100
AcDbLine
 10
231.072184
 20
134.905661
 30
0.0
 11
233.406159
 21
137.239636
 31
0.0
  0
LINE
  5
189
100
AcDbEntity
  8
LC-006-005-----0
370
    25
390
0
 62
     2
100
AcDbLine
 10
228.364365
 20
135.02627
 30
0.0
 11
230.696051
 21
137.357956
 31
0.0
  0
LINE
  5
18A
100
AcDbEntity
  8
LC-006-005-----0
370
    25
390
0
 62
     2
100
AcDbLine
 10
225.656547
 20
135.146879
 30
0.0
 11
227.985943
 21
137.476275
 31
0.0
  0
LINE
  5
18B
100
AcDbEntity
  8
LC-006-005-----0
370
    25
390
0
 62
     2
100
AcDbLine
 10
222.948729
 20
135.267488
 30
0.0
 11
225.275836
 21
137.594595
 31
0.0
  0
LINE
  5
18C
100
AcDbEntity
  8
LC-006-005-----0
370
    25
390
0
 62
     2
100
AcDbLine
 10
230.13757
 20
142.456329
 30
0.0
 11
231.484568
 21
143.803327
 31
0.0
  0
LINE
  5
18D
100
AcDbEntity
  8
LC-006-005-----0
370
    25
390
0
 62
     2
100
AcDbLine
 10
220.240911
 20
135.388097
 30
0.0
 11
222.565728
 21
137.712915
 31
0.0
  0
LINE
  5
18E
100
AcDbEntity
  8
LC-006-005-----0
370
    25
390
0
 62
     2
100
AcDbLine
 10
227.309137
 20
142.456323
 30
0.0
 11
231.484561
 21
146.631747
 31
0.0
  0
LINE
  5
18F
100
AcDbEntity
  8
LC-006-005-----0
370
    25
390
0
 62
     2
100
AcDbLine
 10
217.533093
 20
135.508706
 30
0.0
 11
219.855621
 21
137.831234
 31
0.0
  0
LINE
  5
190
100
AcDbEntity
  8
LC-006-005-----0
370
    25
390
0
 62
     2
100
AcDbLine
 10
224.480703
 20
142.456316
 30
0.0
 11
230.666164
 21
148.641777
 31
0.0
  0
LINE
  5
191
100
AcDbEntity
  8
LC-006-005-----0
370
    25
390
0
 62
     2
100
AcDbLine
 10
214.825274
 20
135.629315
 30
0.0
 11
218.48469
 21
139.288731
 31
0.0
  0
LINE
  5
192
100
AcDbEntity
  8
LC-006-005-----0
370
    25
390
0
 62
     2
100
AcDbLine
 10
221.652269
 20
142.45631
 30
0.0
 11
227.652283
 21
148.456324
 31
0.0
  0
LINE
  5
193
100
AcDbEntity
  8
LC-006-005-----0
370
    25
390
0
 62
     2
100
AcDbLine
 10
212.117456
 20
135.749924
 30
0.0
 11
214.323825
 21
137.956293
 31
0.0
  0
LINE
  5
194
100
AcDbEntity
  8
LC-006-005-----0
370
    25
390
0
 62
     2
100
AcDbLine
 10
215.484691
 20
139.117158
 30
0.0
 11
218.484684
 21
142.117151
 31
0.0
  0
LINE
  5
195
100
AcDbEntity
  8
LC-006-005-----0
370
    25
390
0
 62
     2
100
AcDbLine
 10
218.823835
 20
142.456303
 30
0.0
 11
224.823849
 21
148.456317
 31
0.0
  0
LINE
  5
196
100
AcDbEntity
  8
LC-006-005-----0
370
    25
390
0
 62
     2
100
AcDbLine
 10
209.409638
 20
135.870533
 30
0.0
 11
211.495391
 21
137.956286
 31
0.0
  0
LINE
  5
197
100
AcDbEntity
  8
LC-006-005-----0
370
    25
390
0
 62
     2
100
AcDbLine
 10
215.484684
 20
141.945579
 30
0.0
 11
221.995416
 21
148.45631
 31
0.0
  0
LINE
  5
198
100
AcDbEntity
  8
LC-006-005-----0
370
    25
390
0
 62
     2
100
AcDbLine
 10
222.469719
 20
148.930614
 30
0.0
 11
222.488531
 21
148.949426
 31
0.0
  0
LINE
  5
199
100
AcDbEntity
  8
LC-006-005-----0
370
    25
390
0
 62
     2
100
AcDbLine
 10
207.484584
 20
136.773906
 30
0.0
 11
208.666958
 21
137.956279
 31
0.0
  0
LINE
  5
19A
100
AcDbEntity
  8
LC-006-005-----0
370
    25
390
0
 62
     2
100
AcDbLine
 10
215.484678
 20
144.773999
 30
0.0
 11
219.484556
 21
148.773878
 31
0.0
  0
LINE
  5
19B
100
AcDbEntity
  8
LC-006-005-----0
370
    25
390
0
 62
     2
100
AcDbLine
 10
215.484671
 20
147.60242
 30
0.0
 11
217.838552
 21
149.956301
 31
0.0
  0
ENDBLK
  5
19C
100
AcDbEntity
  8
0
390
0
100
AcDbBlockEnd
  0
ENDSEC
  0
SECTION
  2
ENTITIES
  0
VIEWPORT
  5
19E
100
AcDbEntity
 67
     1
  8
LC-VIEWPORT
390
0
100
AcDbViewport
 10
420.0
 20
297.0
 30
0.0
 40
840.0
 41
594.0
 68
     1
 69
     1
 12
420.0
 22
297.0
 13
0.0
 23
0.0
 14
1.0
 24
1.0
 15
0.0
 25
0.0
 16
0.0
 26
0.0
 36
1.0
 17
0.0
 27
0.0
 37
0.0
 42
50.0
 43
0.0
 44
0.0
 45
594.0
 50
0.0
 51
0.0
 72
   100
 90
    32928
340
0
  1

281
     0
 71
     0
 74
     1
110
0.0
120
0.0
130
0.0
111
1.0
121
0.0
131
0.0
112
0.0
122
1.0
132
0.0
345
0
346
0
 79
     0
146
0.0
  0
LINE
  5
2B
102
{ACAD_REACTORS
330
19F
102
}
100
AcDbEntity
  8
LC-001-002-----0
370
    50
390
0
 62
     1
100
AcDbLine
 10
95.484441
 20
149.955325
 30
0.0
 11
215.484665
 21
149.955605
 31
0.0
  0
DIMENSION
  5
4A
100
AcDbEntity
  8
LC-003-003-----0
370
    25
390
0
 62
     2
100
AcDbDimension
  2
*D0
 10
343.06524
 20
133.523673
 30
0.0
 11
343.06524
 21
133.523673
 31
0.0
 70
     1
 71
     5
 72
     1
 41
1.0
 42
0.0
  1
 DN50 
  3
LC-DIM-L-0140-02-02
100
AcDbAlignedDimension
 13
303.056612
 23
134.198794
 33
0.0
 14
300.875759
 24
84.246381
 34
0.0
  0
LINE
  5
4B
102
{ACAD_REACTORS
330
19F
102
}
100
AcDbEntity
  8
LC-001-002-----0
370
    50
390
0
 62
     1
100
AcDbLine
 10
218.484694
 20
137.891087
 30
0.0
 11
218.484683
 21
142.456302
 31
0.0
  0
LINE
  5
4D
102
{ACAD_REACTORS
330
19F
102
}
100
AcDbEntity
  8
LC-001-002-----0
370
    25
390
0
  6
DASHDOT
 62
     2
100
AcDbLine
 10
155.484596
 20
149.955465
 30
0.0
 11
155.484729
 21
93.09633
 31
0.0
  0
LINE
  5
4E
102
{ACAD_REACTORS
330
19F
102
}
100
AcDbEntity
  8
LC-001-002-----0
370
    50
390
0
 62
     1
100
AcDbLine
 10
228.195882
 20
148.456325
 30
0.0
 11
228.484556
 21
148.956326
 31
0.0
  0
LINE
  5
4F
102
{ACAD_REACTORS
330
19F
102
}
100
AcDbEntity
  8
LC-001-002-----0
370
    25
390
0
  6
DASHDOT
 62
     2
100
AcDbLine
 10
155.506422
 20
115.616816
 30
0.0
 11
305.462855
 21
109.069927
 31
0.0
  0
DIMENSION
  5
6A
100
AcDbEntity
  8
LC-003-003-----0
370
    25
390
0
 62
     2
100
AcDbDimension
  2
*D1
 10
155.581914
 20
183.456244
 30
0.0
 11
155.581914
 21
183.456244
 31
0.0
 70
     1
 71
     5
 72
     1
 41
1.0
 42
0.0
  1
%%c<>
  3
LC-DIM-L-0140-01-02
100
AcDbAlignedDimension
 13
231.484557
 23
148.456333
 33
0.0
 14
79.484639
 24
148.456156
 34
0.0
  0
LINE
  5
6B
102
{ACAD_REACTORS
330
19F
102
}
100
AcDbEntity
  8
LC-001-002-----0
370
    50
390
0
 62
     1
100
AcDbLine
 10
226.195882
 20
148.45632
 30
0.0
 11
226.484556
 21
148.956321
 31
0.0
  0
LINE
  5
6C
102
{ACAD_REACTORS
330
19F
102
}
100
AcDbEntity
  8
LC-001-002-----0
370
    50
390
0
 62
     1
100
AcDbLine
 10
224.195882
 20
148.456316
 30
0.0
 11
224.484556
 21
148.956316
 31
0.0
  0
LINE
  5
6D
102
{ACAD_REACTORS
330
19F
102
}
100
AcDbEntity
  8
LC-001-002-----0
370
    50
390
0
 62
     1
100
AcDbLine
 10
222.195882
 20
148.456311
 30
0.0
 11
222.484556
 21
148.956312
 31
0.0
  0
LINE
  5
6E
102
{ACAD_REACTORS
330
19F
102
}
100
AcDbEntity
  8
LC-001-002-----0
370
    50
390
0
 62
     1
100
AcDbLine
 10
228.484556
 20
148.956326
 30
0.0
 11
228.773232
 21
148.456326
 31
0.0
  0
LINE
  5
6F
102
{ACAD_REACTORS
330
19F
102
}
100
AcDbEntity
  8
LC-001-002-----0
370
    50
390
0
 62
     1
100
AcDbLine
 10
226.484556
 20
148.956321
 30
0.0
 11
226.773232
 21
148.456322
 31
0.0
  0
LINE
  5
70
102
{ACAD_REACTORS
330
19F
102
}
100
AcDbEntity
  8
LC-001-002-----0
370
    50
390
0
 62
     1
100
AcDbLine
 10
224.484556
 20
148.956316
 30
0.0
 11
224.773232
 21
148.456317
 31
0.0
  0
LINE
  5
71
102
{ACAD_REACTORS
330
19F
102
}
100
AcDbEntity
  8
LC-001-002-----0
370
    50
390
0
 62
     1
100
AcDbLine
 10
228.773232
 20
148.456326
 30
0.0
 11
230.195882
 21
148.45633
 31
0.0
  0
DIMENSION
  5
8B
100
AcDbEntity
  8
LC-003-003-----0
370
    25
390
0
 62
     2
100
AcDbDimension
  2
*D2
 10
230.484689
 20
39.20051
 30
0.0
 11
230.484689
 21
39.20051
 31
0.0
 71
     5
 72
     1
 41
1.0
 42
0.0
  3
LC-DIM-L-0140-01-02
100
AcDbAlignedDimension
 13
305.484644
 23
109.068975
 33
0.0
 14
155.484735
 24
90.593948
 34
0.0
100
AcDbRotatedDimension
  0
LINE
  5
8D
102
{ACAD_REACTORS
330
19F
102
}
100
AcDbEntity
  8
LC-005-007-KH--0
370
    13
390
0
 62
    44
100
AcDbLine
 10
155.484596
 20
149.955465
 30
0.0
 11
155.484759
 21
80.252013
 31
0.0
  0
LINE
  5
8E
102
{ACAD_REACTORS
330
19F
102
}
100
AcDbEntity
  8
LC-001-002-----0
370
    50
390
0
 62
     1
100
AcDbLine
 10
230.484556
 20
148.95633
 30
0.0
 11
228.484556
 21
148.956326
 31
0.0
  0
LINE
  5
8F
102
{ACAD_REACTORS
330
19F
102
}
100
AcDbEntity
  8
LC-001-002-----0
370
    50
390
0
 62
     1
100
AcDbLine
 10
220.484556
 20
148.956307
 30
0.0
 11
219.484556
 21
148.956305
 31
0.0
  0
LINE
  5
90
102
{ACAD_REACTORS
330
19F
102
}
100
AcDbEntity
  8
LC-001-002-----0
370
    50
390
0
 62
     1
100
AcDbLine
 10
306.512376
 20
133.109205
 30
0.0
 11
306.444238
 21
131.548514
 31
0.0
  0
ARC
  5
91
102
{ACAD_REACTORS
330
19F
102
}
100
AcDbEntity
  8
LC-001-002-----0
370
    50
390
0
 62
     1
100
AcDbCircle
 10
155.484724
 20
89.130181
 30
0.0
 40
48.825975
100
AcDbArc
 50
15.619353
 51
90.000133
  0
ARC
  5
92
102
{ACAD_REACTORS
330
19F
102
}
100
AcDbEntity
  8
LC-001-002-----0
370
    50
390
0
 62
     1
100
AcDbCircle
 10
155.484636
 20
115.616816
 30
0.0
 40
24.99905
100
AcDbArc
 50
223.32703
 51
267.500135
  0
ARC
  5
93
102
{ACAD_REACTORS
330
19F
102
}
100
AcDbEntity
  8
LC-001-002-----0
370
    50
390
0
 62
     1
100
AcDbCircle
 10
155.484636
 20
115.616816
 30
0.0
 40
22.49905
100
AcDbArc
 50
223.32703
 51
267.500135
  0
ELLIPSE
  5
94
102
{ACAD_REACTORS
330
19F
102
}
100
AcDbEntity
  8
LC-001-002-----0
370
    50
390
0
 62
     1
100
AcDbEllipse
 10
207.484633
 20
113.34752
 30
0.0
 11
-0.0000471670812845
 21
22.608757423918416
 31
0.0
210
0.0
220
0.0
230
1.0
 40
0.251994
 41
0.0000001163586432
 42
3.0419881400897903
  0
LINE
  5
95
102
{ACAD_REACTORS
330
19F
102
}
100
AcDbEntity
  8
LC-001-002-----0
370
    50
390
0
 62
     1
100
AcDbLine
 10
139.117722
 20
100.178832
 30
0.0
 11
103.484624
 21
137.956034
 31
0.0
  0
LINE
  5
96
102
{ACAD_REACTORS
330
19F
102
}
100
AcDbEntity
  8
LC-001-002-----0
370
    50
390
0
 62
     1
100
AcDbLine
 10
137.299099
 20
98.463428
 30
0.0
 11
102.878341
 21
134.955343
 31
0.0
  0
LINE
  5
97
102
{ACAD_REACTORS
330
19F
102
}
100
AcDbEntity
  8
LC-001-002-----0
370
    50
390
0
 62
     1
100
AcDbLine
 10
304.481471
 20
86.591342
 30
0.0
 11
154.503294
 21
93.139178
 31
0.0
  0
LINE
  5
98
102
{ACAD_REACTORS
330
19F
102
}
100
AcDbEntity
  8
LC-003-003-----0
370
    25
390
0
 62
     2
100
AcDbLine
 10
304.413333
 20
85.030651
 30
0.0
 11
304.372428
 21
84.093722
 31
0.0
  0
LINE
  5
99
102
{ACAD_REACTORS
330
19F
102
}
100
AcDbEntity
  8
LC-001-002-----0
370
    50
390
0
 62
     1
100
AcDbLine
 10
304.481471
 20
86.591342
 30
0.0
 11
304.413333
 21
85.030651
 31
0.0
  0
LINE
  5
9A
102
{ACAD_REACTORS
330
19F
102
}
100
AcDbEntity
  8
LC-001-002-----0
370
    50
390
0
 62
     1
100
AcDbLine
 10
219.484553
 20
149.956305
 30
0.0
 11
219.484557
 21
148.456305
 31
0.0
  0
LINE
  5
9B
102
{ACAD_REACTORS
330
19F
102
}
100
AcDbEntity
  8
LC-001-002-----0
370
    50
390
0
 62
     1
100
AcDbLine
 10
231.484557
 20
148.456333
 30
0.0
 11
231.484571
 21
142.456333
 31
0.0
  0
LINE
  5
9C
102
{ACAD_REACTORS
330
19F
102
}
100
AcDbEntity
  8
LC-001-002-----0
370
    50
390
0
 62
     1
100
AcDbLine
 10
219.484557
 20
148.456305
 30
0.0
 11
220.195882
 21
148.456306
 31
0.0
  0
LINE
  5
9D
102
{ACAD_REACTORS
330
19F
102
}
100
AcDbEntity
  8
LC-001-002-----0
370
    50
390
0
 62
     1
100
AcDbLine
 10
218.484683
 20
142.456302
 30
0.0
 11
231.484571
 21
142.456333
 31
0.0
  0
LINE
  5
9E
102
{ACAD_REACTORS
330
19F
102
}
100
AcDbEntity
  8
LC-001-002-----0
370
    50
390
0
 62
     1
100
AcDbLine
 10
219.484553
 20
149.956305
 30
0.0
 11
215.484665
 21
149.956295
 31
0.0
  0
LINE
  5
9F
102
{ACAD_REACTORS
330
19F
102
}
100
AcDbEntity
  8
LC-001-002-----0
370
    50
390
0
 62
     1
100
AcDbLine
 10
220.195882
 20
148.456306
 30
0.0
 11
220.484556
 21
148.956307
 31
0.0
  0
LINE
  5
A0
102
{ACAD_REACTORS
330
19F
102
}
100
AcDbEntity
  8
LC-001-002-----0
370
    50
390
0
 62
     1
100
AcDbLine
 10
220.484556
 20
148.956307
 30
0.0
 11
220.773232
 21
148.456308
 31
0.0
  0
LINE
  5
A1
102
{ACAD_REACTORS
330
19F
102
}
100
AcDbEntity
  8
LC-001-002-----0
370
    50
390
0
 62
     1
100
AcDbLine
 10
82.484556
 20
148.955986
 30
0.0
 11
84.484556
 21
148.95599
 31
0.0
  0
LINE
  5
A2
102
{ACAD_REACTORS
330
19F
102
}
100
AcDbEntity
  8
LC-001-002-----0
370
    50
390
0
 62
     1
100
AcDbLine
 10
230.484556
 20
148.95633
 30
0.0
 11
230.773232
 21
148.456331
 31
0.0
  0
LINE
  5
A3
102
{ACAD_REACTORS
330
19F
102
}
100
AcDbEntity
  8
LC-001-002-----0
370
    50
390
0
 62
     1
100
AcDbLine
 10
230.195882
 20
148.45633
 30
0.0
 11
230.484556
 21
148.95633
 31
0.0
  0
LINE
  5
A4
102
{ACAD_REACTORS
330
19F
102
}
100
AcDbEntity
  8
LC-001-002-----0
370
    50
390
0
 62
     1
100
AcDbLine
 10
230.773232
 20
148.456331
 30
0.0
 11
231.484557
 21
148.456333
 31
0.0
  0
LINE
  5
A5
102
{ACAD_REACTORS
330
19F
102
}
100
AcDbEntity
  8
LC-001-002-----0
370
    50
390
0
 62
     1
100
AcDbLine
 10
84.195882
 20
148.45599
 30
0.0
 11
82.773232
 21
148.455986
 31
0.0
  0
LINE
  5
A6
102
{ACAD_REACTORS
330
19F
102
}
100
AcDbEntity
  8
LC-001-002-----0
370
    50
390
0
 62
     1
100
AcDbLine
 10
222.484556
 20
148.956312
 30
0.0
 11
222.773232
 21
148.456312
 31
0.0
  0
LINE
  5
A7
102
{ACAD_REACTORS
330
19F
102
}
100
AcDbEntity
  8
LC-001-002-----0
370
    50
390
0
 62
     1
100
AcDbLine
 10
228.484556
 20
148.956326
 30
0.0
 11
226.484556
 21
148.956321
 31
0.0
  0
LINE
  5
A8
102
{ACAD_REACTORS
330
19F
102
}
100
AcDbEntity
  8
LC-001-002-----0
370
    50
390
0
 62
     1
100
AcDbLine
 10
226.484556
 20
148.956321
 30
0.0
 11
224.484556
 21
148.956316
 31
0.0
  0
LINE
  5
A9
102
{ACAD_REACTORS
330
19F
102
}
100
AcDbEntity
  8
LC-001-002-----0
370
    50
390
0
 62
     1
100
AcDbLine
 10
215.484665
 20
149.956295
 30
0.0
 11
215.484693
 21
137.956295
 31
0.0
  0
LINE
  5
AA
102
{ACAD_REACTORS
330
19F
102
}
100
AcDbEntity
  8
LC-001-002-----0
370
    50
390
0
 62
     1
100
AcDbLine
 10
224.484556
 20
148.956316
 30
0.0
 11
222.484556
 21
148.956312
 31
0.0
  0
LINE
  5
AB
102
{ACAD_REACTORS
330
19F
102
}
100
AcDbEntity
  8
LC-001-002-----0
370
    50
390
0
 62
     1
100
AcDbLine
 10
82.773232
 20
148.455986
 30
0.0
 11
82.484556
 21
148.955986
 31
0.0
  0
LINE
  5
AC
102
{ACAD_REACTORS
330
19F
102
}
100
AcDbEntity
  8
LC-001-002-----0
370
    50
390
0
 62
     1
100
AcDbLine
 10
82.484556
 20
148.955986
 30
0.0
 11
82.195882
 21
148.455985
 31
0.0
  0
LINE
  5
AD
102
{ACAD_REACTORS
330
19F
102
}
100
AcDbEntity
  8
LC-001-002-----0
370
    50
390
0
 62
     1
100
AcDbLine
 10
84.484556
 20
148.95599
 30
0.0
 11
84.195882
 21
148.45599
 31
0.0
  0
LINE
  5
AE
102
{ACAD_REACTORS
330
19F
102
}
100
AcDbEntity
  8
LC-001-002-----0
370
    50
390
0
 62
     1
100
AcDbLine
 10
84.773232
 20
148.455991
 30
0.0
 11
84.484556
 21
148.95599
 31
0.0
  0
LINE
  5
AF
102
{ACAD_REACTORS
330
19F
102
}
100
AcDbEntity
  8
LC-001-002-----0
370
    50
390
0
 62
     1
100
AcDbLine
 10
86.195882
 20
148.455994
 30
0.0
 11
84.773232
 21
148.455991
 31
0.0
  0
LINE
  5
B0
102
{ACAD_REACTORS
330
19F
102
}
100
AcDbEntity
  8
LC-001-002-----0
370
    50
390
0
 62
     1
100
AcDbLine
 10
84.484556
 20
148.95599
 30
0.0
 11
86.484556
 21
148.955995
 31
0.0
  0
LINE
  5
B1
102
{ACAD_REACTORS
330
19F
102
}
100
AcDbEntity
  8
LC-001-002-----0
370
    50
390
0
 62
     1
100
AcDbLine
 10
86.484556
 20
148.955995
 30
0.0
 11
86.195882
 21
148.455994
 31
0.0
  0
LINE
  5
B2
102
{ACAD_REACTORS
330
19F
102
}
100
AcDbEntity
  8
LC-001-002-----0
370
    50
390
0
 62
     1
100
AcDbLine
 10
82.195882
 20
148.455985
 30
0.0
 11
80.773232
 21
148.455982
 31
0.0
  0
LINE
  5
B3
102
{ACAD_REACTORS
330
19F
102
}
100
AcDbEntity
  8
LC-001-002-----0
370
    50
390
0
 62
     1
100
AcDbLine
 10
80.484556
 20
148.955981
 30
0.0
 11
82.484556
 21
148.955986
 31
0.0
  0
LINE
  5
B4
102
{ACAD_REACTORS
330
19F
102
}
100
AcDbEntity
  8
LC-001-002-----0
370
    50
390
0
 62
     1
100
AcDbLine
 10
86.773232
 20
148.455996
 30
0.0
 11
86.484556
 21
148.955995
 31
0.0
  0
LINE
  5
B5
102
{ACAD_REACTORS
330
19F
102
}
100
AcDbEntity
  8
LC-001-002-----0
370
    50
390
0
 62
     1
100
AcDbLine
 10
90.484556
 20
148.956004
 30
0.0
 11
91.484556
 21
148.956007
 31
0.0
  0
LINE
  5
B6
102
{ACAD_REACTORS
330
19F
102
}
100
AcDbEntity
  8
LC-001-002-----0
370
    50
390
0
 62
     1
100
AcDbLine
 10
91.484553
 20
149.956007
 30
0.0
 11
91.484557
 21
148.456007
 31
0.0
  0
LINE
  5
B7
102
{ACAD_REACTORS
330
19F
102
}
100
AcDbEntity
  8
LC-001-002-----0
370
    50
390
0
 62
     1
100
AcDbLine
 10
79.484557
 20
148.455979
 30
0.0
 11
79.484571
 21
142.455979
 31
0.0
  0
LINE
  5
B8
102
{ACAD_REACTORS
330
19F
102
}
100
AcDbEntity
  8
LC-001-002-----0
370
    50
390
0
 62
     1
100
AcDbLine
 10
91.484557
 20
148.456007
 30
0.0
 11
90.773232
 21
148.456005
 31
0.0
  0
LINE
  5
B9
102
{ACAD_REACTORS
330
19F
102
}
100
AcDbEntity
  8
LC-001-002-----0
370
    50
390
0
 62
     1
100
AcDbLine
 10
86.484556
 20
148.955995
 30
0.0
 11
88.484556
 21
148.956
 31
0.0
  0
LINE
  5
BA
102
{ACAD_REACTORS
330
19F
102
}
100
AcDbEntity
  8
LC-001-002-----0
370
    50
390
0
 62
     1
100
AcDbLine
 10
207.484581
 20
137.956277
 30
0.0
 11
215.484693
 21
137.956295
 31
0.0
  0
LINE
  5
BB
102
{ACAD_REACTORS
330
19F
102
}
100
AcDbEntity
  8
LC-001-002-----0
370
    50
390
0
 62
     1
100
AcDbLine
 10
207.484581
 20
137.956277
 30
0.0
 11
215.484693
 21
137.956295
 31
0.0
  0
LINE
  5
BC
102
{ACAD_REACTORS
330
19F
102
}
100
AcDbEntity
  8
LC-001-002-----0
370
    50
390
0
 62
     1
100
AcDbLine
 10
207.484586
 20
135.956277
 30
0.0
 11
207.484581
 21
137.956277
 31
0.0
  0
LINE
  5
BD
102
{ACAD_REACTORS
330
19F
102
}
100
AcDbEntity
  8
LC-001-002-----0
370
    50
390
0
 62
     1
100
AcDbLine
 10
92.284459
 20
142.456008
 30
0.0
 11
79.484571
 21
142.455979
 31
0.0
  0
LINE
  5
BE
102
{ACAD_REACTORS
330
19F
102
}
100
AcDbEntity
  8
LC-001-002-----0
370
    50
390
0
 62
     1
100
AcDbLine
 10
94.484441
 20
149.956014
 30
0.0
 11
95.484441
 21
149.956016
 31
0.0
  0
LINE
  5
BF
102
{ACAD_REACTORS
330
19F
102
}
100
AcDbEntity
  8
LC-001-002-----0
370
    50
390
0
 62
     1
100
AcDbLine
 10
90.773232
 20
148.456005
 30
0.0
 11
90.484556
 21
148.956004
 31
0.0
  0
LINE
  5
C0
102
{ACAD_REACTORS
330
19F
102
}
100
AcDbEntity
  8
LC-001-002-----0
370
    50
390
0
 62
     1
100
AcDbLine
 10
90.484556
 20
148.956004
 30
0.0
 11
90.195882
 21
148.456004
 31
0.0
  0
LINE
  5
C1
102
{ACAD_REACTORS
330
19F
102
}
100
AcDbEntity
  8
LC-001-002-----0
370
    50
390
0
 62
     1
100
AcDbLine
 10
88.195882
 20
148.455999
 30
0.0
 11
86.773232
 21
148.455996
 31
0.0
  0
LINE
  5
C2
102
{ACAD_REACTORS
330
19F
102
}
100
AcDbEntity
  8
LC-001-002-----0
370
    50
390
0
 62
     1
100
AcDbLine
 10
80.484556
 20
148.955981
 30
0.0
 11
80.195882
 21
148.45598
 31
0.0
  0
LINE
  5
C3
102
{ACAD_REACTORS
330
19F
102
}
100
AcDbEntity
  8
LC-001-002-----0
370
    50
390
0
 62
     1
100
AcDbLine
 10
80.773232
 20
148.455982
 30
0.0
 11
80.484556
 21
148.955981
 31
0.0
  0
LINE
  5
C4
102
{ACAD_REACTORS
330
19F
102
}
100
AcDbEntity
  8
LC-001-002-----0
370
    50
390
0
 62
     1
100
AcDbLine
 10
80.195882
 20
148.45598
 30
0.0
 11
79.484557
 21
148.455979
 31
0.0
  0
LINE
  5
C5
102
{ACAD_REACTORS
330
19F
102
}
100
AcDbEntity
  8
LC-001-002-----0
370
    50
390
0
 62
     1
100
AcDbLine
 10
88.484556
 20
148.956
 30
0.0
 11
88.195882
 21
148.455999
 31
0.0
  0
LINE
  5
C6
102
{ACAD_REACTORS
330
19F
102
}
100
AcDbEntity
  8
LC-001-002-----0
370
    50
390
0
 62
     1
100
AcDbLine
 10
88.773232
 20
148.456
 30
0.0
 11
88.484556
 21
148.956
 31
0.0
  0
LINE
  5
C7
102
{ACAD_REACTORS
330
19F
102
}
100
AcDbEntity
  8
LC-001-002-----0
370
    50
390
0
 62
     1
100
AcDbLine
 10
88.484556
 20
148.956
 30
0.0
 11
90.484556
 21
148.956004
 31
0.0
  0
LINE
  5
C8
102
{ACAD_REACTORS
330
19F
102
}
100
AcDbEntity
  8
LC-001-002-----0
370
    50
390
0
 62
     1
100
AcDbLine
 10
90.195882
 20
148.456004
 30
0.0
 11
88.773232
 21
148.456
 31
0.0
  0
LINE
  5
C9
102
{ACAD_REACTORS
330
19F
102
}
100
AcDbEntity
  8
LC-001-002-----0
370
    50
390
0
 62
     1
100
AcDbLine
 10
91.484553
 20
149.956007
 30
0.0
 11
92.484441
 21
149.956009
 31
0.0
  0
LINE
  5
CA
102
{ACAD_REACTORS
330
19F
102
}
100
AcDbEntity
  8
LC-001-002-----0
370
    50
390
0
 62
     1
100
AcDbLine
 10
95.484441
 20
149.956016
 30
0.0
 11
95.484469
 21
137.956016
 31
0.0
  0
LINE
  5
CB
102
{ACAD_REACTORS
330
19F
102
}
100
AcDbEntity
  8
LC-001-002-----0
370
    50
390
0
 62
     1
100
AcDbLine
 10
94.484441
 20
149.956014
 30
0.0
 11
92.484441
 21
149.956009
 31
0.0
  0
LINE
  5
CC
102
{ACAD_REACTORS
330
19F
102
}
100
AcDbEntity
  8
LC-001-002-----0
370
    50
390
0
 62
     1
100
AcDbLine
 10
222.484556
 20
148.956312
 30
0.0
 11
220.484556
 21
148.956307
 31
0.0
  0
LINE
  5
CD
102
{ACAD_REACTORS
330
19F
102
}
100
AcDbEntity
  8
LC-001-002-----0
370
    50
390
0
 62
     1
100
AcDbLine
 10
226.773232
 20
148.456322
 30
0.0
 11
228.195882
 21
148.456325
 31
0.0
  0
LINE
  5
CE
102
{ACAD_REACTORS
330
19F
102
}
100
AcDbEntity
  8
LC-001-002-----0
370
    50
390
0
 62
     1
100
AcDbLine
 10
224.773232
 20
148.456317
 30
0.0
 11
226.195882
 21
148.45632
 31
0.0
  0
LINE
  5
CF
102
{ACAD_REACTORS
330
19F
102
}
100
AcDbEntity
  8
LC-001-002-----0
370
    50
390
0
 62
     1
100
AcDbLine
 10
222.773232
 20
148.456312
 30
0.0
 11
224.195882
 21
148.456316
 31
0.0
  0
LINE
  5
D0
102
{ACAD_REACTORS
330
19F
102
}
100
AcDbEntity
  8
LC-001-002-----0
370
    50
390
0
 62
     1
100
AcDbLine
 10
220.773232
 20
148.456308
 30
0.0
 11
222.195882
 21
148.456311
 31
0.0
  0
LINE
  5
D1
102
{ACAD_REACTORS
330
19F
102
}
100
AcDbEntity
  8
LC-001-002-----0
370
    50
390
0
 62
     1
100
AcDbLine
 10
210.4461
 20
149.955593
 30
0.0
 11
210.446093
 21
152.955593
 31
0.0
  0
LINE
  5
D2
102
{ACAD_REACTORS
330
19F
102
}
100
AcDbEntity
  8
LC-001-002-----0
370
    50
390
0
 62
     1
100
AcDbLine
 10
210.446093
 20
152.955593
 30
0.0
 11
206.897905
 21
152.955585
 31
0.0
  0
LINE
  5
D3
102
{ACAD_REACTORS
330
19F
102
}
100
AcDbEntity
  8
LC-001-002-----0
370
    50
390
0
 62
     1
100
AcDbLine
 10
206.897905
 20
152.955585
 30
0.0
 11
206.897912
 21
149.955585
 31
0.0
  0
LINE
  5
D4
102
{ACAD_REACTORS
330
19F
102
}
100
AcDbEntity
  8
LC-001-002-----0
370
    50
390
0
 62
     1
100
AcDbLine
 10
209.726339
 20
149.955591
 30
0.0
 11
209.726332
 21
152.955591
 31
0.0
  0
LINE
  5
D5
102
{ACAD_REACTORS
330
19F
102
}
100
AcDbEntity
  8
LC-001-002-----0
370
    50
390
0
 62
     1
100
AcDbLine
 10
104.071195
 20
149.955345
 30
0.0
 11
104.071188
 21
152.955345
 31
0.0
  0
LINE
  5
D6
102
{ACAD_REACTORS
330
19F
102
}
100
AcDbEntity
  8
LC-001-002-----0
370
    50
390
0
 62
     1
100
AcDbLine
 10
104.071188
 20
152.955345
 30
0.0
 11
100.522999
 21
152.955337
 31
0.0
  0
LINE
  5
D7
102
{ACAD_REACTORS
330
19F
102
}
100
AcDbEntity
  8
LC-001-002-----0
370
    50
390
0
 62
     1
100
AcDbLine
 10
100.522999
 20
152.955337
 30
0.0
 11
100.523006
 21
149.955337
 31
0.0
  0
LINE
  5
D8
102
{ACAD_REACTORS
330
19F
102
}
100
AcDbEntity
  8
LC-001-002-----0
370
    50
390
0
 62
     1
100
AcDbLine
 10
101.242761
 20
152.955339
 30
0.0
 11
101.242768
 21
149.955339
 31
0.0
  0
LINE
  5
D9
102
{ACAD_REACTORS
330
19F
102
}
100
AcDbEntity
  8
LC-001-002-----0
370
    50
390
0
 62
     1
100
AcDbLine
 10
92.284459
 20
142.456008
 30
0.0
 11
92.284476
 21
134.955318
 31
0.0
  0
LINE
  5
DA
102
{ACAD_REACTORS
330
19F
102
}
100
AcDbEntity
  8
LC-001-002-----0
370
    50
390
0
 62
     1
100
AcDbLine
 10
303.056612
 20
134.198794
 30
0.0
 11
218.484694
 21
137.891087
 31
0.0
  0
LINE
  5
DB
102
{ACAD_REACTORS
330
19F
102
}
100
AcDbEntity
  8
LC-001-002-----0
370
    50
390
0
 62
     1
100
AcDbLine
 10
95.484555
 20
137.956016
 30
0.0
 11
103.484624
 21
137.956034
 31
0.0
  0
LINE
  5
DC
102
{ACAD_REACTORS
330
19F
102
}
100
AcDbEntity
  8
LC-001-002-----0
370
    50
390
0
 62
     1
100
AcDbLine
 10
95.484555
 20
137.956016
 30
0.0
 11
95.484546
 21
141.956016
 31
0.0
  0
LINE
  5
DD
102
{ACAD_REACTORS
330
19F
102
}
100
AcDbEntity
  8
LC-001-002-----0
370
    50
390
0
 62
     1
100
AcDbLine
 10
306.444238
 20
131.548514
 30
0.0
 11
304.481471
 21
86.591342
 31
0.0
  0
LINE
  5
DE
102
{ACAD_REACTORS
330
19F
102
}
100
AcDbEntity
  8
LC-001-002-----0
370
    50
390
0
 62
     1
100
AcDbLine
 10
215.484665
 20
149.955605
 30
0.0
 11
215.484693
 21
137.956295
 31
0.0
  0
LINE
  5
DF
102
{ACAD_REACTORS
330
19F
102
}
100
AcDbEntity
  8
LC-001-002-----0
370
    50
390
0
 62
     1
100
AcDbLine
 10
306.512376
 20
133.109205
 30
0.0
 11
303.056612
 21
134.198794
 31
0.0
  0
LINE
  5
E0
102
{ACAD_REACTORS
330
19F
102
}
100
AcDbEntity
  8
LC-001-002-----0
370
    50
390
0
 62
     1
100
AcDbLine
 10
304.413333
 20
85.030651
 30
0.0
 11
300.875759
 21
84.246381
 31
0.0
  0
LINE
  5
E1
102
{ACAD_REACTORS
330
19F
102
}
100
AcDbEntity
  8
LC-001-002-----0
370
    50
390
0
 62
     1
100
AcDbLine
 10
92.284476
 20
134.955318
 30
0.0
 11
102.878341
 21
134.955343
 31
0.0
  0
LINE
  5
E2
102
{ACAD_REACTORS
330
19F
102
}
100
AcDbEntity
  8
LC-001-002-----0
370
    50
390
0
 62
     1
100
AcDbLine
 10
306.444238
 20
131.548514
 30
0.0
 11
207.484586
 21
135.956277
 31
0.0
  0
LINE
  5
E3
102
{ACAD_REACTORS
330
19F
102
}
100
AcDbEntity
  8
LC-001-002-----0
370
    50
390
0
 62
     1
100
AcDbLine
 10
300.875759
 20
84.246381
 30
0.0
 11
154.394252
 21
90.641557
 31
0.0
  0
LINE
  5
E4
102
{ACAD_REACTORS
330
19F
102
}
100
AcDbEntity
  8
LC-001-002-----0
370
    50
390
0
 62
     1
100
AcDbLine
 10
103.484624
 20
137.956034
 30
0.0
 11
207.484581
 21
137.956277
 31
0.0
  0
DIMENSION
  5
FF
100
AcDbEntity
  8
LC-003-003-----0
370
    25
390
0
 62
     2
100
AcDbDimension
  2
*D3
 10
57.97537
 20
113.35118
 30
0.0
 11
57.97537
 21
113.35118
 31
0.0
 71
     5
 72
     1
 41
1.0
 42
0.0
  1
60
  3
LC-DIM-L-0140-02-02
100
AcDbAlignedDimension
 13
300.875759
 23
84.246381
 33
0.0
 14
79.484571
 24
142.455979
 34
0.0
 50
90.0
100
AcDbRotatedDimension
  0
INSERT
  5
16A
102
{ACAD_REACTORS
330
19F
102
}
100
AcDbEntity
  8
LC-006-005-----0
370
    25
390
0
 62
     2
100
AcDbBlockReference
  2
*X4
 10
0.0
 20
0.0
 30
0.0
  0
INSERT
  5
19D
102
{ACAD_REACTORS
330
19F
102
}
100
AcDbEntity
  8
LC-006-005-----0
370
    25
390
0
 62
     2
100
AcDbBlockReference
  2
*X5
 10
0.0
 20
0.0
 30
0.0
  0
ENDSEC
  0
SECTION
  2
OBJECTS
  0
DICTIONARY
  5
19
100
AcDbDictionary
280
     0
281
     1
  3
ACAD_GROUP
350
1A
  3
ACAD_MLINESTYLE
350
1B
  3
ACAD_LAYOUT
350
1E
  3
ACAD_PLOTSETTINGS
350
22
  3
ACAD_PLOTSTYLENAME
350
1F
  0
DICTIONARY
  5
1A
102
{ACAD_REACTORS
330
19
102
}
100
AcDbDictionary
280
     0
281
     1
  3
K÷rper
350
19F
  0
DICTIONARY
  5
1B
102
{ACAD_REACTORS
330
19
102
}
100
AcDbDictionary
280
     0
281
     1
  3
Standard
350
1C
  0
MLINESTYLE
  5
1C
102
{ACAD_REACTORS
330
1B
102
}
100
AcDbMlineStyle
  2
Standard
 70
     0
  3

 62
     0
 51
90.0
 52
90.0
 71
     2
 49
0.5
 62
   256
  6
ByLayer
 49
-0.5
 62
   256
  6
ByLayer
  0
ACDBDICTIONARYWDFLT
  5
1F
102
{ACAD_REACTORS
330
19
102
}
100
AcDbDictionary
281
     1
  3
Normal
350
1D
100
AcDbDictionaryWithDefault
340
1D
  0
ACDBPLACEHOLDER
  5
1D
102
{ACAD_REACTORS
330
1F
102
}
  0
LAYOUT
  5
20
102
{ACAD_REACTORS
330
1E
102
}
100
AcDbPlotSettings
  1

  2

  4

  6

 40
0.0
 41
0.0
 42
0.0
 43
0.0
 44
0.0
 45
0.0
 46
0.0
 47
0.0
 48
0.0
 49
0.0
140
0.0
141
0.0
142
1.0
143
1.0
 70
  1152
 72
     0
 73
     0
 74
     0
  7

 75
     0
147
1.0
148
0.0
149
0.0
100
AcDbLayout
  1
Model
 70
     0
 71
     0
 10
0.0
 20
0.0
 11
0.0
 21
0.0
 12
0.0
 22
0.0
 32
0.0
 14
0.0
 24
0.0
 34
0.0
 15
0.0
 25
0.0
 35
0.0
146
0.0
 13
0.0
 23
0.0
 33
0.0
 16
0.0
 26
0.0
 36
0.0
 17
0.0
 27
0.0
 37
0.0
 76
     0
330
A
331
0
345
0
346
0
  0
LAYOUT
  5
21
102
{ACAD_REACTORS
330
1E
102
}
100
AcDbPlotSettings
  1

  2

  4

  6

 40
0.0
 41
0.0
 42
0.0
 43
0.0
 44
0.0
 45
0.0
 46
0.0
 47
0.0
 48
0.0
 49
0.0
140
0.0
141
0.0
142
1.0
143
1.0
 70
   128
 72
     0
 73
     0
 74
     0
  7

 75
     0
147
1.0
148
0.0
149
0.0
100
AcDbLayout
  1
Layout1
 70
     0
 71
     0
 10
0.0
 20
0.0
 11
0.0
 21
0.0
 12
0.0
 22
0.0
 32
0.0
 14
0.0
 24
0.0
 34
0.0
 15
0.0
 25
0.0
 35
0.0
146
0.0
 13
0.0
 23
0.0
 33
0.0
 16
0.0
 26
0.0
 36
0.0
 17
0.0
 27
0.0
 37
0.0
 76
     0
330
B
331
0
345
0
346
0
  0
DICTIONARY
  5
1E
102
{ACAD_REACTORS
330
19
102
}
100
AcDbDictionary
280
     0
281
     1
  3
Layout1
350
21
  3
Model
350
20
  0
DICTIONARY
  5
22
102
{ACAD_REACTORS
330
19
102
}
100
AcDbDictionary
280
     0
281
     1
  0
GROUP
  5
19F
102
{ACAD_REACTORS
330
1A
102
}
100
AcDbGroup
300
K÷rper
 70
     0
 71
     1
340
2B
340
4B
340
4D
340
4E
340
4F
340
6B
340
6C
340
6D
340
6E
340
6F
340
70
340
71
340
8D
340
8E
340
8F
340
90
340
91
340
92
340
93
340
94
340
95
340
96
340
97
340
98
340
99
340
9A
340
9B
340
9C
340
9D
340
9E
340
9F
340
A0
340
A1
340
A2
340
A3
340
A4
340
A5
340
A6
340
A7
340
A8
340
A9
340
AA
340
AB
340
AC
340
AD
340
AE
340
AF
340
B0
340
B1
340
B2
340
B3
340
B4
340
B5
340
B6
340
B7
340
B8
340
B9
340
BA
340
BB
340
BC
340
BD
340
BE
340
BF
340
C0
340
C1
340
C2
340
C3
340
C4
340
C5
340
C6
340
C7
340
C8
340
C9
340
CA
340
CB
340
CC
340
CD
340
CE
340
CF
340
D0
340
D1
340
D2
340
D3
340
D4
340
D5
340
D6
340
D7
340
D8
340
D9
340
DA
340
DB
340
DC
340
DD
340
DE
340
DF
340
E0
340
E1
340
E2
340
E3
340
E4
340
16A
340
19D
  0
ENDSEC
  0
EOF
