  0
SECTION
  2
HEADER
  9
$ACADVER
  1
LOGOCAD 6.2  
  9
$LIMMIN
 10
-113.947094
 20
246.6645
  9
$LIMMAX
 10
726.052906
 20
840.6645
  9
$EXTMIN
 10
-113.947094
 20
246.6645
  9
$EXTMAX
 10
726.052906
 20
840.6645
  9
$TEXTSTYLE
  7
LOGOCAD
  9
$LTSCALE
 40
2.0
  9
$DIMSCALE
 40
2.0
  9
$DIMTXT
 40
3.5
  9
$DIMASZ
 40
3.5
  9
$DIMTAD
 70
     1
  9
$DIMSHO
 70
     1
  9
$LUPREC
 70
     2
  0
ENDSEC
  0
SECTION
  2
TABLES
  0
TABLE
  2
LTYPE
 70
     5
  0
LTYPE
  2
CONTINUOUS
 70
    64
  3
Solid line
 72
    65
 73
     0
 40
0.0
  0
LTYPE
  2
DASHED
 70
    64
  3
__ __ __ __ __
 72
    65
 73
     2
 40
4.0
 49
2.0
 49
-2.0
  0
LTYPE
  2
DASHDOT
 70
    64
  3
__ . __ . __ . __ . __
 72
    65
 73
     4
 40
4.0
 49
2.0
 49
-0.9
 49
0.2
 49
-0.9
  0
LTYPE
  2
CENTER
 70
    64
  3
__ . __ . __ . __ . __
 72
    65
 73
     4
 40
4.0
 49
2.0
 49
-0.9
 49
0.2
 49
-0.9
  0
LTYPE
  2
DIVIDE
 70
    64
  3
__ . . __ . . __ . . __
 72
    65
 73
     6
 40
5.3
 49
2.0
 49
-1.0
 49
0.15
 49
-1.0
 49
0.15
 49
-1.0
  0
ENDTAB
  0
TABLE
  2
LAYER
 70
     9
  0
LAYER
  2
LC-INFO-1-2-MM-A3-0
 70
     1
 62
    -1
  6
CONTINUOUS
  0
LAYER
  2
LC-001-002-----0
 70
     0
 62
     1
  6
CONTINUOUS
  0
LAYER
  2
LC-002-003-----0
 70
     0
 62
     2
  6
CONTINUOUS
  0
LAYER
  2
LC-003-006-MLN-0
 70
     0
 62
     2
  6
CONTINUOUS
  0
LAYER
  2
LC-004-007-KH--0
 70
     0
 62
     7
  6
CONTINUOUS
  0
LAYER
  2
LC-005-002-RND-0
 70
     0
 62
     1
  6
CONTINUOUS
  0
LAYER
  2
LC-006-005-----0
 70
     0
 62
     2
  6
CONTINUOUS
  0
LAYER
  2
LC-007-003-MTH-0
 70
     0
 62
     2
  6
CONTINUOUS
  0
LAYER
  2
LC-008-003-MTG-0
 70
     0
 62
     2
  6
CONTINUOUS
  0
ENDTAB
  0
TABLE
  2
STYLE
 70
     2
  0
STYLE
  2
STANDARD
 70
    64
 40
0.0
 41
1.0
 50
0.0
 71
     0
 42
3.5
  3
TXT
  4

  0
STYLE
  2
LOGOCAD
 70
    64
 40
0.0
 41
1.0
 50
0.0
 71
     0
 42
3.5
  3
MONOTXT
  4

  0
ENDTAB
  0
TABLE
  2
DIMSTYLE
 70
     1
  0
DIMSTYLE
 70
     0
  2
LOGOCAD
  3

  4

  5

  6

  7

 40
2.0
 41
3.5
 42
0.0
 43
7.5
 44
1.8
 45
0.0
 46
0.0
 47
0.0
 48
0.0
140
3.5
141
0.0
142
0.0
143
25.4
144
1.0
145
0.0
146
0.71
147
1.5
 71
     0
 72
     0
 73
     0
 74
     0
 75
     0
 76
     0
 77
     1
 78
     8
170
     0
171
     2
172
     1
173
     0
174
     0
175
     0
176
     0
177
     0
178
     3
  0
ENDTAB
  0
TABLE
  2
VIEW
 70
     0
  0
ENDTAB
  0
ENDSEC
  0
SECTION
  2
BLOCKS
  0
BLOCK
  8
0
  2
*D1
 70
     1
 10
-113.947094
 20
246.6645
 30
0.0
  0
LINE
  8
0
 10
376.858664
 20
564.959745
 11
442.8
 21
564.959745
  0
LINE
  8
0
 10
332.6631
 20
607.020531
 11
442.8
 21
607.020531
  0
LINE
  8
0
 10
434.349471
 20
547.113738
 11
432.0
 21
564.959745
  0
LINE
  8
0
 10
432.0
 20
564.959745
 11
429.650529
 21
547.113738
  0
LINE
  8
0
 10
429.650529
 20
547.113738
 11
434.349471
 21
547.113738
  0
LINE
  8
0
 10
433.738609
 20
547.0737
 11
432.0
 21
560.279745
  0
LINE
  8
0
 10
432.0
 20
560.279745
 11
430.261391
 21
547.0737
  0
LINE
  8
0
 10
433.127746
 20
547.033662
 11
432.0
 21
555.599745
  0
LINE
  8
0
 10
432.0
 20
555.599745
 11
430.872254
 21
547.033662
  0
LINE
  8
0
 10
432.516884
 20
546.993624
 11
432.0
 21
550.919745
  0
LINE
  8
0
 10
432.0
 20
550.919745
 11
431.483116
 21
546.993624
  0
LINE
  8
0
 10
429.650529
 20
624.866539
 11
432.0
 21
607.020531
  0
LINE
  8
0
 10
432.0
 20
607.020531
 11
434.349471
 21
624.866539
  0
LINE
  8
0
 10
434.349471
 20
624.866539
 11
429.650529
 21
624.866539
  0
LINE
  8
0
 10
430.261391
 20
624.906577
 11
432.0
 21
611.700531
  0
LINE
  8
0
 10
432.0
 20
611.700531
 11
433.738609
 21
624.906577
  0
LINE
  8
0
 10
430.872254
 20
624.946615
 11
432.0
 21
616.380531
  0
LINE
  8
0
 10
432.0
 20
616.380531
 11
433.127746
 21
624.946615
  0
LINE
  8
0
 10
431.483116
 20
624.986653
 11
432.0
 21
621.060531
  0
LINE
  8
0
 10
432.0
 20
621.060531
 11
432.516884
 21
624.986653
  0
LINE
  8
0
 10
432.0
 20
539.759745
 11
432.0
 21
667.140531
  0
TEXT
  8
0
 62
     6
  7
LOGOCAD
 10
426.968001
 20
634.295777
 40
18.0
 50
90.0
 51
15.0
  1
42
 41
0.9
  0
ENDBLK
  0
BLOCK
  8
0
  2
*D2
 70
     1
 10
-113.947094
 20
246.6645
 30
0.0
  0
LINE
  8
0
 10
224.209009
 20
546.649702
 11
87.2
 21
546.649702
  0
LINE
  8
0
 10
121.233018
 20
606.96586
 11
87.2
 21
606.96586
  0
LINE
  8
0
 10
98.0
 20
546.649702
 11
98.0
 21
606.96586
  0
LINE
  8
0
 10
95.650529
 20
564.495709
 11
98.0
 21
546.649702
  0
LINE
  8
0
 10
98.0
 20
546.649702
 11
100.349471
 21
564.495709
  0
LINE
  8
0
 10
100.349471
 20
564.495709
 11
95.650529
 21
564.495709
  0
LINE
  8
0
 10
96.261391
 20
564.535747
 11
98.0
 21
551.329702
  0
LINE
  8
0
 10
98.0
 20
551.329702
 11
99.738609
 21
564.535747
  0
LINE
  8
0
 10
96.872254
 20
564.575785
 11
98.0
 21
556.009702
  0
LINE
  8
0
 10
98.0
 20
556.009702
 11
99.127746
 21
564.575785
  0
LINE
  8
0
 10
97.483116
 20
564.615823
 11
98.0
 21
560.689702
  0
LINE
  8
0
 10
98.0
 20
560.689702
 11
98.516884
 21
564.615823
  0
LINE
  8
0
 10
100.349471
 20
589.119853
 11
98.0
 21
606.96586
  0
LINE
  8
0
 10
98.0
 20
606.96586
 11
95.650529
 21
589.119853
  0
LINE
  8
0
 10
95.650529
 20
589.119853
 11
100.349471
 21
589.119853
  0
LINE
  8
0
 10
99.738609
 20
589.079815
 11
98.0
 21
602.28586
  0
LINE
  8
0
 10
98.0
 20
602.28586
 11
96.261391
 21
589.079815
  0
LINE
  8
0
 10
99.127746
 20
589.039777
 11
98.0
 21
597.60586
  0
LINE
  8
0
 10
98.0
 20
597.60586
 11
96.872254
 21
589.039777
  0
LINE
  8
0
 10
98.516884
 20
588.999739
 11
98.0
 21
592.92586
  0
LINE
  8
0
 10
98.0
 20
592.92586
 11
97.483116
 21
588.999739
  0
TEXT
  8
0
 62
     6
 72
     1
  7
LOGOCAD
 10
87.568001
 20
565.023027
 11
87.568001
 21
579.603027
 40
18.0
 50
90.0
 51
15.0
  1
60
 41
0.9
  0
ENDBLK
  0
BLOCK
  8
0
  2
*D3
 70
     1
 10
-113.947094
 20
246.6645
 30
0.0
  0
LINE
  8
0
 10
111.858669
 20
608.803617
 11
111.858669
 21
658.8
  0
LINE
  8
0
 10
341.858669
 20
608.803617
 11
341.858669
 21
658.8
  0
LINE
  8
0
 10
111.858669
 20
648.0
 11
341.858669
 21
648.0
  0
LINE
  8
0
 10
129.704676
 20
650.349471
 11
111.858669
 21
648.0
  0
LINE
  8
0
 10
111.858669
 20
648.0
 11
129.704676
 21
645.650529
  0
LINE
  8
0
 10
129.704676
 20
645.650529
 11
129.704676
 21
650.349471
  0
LINE
  8
0
 10
129.744714
 20
649.738609
 11
116.538669
 21
648.0
  0
LINE
  8
0
 10
116.538669
 20
648.0
 11
129.744714
 21
646.261391
  0
LINE
  8
0
 10
129.784752
 20
649.127746
 11
121.218669
 21
648.0
  0
LINE
  8
0
 10
121.218669
 20
648.0
 11
129.784752
 21
646.872254
  0
LINE
  8
0
 10
129.824791
 20
648.516884
 11
125.898669
 21
648.0
  0
LINE
  8
0
 10
125.898669
 20
648.0
 11
129.824791
 21
647.483116
  0
LINE
  8
0
 10
324.012661
 20
645.650529
 11
341.858669
 21
648.0
  0
LINE
  8
0
 10
341.858669
 20
648.0
 11
324.012661
 21
650.349471
  0
LINE
  8
0
 10
324.012661
 20
650.349471
 11
324.012661
 21
645.650529
  0
LINE
  8
0
 10
323.972623
 20
646.261391
 11
337.178669
 21
648.0
  0
LINE
  8
0
 10
337.178669
 20
648.0
 11
323.972623
 21
649.738609
  0
LINE
  8
0
 10
323.932585
 20
646.872254
 11
332.498669
 21
648.0
  0
LINE
  8
0
 10
332.498669
 20
648.0
 11
323.932585
 21
649.127746
  0
LINE
  8
0
 10
323.892547
 20
647.483116
 11
327.818669
 21
648.0
  0
LINE
  8
0
 10
327.818669
 20
648.0
 11
323.892547
 21
648.516884
  0
TEXT
  8
0
 62
     6
 72
     1
  7
LOGOCAD
 10
198.873915
 20
658.431999
 11
229.653915
 21
658.431999
 40
18.0
 51
15.0
  1
%%c230
 41
0.9
  0
ENDBLK
  0
BLOCK
  8
0
  2
*D4
 70
     1
 10
-113.947094
 20
246.6645
 30
0.0
  0
LINE
  8
0
 10
372.249722
 20
540.137162
 11
408.215458
 21
538.566864
  0
LINE
  8
0
 10
374.430691
 20
590.08957
 11
410.396427
 21
588.519272
  0
LINE
  8
0
 10
398.99454
 20
521.106449
 11
397.425737
 21
539.037953
  0
LINE
  8
0
 10
397.425737
 20
539.037953
 11
394.30007
 21
521.311414
  0
LINE
  8
0
 10
394.30007
 20
521.311414
 11
398.99454
 21
521.106449
  0
LINE
  8
0
 10
398.382513
 20
521.093094
 11
397.221598
 21
534.362408
  0
LINE
  8
0
 10
397.221598
 20
534.362408
 11
394.908604
 21
521.244768
  0
LINE
  8
0
 10
397.770485
 20
521.07974
 11
397.017459
 21
529.686862
  0
LINE
  8
0
 10
397.017459
 20
529.686862
 11
395.517139
 21
521.178123
  0
LINE
  8
0
 10
397.158457
 20
521.066385
 11
396.813321
 21
525.011316
  0
LINE
  8
0
 10
396.813321
 20
525.011316
 11
396.125674
 21
521.111478
  0
LINE
  8
0
 10
398.037903
 20
606.921866
 11
399.606706
 21
588.990361
  0
LINE
  8
0
 10
399.606706
 20
588.990361
 11
402.732373
 21
606.716901
  0
LINE
  8
0
 10
402.732373
 20
606.716901
 11
398.037903
 21
606.921866
  0
LINE
  8
0
 10
398.64993
 20
606.93522
 11
399.810845
 21
593.665907
  0
LINE
  8
0
 10
399.810845
 20
593.665907
 11
402.123839
 21
606.783546
  0
LINE
  8
0
 10
399.261958
 20
606.948575
 11
400.014984
 21
598.341453
  0
LINE
  8
0
 10
400.014984
 20
598.341453
 11
401.515304
 21
606.850192
  0
LINE
  8
0
 10
399.873986
 20
606.961929
 11
400.219122
 21
603.016998
  0
LINE
  8
0
 10
400.219122
 20
603.016998
 11
400.906769
 21
606.916837
  0
LINE
  8
0
 10
396.326528
 20
513.861938
 11
403.642372
 21
681.422303
  0
TEXT
  8
0
 62
     6
  7
LOGOCAD
 10
395.769226
 20
616.45914
 40
18.0
 50
87.5
 51
15.0
  1
DN50
 41
0.9
  0
ENDBLK
  0
BLOCK
  8
0
  2
BLOCK_00005
 70
     0
 10
-113.947094
 20
246.6645
 30
0.0
  0
ARC
  8
0
 10
278.876292
 20
590.253264
 40
1.594108
 50
90.633458
 51
118.5256
  0
ARC
  8
0
 10
279.465
 20
589.192156
 40
2.80756
 50
118.740025
 51
137.83172
  0
ARC
  8
0
 10
283.429949
 20
585.851512
 40
7.991053
 50
139.163342
 51
158.206617
  0
ARC
  8
0
 10
307.552712
 20
576.469247
 40
33.873877
 50
158.619552
 51
173.092933
  0
ARC
  8
0
 10
353.198328
 20
569.512226
 40
80.037415
 50
172.078344
 51
180.195939
  0
ARC
  8
0
 10
353.198314
 20
568.964772
 40
80.037401
 50
179.804036
 51
187.921632
  0
ARC
  8
0
 10
307.552688
 20
562.007769
 40
33.873855
 50
186.907042
 51
201.38043
  0
ARC
  8
0
 10
283.429933
 20
552.625516
 40
7.991044
 50
201.793364
 51
220.836654
  0
ARC
  8
0
 10
279.464988
 20
549.284876
 40
2.807556
 50
222.168278
 51
241.259989
  0
ARC
  8
0
 10
278.876282
 20
548.22377
 40
1.594107
 50
241.474416
 51
269.36657
  0
ENDBLK
  0
BLOCK
  8
0
  2
*D6
 70
     1
 10
-113.947094
 20
246.6645
 30
0.0
  0
LINE
  8
0
 10
226.858712
 20
546.485067
 11
226.858712
 21
469.2
  0
LINE
  8
0
 10
376.858664
 20
564.959745
 11
376.858664
 21
469.2
  0
LINE
  8
0
 10
226.858712
 20
480.0
 11
376.858664
 21
480.0
  0
LINE
  8
0
 10
244.704719
 20
482.349471
 11
226.858712
 21
480.0
  0
LINE
  8
0
 10
226.858712
 20
480.0
 11
244.704719
 21
477.650529
  0
LINE
  8
0
 10
244.704719
 20
477.650529
 11
244.704719
 21
482.349471
  0
LINE
  8
0
 10
244.744757
 20
481.738609
 11
231.538712
 21
480.0
  0
LINE
  8
0
 10
231.538712
 20
480.0
 11
244.744757
 21
478.261391
  0
LINE
  8
0
 10
244.784796
 20
481.127746
 11
236.218712
 21
480.0
  0
LINE
  8
0
 10
236.218712
 20
480.0
 11
244.784796
 21
478.872254
  0
LINE
  8
0
 10
244.824834
 20
480.516884
 11
240.898712
 21
480.0
  0
LINE
  8
0
 10
240.898712
 20
480.0
 11
244.824834
 21
479.483116
  0
LINE
  8
0
 10
359.012656
 20
477.650529
 11
376.858664
 21
480.0
  0
LINE
  8
0
 10
376.858664
 20
480.0
 11
359.012656
 21
482.349471
  0
LINE
  8
0
 10
359.012656
 20
482.349471
 11
359.012656
 21
477.650529
  0
LINE
  8
0
 10
358.972618
 20
478.261391
 11
372.178664
 21
480.0
  0
LINE
  8
0
 10
372.178664
 20
480.0
 11
358.972618
 21
481.738609
  0
LINE
  8
0
 10
358.93258
 20
478.872254
 11
367.498664
 21
480.0
  0
LINE
  8
0
 10
367.498664
 20
480.0
 11
358.93258
 21
481.127746
  0
LINE
  8
0
 10
358.892542
 20
479.483116
 11
362.818664
 21
480.0
  0
LINE
  8
0
 10
362.818664
 20
480.0
 11
358.892542
 21
480.516884
  0
TEXT
  8
0
 62
     6
 72
     1
  7
LOGOCAD
 10
277.678535
 20
490.431999
 11
300.358535
 21
490.431999
 40
18.0
 51
15.0
  1
150
 41
0.9
  0
ENDBLK
  0
ENDSEC
  0
SECTION
  2
ENTITIES
  0
DIMENSION
  8
LC-002-003-----0
  2
*D1
  3
LOGOCAD
 10
432.0
 20
614.3505
 30
0.0
 11
432.0
 21
614.3505
 31
0.0
 12
-113.947094
 22
246.6645
 32
0.0
 13
332.6631
 23
607.020531
 33
0.0
 14
376.858664
 24
564.959745
 34
0.0
 50
90.0
  1
42
  0
DIMENSION
  8
LC-002-003-----0
  2
*D2
  3
LOGOCAD
 10
98.0
 20
576.807781
 30
0.0
 11
98.0
 21
576.807781
 31
0.0
 12
-113.947094
 22
246.6645
 32
0.0
 13
121.233018
 23
606.96586
 33
0.0
 14
224.209009
 24
546.649702
 34
0.0
 50
90.0
  1
60
  0
DIMENSION
  8
LC-002-003-----0
  2
*D3
  3
LOGOCAD
 10
226.858669
 20
648.0
 30
0.0
 11
226.858669
 21
648.0
 31
0.0
 12
-113.947094
 22
246.6645
 32
0.0
 13
111.858669
 23
608.803617
 33
0.0
 14
341.858669
 24
608.803617
 34
0.0
  1
%%c<>
  0
DIMENSION
  8
LC-002-003-----0
  2
*D4
  3
LOGOCAD
 10
401.679377
 20
636.462335
 30
0.0
 11
401.679377
 21
636.462335
 31
0.0
 12
-113.947094
 22
246.6645
 32
0.0
 70
     1
 13
374.430691
 23
590.08957
 33
0.0
 14
372.249722
 24
540.137162
 34
0.0
  1
DN50
  0
INSERT
  8
LC-001-002-----0
  2
BLOCK_00005
 10
-113.947094
 20
246.6645
 30
0.0
  0
DIMENSION
  8
LC-002-003-----0
  2
*D6
  3
LOGOCAD
 10
297.56329
 20
480.0
 30
0.0
 11
297.56329
 21
480.0
 31
0.0
 12
-113.947094
 22
246.6645
 32
0.0
 13
376.858664
 23
564.959745
 33
0.0
 14
226.858712
 24
546.485067
 34
0.0
  0
LINE
  8
LC-001-002-----0
 10
166.858557
 20
605.846584
 11
286.858781
 21
605.846584
  0
ARC
  8
LC-005-002-RND-0
 10
339.858762
 20
608.803353
 40
2.0
 50
359.999867
 51
91.89823
  0
LINE
  8
LC-001-002-----0
 10
332.143599
 20
610.549
 11
121.573739
 21
610.549
  0
LINE
  8
LC-001-002-----0
 10
289.858781
 20
593.782059
 11
289.858781
 21
598.347275
  0
LINE
  8
LC-001-002-----0
 10
299.569994
 20
604.347275
 11
299.858669
 21
604.847275
  0
ARC
  8
LC-005-002-RND-0
 10
113.858669
 20
608.803617
 40
2.0
 50
88.101636
 51
180.0
  0
LINE
  8
LC-006-005-----0
 10
373.547721
 20
540.424921
 11
375.615395
 21
542.492595
  0
LINE
  8
LC-001-002-----0
 10
341.858758
 20
607.322205
 11
341.858762
 21
608.803349
  0
LINE
  8
LC-006-005-----0
 10
370.507597
 20
540.213225
 11
372.905293
 21
542.610921
  0
LINE
  8
LC-001-002-----0
 10
111.858669
 20
607.322473
 11
111.858669
 21
608.803617
  0
LINE
  8
LC-001-002-----0
 10
297.569994
 20
604.347275
 11
297.858669
 21
604.847275
  0
LINE
  8
LC-001-002-----0
 10
295.569994
 20
604.347275
 11
295.858669
 21
604.847275
  0
LINE
  8
LC-001-002-----0
 10
293.569994
 20
604.347275
 11
293.858669
 21
604.847275
  0
LINE
  8
LC-001-002-----0
 10
299.858669
 20
604.847275
 11
300.147344
 21
604.347275
  0
LINE
  8
LC-001-002-----0
 10
297.858669
 20
604.847275
 11
298.147344
 21
604.347275
  0
LINE
  8
LC-001-002-----0
 10
295.858669
 20
604.847275
 11
296.147344
 21
604.347275
  0
LINE
  8
LC-006-005-----0
 10
367.797496
 20
540.33155
 11
370.195192
 21
542.729246
  0
LINE
  8
LC-006-005-----0
 10
365.087394
 20
540.449876
 11
367.48509
 21
542.847572
  0
LINE
  8
LC-001-002-----0
 10
300.147344
 20
604.347275
 11
301.569994
 21
604.347275
  0
LINE
  8
LC-006-005-----0
 10
362.377292
 20
540.568201
 11
364.774988
 21
542.965897
  0
LINE
  8
LC-006-005-----0
 10
359.667191
 20
540.686527
 11
362.064887
 21
543.084223
  0
LINE
  8
LC-006-005-----0
 10
356.957089
 20
540.804852
 11
359.354785
 21
543.202548
  0
LINE
  8
LC-006-005-----0
 10
354.246988
 20
540.923178
 11
356.644684
 21
543.320874
  0
LINE
  8
LC-006-005-----0
 10
351.536886
 20
541.041503
 11
353.934582
 21
543.439199
  0
LINE
  8
LC-006-005-----0
 10
348.826784
 20
541.159829
 11
351.224481
 21
543.557525
  0
LINE
  8
LC-006-005-----0
 10
346.116683
 20
541.278155
 11
348.514379
 21
543.675851
  0
LINE
  8
LC-006-005-----0
 10
343.406581
 20
541.39648
 11
345.804277
 21
543.794176
  0
LINE
  8
LC-006-005-----0
 10
340.69648
 20
541.514806
 11
343.094176
 21
543.912502
  0
LINE
  8
LC-006-005-----0
 10
337.986378
 20
541.633131
 11
340.384074
 21
544.030827
  0
LINE
  8
LC-006-005-----0
 10
335.276277
 20
541.751457
 11
337.673973
 21
544.149153
  0
LINE
  8
LC-006-005-----0
 10
332.566175
 20
541.869782
 11
334.963871
 21
544.267478
  0
LINE
  8
LC-006-005-----0
 10
329.856073
 20
541.988108
 11
332.253769
 21
544.385804
  0
LINE
  8
LC-006-005-----0
 10
375.414329
 20
587.546363
 11
377.112093
 21
589.244127
  0
LINE
  8
LC-006-005-----0
 10
327.145972
 20
542.106433
 11
329.543668
 21
544.504129
  0
LINE
  8
LC-004-007-KH--0
  6
DASHDOT
 10
226.858712
 20
605.846584
 11
226.858712
 21
536.143132
  0
LINE
  8
LC-006-005-----0
 10
372.706517
 20
587.666978
 11
374.961686
 21
589.922148
  0
LINE
  8
LC-006-005-----0
 10
324.43587
 20
542.224759
 11
326.833566
 21
544.622455
  0
LINE
  8
LC-006-005-----0
 10
369.998704
 20
587.787593
 11
372.389789
 21
590.178678
  0
LINE
  8
LC-001-002-----0
 10
301.858669
 20
604.847275
 11
299.858669
 21
604.847275
  0
LINE
  8
LC-006-005-----0
 10
321.725769
 20
542.343084
 11
324.123465
 21
544.74078
  0
LINE
  8
LC-006-005-----0
 10
367.290892
 20
587.908208
 11
369.679688
 21
590.297003
  0
LINE
  8
LC-006-005-----0
 10
319.015667
 20
542.46141
 11
321.413363
 21
544.859106
  0
LINE
  8
LC-006-005-----0
 10
364.58308
 20
588.028823
 11
366.969586
 21
590.415329
  0
LINE
  8
LC-006-005-----0
 10
316.305565
 20
542.579735
 11
318.703261
 21
544.977431
  0
LINE
  8
LC-006-005-----0
 10
361.875268
 20
588.149438
 11
364.259484
 21
590.533654
  0
LINE
  8
LC-006-005-----0
 10
313.595464
 20
542.698061
 11
315.99316
 21
545.095757
  0
LINE
  8
LC-006-005-----0
 10
359.167456
 20
588.270053
 11
361.549383
 21
590.65198
  0
LINE
  8
LC-006-005-----0
 10
310.885362
 20
542.816386
 11
313.283058
 21
545.214083
  0
LINE
  8
LC-006-005-----0
 10
356.459644
 20
588.390668
 11
358.839281
 21
590.770306
  0
LINE
  8
LC-006-005-----0
 10
308.175261
 20
542.934712
 11
310.572957
 21
545.332408
  0
LINE
  8
LC-006-005-----0
 10
353.751832
 20
588.511283
 11
356.12918
 21
590.888631
  0
LINE
  8
LC-006-005-----0
 10
305.465159
 20
543.053038
 11
307.862855
 21
545.450734
  0
LINE
  8
LC-006-005-----0
 10
351.04402
 20
588.631898
 11
353.419078
 21
591.006957
  0
LINE
  8
LC-006-005-----0
 10
302.755057
 20
543.171363
 11
305.152754
 21
545.569059
  0
LINE
  8
LC-006-005-----0
 10
348.336207
 20
588.752513
 11
350.708977
 21
591.125282
  0
LINE
  8
LC-006-005-----0
 10
300.044956
 20
543.289689
 11
302.442652
 21
545.687385
  0
LINE
  8
LC-006-005-----0
 10
345.628395
 20
588.873128
 11
347.998875
 21
591.243608
  0
LINE
  8
LC-006-005-----0
 10
297.334854
 20
543.408014
 11
299.73255
 21
545.80571
  0
LINE
  8
LC-006-005-----0
 10
342.920583
 20
588.993743
 11
345.288774
 21
591.361934
  0
LINE
  8
LC-006-005-----0
 10
294.624753
 20
543.52634
 11
297.022449
 21
545.924036
  0
LINE
  8
LC-006-005-----0
 10
340.212771
 20
589.114358
 11
342.578672
 21
591.480259
  0
LINE
  8
LC-006-005-----0
 10
291.914651
 20
543.644665
 11
294.312347
 21
546.042361
  0
LINE
  8
LC-006-005-----0
 10
337.504959
 20
589.234973
 11
339.868571
 21
591.598585
  0
LINE
  8
LC-006-005-----0
 10
289.20455
 20
543.762991
 11
291.602246
 21
546.160687
  0
LINE
  8
LC-006-005-----0
 10
334.797147
 20
589.355588
 11
337.158469
 21
591.71691
  0
LINE
  8
LC-006-005-----0
 10
286.494448
 20
543.881316
 11
288.892144
 21
546.279012
  0
LINE
  8
LC-006-005-----0
 10
332.089335
 20
589.476203
 11
334.448368
 21
591.835236
  0
LINE
  8
LC-006-005-----0
 10
283.784346
 20
543.999642
 11
286.182042
 21
546.397338
  0
LINE
  8
LC-006-005-----0
 10
329.381523
 20
589.596818
 11
331.738266
 21
591.953562
  0
LINE
  8
LC-006-005-----0
 10
281.074245
 20
544.117967
 11
283.471941
 21
546.515663
  0
LINE
  8
LC-006-005-----0
 10
326.67371
 20
589.717433
 11
329.028165
 21
592.071887
  0
LINE
  8
LC-006-005-----0
 10
278.364143
 20
544.236293
 11
280.761839
 21
546.633989
  0
LINE
  8
LC-006-005-----0
 10
323.965898
 20
589.838048
 11
326.318063
 21
592.190213
  0
LINE
  8
LC-001-002-----0
 10
291.858669
 20
604.847275
 11
290.858669
 21
604.847275
  0
LINE
  8
LC-001-002-----0
 10
377.886452
 20
588.999973
 11
377.818311
 21
587.439282
  0
LINE
  8
LC-006-005-----0
 10
341.422768
 20
607.294918
 11
341.858759
 21
607.730909
  0
ARC
  8
LC-001-002-----0
 10
226.858698
 20
545.0213
 40
48.825975
 50
15.619219
 51
90.0
  0
ARC
  8
LC-001-002-----0
 10
226.858672
 20
571.507935
 40
24.99905
 50
223.326896
 51
267.500001
  0
ARC
  8
LC-001-002-----0
 10
226.858672
 20
571.507935
 40
22.49905
 50
223.326896
 51
267.500001
  0
LINE
  8
LC-006-005-----0
 10
275.654042
 20
544.354618
 11
278.051738
 21
546.752314
  0
LINE
  8
LC-006-005-----0
 10
321.258086
 20
589.958663
 11
323.607961
 21
592.308538
  0
LINE
  8
LC-006-005-----0
 10
338.486236
 20
607.186813
 11
341.38971
 21
610.090287
  0
LINE
  8
LC-006-005-----0
 10
272.94394
 20
544.472944
 11
275.341636
 21
546.87064
  0
LINE
  8
LC-006-005-----0
 10
318.550274
 20
590.079278
 11
320.89786
 21
592.426864
  0
LINE
  8
LC-006-005-----0
 10
335.549705
 20
607.078709
 11
339.245556
 21
610.77456
  0
LINE
  8
LC-006-005-----0
 10
270.233838
 20
544.591269
 11
272.631534
 21
546.988966
  0
LINE
  8
LC-006-005-----0
 10
315.842462
 20
590.199893
 11
318.187758
 21
592.545189
  0
LINE
  8
LC-001-002-----0
 10
210.491722
 20
556.069989
 11
174.858712
 21
593.847275
  0
LINE
  8
LC-001-002-----0
 10
208.673095
 20
554.354589
 11
174.252421
 21
590.846584
  0
LINE
  8
LC-006-005-----0
 10
332.613173
 20
606.970604
 11
336.324351
 21
610.681782
  0
LINE
  8
LC-006-005-----0
 10
267.523737
 20
544.709595
 11
269.921433
 21
547.107291
  0
LINE
  8
LC-006-005-----0
 10
313.13465
 20
590.320508
 11
315.477657
 21
592.663515
  0
LINE
  8
LC-006-005-----0
 10
328.588736
 20
605.774594
 11
333.403145
 21
610.589004
  0
LINE
  8
LC-006-005-----0
 10
264.813635
 20
544.827921
 11
267.211331
 21
547.225617
  0
LINE
  8
LC-001-002-----0
 10
375.855439
 20
542.482115
 11
225.877278
 21
549.0303
  0
LINE
  8
LC-006-005-----0
 10
310.426838
 20
590.441123
 11
312.767555
 21
592.781841
  0
LINE
  8
LC-006-005-----0
 10
324.514371
 20
604.528656
 11
329.826222
 21
609.840507
  0
LINE
  8
LC-001-002-----0
 10
375.855439
 20
542.482115
 11
375.787298
 21
540.921424
  0
LINE
  8
LC-006-005-----0
 10
262.103534
 20
544.946246
 11
264.50123
 21
547.343942
  0
LINE
  8
LC-006-005-----0
 10
307.719026
 20
590.561738
 11
310.057454
 21
592.900166
  0
LINE
  8
LC-006-005-----0
 10
320.440006
 20
603.282719
 11
325.752259
 21
608.594972
  0
LINE
  8
LC-001-002-----0
 10
309.859191
 20
604.347275
 11
302.858669
 21
604.347275
  0
LINE
  8
LC-001-002-----0
 10
290.858669
 20
605.847275
 11
290.858669
 21
604.347275
  0
LINE
  8
LC-001-002-----0
 10
302.858669
 20
604.347275
 11
302.858669
 21
600.847275
  0
LINE
  8
LC-001-002-----0
 10
290.858669
 20
604.347275
 11
291.569994
 21
604.347275
  0
LINE
  8
LC-001-002-----0
 10
302.859191
 20
600.847275
 11
309.859191
 21
600.847275
  0
LINE
  8
LC-001-002-----0
 10
309.859191
 20
600.847275
 11
309.859191
 21
604.347275
  0
LINE
  8
LC-001-002-----0
 10
289.858781
 20
598.347275
 11
309.859191
 21
598.347275
  0
LINE
  8
LC-001-002-----0
 10
309.859191
 20
598.347275
 11
312.307818
 21
600.795902
  0
LINE
  8
LC-006-005-----0
 10
259.393432
 20
545.064572
 11
261.791128
 21
547.462268
  0
LINE
  8
LC-006-005-----0
 10
305.011213
 20
590.682353
 11
307.347352
 21
593.018492
  0
LINE
  8
LC-001-002-----0
 10
290.858669
 20
605.847275
 11
286.858781
 21
605.847275
  0
LINE
  8
LC-001-002-----0
 10
291.569994
 20
604.347275
 11
291.858669
 21
604.847275
  0
LINE
  8
LC-001-002-----0
 10
291.858669
 20
604.847275
 11
292.147344
 21
604.347275
  0
LINE
  8
LC-001-002-----0
 10
153.858669
 20
604.847275
 11
155.858669
 21
604.847275
  0
LINE
  8
LC-001-002-----0
 10
301.858669
 20
604.847275
 11
302.147344
 21
604.347275
  0
LINE
  8
LC-001-002-----0
 10
301.569994
 20
604.347275
 11
301.858669
 21
604.847275
  0
LINE
  8
LC-001-002-----0
 10
302.147344
 20
604.347275
 11
302.858669
 21
604.347275
  0
LINE
  8
LC-001-002-----0
 10
155.569994
 20
604.347275
 11
154.147344
 21
604.347275
  0
LINE
  8
LC-001-002-----0
 10
293.858669
 20
604.847275
 11
294.147344
 21
604.347275
  0
LINE
  8
LC-001-002-----0
 10
299.858669
 20
604.847275
 11
297.858669
 21
604.847275
  0
LINE
  8
LC-001-002-----0
 10
297.858669
 20
604.847275
 11
295.858669
 21
604.847275
  0
LINE
  8
LC-006-005-----0
 10
316.365642
 20
602.036781
 11
321.678297
 21
607.349436
  0
LINE
  8
LC-001-002-----0
 10
309.859191
 20
604.347275
 11
311.858669
 21
604.347275
  0
LINE
  8
LC-001-002-----0
 10
286.858781
 20
605.847275
 11
286.858781
 21
593.847275
  0
LINE
  8
LC-001-002-----0
 10
295.858669
 20
604.847275
 11
293.858669
 21
604.847275
  0
LINE
  8
LC-006-005-----0
 10
256.68333
 20
545.182897
 11
259.081027
 21
547.580593
  0
LINE
  8
LC-006-005-----0
 10
302.303401
 20
590.802968
 11
304.637251
 21
593.136817
  0
LINE
  8
LC-003-006-MLN-0
  6
CENTER
 10
226.858724
 20
615.846584
 11
226.858631
 21
536.485067
  0
LINE
  8
LC-006-005-----0
 10
309.847708
 20
598.347275
 11
317.604334
 21
606.103901
  0
LINE
  8
LC-001-002-----0
 10
154.147344
 20
604.347275
 11
153.858669
 21
604.847275
  0
LINE
  8
LC-001-002-----0
 10
153.858669
 20
604.847275
 11
153.569994
 21
604.347275
  0
LINE
  8
LC-001-002-----0
 10
155.858669
 20
604.847275
 11
155.569994
 21
604.347275
  0
LINE
  8
LC-001-002-----0
 10
156.147344
 20
604.347275
 11
155.858669
 21
604.847275
  0
LINE
  8
LC-001-002-----0
 10
157.569994
 20
604.347275
 11
156.147344
 21
604.347275
  0
LINE
  8
LC-001-002-----0
 10
155.858669
 20
604.847275
 11
157.858669
 21
604.847275
  0
LINE
  8
LC-001-002-----0
 10
157.858669
 20
604.847275
 11
157.569994
 21
604.347275
  0
LINE
  8
LC-006-005-----0
 10
253.973229
 20
545.301223
 11
256.370925
 21
547.698919
  0
LINE
  8
LC-001-002-----0
 10
153.569994
 20
604.347275
 11
152.147344
 21
604.347275
  0
LINE
  8
LC-006-005-----0
 10
299.595589
 20
590.923583
 11
301.927149
 21
593.255143
  0
LINE
  8
LC-001-002-----0
 10
151.858669
 20
604.847275
 11
153.858669
 21
604.847275
  0
LINE
  8
LC-006-005-----0
 10
307.019281
 20
598.347275
 11
309.519281
 21
600.847275
  0
LINE
  8
LC-006-005-----0
 10
309.859191
 20
601.187185
 11
313.530372
 21
604.858366
  0
LINE
  8
LC-006-005-----0
 10
251.263127
 20
545.419548
 11
253.660823
 21
547.817244
  0
LINE
  8
LC-001-002-----0
 10
158.147344
 20
604.347275
 11
157.858669
 21
604.847275
  0
LINE
  8
LC-006-005-----0
 10
296.887777
 20
591.044198
 11
299.217048
 21
593.373469
  0
LINE
  8
LC-006-005-----0
 10
304.190854
 20
598.347275
 11
306.690854
 21
600.847275
  0
LINE
  8
LC-006-005-----0
 10
309.859191
 20
604.015612
 11
310.190854
 21
604.347275
  0
LINE
  8
LC-001-002-----0
 10
161.858669
 20
604.847275
 11
162.858669
 21
604.847275
  0
LINE
  8
LC-001-002-----0
 10
143.858147
 20
604.347275
 11
150.858669
 21
604.347275
  0
LINE
  8
LC-001-002-----0
 10
162.858669
 20
605.847275
 11
162.858669
 21
604.347275
  0
LINE
  8
LC-001-002-----0
 10
150.858669
 20
604.347275
 11
150.858669
 21
600.847275
  0
LINE
  8
LC-006-005-----0
 10
248.553026
 20
545.537874
 11
250.950722
 21
547.93557
  0
LINE
  8
LC-006-005-----0
 10
294.179965
 20
591.164813
 11
296.506946
 21
593.491794
  0
LINE
  8
LC-006-005-----0
 10
301.362427
 20
598.347275
 11
303.862427
 21
600.847275
  0
LINE
  8
LC-006-005-----0
 10
245.842924
 20
545.656199
 11
248.24062
 21
548.053895
  0
LINE
  8
LC-001-002-----0
 10
162.858669
 20
604.347275
 11
162.147344
 21
604.347275
  0
LINE
  8
LC-006-005-----0
 10
291.472153
 20
591.285428
 11
293.796845
 21
593.61012
  0
LINE
  8
LC-006-005-----0
 10
298.534
 20
598.347275
 11
302.858669
 21
602.671944
  0
LINE
  8
LC-006-005-----0
 10
243.132823
 20
545.774525
 11
245.530519
 21
548.172221
  0
LINE
  8
LC-006-005-----0
 10
288.764341
 20
591.406043
 11
291.086743
 21
593.728445
  0
LINE
  8
LC-001-002-----0
 10
157.858669
 20
604.847275
 11
159.858669
 21
604.847275
  0
LINE
  8
LC-001-002-----0
 10
278.858669
 20
593.847275
 11
286.858781
 21
593.847275
  0
LINE
  8
LC-001-002-----0
 10
278.858669
 20
593.847275
 11
286.858781
 21
593.847275
  0
LINE
  8
LC-001-002-----0
 10
278.858669
 20
591.847275
 11
278.858669
 21
593.847275
  0
LINE
  8
LC-001-002-----0
 10
150.858147
 20
600.847275
 11
143.858147
 21
600.847275
  0
LINE
  8
LC-001-002-----0
 10
143.858147
 20
600.847275
 11
143.858147
 21
604.347275
  0
LINE
  8
LC-001-002-----0
 10
163.658557
 20
598.347275
 11
143.858147
 21
598.347275
  0
LINE
  8
LC-006-005-----0
 10
295.705572
 20
598.347275
 11
301.985644
 21
604.627347
  0
LINE
  8
LC-006-005-----0
 10
240.422721
 20
545.89285
 11
242.820417
 21
548.290546
  0
LINE
  8
LC-006-005-----0
 10
286.056529
 20
591.526658
 11
289.858781
 21
595.328911
  0
LINE
  8
LC-006-005-----0
 10
292.877145
 20
598.347275
 11
298.877145
 21
604.347275
  0
LINE
  8
LC-006-005-----0
 10
237.712619
 20
546.011176
 11
240.110315
 21
548.408872
  0
LINE
  8
LC-006-005-----0
 10
283.348716
 20
591.647273
 11
285.548718
 21
593.847275
  0
LINE
  8
LC-006-005-----0
 10
286.858781
 20
595.157338
 11
289.858781
 21
598.157338
  0
LINE
  8
LC-006-005-----0
 10
290.048718
 20
598.347275
 11
296.111244
 21
604.409801
  0
LINE
  8
LC-006-005-----0
 10
235.002518
 20
546.129501
 11
237.400214
 21
548.527198
  0
LINE
  8
LC-006-005-----0
 10
280.640904
 20
591.767888
 11
282.720291
 21
593.847275
  0
LINE
  8
LC-006-005-----0
 10
286.858781
 20
597.985765
 11
293.220291
 21
604.347275
  0
LINE
  8
LC-006-005-----0
 10
232.292416
 20
546.247827
 11
234.690112
 21
548.645523
  0
LINE
  8
LC-006-005-----0
 10
278.858669
 20
592.81408
 11
279.891864
 21
593.847275
  0
LINE
  8
LC-006-005-----0
 10
286.858781
 20
600.814192
 11
290.858669
 21
604.81408
  0
LINE
  8
LC-006-005-----0
 10
229.582315
 20
546.366153
 11
231.980011
 21
548.763849
  0
LINE
  8
LC-006-005-----0
 10
286.858781
 20
603.642619
 11
289.063437
 21
605.847275
  0
LINE
  8
LC-006-005-----0
 10
226.872213
 20
546.484478
 11
229.269909
 21
548.882174
  0
LINE
  8
LC-006-005-----0
 10
224.209009
 20
546.649702
 11
226.559807
 21
549.0005
  0
LINE
  8
LC-006-005-----0
 10
221.764335
 20
547.033454
 11
223.931053
 21
549.200172
  0
LINE
  8
LC-006-005-----0
 10
219.514466
 20
547.612012
 11
221.547265
 21
549.644811
  0
LINE
  8
LC-001-002-----0
 10
143.858147
 20
598.347275
 11
141.40952
 21
600.795902
  0
LINE
  8
LC-006-005-----0
 10
217.429397
 20
548.35537
 11
219.366869
 21
550.292843
  0
LINE
  8
LC-006-005-----0
 10
215.489393
 20
549.243794
 11
217.358558
 21
551.112959
  0
LINE
  8
LC-006-005-----0
 10
213.681155
 20
550.263983
 11
215.502388
 21
552.085215
  0
LINE
  8
LC-006-005-----0
 10
211.995769
 20
551.407024
 11
213.785499
 21
553.196754
  0
LINE
  8
LC-006-005-----0
 10
210.427569
 20
552.667252
 11
212.199916
 21
554.439598
  0
LINE
  8
LC-006-005-----0
 10
208.973492
 20
554.041601
 11
210.741397
 21
555.809506
  0
LINE
  8
LC-006-005-----0
 10
207.597924
 20
555.49446
 11
209.366445
 21
557.262981
  0
LINE
  8
LC-006-005-----0
 10
206.225019
 20
556.949982
 11
207.99354
 21
558.718503
  0
LINE
  8
LC-006-005-----0
 10
204.852114
 20
558.405504
 11
206.620635
 21
560.174025
  0
LINE
  8
LC-006-005-----0
 10
203.479209
 20
559.861026
 11
205.24773
 21
561.629547
  0
LINE
  8
LC-006-005-----0
 10
202.106304
 20
561.316548
 11
203.874824
 21
563.085069
  0
LINE
  8
LC-006-005-----0
 10
200.733398
 20
562.77207
 11
202.501919
 21
564.540591
  0
LINE
  8
LC-006-005-----0
 10
199.360493
 20
564.227592
 11
201.129014
 21
565.996113
  0
LINE
  8
LC-006-005-----0
 10
197.987588
 20
565.683114
 11
199.756109
 21
567.451635
  0
LINE
  8
LC-006-005-----0
 10
196.614683
 20
567.138636
 11
198.383204
 21
568.907157
  0
LINE
  8
LC-006-005-----0
 10
195.241778
 20
568.594158
 11
197.010299
 21
570.362679
  0
LINE
  8
LC-006-005-----0
 10
193.868873
 20
570.04968
 11
195.637394
 21
571.818201
  0
LINE
  8
LC-006-005-----0
 10
192.495968
 20
571.505202
 11
194.264488
 21
573.273723
  0
LINE
  8
LC-006-005-----0
 10
191.123062
 20
572.960724
 11
192.891583
 21
574.729245
  0
LINE
  8
LC-006-005-----0
 10
189.750157
 20
574.416246
 11
191.518678
 21
576.184767
  0
LINE
  8
LC-006-005-----0
 10
188.377252
 20
575.871768
 11
190.145773
 21
577.640289
  0
LINE
  8
LC-006-005-----0
 10
187.004347
 20
577.32729
 11
188.772868
 21
579.095811
  0
LINE
  8
LC-006-005-----0
 10
185.631442
 20
578.782812
 11
187.399963
 21
580.551333
  0
LINE
  8
LC-006-005-----0
 10
184.258537
 20
580.238334
 11
186.027058
 21
582.006855
  0
LINE
  8
LC-006-005-----0
 10
182.885632
 20
581.693856
 11
184.654153
 21
583.462377
  0
LINE
  8
LC-006-005-----0
 10
181.512727
 20
583.149378
 11
183.281247
 21
584.917899
  0
LINE
  8
LC-006-005-----0
 10
180.139821
 20
584.6049
 11
181.908342
 21
586.373421
  0
LINE
  8
LC-006-005-----0
 10
178.766916
 20
586.060422
 11
180.535437
 21
587.828943
  0
LINE
  8
LC-006-005-----0
 10
177.394011
 20
587.515944
 11
179.162532
 21
589.284465
  0
LINE
  8
LC-006-005-----0
 10
176.021106
 20
588.971466
 11
177.789627
 21
590.739987
  0
LINE
  8
LC-006-005-----0
 10
174.648201
 20
590.426988
 11
176.416722
 21
592.195509
  0
LINE
  8
LC-006-005-----0
 10
172.23937
 20
590.846584
 11
175.043817
 21
593.651031
  0
LINE
  8
LC-006-005-----0
 10
169.410943
 20
590.846584
 11
172.411633
 21
593.847275
  0
LINE
  8
LC-006-005-----0
 10
166.582516
 20
590.846584
 11
169.583206
 21
593.847275
  0
LINE
  8
LC-006-005-----0
 10
163.754089
 20
590.846584
 11
166.858557
 21
593.951053
  0
LINE
  8
LC-006-005-----0
 10
163.658557
 20
593.57948
 11
166.858557
 21
596.77948
  0
LINE
  8
LC-006-005-----0
 10
163.658557
 20
596.407907
 11
166.858557
 21
599.607907
  0
LINE
  8
LC-006-005-----0
 10
162.769498
 20
598.347275
 11
166.858557
 21
602.436334
  0
LINE
  8
LC-006-005-----0
 10
159.94107
 20
598.347275
 11
166.858557
 21
605.264761
  0
LINE
  8
LC-006-005-----0
 10
157.112643
 20
598.347275
 11
164.612643
 21
605.847275
  0
LINE
  8
LC-006-005-----0
 10
154.284216
 20
598.347275
 11
160.284216
 21
604.347275
  0
LINE
  8
LC-006-005-----0
 10
151.455789
 20
598.347275
 11
157.455789
 21
604.347275
  0
LINE
  8
LC-006-005-----0
 10
157.726
 20
604.617486
 11
157.894217
 21
604.785703
  0
LINE
  8
LC-006-005-----0
 10
148.627362
 20
598.347275
 11
154.627362
 21
604.347275
  0
LINE
  8
LC-006-005-----0
 10
145.798935
 20
598.347275
 11
148.298935
 21
600.847275
  0
LINE
  8
LC-006-005-----0
 10
150.858669
 20
603.407009
 11
152.019817
 21
604.568157
  0
LINE
  8
LC-006-005-----0
 10
143.414327
 20
598.791094
 11
145.470508
 21
600.847275
  0
LINE
  8
LC-006-005-----0
 10
142.000114
 20
600.205308
 11
143.858147
 21
602.063341
  0
LINE
  8
LC-006-005-----0
 10
140.14804
 20
601.181661
 11
143.313653
 21
604.347275
  0
LINE
  8
LC-006-005-----0
 10
137.98199
 20
601.844038
 11
140.806811
 21
604.66886
  0
LINE
  8
LC-006-005-----0
 10
135.815939
 20
602.506415
 11
138.640647
 21
605.331123
  0
LINE
  8
LC-006-005-----0
 10
133.649888
 20
603.168791
 11
136.474483
 21
605.993386
  0
LINE
  8
LC-006-005-----0
 10
131.483838
 20
603.831168
 11
134.308319
 21
606.655648
  0
LINE
  8
LC-006-005-----0
 10
129.317787
 20
604.493544
 11
132.142154
 21
607.317911
  0
LINE
  8
LC-006-005-----0
 10
127.151737
 20
605.155921
 11
129.97599
 21
607.980174
  0
LINE
  8
LC-006-005-----0
 10
124.985686
 20
605.818297
 11
127.809826
 21
608.642437
  0
LINE
  8
LC-006-005-----0
 10
122.819636
 20
606.480674
 11
125.643662
 21
609.3047
  0
LINE
  8
LC-006-005-----0
 10
120.50326
 20
606.992726
 11
123.477497
 21
609.966963
  0
LINE
  8
LC-006-005-----0
 10
117.775261
 20
607.093153
 11
121.241655
 21
610.559547
  0
LINE
  8
LC-006-005-----0
 10
115.047261
 20
607.193581
 11
118.500294
 21
610.646614
  0
LINE
  8
LC-006-005-----0
 10
112.319262
 20
607.294009
 11
115.758933
 21
610.73368
  0
LINE
  8
LC-001-002-----0
 10
165.858557
 20
605.847275
 11
166.858557
 21
605.847275
  0
LINE
  8
LC-001-002-----0
 10
162.147344
 20
604.347275
 11
161.858669
 21
604.847275
  0
LINE
  8
LC-001-002-----0
 10
161.858669
 20
604.847275
 11
161.569994
 21
604.347275
  0
LINE
  8
LC-001-002-----0
 10
159.569994
 20
604.347275
 11
158.147344
 21
604.347275
  0
LINE
  8
LC-001-002-----0
 10
151.858669
 20
604.847275
 11
151.569994
 21
604.347275
  0
LINE
  8
LC-001-002-----0
 10
152.147344
 20
604.347275
 11
151.858669
 21
604.847275
  0
LINE
  8
LC-001-002-----0
 10
151.569994
 20
604.347275
 11
150.858669
 21
604.347275
  0
LINE
  8
LC-001-002-----0
 10
159.858669
 20
604.847275
 11
159.569994
 21
604.347275
  0
LINE
  8
LC-001-002-----0
 10
160.147344
 20
604.347275
 11
159.858669
 21
604.847275
  0
LINE
  8
LC-001-002-----0
 10
159.858669
 20
604.847275
 11
161.858669
 21
604.847275
  0
LINE
  8
LC-001-002-----0
 10
161.569994
 20
604.347275
 11
160.147344
 21
604.347275
  0
LINE
  8
LC-001-002-----0
 10
162.858669
 20
605.847275
 11
163.858557
 21
605.847275
  0
LINE
  8
LC-001-002-----0
 10
143.858147
 20
604.347275
 11
141.858669
 21
604.347275
  0
LINE
  8
LC-001-002-----0
 10
166.858557
 20
605.847275
 11
166.858557
 21
593.847275
  0
LINE
  8
LC-001-002-----0
 10
165.858557
 20
605.847275
 11
163.858557
 21
605.847275
  0
LINE
  8
LC-001-002-----0
 10
293.858669
 20
604.847275
 11
291.858669
 21
604.847275
  0
LINE
  8
LC-001-002-----0
 10
298.147344
 20
604.347275
 11
299.569994
 21
604.347275
  0
LINE
  8
LC-001-002-----0
 10
296.147344
 20
604.347275
 11
297.569994
 21
604.347275
  0
LINE
  8
LC-001-002-----0
 10
294.147344
 20
604.347275
 11
295.569994
 21
604.347275
  0
LINE
  8
LC-001-002-----0
 10
292.147344
 20
604.347275
 11
293.569994
 21
604.347275
  0
LINE
  8
LC-001-002-----0
 10
281.820216
 20
605.846584
 11
281.820216
 21
608.846584
  0
LINE
  8
LC-001-002-----0
 10
281.820216
 20
608.846584
 11
278.272028
 21
608.846584
  0
LINE
  8
LC-001-002-----0
 10
278.272028
 20
608.846584
 11
278.272028
 21
605.846584
  0
LINE
  8
LC-001-002-----0
 10
281.100455
 20
605.846584
 11
281.100455
 21
608.846584
  0
LINE
  8
LC-001-002-----0
 10
175.44531
 20
605.846584
 11
175.44531
 21
608.846584
  0
LINE
  8
LC-001-002-----0
 10
175.44531
 20
608.846584
 11
171.897122
 21
608.846584
  0
LINE
  8
LC-001-002-----0
 10
171.897122
 20
608.846584
 11
171.897122
 21
605.846584
  0
LINE
  8
LC-001-002-----0
 10
172.616883
 20
608.846584
 11
172.616883
 21
605.846584
  0
LINE
  8
LC-001-002-----0
 10
163.658557
 20
598.347275
 11
163.658557
 21
590.846584
  0
LINE
  8
LC-001-002-----0
 10
374.430691
 20
590.08957
 11
289.858781
 21
593.782059
  0
LINE
  8
LC-001-002-----0
 10
121.573739
 20
610.549
 11
113.924586
 21
610.791939
  0
LINE
  8
LC-001-002-----0
 10
166.858643
 20
593.847275
 11
174.858712
 21
593.847275
  0
LINE
  8
LC-003-006-MLN-0
  6
CENTER
 10
386.849146
 20
564.523551
 11
216.889976
 21
571.944129
  0
LINE
  8
LC-001-002-----0
 10
166.858643
 20
593.847275
 11
166.858643
 21
597.847275
  0
LINE
  8
LC-001-002-----0
 10
141.858669
 20
604.347275
 11
121.573739
 21
610.549
  0
LINE
  8
LC-001-002-----0
 10
377.818311
 20
587.439282
 11
375.855439
 21
542.482115
  0
LINE
  8
LC-001-002-----0
 10
286.858781
 20
605.846584
 11
286.858781
 21
593.847275
  0
LINE
  8
LC-001-002-----0
 10
141.40952
 20
600.795902
 11
121.233018
 21
606.96586
  0
LINE
  8
LC-001-002-----0
 10
377.886452
 20
588.999973
 11
374.430691
 21
590.08957
  0
LINE
  8
LC-001-002-----0
 10
375.787298
 20
540.921424
 11
372.249722
 21
540.137162
  0
LINE
  8
LC-001-002-----0
 10
121.233018
 20
606.96586
 11
111.858669
 21
607.310965
  0
LINE
  8
LC-001-002-----0
 10
332.48432
 20
606.96586
 11
341.858758
 21
607.310968
  0
LINE
  8
LC-001-002-----0
 10
312.307818
 20
600.795902
 11
332.48432
 21
606.96586
  0
LINE
  8
LC-001-002-----0
 10
311.858669
 20
604.347275
 11
332.143599
 21
610.549
  0
LINE
  8
LC-001-002-----0
 10
332.143599
 20
610.549
 11
339.792841
 21
610.791942
  0
LINE
  8
LC-001-002-----0
 10
163.658557
 20
590.846584
 11
174.252421
 21
590.846584
  0
LINE
  8
LC-001-002-----0
 10
377.818311
 20
587.439282
 11
278.858669
 21
591.847275
  0
LINE
  8
LC-001-002-----0
 10
372.249722
 20
540.137162
 11
225.768229
 21
546.532679
  0
LINE
  8
LC-001-002-----0
 10
174.858712
 20
593.847275
 11
278.858669
 21
593.847275
  0
ENDSEC
  0
EOF
