  0
SECTION
  2
HEADER
  9
$ACADVER
  1
AC1015
  9
$ACADMAINTVER
 70
     6
  9
$DWGCODEPAGE
  3
ANSI_1252
  9
$INSBASE
 10
0.0
 20
0.0
 30
0.0
  9
$EXTMIN
 10
-210.0
 20
-148.5
 30
0.0
  9
$EXTMAX
 10
630.0
 20
445.5
 30
0.0
  9
$LIMMIN
 10
-210.0
 20
-148.5
  9
$LIMMAX
 10
630.0
 20
445.5
  9
$ORTHOMODE
 70
     0
  9
$REGENMODE
 70
     1
  9
$FILLMODE
 70
     1
  9
$QTEXTMODE
 70
     0
  9
$MIRRTEXT
 70
     1
  9
$LTSCALE
 40
2.0
  9
$ATTMODE
 70
     1
  9
$TEXTSIZE
 40
2.5
  9
$TRACEWID
 40
1.0
  9
$TEXTSTYLE
  7
Standard
  9
$CLAYER
  8
0
  9
$CELTYPE
  6
ByLayer
  9
$CECOLOR
 62
     7
  9
$CELTSCALE
 40
1.0
  9
$DISPSILH
 70
     0
  9
$DIMSCALE
 40
2.0
  9
$DIMASZ
 40
3.5
  9
$DIMEXO
 40
0.625
  9
$DIMDLI
 40
3.75
  9
$DIMRND
 40
0.0
  9
$DIMDLE
 40
0.0
  9
$DIMEXE
 40
1.25
  9
$DIMTP
 40
0.0
  9
$DIMTM
 40
0.0
  9
$DIMTXT
 40
3.5
  9
$DIMCEN
 40
2.5
  9
$DIMTSZ
 40
0.0
  9
$DIMTOL
 70
     0
  9
$DIMLIM
 70
     0
  9
$DIMTIH
 70
     0
  9
$DIMTOH
 70
     0
  9
$DIMSE1
 70
     0
  9
$DIMSE2
 70
     0
  9
$DIMTAD
 70
     1
  9
$DIMZIN
 70
     8
  9
$DIMBLK
  1

  9
$DIMASO
 70
     1
  9
$DIMSHO
 70
     1
  9
$DIMPOST
  1

  9
$DIMAPOST
  1

  9
$DIMALT
 70
     0
  9
$DIMALTD
 70
     3
  9
$DIMALTF
 40
0.03937
  9
$DIMLFAC
 40
1.0
  9
$DIMTOFL
 70
     1
  9
$DIMTVP
 40
0.0
  9
$DIMTIX
 70
     0
  9
$DIMSOXD
 70
     0
  9
$DIMSAH
 70
     0
  9
$DIMBLK1
  1

  9
$DIMBLK2
  1

  9
$DIMSTYLE
  2
ISO-25
  9
$DIMCLRD
 70
     0
  9
$DIMCLRE
 70
     0
  9
$DIMCLRT
 70
     0
  9
$DIMTFAC
 40
1.0
  9
$DIMGAP
 40
0.625
  9
$DIMJUST
 70
     0
  9
$DIMSD1
 70
     0
  9
$DIMSD2
 70
     0
  9
$DIMTOLJ
 70
     0
  9
$DIMTZIN
 70
     8
  9
$DIMALTZ
 70
     0
  9
$DIMALTTZ
 70
     0
  9
$DIMUPT
 70
     0
  9
$DIMDEC
 70
     2
  9
$DIMTDEC
 70
     2
  9
$DIMALTU
 70
     2
  9
$DIMALTTD
 70
     3
  9
$DIMTXSTY
  7
Standard
  9
$DIMAUNIT
 70
     0
  9
$DIMADEC
 70
     0
  9
$DIMALTRND
 40
0.0
  9
$DIMAZIN
 70
     0
  9
$DIMDSEP
 70
    44
  9
$DIMATFIT
 70
     3
  9
$DIMFRAC
 70
     0
  9
$DIMLDRBLK
  1

  9
$DIMLUNIT
 70
     2
  9
$DIMLWD
 70
    -2
  9
$DIMLWE
 70
    -2
  9
$DIMTMOVE
 70
     0
  9
$LUNITS
 70
     2
  9
$LUPREC
 70
     4
  9
$SKETCHINC
 40
1.0
  9
$FILLETRAD
 40
10.0
  9
$AUNITS
 70
     0
  9
$AUPREC
 70
     0
  9
$MENU
  1
.
  9
$ELEVATION
 40
0.0
  9
$PELEVATION
 40
0.0
  9
$THICKNESS
 40
0.0
  9
$LIMCHECK
 70
     0
  9
$CHAMFERA
 40
10.0
  9
$CHAMFERB
 40
10.0
  9
$CHAMFERC
 40
20.0
  9
$CHAMFERD
 40
0.0
  9
$SKPOLY
 70
     0
  9
$TDCREATE
 40
2455903.336639201
  9
$TDUCREATE
 40
2455903.294972535
  9
$TDUPDATE
 40
2455903.336639213
  9
$TDUUPDATE
 40
2455903.294972546
  9
$TDINDWG
 40
0.0000000116
  9
$TDUSRTIMER
 40
0.0000000116
  9
$USRTIMER
 70
     1
  9
$ANGBASE
 50
0.0
  9
$ANGDIR
 70
     0
  9
$PDMODE
 70
     0
  9
$PDSIZE
 40
0.0
  9
$PLINEWID
 40
0.0
  9
$SPLFRAME
 70
     0
  9
$SPLINETYPE
 70
     6
  9
$SPLINESEGS
 70
     8
  9
$HANDSEED
  5
DC
  9
$SURFTAB1
 70
     6
  9
$SURFTAB2
 70
     6
  9
$SURFTYPE
 70
     6
  9
$SURFU
 70
     6
  9
$SURFV
 70
     6
  9
$UCSBASE
  2

  9
$UCSNAME
  2

  9
$UCSORG
 10
0.0
 20
0.0
 30
0.0
  9
$UCSXDIR
 10
1.0
 20
0.0
 30
0.0
  9
$UCSYDIR
 10
0.0
 20
1.0
 30
0.0
  9
$UCSORTHOREF
  2

  9
$UCSORTHOVIEW
 70
     0
  9
$UCSORGTOP
 10
0.0
 20
0.0
 30
0.0
  9
$UCSORGBOTTOM
 10
0.0
 20
0.0
 30
0.0
  9
$UCSORGLEFT
 10
0.0
 20
0.0
 30
0.0
  9
$UCSORGRIGHT
 10
0.0
 20
0.0
 30
0.0
  9
$UCSORGFRONT
 10
0.0
 20
0.0
 30
0.0
  9
$UCSORGBACK
 10
0.0
 20
0.0
 30
0.0
  9
$PUCSBASE
  2

  9
$PUCSNAME
  2

  9
$PUCSORG
 10
0.0
 20
0.0
 30
0.0
  9
$PUCSXDIR
 10
1.0
 20
0.0
 30
0.0
  9
$PUCSYDIR
 10
0.0
 20
1.0
 30
0.0
  9
$PUCSORTHOREF
  2

  9
$PUCSORTHOVIEW
 70
     0
  9
$PUCSORGTOP
 10
0.0
 20
0.0
 30
0.0
  9
$PUCSORGBOTTOM
 10
0.0
 20
0.0
 30
0.0
  9
$PUCSORGLEFT
 10
0.0
 20
0.0
 30
0.0
  9
$PUCSORGRIGHT
 10
0.0
 20
0.0
 30
0.0
  9
$PUCSORGFRONT
 10
0.0
 20
0.0
 30
0.0
  9
$PUCSORGBACK
 10
0.0
 20
0.0
 30
0.0
  9
$USERI1
 70
     0
  9
$USERI2
 70
     0
  9
$USERI3
 70
     0
  9
$USERI4
 70
     0
  9
$USERI5
 70
     0
  9
$USERR1
 40
0.0
  9
$USERR2
 40
0.0
  9
$USERR3
 40
0.0
  9
$USERR4
 40
0.0
  9
$USERR5
 40
0.0
  9
$WORLDVIEW
 70
     1
  9
$SHADEDGE
 70
     3
  9
$SHADEDIF
 70
    70
  9
$TILEMODE
 70
     1
  9
$MAXACTVP
 70
    64
  9
$PINSBASE
 10
0.0
 20
0.0
 30
0.0
  9
$PLIMCHECK
 70
     0
  9
$PEXTMIN
 10
-210.0
 20
-148.5
 30
0.0
  9
$PEXTMAX
 10
630.0
 20
445.5
 30
0.0
  9
$PLIMMIN
 10
-210.0
 20
-148.5
  9
$PLIMMAX
 10
630.0
 20
445.5
  9
$UNITMODE
 70
     0
  9
$VISRETAIN
 70
     1
  9
$PLINEGEN
 70
     0
  9
$PSLTSCALE
 70
     1
  9
$TREEDEPTH
 70
  3020
  9
$CMLSTYLE
  2
Standard
  9
$CMLJUST
 70
     0
  9
$CMLSCALE
 40
20.0
  9
$PROXYGRAPHICS
 70
     1
  9
$MEASUREMENT
 70
     1
  9
$CELWEIGHT
370
    -1
  9
$ENDCAPS
280
     0
  9
$JOINSTYLE
280
     0
  9
$LWDISPLAY
290
     0
  9
$INSUNITS
 70
     4
  9
$HYPERLINKBASE
  1

  9
$STYLESHEET
  1

  9
$XEDIT
290
     1
  9
$CEPSNTYPE
380
     0
  9
$PSTYLEMODE
290
     1
  9
$FINGERPRINTGUID
  2
{FAEB1C30-E019-11D5-929B-00C0DF256EC4}
  9
$VERSIONGUID
  2
{FAEB1C32-E019-11D5-929B-00C0DF256EC4}
  9
$EXTNAMES
290
     1
  9
$PSVPSCALE
 40
0.0
  9
$OLESTARTUP
290
     0
  0
ENDSEC
  0
SECTION
  2
CLASSES
  0
CLASS
  1
ACDBDICTIONARYWDFLT
  2
AcDbDictionaryWithDefault
  3
ObjectDBX Classes
 90
        0
280
     0
281
     0
  0
CLASS
  1
ACDBPLACEHOLDER
  2
AcDbPlaceHolder
  3
ObjectDBX Classes
 90
        0
280
     0
281
     0
  0
CLASS
  1
LAYOUT
  2
AcDbLayout
  3
ObjectDBX Classes
 90
        0
280
     0
281
     0
  0
ENDSEC
  0
SECTION
  2
TABLES
  0
TABLE
  2
VPORT
  5
8
330
0
100
AcDbSymbolTable
 70
     2
  0
VPORT
  5
29
330
8
100
AcDbSymbolTableRecord
100
AcDbViewportTableRecord
  2
*ACTIVE
 70
     0
 10
0.0
 20
0.0
 11
1.0
 21
1.0
 12
210.0
 22
148.5
 13
0.0
 23
0.0
 14
1.0
 24
1.0
 15
0.0
 25
0.0
 16
0.0
 26
0.0
 36
1.0
 17
0.0
 27
0.0
 37
0.0
 40
594.0
 41
1.414141
 42
50.0
 43
0.0
 44
0.0
 50
0.0
 51
0.0
 71
    16
 72
   100
 73
     1
 74
     0
 75
     0
 76
     0
 77
     0
 78
     0
281
     0
 65
     0
110
0.0
120
0.0
130
0.0
111
1.0
121
0.0
131
0.0
112
0.0
122
1.0
132
0.0
 79
     0
146
0.0
  0
ENDTAB
  0
TABLE
  2
LTYPE
  5
5
330
0
100
AcDbSymbolTable
 70
     3
  0
LTYPE
  5
14
330
5
100
AcDbSymbolTableRecord
100
AcDbLinetypeTableRecord
  2
ByBlock
 70
     0
  3

 72
    65
 73
     0
 40
0.0
  0
LTYPE
  5
15
330
5
100
AcDbSymbolTableRecord
100
AcDbLinetypeTableRecord
  2
ByLayer
 70
     0
  3

 72
    65
 73
     0
 40
0.0
  0
LTYPE
  5
16
330
5
100
AcDbSymbolTableRecord
100
AcDbLinetypeTableRecord
  2
Continuous
 70
     0
  3
Solid line
 72
    65
 73
     0
 40
0.0
  0
LTYPE
  5
2A
330
5
100
AcDbSymbolTableRecord
100
AcDbLinetypeTableRecord
  2
DASHED
 70
     0
  3
__ __ __ __ __
 72
    65
 73
     2
 40
6.25
 49
5.0
 74
     4
 75
     0
340
0
 46
1.0
 50
0.0
 44
0.0
 45
0.0
 49
-1.25
 74
     4
 75
     0
340
0
 46
1.0
 50
0.0
 44
0.0
 45
0.0
  0
LTYPE
  5
50
330
5
100
AcDbSymbolTableRecord
100
AcDbLinetypeTableRecord
  2
DASHDOT
 70
     0
  3
__ . __ . __ . __ . __
 72
    65
 73
     4
 40
7.5
 49
5.0
 74
     4
 75
     0
340
0
 46
1.0
 50
0.0
 44
0.0
 45
0.0
 49
-1.25
 74
     4
 75
     0
340
0
 46
1.0
 50
0.0
 44
0.0
 45
0.0
 49
0.0
 74
     4
 75
     0
340
0
 46
1.0
 50
0.0
 44
0.0
 45
0.0
 49
-1.25
 74
     4
 75
     0
340
0
 46
1.0
 50
0.0
 44
0.0
 45
0.0
  0
ENDTAB
  0
TABLE
  2
LAYER
  5
2
330
0
100
AcDbSymbolTable
 70
    11
  0
LAYER
  5
10
330
2
100
AcDbSymbolTableRecord
100
AcDbLayerTableRecord
  2
0
 70
     0
 62
     7
  6
Continuous
370
    -3
390
F
  0
LAYER
  5
2B
330
2
100
AcDbSymbolTableRecord
100
AcDbLayerTableRecord
  2
LC-INFO-1-2-mm-A3-0
 70
     1
 62
     7
  6
ByBlock
370
    -3
390
F
  0
LAYER
  5
2C
330
2
100
AcDbSymbolTableRecord
100
AcDbLayerTableRecord
  2
LC-CUT-HIDDEN
 70
     0
 62
     7
  6
DASHED
370
    -3
390
F
  0
LAYER
  5
2D
330
2
100
AcDbSymbolTableRecord
100
AcDbLayerTableRecord
  2
LC-VIEWPORT
 70
     0
 62
     7
  6
ByBlock
370
    -3
390
F
  0
LAYER
  5
2E
330
2
100
AcDbSymbolTableRecord
100
AcDbLayerTableRecord
  2
LC-3D-HIDDEN
 70
     0
 62
     9
  6
DASHED
370
    -3
390
F
  0
LAYER
  5
30
330
2
100
AcDbSymbolTableRecord
100
AcDbLayerTableRecord
  2
LC-001-002-----0
 70
     0
 62
     1
  6
ByBlock
370
    -3
390
F
  0
LAYER
  5
3D
330
2
100
AcDbSymbolTableRecord
100
AcDbLayerTableRecord
  2
LC-002-002-RND-0
 70
     0
 62
     1
  6
ByBlock
370
    -3
390
F
  0
LAYER
  5
45
330
2
100
AcDbSymbolTableRecord
100
AcDbLayerTableRecord
  2
LC-003-005-----0
 70
     0
 62
     2
  6
ByBlock
370
    -3
390
F
  0
LAYER
  5
65
330
2
100
AcDbSymbolTableRecord
100
AcDbLayerTableRecord
  2
LC-004-003-----0
 70
     0
 62
     2
  6
ByBlock
370
    -3
390
F
  0
LAYER
  5
67
330
2
100
AcDbSymbolTableRecord
100
AcDbLayerTableRecord
  2
Defpoints
 70
     0
 62
     7
  6
Continuous
290
     0
370
    -3
390
F
  0
LAYER
  5
C7
330
2
100
AcDbSymbolTableRecord
100
AcDbLayerTableRecord
  2
LC-005-100-D00-0
 70
     0
 62
     1
  6
ByBlock
370
    -3
390
F
  0
ENDTAB
  0
TABLE
  2
STYLE
  5
3
330
0
100
AcDbSymbolTable
 70
     3
  0
STYLE
  5
11
330
3
100
AcDbSymbolTableRecord
100
AcDbTextStyleTableRecord
  2
Standard
 70
     0
 40
0.0
 41
1.0
 50
0.0
 71
     0
 42
2.5
  3
txt
  4

  0
STYLE
  5
2F
330
3
100
AcDbSymbolTableRecord
100
AcDbTextStyleTableRecord
  2
LCTX15-400-0-0-Arial
 70
     0
 40
0.0
 41
0.9
 50
0.0
 71
     0
 42
3.5
  3

  4

1001
ACAD
1000
Arial
1071
 16777218
  0
STYLE
  5
63
330
3
100
AcDbSymbolTableRecord
100
AcDbTextStyleTableRecord
  2
LCTX15-400-0-0pDIN-Schrift
 70
     0
 40
2.5
 41
0.8
 50
15.0
 71
     0
 42
3.5
  3
STANDARD
  4

  0
ENDTAB
  0
TABLE
  2
VIEW
  5
6
330
0
100
AcDbSymbolTable
 70
     0
  0
ENDTAB
  0
TABLE
  2
UCS
  5
7
330
0
100
AcDbSymbolTable
 70
     0
  0
ENDTAB
  0
TABLE
  2
APPID
  5
9
330
0
100
AcDbSymbolTable
 70
     1
  0
APPID
  5
12
330
9
100
AcDbSymbolTableRecord
100
AcDbRegAppTableRecord
  2
ACAD
 70
     0
  0
ENDTAB
  0
TABLE
  2
DIMSTYLE
  5
A
330
0
100
AcDbSymbolTable
 70
     2
100
AcDbDimStyleTable
  0
DIMSTYLE
105
27
330
A
100
AcDbSymbolTableRecord
100
AcDbDimStyleTableRecord
  2
ISO-25
 70
     0
 41
2.5
 42
0.625
 43
3.75
 44
1.25
 73
     0
 74
     0
 77
     1
 78
     8
140
2.5
141
2.5
143
0.03937
147
0.625
171
     3
172
     1
271
     2
272
     2
274
     3
278
    44
283
     0
284
     8
340
11
  0
DIMSTYLE
105
64
102
{ACAD_REACTORS
330
66
330
74
330
86
330
A3
102
}
330
A
100
AcDbSymbolTableRecord
100
AcDbDimStyleTableRecord
  2
LC-DIM-L-0140-01-02
 70
     0
 40
2.0
 41
14.0
 42
0.0
 43
7.5
 44
1.8
 73
     0
 74
     0
 77
     1
 78
     8
 79
     2
140
14.0
141
0.0
146
0.71
147
1.5
176
     2
177
     2
178
     2
179
     1
271
     1
278
    44
289
     1
340
63
  0
ENDTAB
  0
TABLE
  2
BLOCK_RECORD
  5
1
330
0
100
AcDbSymbolTable
 70
     9
  0
BLOCK_RECORD
  5
1F
330
1
100
AcDbSymbolTableRecord
100
AcDbBlockTableRecord
  2
*Model_Space
340
22
  0
BLOCK_RECORD
  5
1B
330
1
100
AcDbSymbolTableRecord
100
AcDbBlockTableRecord
  2
*Paper_Space
340
1E
  0
BLOCK_RECORD
  5
23
330
1
100
AcDbSymbolTableRecord
100
AcDbBlockTableRecord
  2
*Paper_Space0
340
26
  0
BLOCK_RECORD
  5
42
330
1
100
AcDbSymbolTableRecord
100
AcDbBlockTableRecord
  2
*X11
340
0
102
{BLKREFS
331
4D
102
}
  0
BLOCK_RECORD
  5
55
330
1
100
AcDbSymbolTableRecord
100
AcDbBlockTableRecord
  2
*X22
340
0
102
{BLKREFS
331
5B
102
}
  0
BLOCK_RECORD
  5
5C
330
1
100
AcDbSymbolTableRecord
100
AcDbBlockTableRecord
  2
*X33
340
0
102
{BLKREFS
331
61
102
}
  0
BLOCK_RECORD
  5
68
330
1
100
AcDbSymbolTableRecord
100
AcDbBlockTableRecord
  2
*D4
340
0
  0
BLOCK_RECORD
  5
75
330
1
100
AcDbSymbolTableRecord
100
AcDbBlockTableRecord
  2
*D5
340
0
  0
BLOCK_RECORD
  5
87
330
1
100
AcDbSymbolTableRecord
100
AcDbBlockTableRecord
  2
*D6
340
0
  0
BLOCK_RECORD
  5
93
330
1
100
AcDbSymbolTableRecord
100
AcDbBlockTableRecord
  2
*X47
340
0
102
{BLKREFS
331
A2
102
}
  0
BLOCK_RECORD
  5
A4
330
1
100
AcDbSymbolTableRecord
100
AcDbBlockTableRecord
  2
*D8
340
0
  0
ENDTAB
  0
ENDSEC
  0
SECTION
  2
BLOCKS
  0
BLOCK
  5
20
330
1F
100
AcDbEntity
  8
0
100
AcDbBlockBegin
  2
*Model_Space
 70
     0
 71
     0
 10
0.0
 20
0.0
 30
0.0
  3
*Model_Space
  1

  0
ENDBLK
  5
21
330
1F
100
AcDbEntity
  8
0
100
AcDbBlockEnd
  0
BLOCK
  5
1C
330
1B
100
AcDbEntity
 67
     1
  8
0
100
AcDbBlockBegin
  2
*Paper_Space
 70
     0
 71
     0
 10
0.0
 20
0.0
 30
0.0
  3
*Paper_Space
  1

  0
ENDBLK
  5
1D
330
1B
100
AcDbEntity
 67
     1
  8
0
100
AcDbBlockEnd
  0
BLOCK
  5
24
330
23
100
AcDbEntity
  8
0
100
AcDbBlockBegin
  2
*Paper_Space0
 70
     0
 71
     0
 10
0.0
 20
0.0
 30
0.0
  3
*Paper_Space0
  1

  0
ENDBLK
  5
25
330
23
100
AcDbEntity
  8
0
100
AcDbBlockEnd
  0
BLOCK
  5
43
330
42
100
AcDbEntity
  8
0
100
AcDbBlockBegin
  2
*X11
 70
     1
 71
     0
 10
0.0
 20
0.0
 30
0.0
  3
*X11
  1

  4
*X1
  0
LINE
  5
46
330
42
100
AcDbEntity
  8
LC-003-005-----0
 62
     7
370
    25
100
AcDbLine
 10
114.195053
 20
196.931931
 30
0.0
 11
113.676023
 21
197.450961
 31
0.0
  0
LINE
  5
47
330
42
100
AcDbEntity
  8
LC-003-005-----0
  6
DASHED
 62
     7
370
    25
100
AcDbLine
 10
110.014938
 20
195.455191
 30
0.0
 11
106.809784
 21
198.660346
 31
0.0
  0
LINE
  5
48
330
42
100
AcDbEntity
  8
LC-003-005-----0
  6
DASHED
 62
     7
370
    25
100
AcDbLine
 10
106.65837
 20
195.983333
 30
0.0
 11
102.36278
 21
200.278923
 31
0.0
  0
LINE
  5
49
330
42
100
AcDbEntity
  8
LC-003-005-----0
 62
     7
370
    25
100
AcDbLine
 10
97.764361
 20
199.220487
 30
0.0
 11
93.468771
 21
203.516077
 31
0.0
  0
LINE
  5
4A
330
42
100
AcDbEntity
  8
LC-003-005-----0
 62
     7
370
    25
100
AcDbLine
 10
93.317357
 20
200.839064
 30
0.0
 11
89.021767
 21
205.134654
 31
0.0
  0
LINE
  5
4B
330
42
100
AcDbEntity
  8
LC-003-005-----0
  6
DASHED
 62
     7
370
    25
100
AcDbLine
 10
84.423348
 20
204.076219
 30
0.0
 11
80.633952
 21
207.865615
 31
0.0
  0
LINE
  5
4C
330
42
100
AcDbEntity
  8
LC-003-005-----0
  6
DASHED
 62
     7
370
    25
100
AcDbLine
 10
79.976344
 20
205.694796
 30
0.0
 11
77.299199
 21
208.37194
 31
0.0
  0
ENDBLK
  5
44
330
42
100
AcDbEntity
  8
0
100
AcDbBlockEnd
  0
BLOCK
  5
56
330
55
100
AcDbEntity
  8
0
100
AcDbBlockBegin
  2
*X22
 70
     1
 71
     0
 10
0.0
 20
0.0
 30
0.0
  3
*X22
  1

  4
*X2
  0
LINE
  5
58
330
55
100
AcDbEntity
  8
LC-003-005-----0
 62
     7
370
    25
100
AcDbLine
 10
129.241182
 20
196.027938
 30
0.0
 11
127.818927
 21
197.450193
 31
0.0
  0
LINE
  5
59
330
55
100
AcDbEntity
  8
LC-003-005-----0
  6
DASHED
 62
     7
370
    25
100
AcDbLine
 10
124.161252
 20
195.451014
 30
0.0
 11
122.161382
 21
197.450883
 31
0.0
  0
LINE
  5
5A
330
55
100
AcDbEntity
  8
LC-003-005-----0
  6
DASHED
 62
     7
370
    25
100
AcDbLine
 10
121.332837
 20
195.451001
 30
0.0
 11
121.198443
 21
195.585395
 31
0.0
  0
ENDBLK
  5
57
330
55
100
AcDbEntity
  8
0
100
AcDbBlockEnd
  0
BLOCK
  5
5D
330
5C
100
AcDbEntity
  8
0
100
AcDbBlockBegin
  2
*X33
 70
     1
 71
     0
 10
0.0
 20
0.0
 30
0.0
  3
*X33
  1

  4
*X3
  0
LINE
  5
5F
330
5C
100
AcDbEntity
  8
LC-003-005-----0
 62
     7
370
    25
100
AcDbLine
 10
302.298254
 20
195.50492
 30
0.0
 11
300.352028
 21
197.451146
 31
0.0
  0
LINE
  5
60
330
5C
100
AcDbEntity
  8
LC-003-005-----0
  6
DASHED
 62
     7
370
    25
100
AcDbLine
 10
296.694927
 20
195.451392
 30
0.0
 11
294.695888
 21
197.450432
 31
0.0
  0
ENDBLK
  5
5E
330
5C
100
AcDbEntity
  8
0
100
AcDbBlockEnd
  0
BLOCK
  5
72
330
68
100
AcDbEntity
  8
0
100
AcDbBlockBegin
  2
*D4
 70
     1
 71
     0
 10
0.0
 20
0.0
 30
0.0
  3
*D4
  1

  0
LINE
  5
69
330
68
100
AcDbEntity
  8
LC-004-003-----0
 62
     2
370
    -2
100
AcDbLine
 10
129.241175
 20
197.450019
 30
0.0
 11
129.241175
 21
236.130323
 31
0.0
  0
LINE
  5
6A
330
68
100
AcDbEntity
  8
LC-004-003-----0
 62
     2
370
    -2
100
AcDbLine
 10
294.255513
 20
197.450019
 30
0.0
 11
294.255513
 21
236.130323
 31
0.0
  0
LINE
  5
6B
330
68
100
AcDbEntity
  8
LC-004-003-----0
 62
     2
370
    -2
100
AcDbLine
 10
157.241175
 20
232.530323
 30
0.0
 11
266.255513
 21
232.530323
 31
0.0
  0
SOLID
  5
6C
330
68
100
AcDbEntity
  8
LC-004-003-----0
 62
     2
100
AcDbTrace
 10
157.241175
 20
237.19699
 30
0.0
 11
157.241175
 21
227.863656
 31
0.0
 12
129.241175
 22
232.530323
 32
0.0
 13
129.241175
 23
232.530323
 33
0.0
  0
SOLID
  5
6D
330
68
100
AcDbEntity
  8
LC-004-003-----0
 62
     2
100
AcDbTrace
 10
266.255513
 20
227.863656
 30
0.0
 11
266.255513
 21
237.19699
 31
0.0
 12
294.255513
 22
232.530323
 32
0.0
 13
294.255513
 23
232.530323
 33
0.0
  0
MTEXT
  5
6E
330
68
100
AcDbEntity
  8
LC-004-003-----0
 62
     2
100
AcDbMText
 10
210.687018
 20
263.330323
 30
0.0
 40
28.0
 41
0.0
 71
     5
 72
     1
  1
%%c\A1;165
  7
LCTX15-400-0-0pDIN-Schrift
 73
     1
 44
1.0
  0
POINT
  5
6F
330
68
100
AcDbEntity
  8
Defpoints
 62
     0
100
AcDbPoint
 10
129.241175
 20
197.450019
 30
0.0
  0
POINT
  5
70
330
68
100
AcDbEntity
  8
Defpoints
 62
     0
100
AcDbPoint
 10
294.255513
 20
197.450019
 30
0.0
  0
POINT
  5
71
330
68
100
AcDbEntity
  8
Defpoints
 62
     0
100
AcDbPoint
 10
294.255513
 20
232.530323
 30
0.0
  0
ENDBLK
  5
73
330
68
100
AcDbEntity
  8
0
100
AcDbBlockEnd
  0
BLOCK
  5
7F
330
75
100
AcDbEntity
  8
0
100
AcDbBlockBegin
  2
*D5
 70
     1
 71
     0
 10
0.0
 20
0.0
 30
0.0
  3
*D5
  1

  0
LINE
  5
76
330
75
100
AcDbEntity
  8
LC-004-003-----0
 62
     2
370
    -2
100
AcDbLine
 10
117.748639
 20
198.950986
 30
0.0
 11
117.748639
 21
284.303691
 31
0.0
  0
LINE
  5
77
330
75
100
AcDbEntity
  8
LC-004-003-----0
 62
     2
370
    -2
100
AcDbLine
 10
305.74805
 20
195.454124
 30
0.0
 11
305.74805
 21
284.303691
 31
0.0
  0
LINE
  5
78
330
75
100
AcDbEntity
  8
LC-004-003-----0
 62
     2
370
    -2
100
AcDbLine
 10
145.748639
 20
280.703691
 30
0.0
 11
277.74805
 21
280.703691
 31
0.0
  0
SOLID
  5
79
330
75
100
AcDbEntity
  8
LC-004-003-----0
 62
     2
100
AcDbTrace
 10
145.748639
 20
285.370357
 30
0.0
 11
145.748639
 21
276.037024
 31
0.0
 12
117.748639
 22
280.703691
 32
0.0
 13
117.748639
 23
280.703691
 33
0.0
  0
SOLID
  5
7A
330
75
100
AcDbEntity
  8
LC-004-003-----0
 62
     2
100
AcDbTrace
 10
277.74805
 20
276.037024
 30
0.0
 11
277.74805
 21
285.370357
 31
0.0
 12
305.74805
 22
280.703691
 32
0.0
 13
305.74805
 23
280.703691
 33
0.0
  0
MTEXT
  5
7B
330
75
100
AcDbEntity
  8
LC-004-003-----0
 62
     2
100
AcDbMText
 10
211.097455
 20
311.503691
 30
0.0
 40
28.0
 41
0.0
 71
     5
 72
     1
  1
%%c\A1;188
  7
LCTX15-400-0-0pDIN-Schrift
 73
     1
 44
1.0
  0
POINT
  5
7C
330
75
100
AcDbEntity
  8
Defpoints
 62
     0
100
AcDbPoint
 10
117.748639
 20
198.950986
 30
0.0
  0
POINT
  5
7D
330
75
100
AcDbEntity
  8
Defpoints
 62
     0
100
AcDbPoint
 10
305.74805
 20
195.454124
 30
0.0
  0
POINT
  5
7E
330
75
100
AcDbEntity
  8
Defpoints
 62
     0
100
AcDbPoint
 10
305.74805
 20
280.703691
 30
0.0
  0
ENDBLK
  5
80
330
75
100
AcDbEntity
  8
0
100
AcDbBlockEnd
  0
BLOCK
  5
91
330
87
100
AcDbEntity
  8
0
100
AcDbBlockBegin
  2
*D6
 70
     1
 71
     0
 10
0.0
 20
0.0
 30
0.0
  3
*D6
  1

  0
LINE
  5
88
330
87
100
AcDbEntity
  8
LC-004-003-----0
 62
     2
370
    -2
100
AcDbLine
 10
72.253685
 20
208.505614
 30
0.0
 11
72.253685
 21
333.27
 31
0.0
  0
LINE
  5
89
330
87
100
AcDbEntity
  8
LC-004-003-----0
 62
     2
370
    -2
100
AcDbLine
 10
351.241298
 20
208.505614
 30
0.0
 11
351.241298
 21
333.27
 31
0.0
  0
LINE
  5
8A
330
87
100
AcDbEntity
  8
LC-004-003-----0
 62
     2
370
    -2
100
AcDbLine
 10
100.253685
 20
329.67
 30
0.0
 11
323.241298
 21
329.67
 31
0.0
  0
SOLID
  5
8B
330
87
100
AcDbEntity
  8
LC-004-003-----0
 62
     2
100
AcDbTrace
 10
100.253685
 20
334.336667
 30
0.0
 11
100.253685
 21
325.003333
 31
0.0
 12
72.253685
 22
329.67
 32
0.0
 13
72.253685
 23
329.67
 33
0.0
  0
SOLID
  5
8C
330
87
100
AcDbEntity
  8
LC-004-003-----0
 62
     2
100
AcDbTrace
 10
323.241298
 20
325.003333
 30
0.0
 11
323.241298
 21
334.336667
 31
0.0
 12
351.241298
 22
329.67
 32
0.0
 13
351.241298
 23
329.67
 33
0.0
  0
MTEXT
  5
8D
330
87
100
AcDbEntity
  8
LC-004-003-----0
 62
     2
100
AcDbMText
 10
208.227051
 20
360.47
 30
0.0
 40
28.0
 41
0.0
 71
     5
 72
     1
  1
%%c\A1;279
  7
LCTX15-400-0-0pDIN-Schrift
 73
     1
 44
1.0
  0
POINT
  5
8E
330
87
100
AcDbEntity
  8
Defpoints
 62
     0
100
AcDbPoint
 10
72.253685
 20
208.505614
 30
0.0
  0
POINT
  5
8F
330
87
100
AcDbEntity
  8
Defpoints
 62
     0
100
AcDbPoint
 10
351.241298
 20
208.505614
 30
0.0
  0
POINT
  5
90
330
87
100
AcDbEntity
  8
Defpoints
 62
     0
100
AcDbPoint
 10
351.241298
 20
329.67
 30
0.0
  0
ENDBLK
  5
92
330
87
100
AcDbEntity
  8
0
100
AcDbBlockEnd
  0
BLOCK
  5
94
330
93
100
AcDbEntity
  8
0
100
AcDbBlockBegin
  2
*X47
 70
     1
 71
     0
 10
0.0
 20
0.0
 30
0.0
  3
*X47
  1

  4
*X4
  0
LINE
  5
96
330
93
100
AcDbEntity
  8
LC-003-005-----0
  6
DASHED
 62
     7
370
    25
100
AcDbLine
 10
347.300467
 20
207.071249
 30
0.0
 11
346.017242
 21
208.354475
 31
0.0
  0
LINE
  5
97
330
93
100
AcDbEntity
  8
LC-003-005-----0
  6
DASHED
 62
     7
370
    25
100
AcDbLine
 10
345.226802
 20
206.316487
 30
0.0
 11
343.542803
 21
208.000487
 31
0.0
  0
LINE
  5
98
330
93
100
AcDbEntity
  8
LC-003-005-----0
 62
     7
370
    25
100
AcDbLine
 10
341.079473
 20
204.806962
 30
0.0
 11
339.077854
 21
206.808581
 31
0.0
  0
LINE
  5
99
330
93
100
AcDbEntity
  8
LC-003-005-----0
 62
     7
370
    25
100
AcDbLine
 10
339.005808
 20
204.0522
 30
0.0
 11
337.002745
 21
206.055262
 31
0.0
  0
LINE
  5
9A
330
93
100
AcDbEntity
  8
LC-003-005-----0
  6
DASHED
 62
     7
370
    25
100
AcDbLine
 10
334.858479
 20
202.542675
 30
0.0
 11
332.855416
 21
204.545738
 31
0.0
  0
LINE
  5
9B
330
93
100
AcDbEntity
  8
LC-003-005-----0
  6
DASHED
 62
     7
370
    25
100
AcDbLine
 10
332.784814
 20
201.787913
 30
0.0
 11
330.781751
 21
203.790975
 31
0.0
  0
LINE
  5
9C
330
93
100
AcDbEntity
  8
LC-003-005-----0
 62
     7
370
    25
100
AcDbLine
 10
328.637484
 20
200.278388
 30
0.0
 11
326.634422
 21
202.28145
 31
0.0
  0
LINE
  5
9D
330
93
100
AcDbEntity
  8
LC-003-005-----0
 62
     7
370
    25
100
AcDbLine
 10
326.56382
 20
199.523626
 30
0.0
 11
324.560757
 21
201.526688
 31
0.0
  0
LINE
  5
9E
330
93
100
AcDbEntity
  8
LC-003-005-----0
  6
DASHED
 62
     7
370
    25
100
AcDbLine
 10
322.41649
 20
198.014101
 30
0.0
 11
320.413428
 21
200.017163
 31
0.0
  0
LINE
  5
9F
330
93
100
AcDbEntity
  8
LC-003-005-----0
  6
DASHED
 62
     7
370
    25
100
AcDbLine
 10
320.342825
 20
197.259338
 30
0.0
 11
318.339763
 21
199.262401
 31
0.0
  0
LINE
  5
A0
330
93
100
AcDbEntity
  8
LC-003-005-----0
 62
     7
370
    25
100
AcDbLine
 10
316.195496
 20
195.749814
 30
0.0
 11
314.192433
 21
197.752876
 31
0.0
  0
LINE
  5
A1
330
93
100
AcDbEntity
  8
LC-003-005-----0
 62
     7
370
    25
100
AcDbLine
 10
313.661216
 20
195.455666
 30
0.0
 11
311.665523
 21
197.451359
 31
0.0
  0
ENDBLK
  5
95
330
93
100
AcDbEntity
  8
0
100
AcDbBlockEnd
  0
BLOCK
  5
AF
330
A4
100
AcDbEntity
  8
0
100
AcDbBlockBegin
  2
*D8
 70
     1
 71
     0
 10
0.0
 20
0.0
 30
0.0
  3
*D8
  1

  0
LINE
  5
A5
330
A4
100
AcDbEntity
  8
LC-004-003-----0
 62
     2
370
    -2
100
AcDbLine
 10
349.024817
 20
208.505614
 30
0.0
 11
411.283772
 21
208.505614
 31
0.0
  0
LINE
  5
A6
330
A4
100
AcDbEntity
  8
LC-004-003-----0
 62
     2
370
    -2
100
AcDbLine
 10
315.388269
 20
195.456003
 30
0.0
 11
411.283772
 21
195.456003
 31
0.0
  0
LINE
  5
A7
330
A4
100
AcDbEntity
  8
LC-004-003-----0
 62
     2
370
    -2
100
AcDbLine
 10
407.683772
 20
167.456003
 30
0.0
 11
407.683772
 21
139.456003
 31
0.0
  0
LINE
  5
A8
330
A4
100
AcDbEntity
  8
LC-004-003-----0
 62
     2
370
    -2
100
AcDbLine
 10
407.683772
 20
236.505614
 30
0.0
 11
407.683772
 21
280.850622
 31
0.0
  0
SOLID
  5
A9
330
A4
100
AcDbEntity
  8
LC-004-003-----0
 62
     2
100
AcDbTrace
 10
403.017106
 20
236.505614
 30
0.0
 11
412.350439
 21
236.505614
 31
0.0
 12
407.683772
 22
208.505614
 32
0.0
 13
407.683772
 23
208.505614
 33
0.0
  0
SOLID
  5
AA
330
A4
100
AcDbEntity
  8
LC-004-003-----0
 62
     2
100
AcDbTrace
 10
412.350439
 20
167.456003
 30
0.0
 11
403.017106
 21
167.456003
 31
0.0
 12
407.683772
 22
195.456003
 32
0.0
 13
407.683772
 23
195.456003
 33
0.0
  0
MTEXT
  5
AB
330
A4
100
AcDbEntity
  8
LC-004-003-----0
 62
     2
100
AcDbMText
 10
376.883772
 20
260.766
 30
0.0
 40
28.0
 41
0.0
 71
     5
 72
     1
  1
\A1;13
  7
LCTX15-400-0-0pDIN-Schrift
 11
6.123031769111886E-17
 21
1.0
 31
0.0
 73
     1
 44
1.0
  0
POINT
  5
AC
330
A4
100
AcDbEntity
  8
Defpoints
 62
     0
100
AcDbPoint
 10
349.024817
 20
208.505614
 30
0.0
  0
POINT
  5
AD
330
A4
100
AcDbEntity
  8
Defpoints
 62
     0
100
AcDbPoint
 10
315.388269
 20
195.456003
 30
0.0
  0
POINT
  5
AE
330
A4
100
AcDbEntity
  8
Defpoints
 62
     0
100
AcDbPoint
 10
407.683772
 20
195.456003
 30
0.0
  0
ENDBLK
  5
B0
330
A4
100
AcDbEntity
  8
0
100
AcDbBlockEnd
  0
ENDSEC
  0
SECTION
  2
ENTITIES
  0
LINE
  5
31
102
{ACAD_REACTORS
330
DB
102
}
330
1F
100
AcDbEntity
  8
LC-001-002-----0
 62
     7
370
    50
100
AcDbLine
 10
302.298254
 20
195.451392
 30
0.0
 11
294.255513
 21
195.451392
 31
0.0
  0
LINE
  5
32
102
{ACAD_REACTORS
330
DB
102
}
330
1F
100
AcDbEntity
  8
LC-001-002-----0
 62
     7
370
    50
100
AcDbLine
 10
309.301617
 20
195.451392
 30
0.0
 11
309.301665
 21
198.951392
 31
0.0
  0
LINE
  5
33
102
{ACAD_REACTORS
330
DB
102
}
330
1F
100
AcDbEntity
  8
LC-001-002-----0
 62
     7
370
    50
100
AcDbLine
 10
294.255513
 20
197.450376
 30
0.0
 11
300.748045
 21
197.451196
 31
0.0
  0
LINE
  5
34
102
{ACAD_REACTORS
330
DB
102
}
330
1F
100
AcDbEntity
  8
LC-001-002-----0
 62
     7
370
    50
100
AcDbLine
 10
294.255513
 20
197.450376
 30
0.0
 11
294.255513
 21
195.451392
 31
0.0
  0
LINE
  5
35
102
{ACAD_REACTORS
330
DB
102
}
330
1F
100
AcDbEntity
  8
LC-001-002-----0
 62
     7
370
    50
100
AcDbLine
 10
304.984478
 20
195.453975
 30
0.0
 11
309.299749
 21
195.451393
 31
0.0
  0
LINE
  5
36
102
{ACAD_REACTORS
330
DB
102
}
330
1F
100
AcDbEntity
  8
LC-001-002-----0
 62
     7
370
    50
100
AcDbLine
 10
304.984478
 20
195.453975
 30
0.0
 11
315.388269
 21
195.456003
 31
0.0
  0
LINE
  5
37
102
{ACAD_REACTORS
330
DB
102
}
330
1F
100
AcDbEntity
  8
LC-001-002-----0
 62
     7
370
    50
100
AcDbLine
 10
253.773409
 20
198.951255
 30
0.0
 11
263.773409
 21
198.951255
 31
0.0
  0
LINE
  5
38
102
{ACAD_REACTORS
330
DB
102
}
330
1F
100
AcDbEntity
  8
LC-001-002-----0
 62
     7
370
    50
100
AcDbLine
 10
310.748045
 20
197.451372
 30
0.0
 11
313.363969
 21
197.451336
 31
0.0
  0
LINE
  5
39
102
{ACAD_REACTORS
330
DB
102
}
330
1F
100
AcDbEntity
  8
LC-001-002-----0
 62
     7
370
    50
100
AcDbLine
 10
302.298254
 20
195.451392
 30
0.0
 11
309.299749
 21
195.451392
 31
0.0
  0
LINE
  5
3A
102
{ACAD_REACTORS
330
DB
102
}
330
1F
100
AcDbEntity
  8
LC-001-002-----0
 62
     7
370
    50
100
AcDbLine
 10
302.298254
 20
198.951392
 30
0.0
 11
302.298254
 21
195.452083
 31
0.0
  0
LINE
  5
3B
102
{ACAD_REACTORS
330
DB
102
}
330
1F
100
AcDbEntity
  8
LC-001-002-----0
 62
     7
370
    50
100
AcDbLine
 10
311.778157
 20
197.451358
 30
0.0
 11
311.778209
 21
197.451358
 31
0.0
  0
LINE
  5
3C
102
{ACAD_REACTORS
330
DB
102
}
330
1F
100
AcDbEntity
  8
LC-001-002-----0
 62
     7
370
    50
100
AcDbLine
 10
121.198443
 20
195.451001
 30
0.0
 11
129.241184
 21
195.451036
 31
0.0
  0
ARC
  5
3E
102
{ACAD_REACTORS
330
DB
102
}
330
1F
100
AcDbEntity
  8
LC-002-002-RND-0
 62
     7
370
    50
100
AcDbCircle
 10
349.024817
 20
178.505614
 30
0.0
 40
30.0
100
AcDbArc
 50
90.0
 51
110.000248
  0
LINE
  5
3F
102
{ACAD_REACTORS
330
DB
102
}
330
1F
100
AcDbEntity
  8
LC-001-002-----0
 62
     7
370
    50
100
AcDbLine
 10
351.241298
 20
208.505614
 30
0.0
 11
315.388269
 21
195.456003
 31
0.0
  0
LINE
  5
40
330
1F
100
AcDbEntity
  8
LC-001-002-----0
 62
     7
370
    25
100
AcDbLine
 10
343.73494
 20
208.505614
 30
0.0
 11
338.76409
 21
206.696348
 31
0.0
  0
ARC
  5
41
102
{ACAD_REACTORS
330
DB
102
}
330
1F
100
AcDbEntity
  8
LC-002-002-RND-0
 62
     7
370
    50
100
AcDbCircle
 10
74.470322
 20
178.505614
 30
0.0
 40
30.00000000000001
100
AcDbArc
 50
70.0
 51
90.0
  0
INSERT
  5
4D
102
{ACAD_REACTORS
330
DB
102
}
330
1F
100
AcDbEntity
  8
LC-003-005-----0
 62
     7
370
    25
100
AcDbBlockReference
  2
*X11
 10
0.0
 20
0.0
 30
0.0
  0
LINE
  5
4E
102
{ACAD_REACTORS
330
DB
102
}
330
1F
100
AcDbEntity
  8
LC-001-002-----0
 62
     7
370
    50
100
AcDbLine
 10
72.253685
 20
208.505614
 30
0.0
 11
74.470322
 21
208.505614
 31
0.0
  0
LINE
  5
4F
102
{ACAD_REACTORS
330
DB
102
}
330
1F
100
AcDbEntity
  8
LC-001-002-----0
 62
     7
370
    50
100
AcDbLine
 10
114.195079
 20
195.45097
 30
0.0
 11
114.195016
 21
198.95097
 31
0.0
  0
LINE
  5
51
330
1F
100
AcDbEntity
  8
LC-001-002-----0
  6
DASHDOT
 62
     7
370
    25
100
AcDbLine
 10
211.747491
 20
208.505614
 30
0.0
 11
211.747491
 21
195.451036
 31
0.0
  0
LINE
  5
52
102
{ACAD_REACTORS
330
DB
102
}
330
1F
100
AcDbEntity
  8
LC-001-002-----0
 62
     7
370
    50
100
AcDbLine
 10
129.241175
 20
197.450019
 30
0.0
 11
294.255513
 21
197.450019
 31
0.0
  0
LINE
  5
53
102
{ACAD_REACTORS
330
DB
102
}
330
1F
100
AcDbEntity
  8
LC-001-002-----0
 62
     7
370
    50
100
AcDbLine
 10
129.241184
 20
195.451036
 30
0.0
 11
294.255513
 21
195.451036
 31
0.0
  0
LINE
  5
54
102
{ACAD_REACTORS
330
DB
102
}
330
1F
100
AcDbEntity
  8
LC-001-002-----0
 62
     7
370
    50
100
AcDbLine
 10
349.024817
 20
208.505614
 30
0.0
 11
351.241298
 21
208.505614
 31
0.0
  0
INSERT
  5
5B
102
{ACAD_REACTORS
330
DB
102
}
330
1F
100
AcDbEntity
  8
LC-003-005-----0
 62
     7
370
    25
100
AcDbBlockReference
  2
*X22
 10
0.0
 20
0.0
 30
0.0
  0
INSERT
  5
61
102
{ACAD_REACTORS
330
DB
102
}
330
1F
100
AcDbEntity
  8
LC-003-005-----0
 62
     7
370
    25
100
AcDbBlockReference
  2
*X33
 10
0.0
 20
0.0
 30
0.0
  0
LINE
  5
62
102
{ACAD_REACTORS
330
DB
102
}
330
1F
100
AcDbEntity
  8
LC-001-002-----0
 62
     7
370
    50
100
AcDbLine
 10
74.470322
 20
208.505614
 30
0.0
 11
349.024817
 21
208.505614
 31
0.0
  0
DIMENSION
  5
66
330
1F
100
AcDbEntity
  8
LC-004-003-----0
 62
     7
370
    25
100
AcDbDimension
  2
*D4
 10
294.255513
 20
232.530323
 30
0.0
 11
210.687018
 21
263.330323
 31
0.0
 70
   160
  1
%%c<>
 71
     5
 42
165.014337
  3
LC-DIM-L-0140-01-02
100
AcDbAlignedDimension
 13
129.241175
 23
197.450019
 33
0.0
 14
294.255513
 24
197.450019
 34
0.0
100
AcDbRotatedDimension
  0
DIMENSION
  5
74
330
1F
100
AcDbEntity
  8
LC-004-003-----0
 62
     7
370
    25
100
AcDbDimension
  2
*D5
 10
305.74805
 20
280.703691
 30
0.0
 11
211.097455
 21
311.503691
 31
0.0
 70
   160
  1
%%c<>
 71
     5
 42
187.99941
  3
LC-DIM-L-0140-01-02
100
AcDbAlignedDimension
 13
117.748639
 23
198.950986
 33
0.0
 14
305.74805
 24
195.454124
 34
0.0
100
AcDbRotatedDimension
  0
LINE
  5
81
330
1F
100
AcDbEntity
  8
LC-001-002-----0
  6
DASHDOT
 62
     7
370
    25
100
AcDbLine
 10
72.252828
 20
22.078308
 30
0.0
 11
351.242154
 21
22.078308
 31
0.0
  0
LINE
  5
82
102
{ACAD_REACTORS
330
DB
102
}
330
1F
100
AcDbEntity
  8
LC-001-002-----0
 62
     7
370
    50
100
AcDbLine
 10
338.76409
 20
206.696348
 30
0.0
 11
313.363969
 21
197.451336
 31
0.0
  0
LINE
  5
83
330
1F
100
AcDbEntity
  8
LC-001-002-----0
 62
     7
370
    25
100
AcDbLine
 10
79.760131
 20
208.505614
 30
0.0
 11
84.730926
 21
206.696393
 31
0.0
  0
LINE
  5
84
102
{ACAD_REACTORS
330
DB
102
}
330
1F
100
AcDbEntity
  8
LC-001-002-----0
 62
     7
370
    50
100
AcDbLine
 10
84.730926
 20
206.696393
 30
0.0
 11
110.132719
 21
197.450896
 31
0.0
  0
LINE
  5
85
330
1F
100
AcDbEntity
  8
LC-001-002-----0
  6
DASHDOT
 62
     7
370
    25
100
AcDbLine
 10
305.748045
 20
197.450203
 30
0.0
 11
305.74805
 21
195.451392
 31
0.0
  0
DIMENSION
  5
86
330
1F
100
AcDbEntity
  8
LC-004-003-----0
 62
     7
370
    25
100
AcDbDimension
  2
*D6
 10
351.241298
 20
329.67
 30
0.0
 11
208.227051
 21
360.47
 31
0.0
 70
   160
  1
%%c<>
 71
     5
 42
278.987613
  3
LC-DIM-L-0140-01-02
100
AcDbAlignedDimension
 13
72.253685
 23
208.505614
 33
0.0
 14
351.241298
 24
208.505614
 34
0.0
100
AcDbRotatedDimension
  0
INSERT
  5
A2
102
{ACAD_REACTORS
330
DB
102
}
330
1F
100
AcDbEntity
  8
LC-003-005-----0
 62
     7
370
    25
100
AcDbBlockReference
  2
*X47
 10
0.0
 20
0.0
 30
0.0
  0
DIMENSION
  5
A3
330
1F
100
AcDbEntity
  8
LC-004-003-----0
 62
     7
370
    25
100
AcDbDimension
  2
*D8
 10
407.683772
 20
195.456003
 30
0.0
 11
376.883772
 21
260.766
 31
0.0
 70
   160
 71
     5
 42
13.049611
 53
90.0
  3
LC-DIM-L-0140-01-02
100
AcDbAlignedDimension
 13
349.024817
 23
208.505614
 33
0.0
 14
315.388269
 24
195.456003
 34
0.0
 50
90.0
100
AcDbRotatedDimension
  0
LINE
  5
B1
102
{ACAD_REACTORS
330
DB
102
}
330
1F
100
AcDbEntity
  8
LC-001-002-----0
 62
     7
370
    50
100
AcDbLine
 10
122.748639
 20
198.951007
 30
0.0
 11
112.748639
 21
198.950964
 31
0.0
  0
LINE
  5
B2
102
{ACAD_REACTORS
330
DB
102
}
330
1F
100
AcDbEntity
  8
LC-001-002-----0
 62
     7
370
    50
100
AcDbLine
 10
122.748639
 20
198.951007
 30
0.0
 11
122.748643
 21
197.450812
 31
0.0
  0
LINE
  5
B3
102
{ACAD_REACTORS
330
DB
102
}
330
1F
100
AcDbEntity
  8
LC-001-002-----0
 62
     7
370
    50
100
AcDbLine
 10
112.748639
 20
198.950964
 30
0.0
 11
112.748643
 21
197.45079
 31
0.0
  0
LINE
  5
B4
102
{ACAD_REACTORS
330
DB
102
}
330
1F
100
AcDbEntity
  8
LC-001-002-----0
 62
     7
370
    50
100
AcDbLine
 10
112.748643
 20
197.450944
 30
0.0
 11
110.132719
 21
197.450896
 31
0.0
  0
LINE
  5
B5
330
1F
100
AcDbEntity
  8
LC-001-002-----0
  6
DASHDOT
 62
     7
370
    25
100
AcDbLine
 10
117.748634
 20
201.549391
 30
0.0
 11
117.748647
 21
195.450986
 31
0.0
  0
LINE
  5
B6
102
{ACAD_REACTORS
330
DB
102
}
330
1F
100
AcDbEntity
  8
LC-001-002-----0
 62
     7
370
    50
100
AcDbLine
 10
310.748042
 20
198.951392
 30
0.0
 11
310.748045
 21
197.451218
 31
0.0
  0
LINE
  5
B7
102
{ACAD_REACTORS
330
DB
102
}
330
1F
100
AcDbEntity
  8
LC-001-002-----0
 62
     7
370
    50
100
AcDbLine
 10
300.748042
 20
198.951392
 30
0.0
 11
310.748042
 21
198.951392
 31
0.0
  0
LINE
  5
B8
102
{ACAD_REACTORS
330
DB
102
}
330
1F
100
AcDbEntity
  8
LC-001-002-----0
 62
     7
370
    50
100
AcDbLine
 10
300.748042
 20
198.951392
 30
0.0
 11
300.748045
 21
197.451196
 31
0.0
  0
LINE
  5
B9
102
{ACAD_REACTORS
330
DB
102
}
330
1F
100
AcDbEntity
  8
LC-001-002-----0
 62
     7
370
    50
100
AcDbLine
 10
253.773409
 20
198.951255
 30
0.0
 11
253.773413
 21
197.451059
 31
0.0
  0
LINE
  5
BA
102
{ACAD_REACTORS
330
DB
102
}
330
1F
100
AcDbEntity
  8
LC-001-002-----0
 62
     7
370
    50
100
AcDbLine
 10
263.773409
 20
198.951255
 30
0.0
 11
263.773413
 21
197.45108
 31
0.0
  0
LINE
  5
BB
102
{ACAD_REACTORS
330
DB
102
}
330
1F
100
AcDbEntity
  8
LC-001-002-----0
 62
     7
370
    50
100
AcDbLine
 10
169.723708
 20
198.950237
 30
0.0
 11
159.723708
 21
198.950193
 31
0.0
  0
LINE
  5
BC
102
{ACAD_REACTORS
330
DB
102
}
330
1F
100
AcDbEntity
  8
LC-001-002-----0
 62
     7
370
    50
100
AcDbLine
 10
169.723708
 20
198.950237
 30
0.0
 11
169.723711
 21
197.450041
 31
0.0
  0
LINE
  5
BD
102
{ACAD_REACTORS
330
DB
102
}
330
1F
100
AcDbEntity
  8
LC-001-002-----0
 62
     7
370
    50
100
AcDbLine
 10
159.723708
 20
198.950193
 30
0.0
 11
159.723711
 21
197.450019
 31
0.0
  0
LINE
  5
BE
102
{ACAD_REACTORS
330
DB
102
}
330
1F
100
AcDbEntity
  8
LC-001-002-----0
 62
     7
370
    50
100
AcDbLine
 10
129.241175
 20
197.450019
 30
0.0
 11
122.748643
 21
197.450812
 31
0.0
  0
LINE
  5
BF
102
{ACAD_REACTORS
330
DB
102
}
330
1F
100
AcDbEntity
  8
LC-001-002-----0
 62
     7
370
    50
100
AcDbLine
 10
129.241175
 20
197.450019
 30
0.0
 11
129.241184
 21
195.451036
 31
0.0
  0
LINE
  5
C0
102
{ACAD_REACTORS
330
DB
102
}
330
1F
100
AcDbEntity
  8
LC-001-002-----0
 62
     7
370
    50
100
AcDbLine
 10
118.512219
 20
195.453572
 30
0.0
 11
114.196948
 21
195.450972
 31
0.0
  0
LINE
  5
C1
102
{ACAD_REACTORS
330
DB
102
}
330
1F
100
AcDbEntity
  8
LC-001-002-----0
 62
     7
370
    50
100
AcDbLine
 10
118.512219
 20
195.453572
 30
0.0
 11
108.108428
 21
195.455555
 31
0.0
  0
LINE
  5
C2
102
{ACAD_REACTORS
330
DB
102
}
330
1F
100
AcDbEntity
  8
LC-001-002-----0
 62
     7
370
    50
100
AcDbLine
 10
114.198434
 20
197.45097
 30
0.0
 11
114.195043
 21
197.45097
 31
0.0
  0
LINE
  5
C3
102
{ACAD_REACTORS
330
DB
102
}
330
1F
100
AcDbEntity
  8
LC-001-002-----0
 62
     7
370
    50
100
AcDbLine
 10
121.198443
 20
195.451001
 30
0.0
 11
114.196948
 21
195.45097
 31
0.0
  0
LINE
  5
C4
102
{ACAD_REACTORS
330
DB
102
}
330
1F
100
AcDbEntity
  8
LC-001-002-----0
 62
     7
370
    50
100
AcDbLine
 10
121.198428
 20
198.951001
 30
0.0
 11
121.198443
 21
195.451691
 31
0.0
  0
LINE
  5
C5
102
{ACAD_REACTORS
330
DB
102
}
330
1F
100
AcDbEntity
  8
LC-001-002-----0
 62
     7
370
    50
100
AcDbLine
 10
111.768531
 20
197.450926
 30
0.0
 11
111.76848
 21
197.450926
 31
0.0
  0
LINE
  5
C6
102
{ACAD_REACTORS
330
DB
102
}
330
1F
100
AcDbEntity
  8
LC-001-002-----0
 62
     7
370
    50
100
AcDbLine
 10
72.253685
 20
208.505614
 30
0.0
 11
108.108428
 21
195.455555
 31
0.0
  0
CIRCLE
  5
C8
330
1F
100
AcDbEntity
  8
LC-005-100-D00-0
 62
     7
370
    50
100
AcDbCircle
 10
211.747491
 20
22.078308
 30
0.0
 40
127.0181773559909
  0
CIRCLE
  5
C9
330
1F
100
AcDbEntity
  8
LC-005-100-D00-0
 62
     7
370
    50
100
AcDbCircle
 10
211.747491
 20
22.078308
 30
0.0
 40
137.2780261684089
  0
CIRCLE
  5
CA
330
1F
100
AcDbEntity
  8
LC-005-100-D00-0
 62
     7
370
    50
100
AcDbCircle
 10
211.747491
 20
22.078308
 30
0.0
 40
139.4946631684089
  0
CIRCLE
  5
CB
330
1F
100
AcDbEntity
  8
LC-005-100-D00-0
 62
     7
370
    50
100
AcDbCircle
 10
211.747491
 20
22.078308
 30
0.0
 40
101.6160097395541
  0
CIRCLE
  5
CC
330
1F
100
AcDbEntity
  8
LC-005-100-D00-0
 62
     7
370
    50
100
AcDbCircle
 10
258.747491
 20
-59.328079
 30
0.0
 40
5.0
  0
CIRCLE
  5
CD
330
1F
100
AcDbEntity
  8
LC-005-100-D00-0
 62
     7
370
    50
100
AcDbCircle
 10
258.747491
 20
-59.328079
 30
0.0
 40
3.500000000000057
  0
CIRCLE
  5
CE
330
1F
100
AcDbEntity
  8
LC-005-100-D00-0
 62
     7
370
    50
100
AcDbCircle
 10
117.747491
 20
22.078308
 30
0.0
 40
3.5
  0
CIRCLE
  5
CF
330
1F
100
AcDbEntity
  8
LC-005-100-D00-0
 62
     7
370
    50
100
AcDbCircle
 10
117.747491
 20
22.078308
 30
0.0
 40
5.0
  0
CIRCLE
  5
D0
330
1F
100
AcDbEntity
  8
LC-005-100-D00-0
 62
     7
370
    50
100
AcDbCircle
 10
164.747491
 20
-59.328079
 30
0.0
 40
3.5
  0
CIRCLE
  5
D1
330
1F
100
AcDbEntity
  8
LC-005-100-D00-0
 62
     7
370
    50
100
AcDbCircle
 10
164.747491
 20
-59.328079
 30
0.0
 40
5.0
  0
CIRCLE
  5
D2
330
1F
100
AcDbEntity
  8
LC-005-100-D00-0
 62
     7
370
    50
100
AcDbCircle
 10
164.747491
 20
103.484696
 30
0.0
 40
5.000000000000057
  0
CIRCLE
  5
D3
330
1F
100
AcDbEntity
  8
LC-005-100-D00-0
 62
     7
370
    50
100
AcDbCircle
 10
164.747491
 20
103.484696
 30
0.0
 40
3.5
  0
CIRCLE
  5
D4
330
1F
100
AcDbEntity
  8
LC-005-100-D00-0
 62
     7
370
    50
100
AcDbCircle
 10
305.747491
 20
22.078308
 30
0.0
 40
3.5
  0
CIRCLE
  5
D5
330
1F
100
AcDbEntity
  8
LC-005-100-D00-0
 62
     7
370
    50
100
AcDbCircle
 10
305.747491
 20
22.078308
 30
0.0
 40
5.000000000000057
  0
CIRCLE
  5
D6
330
1F
100
AcDbEntity
  8
LC-005-100-D00-0
 62
     7
370
    50
100
AcDbCircle
 10
258.747491
 20
103.484696
 30
0.0
 40
3.5
  0
CIRCLE
  5
D7
330
1F
100
AcDbEntity
  8
LC-005-100-D00-0
 62
     7
370
    50
100
AcDbCircle
 10
258.747491
 20
103.484696
 30
0.0
 40
5.0
  0
CIRCLE
  5
D8
330
1F
100
AcDbEntity
  8
LC-005-100-D00-0
 62
     7
370
    50
100
AcDbCircle
 10
211.747491
 20
22.078308
 30
0.0
 40
82.50716378674593
  0
CIRCLE
  5
D9
330
1F
100
AcDbEntity
  8
LC-005-100-D00-0
 62
     7
370
    50
100
AcDbCircle
 10
211.747491
 20
22.078308
 30
0.0
 40
82.50755372432883
  0
LINE
  5
DA
330
1F
100
AcDbEntity
  8
LC-001-002-----0
  6
DASHDOT
 62
     7
370
    25
100
AcDbLine
 10
211.747491
 20
161.572972
 30
0.0
 11
211.747491
 21
-117.416355
 31
0.0
  0
ENDSEC
  0
SECTION
  2
OBJECTS
  0
DICTIONARY
  5
C
330
0
100
AcDbDictionary
281
     1
  3
ACAD_GROUP
350
D
  3
ACAD_LAYOUT
350
1A
  3
ACAD_MLINESTYLE
350
17
  3
ACAD_PLOTSETTINGS
350
19
  3
ACAD_PLOTSTYLENAME
350
E
  0
DICTIONARY
  5
D
102
{ACAD_REACTORS
330
C
102
}
330
C
100
AcDbDictionary
281
     1
  3
LCGROUP132
350
DB
  0
DICTIONARY
  5
1A
102
{ACAD_REACTORS
330
C
102
}
330
C
100
AcDbDictionary
281
     1
  3
Layout1
350
1E
  3
Layout2
350
26
  3
Model
350
22
  0
DICTIONARY
  5
17
102
{ACAD_REACTORS
330
C
102
}
330
C
100
AcDbDictionary
281
     1
  3
Standard
350
18
  0
DICTIONARY
  5
19
102
{ACAD_REACTORS
330
C
102
}
330
C
100
AcDbDictionary
281
     1
  0
ACDBDICTIONARYWDFLT
  5
E
102
{ACAD_REACTORS
330
C
102
}
330
C
100
AcDbDictionary
281
     1
  3
Normal
350
F
100
AcDbDictionaryWithDefault
340
F
  0
GROUP
  5
DB
102
{ACAD_REACTORS
330
D
102
}
330
D
100
AcDbGroup
300
dicht
 70
     1
 71
     1
340
31
340
32
340
33
340
34
340
35
340
36
340
37
340
38
340
39
340
3A
340
3B
340
3C
340
3E
340
3F
340
41
340
4D
340
4E
340
4F
340
52
340
53
340
54
340
5B
340
61
340
62
340
82
340
84
340
A2
340
B1
340
B2
340
B3
340
B4
340
B6
340
B7
340
B8
340
B9
340
BA
340
BB
340
BC
340
BD
340
BE
340
BF
340
C0
340
C1
340
C2
340
C3
340
C4
340
C5
340
C6
  0
LAYOUT
  5
1E
102
{ACAD_REACTORS
330
1A
102
}
330
1A
100
AcDbPlotSettings
  1

  2

  4

  6

 40
0.0
 41
0.0
 42
0.0
 43
0.0
 44
0.0
 45
0.0
 46
0.0
 47
0.0
 48
0.0
 49
0.0
140
0.0
141
0.0
142
1.0
143
1.0
 70
   688
 72
     0
 73
     0
 74
     5
  7

 75
    16
147
1.0
148
0.0
149
0.0
100
AcDbLayout
  1
Layout1
 70
     1
 71
     1
 10
-210.0
 20
-148.5
 11
630.0
 21
445.5
 12
0.0
 22
0.0
 32
0.0
 14
-210.0
 24
-148.5
 34
0.0
 15
630.0
 25
445.5
 35
0.0
146
0.0
 13
0.0
 23
0.0
 33
0.0
 16
1.0
 26
0.0
 36
0.0
 17
0.0
 27
1.0
 37
0.0
 76
     0
330
1B
  0
LAYOUT
  5
26
102
{ACAD_REACTORS
330
1A
102
}
330
1A
100
AcDbPlotSettings
  1

  2

  4

  6

 40
0.0
 41
0.0
 42
0.0
 43
0.0
 44
0.0
 45
0.0
 46
0.0
 47
0.0
 48
0.0
 49
0.0
140
0.0
141
0.0
142
1.0
143
1.0
 70
   688
 72
     0
 73
     0
 74
     5
  7

 75
    16
147
1.0
148
0.0
149
0.0
100
AcDbLayout
  1
Layout2
 70
     1
 71
     2
 10
0.0
 20
0.0
 11
0.0
 21
0.0
 12
0.0
 22
0.0
 32
0.0
 14
0.0
 24
0.0
 34
0.0
 15
0.0
 25
0.0
 35
0.0
146
0.0
 13
0.0
 23
0.0
 33
0.0
 16
1.0
 26
0.0
 36
0.0
 17
0.0
 27
1.0
 37
0.0
 76
     0
330
23
  0
LAYOUT
  5
22
102
{ACAD_REACTORS
330
1A
102
}
330
1A
100
AcDbPlotSettings
  1

  2

  4

  6

 40
0.0
 41
0.0
 42
0.0
 43
0.0
 44
0.0
 45
0.0
 46
0.0
 47
0.0
 48
0.0
 49
0.0
140
0.0
141
0.0
142
1.0
143
1.0
 70
  1776
 72
     0
 73
     0
 74
     0
  7

 75
     0
147
1.0
148
0.0
149
0.0
100
AcDbLayout
  1
Model
 70
     1
 71
     0
 10
-210.0
 20
-148.5
 11
630.0
 21
445.5
 12
0.0
 22
0.0
 32
0.0
 14
-210.0
 24
-148.5
 34
0.0
 15
630.0
 25
445.5
 35
0.0
146
0.0
 13
0.0
 23
0.0
 33
0.0
 16
1.0
 26
0.0
 36
0.0
 17
0.0
 27
1.0
 37
0.0
 76
     0
330
1F
  0
MLINESTYLE
  5
18
102
{ACAD_REACTORS
330
17
102
}
330
17
100
AcDbMlineStyle
  2
Standard
 70
     0
  3

 62
   256
 51
90.0
 52
90.0
 71
     2
 49
0.5
 62
   256
  6
BYLAYER
 49
-0.5
 62
   256
  6
BYLAYER
  0
ACDBPLACEHOLDER
  5
F
102
{ACAD_REACTORS
330
E
102
}
330
E
  0
ENDSEC
  0
EOF
