  0
SECTION
  2
HEADER
  9
$ACADVER
  1
AC1009
  9
$INSBASE
 10
79.056902
 20
734.184
 30
0.0
  9
$EXTMIN
 10
79.056902
 20
734.184
 30
0.0
  9
$EXTMAX
 10
919.056902
 20
1328.184
 30
0.0
  9
$LIMMIN
 10
79.056902
 20
734.184
  9
$LIMMAX
 10
919.056902
 20
1328.184
  9
$ORTHOMODE
 70
     0
  9
$REGENMODE
 70
     1
  9
$FILLMODE
 70
     1
  9
$QTEXTMODE
 70
     0
  9
$MIRRTEXT
 70
     1
  9
$DRAGMODE
 70
     2
  9
$LTSCALE
 40
2.0
  9
$OSMODE
 70
     0
  9
$ATTMODE
 70
     1
  9
$TEXTSIZE
 40
0.2
  9
$TRACEWID
 40
0.05
  9
$TEXTSTYLE
  7
STANDARD
  9
$CLAYER
  8
0
  9
$CELTYPE
  6
BYLAYER
  9
$CECOLOR
 62
     7
  9
$DIMSCALE
 40
2.0
  9
$DIMASZ
 40
3.5
  9
$DIMEXO
 40
0.0625
  9
$DIMDLI
 40
0.38
  9
$DIMRND
 40
0.0
  9
$DIMDLE
 40
0.0
  9
$DIMEXE
 40
0.18
  9
$DIMTP
 40
0.0
  9
$DIMTM
 40
0.0
  9
$DIMTXT
 40
3.5
  9
$DIMCEN
 40
0.09
  9
$DIMTSZ
 40
0.0
  9
$DIMTOL
 70
     0
  9
$DIMLIM
 70
     0
  9
$DIMTIH
 70
     1
  9
$DIMTOH
 70
     1
  9
$DIMSE1
 70
     0
  9
$DIMSE2
 70
     0
  9
$DIMTAD
 70
     1
  9
$DIMZIN
 70
     0
  9
$DIMBLK
  1

  9
$DIMASO
 70
     1
  9
$DIMSHO
 70
     1
  9
$DIMPOST
  1

  9
$DIMAPOST
  1

  9
$DIMALT
 70
     0
  9
$DIMALTD
 70
     2
  9
$DIMALTF
 40
25.4
  9
$DIMLFAC
 40
1.0
  9
$DIMTOFL
 70
     0
  9
$DIMTVP
 40
0.0
  9
$DIMTIX
 70
     0
  9
$DIMSOXD
 70
     0
  9
$DIMSAH
 70
     0
  9
$DIMBLK1
  1

  9
$DIMBLK2
  1

  9
$DIMSTYLE
  2
STANDARD
  9
$DIMCLRD
 70
     0
  9
$DIMCLRE
 70
     0
  9
$DIMCLRT
 70
     0
  9
$DIMTFAC
 40
1.0
  9
$DIMGAP
 40
0.09
  9
$LUNITS
 70
     2
  9
$LUPREC
 70
     2
  9
$AXISMODE
 70
     0
  9
$AXISUNIT
 10
0.0
 20
0.0
  9
$SKETCHINC
 40
0.1
  9
$FILLETRAD
 40
0.0
  9
$AUNITS
 70
     0
  9
$AUPREC
 70
     0
  9
$MENU
  1
acad
  9
$ELEVATION
 40
0.0
  9
$PELEVATION
 40
0.0
  9
$THICKNESS
 40
0.0
  9
$LIMCHECK
 70
     0
  9
$BLIPMODE
 70
     1
  9
$CHAMFERA
 40
0.0
  9
$CHAMFERB
 40
0.0
  9
$SKPOLY
 70
     0
  9
$TDCREATE
 40
0.000000000
  9
$TDUPDATE
 40
0.000000000
  9
$TDINDWG
 40
0.0000000000
  9
$TDUSRTIMER
 40
0.0000000000
  9
$USRTIMER
 70
     1
  9
$ANGBASE
 50
0.0
  9
$ANGDIR
 70
     0
  9
$PDMODE
 70
     0
  9
$PDSIZE
 40
0.0
  9
$PLINEWID
 40
0.0
  9
$COORDS
 70
     0
  9
$SPLFRAME
 70
     0
  9
$SPLINETYPE
 70
     6
  9
$SPLINESEGS
 70
     8
  9
$ATTDIA
 70
     0
  9
$ATTREQ
 70
     1
  9
$HANDLING
 70
     1
  9
$HANDSEED
  5
230
  9
$SURFTAB1
 70
     6
  9
$SURFTAB2
 70
     6
  9
$SURFTYPE
 70
     6
  9
$SURFU
 70
     6
  9
$SURFV
 70
     6
  9
$UCSNAME
  2

  9
$UCSORG
 10
0.0
 20
0.0
 30
0.0
  9
$UCSXDIR
 10
1.0
 20
0.0
 30
0.0
  9
$UCSYDIR
 10
0.0
 20
1.0
 30
0.0
  9
$PUCSNAME
  2

  9
$PUCSORG
 10
0.0
 20
0.0
 30
0.0
  9
$PUCSXDIR
 10
1.0
 20
0.0
 30
0.0
  9
$PUCSYDIR
 10
0.0
 20
1.0
 30
0.0
  9
$USERI1
 70
     0
  9
$USERI2
 70
     0
  9
$USERI3
 70
     0
  9
$USERI4
 70
     0
  9
$USERI5
 70
     0
  9
$USERR1
 40
0.0
  9
$USERR2
 40
0.0
  9
$USERR3
 40
0.0
  9
$USERR4
 40
0.0
  9
$USERR5
 40
0.0
  9
$WORLDVIEW
 70
     1
  9
$SHADEDGE
 70
     3
  9
$SHADEDIF
 70
    70
  9
$TILEMODE
 70
     1
  9
$MAXACTVP
 70
    16
  9
$PINSBASE
 10
0.0
 20
0.0
 30
0.0
  9
$PLIMCHECK
 70
     0
  9
$PEXTMIN
 10
1.000000E+20
 20
1.000000E+20
 30
1.000000E+20
  9
$PEXTMAX
 10
-1.000000E+20
 20
-1.000000E+20
 30
-1.000000E+20
  9
$PLIMMIN
 10
79.056902
 20
734.184
  9
$PLIMMAX
 10
919.056902
 20
1328.184
  9
$UNITMODE
 70
     0
  9
$VISRETAIN
 70
     0
  9
$PLINEGEN
 70
     1
  9
$PSLTSCALE
 70
     0
  9
$TREEDEPTH
 70
  3020
  9
$DWGCODEPAGE
  3
dos850
  0
ENDSEC
  0
SECTION
  2
TABLES
  0
TABLE
  2
VPORT
 70
     1
  0
VPORT
  2
*ACTIVE
 70
     0
 10
0.0
 20
0.0
 11
1.0
 21
1.0
 12
420.0
 22
297.0
 13
0.0
 23
0.0
 14
1.0
 24
1.0
 15
0.0
 25
0.0
 16
0.0
 26
0.0
 36
1.0
 17
79.056902
 27
734.184
 37
0.0
 40
594.0
 41
1.604229
 42
50.0
 43
0.0
 44
0.0
 50
0.0
 51
0.0
 71
     0
 72
   100
 73
     1
 74
     1
 75
     0
 76
     0
 77
     0
 78
     0
  0
ENDTAB
  0
TABLE
  2
LTYPE
 70
     2
  0
LTYPE
  2
CONTINUOUS
 70
    64
  3
Solid line
 72
    65
 73
     0
 40
0.0
  0
LTYPE
  2
DASHDOT
 70
    64
  3
__ . __ . __ . __ . __
 72
    65
 73
     4
 40
7.5
 49
5.0
 49
-1.25
 49
0.0
 49
-1.25
  0
ENDTAB
  0
TABLE
  2
LAYER
 70
    10
  0
LAYER
  2
0
 70
     0
 62
     7
  6
CONTINUOUS
  0
LAYER
  2
LC-INFO-1-2-MM-A3-0
 70
     1
 62
    -1
  6
CONTINUOUS
  0
LAYER
  2
LC-002-003-MTH-0
 70
     0
 62
     2
  6
CONTINUOUS
  0
LAYER
  2
LC-003-003-MTG-0
 70
     0
 62
     2
  6
CONTINUOUS
  0
LAYER
  2
LC-001-003-----0
 70
     0
 62
     2
  6
CONTINUOUS
  0
LAYER
  2
LC-004-005-----0
 70
     0
 62
     2
  6
CONTINUOUS
  0
LAYER
  2
LC-006-000-----0
 70
     0
 62
     7
  6
CONTINUOUS
  0
LAYER
  2
LC-005-002-----0
 70
     0
 62
     1
  6
CONTINUOUS
  0
LAYER
  2
LC-007-002-RND-0
 70
     0
 62
     1
  6
CONTINUOUS
  0
LAYER
  2
LC-000
 70
     0
 62
     7
  6
CONTINUOUS
  0
ENDTAB
  0
TABLE
  2
STYLE
 70
     4
  0
STYLE
  2
STANDARD
 70
     0
 40
0.0
 41
1.0
 50
0.0
 71
     0
 42
0.0
  3
txt
  4

  0
STYLE
  2
LC-STANDARD
 70
    64
 40
0.0
 41
1.0
 50
0.0
 71
     0
 42
3.5
  3
MONOTXT
  4

  0
STYLE
  2
LC-TXTSTYLE-150-400-0-0-A2
 70
    64
 40
0.0
 41
1.0
 50
15.0
 71
     0
 42
3.5
  3
MONOTXT
  4

  0
STYLE
  2
LC-TXTSTYLE-150-400-0-0-D3
 70
    64
 40
0.0
 41
1.0
 50
15.0
 71
     0
 42
3.5
  3
LC-STANDARD
  4

  0
ENDTAB
  0
TABLE
  2
VIEW
 70
     0
  0
ENDTAB
  0
TABLE
  2
UCS
 70
     0
  0
ENDTAB
  0
TABLE
  2
APPID
 70
     1
  0
APPID
  2
ACAD
 70
     0
  0
ENDTAB
  0
TABLE
  2
DIMSTYLE
 70
     3
  0
DIMSTYLE
  2
STANDARD
 70
     0
  3

  4

  5

  6

  7

 40
1.0
 41
0.18
 42
0.0625
 43
0.38
 44
0.18
 45
0.0
 46
0.0
 47
0.0
 48
0.0
 71
     0
 72
     0
 73
     1
 74
     1
 75
     0
 76
     0
 77
     0
 78
     0
140
0.18
141
0.09
142
0.0
143
25.4
144
1.0
145
0.0
146
1.0
147
0.09
170
     0
171
     2
172
     0
173
     0
174
     0
175
     0
176
     0
177
     0
178
     0
  0
DIMSTYLE
  2
LC-STANDARD
 70
     0
  3

  4

  5

  6

  7

 40
1.0
 41
3.5
 42
0.0
 43
7.5
 44
1.8
 45
0.0
 46
0.0
 47
0.0
 48
0.0
 71
     0
 72
     0
 73
     0
 74
     0
 75
     0
 76
     0
 77
     1
 78
     8
140
3.5
141
0.0
142
0.0
143
25.4
144
1.0
145
0.0
146
0.71
147
1.5
170
     0
171
     2
172
     1
173
     0
174
     0
175
     0
176
     0
177
     0
178
     3
  0
DIMSTYLE
  2
LC-DIM-L-0140-02-02
 70
     0
  3

  4

  5

  6

  7

 40
2.0
 41
3.5
 42
0.0
 43
7.5
 44
1.8
 45
0.0
 46
0.0
 47
0.0
 48
0.0
 71
     0
 72
     0
 73
     0
 74
     0
 75
     0
 76
     0
 77
     1
 78
     8
140
14.0
141
0.0
142
0.0
143
25.4
144
1.0
145
0.0
146
0.71
147
1.5
170
     0
171
     2
172
     0
173
     0
174
     0
175
     0
176
     2
177
     2
178
     8
  0
ENDTAB
  0
ENDSEC
  0
SECTION
  2
BLOCKS
  0
BLOCK
  8
0
  5
23
  2
*D0
 70
    65
 10
0.0
 20
0.0
 30
0.0
  3
*D0
  0
LINE
  8
LC-002-003-MTH-0
  6
CONTINUOUS
  5
25
 10
343.680349
 20
1061.834072
 30
0.0
 11
343.680349
 21
1096.8
 31
0.0
  0
LINE
  8
LC-002-003-MTH-0
  6
CONTINUOUS
  5
26
 10
562.663901
 20
1061.834072
 30
0.0
 11
562.663901
 21
1096.8
 31
0.0
  0
LINE
  8
LC-003-003-MTG-0
  6
CONTINUOUS
  5
28
 10
343.680349
 20
1080.0
 30
0.0
 11
562.663901
 21
1080.0
 31
0.0
  0
LINE
  8
LC-001-003-----0
  6
CONTINUOUS
  5
2A
 10
371.440805
 20
1083.654733
 30
0.0
 11
343.680349
 21
1080.0
 31
0.0
  0
LINE
  8
LC-001-003-----0
  6
CONTINUOUS
  5
2B
 10
343.680349
 20
1080.0
 30
0.0
 11
371.440805
 21
1076.345267
 31
0.0
  0
LINE
  8
LC-001-003-----0
  6
CONTINUOUS
  5
2C
 10
371.440805
 20
1076.345267
 30
0.0
 11
371.440805
 21
1083.654733
 31
0.0
  0
LINE
  8
LC-001-003-----0
  6
CONTINUOUS
  5
2D
 10
371.503086
 20
1082.704503
 30
0.0
 11
350.960349
 21
1080.0
 31
0.0
  0
LINE
  8
LC-001-003-----0
  6
CONTINUOUS
  5
2E
 10
350.960349
 20
1080.0
 30
0.0
 11
371.503086
 21
1077.295497
 31
0.0
  0
LINE
  8
LC-001-003-----0
  6
CONTINUOUS
  5
2F
 10
371.565367
 20
1081.754272
 30
0.0
 11
358.240349
 21
1080.0
 31
0.0
  0
LINE
  8
LC-001-003-----0
  6
CONTINUOUS
  5
30
 10
358.240349
 20
1080.0
 30
0.0
 11
371.565367
 21
1078.245728
 31
0.0
  0
LINE
  8
LC-001-003-----0
  6
CONTINUOUS
  5
31
 10
371.627649
 20
1080.804041
 30
0.0
 11
365.520349
 21
1080.0
 31
0.0
  0
LINE
  8
LC-001-003-----0
  6
CONTINUOUS
  5
32
 10
365.520349
 20
1080.0
 30
0.0
 11
371.627649
 21
1079.195959
 31
0.0
  0
LINE
  8
LC-001-003-----0
  6
CONTINUOUS
  5
33
 10
534.903445
 20
1076.345267
 30
0.0
 11
562.663901
 21
1080.0
 31
0.0
  0
LINE
  8
LC-001-003-----0
  6
CONTINUOUS
  5
34
 10
562.663901
 20
1080.0
 30
0.0
 11
534.903445
 21
1083.654733
 31
0.0
  0
LINE
  8
LC-001-003-----0
  6
CONTINUOUS
  5
35
 10
534.903445
 20
1083.654733
 30
0.0
 11
534.903445
 21
1076.345267
 31
0.0
  0
LINE
  8
LC-001-003-----0
  6
CONTINUOUS
  5
36
 10
534.841163
 20
1077.295497
 30
0.0
 11
555.383901
 21
1080.0
 31
0.0
  0
LINE
  8
LC-001-003-----0
  6
CONTINUOUS
  5
37
 10
555.383901
 20
1080.0
 30
0.0
 11
534.841163
 21
1082.704503
 31
0.0
  0
LINE
  8
LC-001-003-----0
  6
CONTINUOUS
  5
38
 10
534.778882
 20
1078.245728
 30
0.0
 11
548.103901
 21
1080.0
 31
0.0
  0
LINE
  8
LC-001-003-----0
  6
CONTINUOUS
  5
39
 10
548.103901
 20
1080.0
 30
0.0
 11
534.778882
 21
1081.754272
 31
0.0
  0
LINE
  8
LC-001-003-----0
  6
CONTINUOUS
  5
3A
 10
534.7166
 20
1079.195959
 30
0.0
 11
540.823901
 21
1080.0
 31
0.0
  0
LINE
  8
LC-001-003-----0
  6
CONTINUOUS
  5
3B
 10
540.823901
 20
1080.0
 30
0.0
 11
534.7166
 21
1080.804041
 31
0.0
  0
TEXT
  8
LC-001-003-----0
  6
CONTINUOUS
 62
     8
  5
3D
 10
410.124916
 20
1087.827554
 30
0.0
 40
28.0
  1
Ø220
 41
0.9
 51
15.0
  7
LC-TXTSTYLE-150-400-0-0-D0
 72
     1
 11
448.222554
 21
1087.827554
 31
0.0
  0
ENDBLK
  8
0
  5
3E
  0
BLOCK
  8
0
  5
40
  2
*D1
 70
    65
 10
0.0
 20
0.0
 30
0.0
  3
*D1
  0
LINE
  8
LC-002-003-MTH-0
  6
CONTINUOUS
  5
41
 10
361.433957
 20
949.14482
 30
0.0
 11
361.433957
 21
976.8
 31
0.0
  0
LINE
  8
LC-002-003-MTH-0
  6
CONTINUOUS
  5
42
 10
544.910292
 20
949.14482
 30
0.0
 11
544.910292
 21
976.8
 31
0.0
  0
LINE
  8
LC-003-003-MTG-0
  6
CONTINUOUS
  5
43
 10
361.433957
 20
960.0
 30
0.0
 11
544.910292
 21
960.0
 31
0.0
  0
LINE
  8
LC-001-003-----0
  6
CONTINUOUS
  5
44
 10
389.194414
 20
963.654733
 30
0.0
 11
361.433957
 21
960.0
 31
0.0
  0
LINE
  8
LC-001-003-----0
  6
CONTINUOUS
  5
45
 10
361.433957
 20
960.0
 30
0.0
 11
389.194414
 21
956.345267
 31
0.0
  0
LINE
  8
LC-001-003-----0
  6
CONTINUOUS
  5
46
 10
389.194414
 20
956.345267
 30
0.0
 11
389.194414
 21
963.654733
 31
0.0
  0
LINE
  8
LC-001-003-----0
  6
CONTINUOUS
  5
47
 10
389.256695
 20
962.704503
 30
0.0
 11
368.713957
 21
960.0
 31
0.0
  0
LINE
  8
LC-001-003-----0
  6
CONTINUOUS
  5
48
 10
368.713957
 20
960.0
 30
0.0
 11
389.256695
 21
957.295497
 31
0.0
  0
LINE
  8
LC-001-003-----0
  6
CONTINUOUS
  5
49
 10
389.318976
 20
961.754272
 30
0.0
 11
375.993957
 21
960.0
 31
0.0
  0
LINE
  8
LC-001-003-----0
  6
CONTINUOUS
  5
4A
 10
375.993957
 20
960.0
 30
0.0
 11
389.318976
 21
958.245728
 31
0.0
  0
LINE
  8
LC-001-003-----0
  6
CONTINUOUS
  5
4B
 10
389.381258
 20
960.804041
 30
0.0
 11
383.273957
 21
960.0
 31
0.0
  0
LINE
  8
LC-001-003-----0
  6
CONTINUOUS
  5
4C
 10
383.273957
 20
960.0
 30
0.0
 11
389.381258
 21
959.195959
 31
0.0
  0
LINE
  8
LC-001-003-----0
  6
CONTINUOUS
  5
4D
 10
517.149836
 20
956.345267
 30
0.0
 11
544.910292
 21
960.0
 31
0.0
  0
LINE
  8
LC-001-003-----0
  6
CONTINUOUS
  5
4E
 10
544.910292
 20
960.0
 30
0.0
 11
517.149836
 21
963.654733
 31
0.0
  0
LINE
  8
LC-001-003-----0
  6
CONTINUOUS
  5
4F
 10
517.149836
 20
963.654733
 30
0.0
 11
517.149836
 21
956.345267
 31
0.0
  0
LINE
  8
LC-001-003-----0
  6
CONTINUOUS
  5
50
 10
517.087554
 20
957.295497
 30
0.0
 11
537.630292
 21
960.0
 31
0.0
  0
LINE
  8
LC-001-003-----0
  6
CONTINUOUS
  5
51
 10
537.630292
 20
960.0
 30
0.0
 11
517.087554
 21
962.704503
 31
0.0
  0
LINE
  8
LC-001-003-----0
  6
CONTINUOUS
  5
52
 10
517.025273
 20
958.245728
 30
0.0
 11
530.350292
 21
960.0
 31
0.0
  0
LINE
  8
LC-001-003-----0
  6
CONTINUOUS
  5
53
 10
530.350292
 20
960.0
 30
0.0
 11
517.025273
 21
961.754272
 31
0.0
  0
LINE
  8
LC-001-003-----0
  6
CONTINUOUS
  5
54
 10
516.962991
 20
959.195959
 30
0.0
 11
523.070292
 21
960.0
 31
0.0
  0
LINE
  8
LC-001-003-----0
  6
CONTINUOUS
  5
55
 10
523.070292
 20
960.0
 30
0.0
 11
516.962991
 21
960.804041
 31
0.0
  0
TEXT
  8
LC-001-003-----0
  6
CONTINUOUS
 62
     8
  5
56
 10
414.369724
 20
967.827554
 30
0.0
 40
28.0
  1
Ø185
 51
15.0
  7
LC-TXTSTYLE-150-400-0-0-D0
 72
     1
 11
452.467362
 21
967.827554
 31
0.0
  0
ENDBLK
  8
0
  5
57
  0
BLOCK
  8
0
  5
59
  2
*D2
 70
    65
 10
0.0
 20
0.0
 30
0.0
  3
*D2
  0
LINE
  8
LC-002-003-MTH-0
  6
CONTINUOUS
  5
5A
 10
376.219338
 20
1146.832751
 30
0.0
 11
376.219338
 21
1178.8
 31
0.0
  0
LINE
  8
LC-002-003-MTH-0
  6
CONTINUOUS
  5
5B
 10
530.124912
 20
1146.832751
 30
0.0
 11
530.124912
 21
1178.8
 31
0.0
  0
LINE
  8
LC-003-003-MTG-0
  6
CONTINUOUS
  5
5C
 10
376.219338
 20
1162.0
 30
0.0
 11
530.124912
 21
1162.0
 31
0.0
  0
LINE
  8
LC-001-003-----0
  6
CONTINUOUS
  5
5D
 10
403.979794
 20
1165.654733
 30
0.0
 11
376.219338
 21
1162.0
 31
0.0
  0
LINE
  8
LC-001-003-----0
  6
CONTINUOUS
  5
5E
 10
376.219338
 20
1162.0
 30
0.0
 11
403.979794
 21
1158.345267
 31
0.0
  0
LINE
  8
LC-001-003-----0
  6
CONTINUOUS
  5
5F
 10
403.979794
 20
1158.345267
 30
0.0
 11
403.979794
 21
1165.654733
 31
0.0
  0
LINE
  8
LC-001-003-----0
  6
CONTINUOUS
  5
60
 10
404.042075
 20
1164.704503
 30
0.0
 11
383.499338
 21
1162.0
 31
0.0
  0
LINE
  8
LC-001-003-----0
  6
CONTINUOUS
  5
61
 10
383.499338
 20
1162.0
 30
0.0
 11
404.042075
 21
1159.295497
 31
0.0
  0
LINE
  8
LC-001-003-----0
  6
CONTINUOUS
  5
62
 10
404.104357
 20
1163.754272
 30
0.0
 11
390.779338
 21
1162.0
 31
0.0
  0
LINE
  8
LC-001-003-----0
  6
CONTINUOUS
  5
63
 10
390.779338
 20
1162.0
 30
0.0
 11
404.104357
 21
1160.245728
 31
0.0
  0
LINE
  8
LC-001-003-----0
  6
CONTINUOUS
  5
64
 10
404.166638
 20
1162.804041
 30
0.0
 11
398.059338
 21
1162.0
 31
0.0
  0
LINE
  8
LC-001-003-----0
  6
CONTINUOUS
  5
65
 10
398.059338
 20
1162.0
 30
0.0
 11
404.166638
 21
1161.195959
 31
0.0
  0
LINE
  8
LC-001-003-----0
  6
CONTINUOUS
  5
66
 10
502.364456
 20
1158.345267
 30
0.0
 11
530.124912
 21
1162.0
 31
0.0
  0
LINE
  8
LC-001-003-----0
  6
CONTINUOUS
  5
67
 10
530.124912
 20
1162.0
 30
0.0
 11
502.364456
 21
1165.654733
 31
0.0
  0
LINE
  8
LC-001-003-----0
  6
CONTINUOUS
  5
68
 10
502.364456
 20
1165.654733
 30
0.0
 11
502.364456
 21
1158.345267
 31
0.0
  0
LINE
  8
LC-001-003-----0
  6
CONTINUOUS
  5
69
 10
502.302174
 20
1159.295497
 30
0.0
 11
522.844912
 21
1162.0
 31
0.0
  0
LINE
  8
LC-001-003-----0
  6
CONTINUOUS
  5
6A
 10
522.844912
 20
1162.0
 30
0.0
 11
502.302174
 21
1164.704503
 31
0.0
  0
LINE
  8
LC-001-003-----0
  6
CONTINUOUS
  5
6B
 10
502.239893
 20
1160.245728
 30
0.0
 11
515.564912
 21
1162.0
 31
0.0
  0
LINE
  8
LC-001-003-----0
  6
CONTINUOUS
  5
6C
 10
515.564912
 20
1162.0
 30
0.0
 11
502.239893
 21
1163.754272
 31
0.0
  0
LINE
  8
LC-001-003-----0
  6
CONTINUOUS
  5
6D
 10
502.177611
 20
1161.195959
 30
0.0
 11
508.284912
 21
1162.0
 31
0.0
  0
LINE
  8
LC-001-003-----0
  6
CONTINUOUS
  5
6E
 10
508.284912
 20
1162.0
 30
0.0
 11
502.177611
 21
1162.804041
 31
0.0
  0
TEXT
  8
LC-001-003-----0
  6
CONTINUOUS
 62
     8
  5
6F
 10
419.422647
 20
1169.827554
 30
0.0
 40
28.0
  1
Ø158
 51
15.0
  7
LC-TXTSTYLE-150-400-0-0-D0
 72
     1
 11
457.520285
 21
1169.827554
 31
0.0
  0
ENDBLK
  8
0
  5
70
  0
BLOCK
  8
0
  5
72
  2
*X3
 70
    65
 10
342.119839
 20
1027.244714
 30
0.0
  3
*X3
  0
LINE
  8
LC-004-005-----0
  6
CONTINUOUS
  5
74
 10
383.777543
 20
1027.244714
 30
0.0
 11
383.919338
 21
1027.386508
 31
0.0
  0
LINE
  8
LC-004-005-----0
  6
CONTINUOUS
  5
75
 10
382.36333
 20
1027.244714
 30
0.0
 11
383.06333
 21
1027.944714
 31
0.0
  0
LINE
  8
LC-004-005-----0
  6
CONTINUOUS
  5
76
 10
380.949116
 20
1027.244714
 30
0.0
 11
381.649116
 21
1027.944714
 31
0.0
  0
LINE
  8
LC-004-005-----0
  6
CONTINUOUS
  5
77
 10
379.534903
 20
1027.244714
 30
0.0
 11
380.234903
 21
1027.944714
 31
0.0
  0
LINE
  8
LC-004-005-----0
  6
CONTINUOUS
  5
78
 10
378.120689
 20
1027.244714
 30
0.0
 11
378.820689
 21
1027.944714
 31
0.0
  0
LINE
  8
LC-004-005-----0
  6
CONTINUOUS
  5
79
 10
376.859432
 20
1027.397671
 30
0.0
 11
377.413507
 21
1027.951745
 31
0.0
  0
LINE
  8
LC-004-005-----0
  6
CONTINUOUS
  5
7A
 10
376.159386
 20
1028.111838
 30
0.0
 11
376.722394
 21
1028.674847
 31
0.0
  0
LINE
  8
LC-004-005-----0
  6
CONTINUOUS
  5
7B
 10
377.595139
 20
1029.547591
 30
0.0
 11
378.516461
 21
1030.468913
 31
0.0
  0
LINE
  8
LC-004-005-----0
  6
CONTINUOUS
  5
7C
 10
377.819818
 20
1031.186484
 30
0.0
 11
378.519439
 21
1031.886105
 31
0.0
  0
LINE
  8
LC-004-005-----0
  6
CONTINUOUS
  5
7D
 10
377.819725
 20
1032.600605
 30
0.0
 11
378.519546
 21
1033.300425
 31
0.0
  0
LINE
  8
LC-004-005-----0
  6
CONTINUOUS
  5
7E
 10
377.819633
 20
1034.014726
 30
0.0
 11
378.440301
 21
1034.635393
 31
0.0
  0
LINE
  8
LC-004-005-----0
  6
CONTINUOUS
  5
7F
 10
376.977911
 20
1034.587218
 30
0.0
 11
377.629698
 21
1035.239005
 31
0.0
  0
LINE
  8
LC-004-005-----0
  6
CONTINUOUS
  5
80
 10
375.912339
 20
1034.935859
 30
0.0
 11
376.438579
 21
1035.462099
 31
0.0
  0
LINE
  8
LC-004-005-----0
  6
CONTINUOUS
  5
81
 10
375.088934
 20
1035.526667
 30
0.0
 11
375.584005
 21
1036.021739
 31
0.0
  0
LINE
  8
LC-004-005-----0
  6
CONTINUOUS
  5
82
 10
374.471988
 20
1036.323935
 30
0.0
 11
374.990839
 21
1036.842786
 31
0.0
  0
LINE
  8
LC-004-005-----0
  6
CONTINUOUS
  5
83
 10
374.088427
 20
1037.354588
 30
0.0
 11
374.720312
 21
1037.986472
 31
0.0
  0
LINE
  8
LC-004-005-----0
  6
CONTINUOUS
  5
84
 10
374.019338
 20
1038.699712
 30
0.0
 11
374.719669
 21
1039.400043
 31
0.0
  0
LINE
  8
LC-004-005-----0
  6
CONTINUOUS
  5
85
 10
374.019338
 20
1040.113925
 30
0.0
 11
374.719631
 21
1040.814219
 31
0.0
  0
LINE
  8
LC-004-005-----0
  6
CONTINUOUS
  5
86
 10
374.019338
 20
1041.528139
 30
0.0
 11
374.719592
 21
1042.228394
 31
0.0
  0
LINE
  8
LC-004-005-----0
  6
CONTINUOUS
  5
87
 10
374.019338
 20
1042.942353
 30
0.0
 11
374.719554
 21
1043.642569
 31
0.0
  0
LINE
  8
LC-004-005-----0
  6
CONTINUOUS
  5
88
 10
374.019338
 20
1044.356566
 30
0.0
 11
374.719516
 21
1045.056744
 31
0.0
  0
LINE
  8
LC-004-005-----0
  6
CONTINUOUS
  5
89
 10
374.019338
 20
1045.77078
 30
0.0
 11
374.719477
 21
1046.47092
 31
0.0
  0
LINE
  8
LC-004-005-----0
  6
CONTINUOUS
  5
8A
 10
374.019338
 20
1047.184993
 30
0.0
 11
374.719439
 21
1047.885095
 31
0.0
  0
LINE
  8
LC-004-005-----0
  6
CONTINUOUS
  5
8B
 10
374.019338
 20
1048.599207
 30
0.0
 11
374.719401
 21
1049.29927
 31
0.0
  0
LINE
  8
LC-004-005-----0
  6
CONTINUOUS
  5
8C
 10
374.019338
 20
1050.01342
 30
0.0
 11
374.719363
 21
1050.713445
 31
0.0
  0
LINE
  8
LC-004-005-----0
  6
CONTINUOUS
  5
8D
 10
374.019338
 20
1051.427634
 30
0.0
 11
374.703023
 21
1052.111319
 31
0.0
  0
LINE
  8
LC-004-005-----0
  6
CONTINUOUS
  5
8E
 10
373.92084
 20
1052.74335
 30
0.0
 11
374.510052
 21
1053.332562
 31
0.0
  0
LINE
  8
LC-004-005-----0
  6
CONTINUOUS
  5
8F
 10
373.615706
 20
1053.852429
 30
0.0
 11
374.153665
 21
1054.390388
 31
0.0
  0
LINE
  8
LC-004-005-----0
  6
CONTINUOUS
  5
90
 10
373.159666
 20
1054.810603
 30
0.0
 11
373.669676
 21
1055.320613
 31
0.0
  0
LINE
  8
LC-004-005-----0
  6
CONTINUOUS
  5
91
 10
372.578426
 20
1055.643576
 30
0.0
 11
373.075437
 21
1056.140587
 31
0.0
  0
LINE
  8
LC-004-005-----0
  6
CONTINUOUS
  5
92
 10
371.882633
 20
1056.361997
 30
0.0
 11
372.378506
 21
1056.85787
 31
0.0
  0
LINE
  8
LC-004-005-----0
  6
CONTINUOUS
  5
93
 10
371.073182
 20
1056.96676
 30
0.0
 11
371.57953
 21
1057.473108
 31
0.0
  0
LINE
  8
LC-004-005-----0
  6
CONTINUOUS
  5
94
 10
370.14161
 20
1057.449401
 30
0.0
 11
370.672466
 21
1057.980257
 31
0.0
  0
LINE
  8
LC-004-005-----0
  6
CONTINUOUS
  5
95
 10
369.066053
 20
1057.788058
 30
0.0
 11
369.642353
 21
1058.364358
 31
0.0
  0
LINE
  8
LC-004-005-----0
  6
CONTINUOUS
  5
96
 10
367.796984
 20
1057.933202
 30
0.0
 11
368.458344
 21
1058.594562
 31
0.0
  0
LINE
  8
LC-004-005-----0
  6
CONTINUOUS
  5
97
 10
366.459909
 20
1058.010341
 30
0.0
 11
367.105869
 21
1058.656301
 31
0.0
  0
LINE
  8
LC-004-005-----0
  6
CONTINUOUS
  5
98
 10
365.138124
 20
1058.102769
 30
0.0
 11
365.784083
 21
1058.748729
 31
0.0
  0
LINE
  8
LC-004-005-----0
  6
CONTINUOUS
  5
99
 10
363.816339
 20
1058.195198
 30
0.0
 11
364.462298
 21
1058.841157
 31
0.0
  0
LINE
  8
LC-004-005-----0
  6
CONTINUOUS
  5
9A
 10
362.494553
 20
1058.287626
 30
0.0
 11
363.140513
 21
1058.933585
 31
0.0
  0
LINE
  8
LC-004-005-----0
  6
CONTINUOUS
  5
9B
 10
361.172768
 20
1058.380054
 30
0.0
 11
361.818727
 21
1059.026014
 31
0.0
  0
LINE
  8
LC-004-005-----0
  6
CONTINUOUS
  5
9C
 10
359.850983
 20
1058.472482
 30
0.0
 11
360.496942
 21
1059.118442
 31
0.0
  0
LINE
  8
LC-004-005-----0
  6
CONTINUOUS
  5
9D
 10
358.529197
 20
1058.564911
 30
0.0
 11
359.175157
 21
1059.21087
 31
0.0
  0
LINE
  8
LC-004-005-----0
  6
CONTINUOUS
  5
9E
 10
357.207412
 20
1058.657339
 30
0.0
 11
357.853371
 21
1059.303298
 31
0.0
  0
LINE
  8
LC-004-005-----0
  6
CONTINUOUS
  5
9F
 10
355.885627
 20
1058.749767
 30
0.0
 11
356.531586
 21
1059.395726
 31
0.0
  0
LINE
  8
LC-004-005-----0
  6
CONTINUOUS
  5
A0
 10
354.563841
 20
1058.842195
 30
0.0
 11
355.209801
 21
1059.488155
 31
0.0
  0
LINE
  8
LC-004-005-----0
  6
CONTINUOUS
  5
A1
 10
353.242056
 20
1058.934624
 30
0.0
 11
353.888015
 21
1059.580583
 31
0.0
  0
LINE
  8
LC-004-005-----0
  6
CONTINUOUS
  5
A2
 10
351.920271
 20
1059.027052
 30
0.0
 11
352.56623
 21
1059.673011
 31
0.0
  0
LINE
  8
LC-004-005-----0
  6
CONTINUOUS
  5
A3
 10
350.598485
 20
1059.11948
 30
0.0
 11
351.244445
 21
1059.765439
 31
0.0
  0
LINE
  8
LC-004-005-----0
  6
CONTINUOUS
  5
A4
 10
349.2767
 20
1059.211908
 30
0.0
 11
349.922659
 21
1059.857868
 31
0.0
  0
LINE
  8
LC-004-005-----0
  6
CONTINUOUS
  5
A5
 10
347.983412
 20
1059.332834
 30
0.0
 11
348.611121
 21
1059.960543
 31
0.0
  0
LINE
  8
LC-004-005-----0
  6
CONTINUOUS
  5
A6
 10
346.853401
 20
1059.617036
 30
0.0
 11
347.412185
 21
1060.17582
 31
0.0
  0
LINE
  8
LC-004-005-----0
  6
CONTINUOUS
  5
A7
 10
345.86491
 20
1060.042759
 30
0.0
 11
346.386133
 21
1060.563982
 31
0.0
  0
LINE
  8
LC-004-005-----0
  6
CONTINUOUS
  5
A8
 10
344.993449
 20
1060.585512
 30
0.0
 11
345.495109
 21
1061.087172
 31
0.0
  0
LINE
  8
LC-004-005-----0
  6
CONTINUOUS
  5
A9
 10
344.227347
 20
1061.233623
 30
0.0
 11
344.722358
 21
1061.728634
 31
0.0
  0
ENDBLK
  8
0
  5
AA
  0
BLOCK
  8
0
  5
AC
  2
*X4
 70
    65
 10
522.424912
 20
1027.244714
 30
0.0
  3
*X4
  0
LINE
  8
LC-004-005-----0
  6
CONTINUOUS
  5
AD
 10
529.812721
 20
1027.615895
 30
0.0
 11
529.953731
 21
1027.756905
 31
0.0
  0
LINE
  8
LC-004-005-----0
  6
CONTINUOUS
  5
AE
 10
528.027327
 20
1027.244714
 30
0.0
 11
528.727327
 21
1027.944714
 31
0.0
  0
LINE
  8
LC-004-005-----0
  6
CONTINUOUS
  5
AF
 10
529.619575
 20
1028.836963
 30
0.0
 11
530.176946
 21
1029.394333
 31
0.0
  0
LINE
  8
LC-004-005-----0
  6
CONTINUOUS
  5
B0
 10
561.417131
 20
1060.634519
 30
0.0
 11
562.616427
 21
1061.833814
 31
0.0
  0
LINE
  8
LC-004-005-----0
  6
CONTINUOUS
  5
B1
 10
526.613113
 20
1027.244714
 30
0.0
 11
527.313113
 21
1027.944714
 31
0.0
  0
LINE
  8
LC-004-005-----0
  6
CONTINUOUS
  5
B2
 10
528.908712
 20
1029.540313
 30
0.0
 11
529.46818
 21
1030.099781
 31
0.0
  0
LINE
  8
LC-004-005-----0
  6
CONTINUOUS
  5
B3
 10
558.784412
 20
1059.416013
 30
0.0
 11
559.908973
 21
1060.540574
 31
0.0
  0
LINE
  8
LC-004-005-----0
  6
CONTINUOUS
  5
B4
 10
525.1989
 20
1027.244714
 30
0.0
 11
525.8989
 21
1027.944714
 31
0.0
  0
LINE
  8
LC-004-005-----0
  6
CONTINUOUS
  5
B5
 10
527.973844
 20
1030.019658
 30
0.0
 11
528.524391
 21
1030.570206
 31
0.0
  0
LINE
  8
LC-004-005-----0
  6
CONTINUOUS
  5
B6
 10
557.173503
 20
1059.219317
 30
0.0
 11
557.934276
 21
1059.980091
 31
0.0
  0
LINE
  8
LC-004-005-----0
  6
CONTINUOUS
  5
B7
 10
523.784686
 20
1027.244714
 30
0.0
 11
524.484686
 21
1027.944714
 31
0.0
  0
LINE
  8
LC-004-005-----0
  6
CONTINUOUS
  5
B8
 10
527.824856
 20
1031.284884
 30
0.0
 11
528.524484
 21
1031.984512
 31
0.0
  0
LINE
  8
LC-004-005-----0
  6
CONTINUOUS
  5
B9
 10
555.652963
 20
1059.112991
 30
0.0
 11
556.396054
 21
1059.856082
 31
0.0
  0
LINE
  8
LC-004-005-----0
  6
CONTINUOUS
  5
BA
 10
522.424912
 20
1027.299153
 30
0.0
 11
523.070472
 21
1027.944714
 31
0.0
  0
LINE
  8
LC-004-005-----0
  6
CONTINUOUS
  5
BB
 10
527.824749
 20
1032.69899
 30
0.0
 11
528.524576
 21
1033.398818
 31
0.0
  0
LINE
  8
LC-004-005-----0
  6
CONTINUOUS
  5
BC
 10
529.81332
 20
1034.687562
 30
0.0
 11
532.182064
 21
1037.056306
 31
0.0
  0
LINE
  8
LC-004-005-----0
  6
CONTINUOUS
  5
BD
 10
554.132422
 20
1059.006664
 30
0.0
 11
554.875514
 21
1059.749755
 31
0.0
  0
LINE
  8
LC-004-005-----0
  6
CONTINUOUS
  5
BE
 10
527.824642
 20
1034.113097
 30
0.0
 11
528.959882
 21
1035.248338
 31
0.0
  0
LINE
  8
LC-004-005-----0
  6
CONTINUOUS
  5
BF
 10
531.621288
 20
1037.909744
 30
0.0
 11
532.324559
 21
1038.613014
 31
0.0
  0
LINE
  8
LC-004-005-----0
  6
CONTINUOUS
  5
C0
 10
552.611882
 20
1058.900338
 30
0.0
 11
553.354974
 21
1059.643429
 31
0.0
  0
LINE
  8
LC-004-005-----0
  6
CONTINUOUS
  5
C1
 10
531.624912
 20
1039.327581
 30
0.0
 11
532.324597
 21
1040.027266
 31
0.0
  0
LINE
  8
LC-004-005-----0
  6
CONTINUOUS
  5
C2
 10
551.091342
 20
1058.794011
 30
0.0
 11
551.834433
 21
1059.537102
 31
0.0
  0
LINE
  8
LC-004-005-----0
  6
CONTINUOUS
  5
C3
 10
531.624912
 20
1040.741794
 30
0.0
 11
532.324636
 21
1041.441518
 31
0.0
  0
LINE
  8
LC-004-005-----0
  6
CONTINUOUS
  5
C4
 10
549.570802
 20
1058.687685
 30
0.0
 11
550.313893
 21
1059.430776
 31
0.0
  0
LINE
  8
LC-004-005-----0
  6
CONTINUOUS
  5
C5
 10
531.624912
 20
1042.156008
 30
0.0
 11
532.324674
 21
1042.85577
 31
0.0
  0
LINE
  8
LC-004-005-----0
  6
CONTINUOUS
  5
C6
 10
548.050262
 20
1058.581358
 30
0.0
 11
548.793353
 21
1059.324449
 31
0.0
  0
LINE
  8
LC-004-005-----0
  6
CONTINUOUS
  5
C7
 10
531.624912
 20
1043.570221
 30
0.0
 11
532.324712
 21
1044.270022
 31
0.0
  0
LINE
  8
LC-004-005-----0
  6
CONTINUOUS
  5
C8
 10
546.529722
 20
1058.475032
 30
0.0
 11
547.272813
 21
1059.218123
 31
0.0
  0
LINE
  8
LC-004-005-----0
  6
CONTINUOUS
  5
C9
 10
531.624912
 20
1044.984435
 30
0.0
 11
532.324751
 21
1045.684274
 31
0.0
  0
LINE
  8
LC-004-005-----0
  6
CONTINUOUS
  5
CA
 10
545.009182
 20
1058.368705
 30
0.0
 11
545.752273
 21
1059.111796
 31
0.0
  0
LINE
  8
LC-004-005-----0
  6
CONTINUOUS
  5
CB
 10
531.624912
 20
1046.398648
 30
0.0
 11
532.324789
 21
1047.098526
 31
0.0
  0
LINE
  8
LC-004-005-----0
  6
CONTINUOUS
  5
CC
 10
543.488642
 20
1058.262379
 30
0.0
 11
544.231733
 21
1059.00547
 31
0.0
  0
LINE
  8
LC-004-005-----0
  6
CONTINUOUS
  5
CD
 10
531.624912
 20
1047.812862
 30
0.0
 11
532.324827
 21
1048.512777
 31
0.0
  0
LINE
  8
LC-004-005-----0
  6
CONTINUOUS
  5
CE
 10
541.968102
 20
1058.156052
 30
0.0
 11
542.711193
 21
1058.899143
 31
0.0
  0
LINE
  8
LC-004-005-----0
  6
CONTINUOUS
  5
CF
 10
531.624912
 20
1049.227076
 30
0.0
 11
532.324865
 21
1049.927029
 31
0.0
  0
LINE
  8
LC-004-005-----0
  6
CONTINUOUS
  5
D0
 10
540.447562
 20
1058.049726
 30
0.0
 11
541.190653
 21
1058.792817
 31
0.0
  0
LINE
  8
LC-004-005-----0
  6
CONTINUOUS
  5
D1
 10
531.624912
 20
1050.641289
 30
0.0
 11
532.324904
 21
1051.341281
 31
0.0
  0
LINE
  8
LC-004-005-----0
  6
CONTINUOUS
  5
D2
 10
538.927022
 20
1057.943399
 30
0.0
 11
539.670113
 21
1058.68649
 31
0.0
  0
LINE
  8
LC-004-005-----0
  6
CONTINUOUS
  5
D3
 10
531.638464
 20
1052.069055
 30
0.0
 11
532.449424
 21
1052.880015
 31
0.0
  0
LINE
  8
LC-004-005-----0
  6
CONTINUOUS
  5
D4
 10
537.378578
 20
1057.809169
 30
0.0
 11
538.189538
 21
1058.620129
 31
0.0
  0
LINE
  8
LC-004-005-----0
  6
CONTINUOUS
  5
D5
 10
531.975052
 20
1053.819856
 30
0.0
 11
533.635825
 21
1055.480629
 31
0.0
  0
LINE
  8
LC-004-005-----0
  6
CONTINUOUS
  5
D6
 10
534.777964
 20
1056.622768
 30
0.0
 11
536.438736
 21
1058.283541
 31
0.0
  0
ENDBLK
  8
0
  5
D7
  0
BLOCK
  8
0
  5
D9
  2
BLK1
 70
    64
 10
0.0
 20
0.0
 30
0.0
  3
BLK1
  0
ENDBLK
  8
0
  5
DA
  0
BLOCK
  8
0
  5
DC
  2
*X6
 70
    65
 10
532.777864
 20
933.431555
 30
0.0
  3
*X6
  0
LINE
  8
LC-004-005-----0
  6
CONTINUOUS
  5
DD
 10
537.794316
 20
933.774114
 30
0.0
 11
540.050967
 21
936.030764
 31
0.0
  0
LINE
  8
LC-004-005-----0
  6
CONTINUOUS
  5
DE
 10
537.649444
 20
936.457669
 30
0.0
 11
540.050967
 21
938.859191
 31
0.0
  0
LINE
  8
LC-004-005-----0
  6
CONTINUOUS
  5
DF
 10
541.76891
 20
940.577135
 30
0.0
 11
544.910292
 21
943.718516
 31
0.0
  0
LINE
  8
LC-004-005-----0
  6
CONTINUOUS
  5
E0
 10
534.528329
 20
936.16498
 30
0.0
 11
540.050967
 21
941.687618
 31
0.0
  0
LINE
  8
LC-004-005-----0
  6
CONTINUOUS
  5
E1
 10
541.76891
 20
943.405562
 30
0.0
 11
544.910292
 21
946.546944
 31
0.0
  0
LINE
  8
LC-004-005-----0
  6
CONTINUOUS
  5
E2
 10
537.794525
 20
942.259604
 30
0.0
 11
540.050967
 21
944.516046
 31
0.0
  0
LINE
  8
LC-004-005-----0
  6
CONTINUOUS
  5
E3
 10
541.76891
 20
946.233989
 30
0.0
 11
544.662414
 21
949.127493
 31
0.0
  0
LINE
  8
LC-004-005-----0
  6
CONTINUOUS
  5
E4
 10
536.638556
 20
943.932062
 30
0.0
 11
541.621405
 21
948.914911
 31
0.0
  0
LINE
  8
LC-004-005-----0
  6
CONTINUOUS
  5
E5
 10
532.784474
 20
942.906407
 30
0.0
 11
538.556665
 21
948.678598
 31
0.0
  0
ENDBLK
  8
0
  5
E6
  0
BLOCK
  8
0
  5
E8
  2
*X7
 70
    65
 10
361.433957
 20
933.431555
 30
0.0
  3
*X7
  0
LINE
  8
LC-004-005-----0
  6
CONTINUOUS
  5
E9
 10
372.90985
 20
935.766848
 30
0.0
 11
373.395112
 21
936.25211
 31
0.0
  0
LINE
  8
LC-004-005-----0
  6
CONTINUOUS
  5
EA
 10
367.74613
 20
933.431555
 30
0.0
 11
368.549919
 21
934.235344
 31
0.0
  0
LINE
  8
LC-004-005-----0
  6
CONTINUOUS
  5
EB
 10
370.836143
 20
936.521568
 30
0.0
 11
372.030255
 21
937.71568
 31
0.0
  0
LINE
  8
LC-004-005-----0
  6
CONTINUOUS
  5
EC
 10
366.293283
 20
934.807135
 30
0.0
 11
370.665399
 21
939.179251
 31
0.0
  0
LINE
  8
LC-004-005-----0
  6
CONTINUOUS
  5
ED
 10
366.293283
 20
937.635562
 30
0.0
 11
369.300542
 21
940.642821
 31
0.0
  0
LINE
  8
LC-004-005-----0
  6
CONTINUOUS
  5
EE
 10
371.832441
 20
943.17472
 30
0.0
 11
372.685937
 21
944.028216
 31
0.0
  0
LINE
  8
LC-004-005-----0
  6
CONTINUOUS
  5
EF
 10
366.293283
 20
940.463989
 30
0.0
 11
368.549714
 21
942.72042
 31
0.0
  0
LINE
  8
LC-004-005-----0
  6
CONTINUOUS
  5
F0
 10
369.752189
 20
943.922895
 30
0.0
 11
371.32108
 21
945.491787
 31
0.0
  0
LINE
  8
LC-004-005-----0
  6
CONTINUOUS
  5
F1
 10
363.388289
 20
940.387422
 30
0.0
 11
364.575339
 21
941.574473
 31
0.0
  0
LINE
  8
LC-004-005-----0
  6
CONTINUOUS
  5
F2
 10
366.293283
 20
943.292416
 30
0.0
 11
369.956224
 21
946.955357
 31
0.0
  0
LINE
  8
LC-004-005-----0
  6
CONTINUOUS
  5
F3
 10
361.461437
 20
941.288998
 30
0.0
 11
364.575339
 21
944.4029
 31
0.0
  0
LINE
  8
LC-004-005-----0
  6
CONTINUOUS
  5
F4
 10
366.293283
 20
946.120843
 30
0.0
 11
368.591367
 21
948.418927
 31
0.0
  0
LINE
  8
LC-004-005-----0
  6
CONTINUOUS
  5
F5
 10
361.433957
 20
944.089945
 30
0.0
 11
366.158559
 21
948.814547
 31
0.0
  0
LINE
  8
LC-004-005-----0
  6
CONTINUOUS
  5
F6
 10
361.433957
 20
946.918372
 30
0.0
 11
363.514935
 21
948.99935
 31
0.0
  0
ENDBLK
  8
0
  5
F7
  0
BLOCK
  8
0
  5
F9
  2
*X8
 70
    65
 10
342.180601
 20
1205.631252
 30
0.0
  3
*X8
  0
LINE
  8
LC-004-005-----0
  6
CONTINUOUS
  5
FA
 10
451.955928
 20
1215.631252
 30
0.0
 11
453.180601
 21
1216.855924
 31
0.0
  0
LINE
  8
LC-004-005-----0
  6
CONTINUOUS
  5
FB
 10
449.127501
 20
1215.631252
 30
0.0
 11
451.127501
 21
1217.631252
 31
0.0
  0
LINE
  8
LC-004-005-----0
  6
CONTINUOUS
  5
FC
 10
446.299074
 20
1215.631252
 30
0.0
 11
448.299074
 21
1217.631252
 31
0.0
  0
LINE
  8
LC-004-005-----0
  6
CONTINUOUS
  5
FD
 10
443.470647
 20
1215.631252
 30
0.0
 11
445.470647
 21
1217.631252
 31
0.0
  0
LINE
  8
LC-004-005-----0
  6
CONTINUOUS
  5
FE
 10
440.64222
 20
1215.631252
 30
0.0
 11
442.64222
 21
1217.631252
 31
0.0
  0
LINE
  8
LC-004-005-----0
  6
CONTINUOUS
  5
FF
 10
437.813793
 20
1215.631252
 30
0.0
 11
439.813793
 21
1217.631252
 31
0.0
  0
LINE
  8
LC-004-005-----0
  6
CONTINUOUS
  5
100
 10
434.985366
 20
1215.631252
 30
0.0
 11
436.985366
 21
1217.631252
 31
0.0
  0
LINE
  8
LC-004-005-----0
  6
CONTINUOUS
  5
101
 10
432.156938
 20
1215.631252
 30
0.0
 11
434.156938
 21
1217.631252
 31
0.0
  0
LINE
  8
LC-004-005-----0
  6
CONTINUOUS
  5
102
 10
429.328511
 20
1215.631252
 30
0.0
 11
431.328511
 21
1217.631252
 31
0.0
  0
LINE
  8
LC-004-005-----0
  6
CONTINUOUS
  5
103
 10
426.500084
 20
1215.631252
 30
0.0
 11
428.500084
 21
1217.631252
 31
0.0
  0
LINE
  8
LC-004-005-----0
  6
CONTINUOUS
  5
104
 10
423.671657
 20
1215.631252
 30
0.0
 11
425.671657
 21
1217.631252
 31
0.0
  0
LINE
  8
LC-004-005-----0
  6
CONTINUOUS
  5
105
 10
420.84323
 20
1215.631252
 30
0.0
 11
422.84323
 21
1217.631252
 31
0.0
  0
LINE
  8
LC-004-005-----0
  6
CONTINUOUS
  5
106
 10
418.014803
 20
1215.631252
 30
0.0
 11
420.014803
 21
1217.631252
 31
0.0
  0
LINE
  8
LC-004-005-----0
  6
CONTINUOUS
  5
107
 10
415.186376
 20
1215.631252
 30
0.0
 11
417.186376
 21
1217.631252
 31
0.0
  0
LINE
  8
LC-004-005-----0
  6
CONTINUOUS
  5
108
 10
412.357949
 20
1215.631252
 30
0.0
 11
414.357949
 21
1217.631252
 31
0.0
  0
LINE
  8
LC-004-005-----0
  6
CONTINUOUS
  5
109
 10
409.529521
 20
1215.631252
 30
0.0
 11
411.529521
 21
1217.631252
 31
0.0
  0
LINE
  8
LC-004-005-----0
  6
CONTINUOUS
  5
10A
 10
406.701094
 20
1215.631252
 30
0.0
 11
408.701094
 21
1217.631252
 31
0.0
  0
LINE
  8
LC-004-005-----0
  6
CONTINUOUS
  5
10B
 10
403.872667
 20
1215.631252
 30
0.0
 11
405.872667
 21
1217.631252
 31
0.0
  0
LINE
  8
LC-004-005-----0
  6
CONTINUOUS
  5
10C
 10
401.04424
 20
1215.631252
 30
0.0
 11
403.04424
 21
1217.631252
 31
0.0
  0
LINE
  8
LC-004-005-----0
  6
CONTINUOUS
  5
10D
 10
398.215813
 20
1215.631252
 30
0.0
 11
400.215813
 21
1217.631252
 31
0.0
  0
LINE
  8
LC-004-005-----0
  6
CONTINUOUS
  5
10E
 10
390.387386
 20
1210.631252
 30
0.0
 11
394.701975
 21
1214.945841
 31
0.0
  0
LINE
  8
LC-004-005-----0
  6
CONTINUOUS
  5
10F
 10
395.32359
 20
1215.567456
 30
0.0
 11
397.387386
 21
1217.631252
 31
0.0
  0
LINE
  8
LC-004-005-----0
  6
CONTINUOUS
  5
110
 10
387.558959
 20
1210.631252
 30
0.0
 11
389.558959
 21
1212.631252
 31
0.0
  0
LINE
  8
LC-004-005-----0
  6
CONTINUOUS
  5
111
 10
393.102752
 20
1216.175046
 30
0.0
 11
394.131254
 21
1217.203547
 31
0.0
  0
LINE
  8
LC-004-005-----0
  6
CONTINUOUS
  5
112
 10
386.931771
 20
1212.832491
 30
0.0
 11
388.564764
 21
1214.465484
 31
0.0
  0
LINE
  8
LC-004-005-----0
  6
CONTINUOUS
  5
113
 10
386.334054
 20
1215.063201
 30
0.0
 11
387.967047
 21
1216.696195
 31
0.0
  0
LINE
  8
LC-004-005-----0
  6
CONTINUOUS
  5
114
 10
374.580601
 20
1206.138175
 30
0.0
 11
376.719249
 21
1208.276824
 31
0.0
  0
LINE
  8
LC-004-005-----0
  6
CONTINUOUS
  5
115
 10
384.073677
 20
1215.631252
 30
0.0
 11
387.36933
 21
1218.926905
 31
0.0
  0
LINE
  8
LC-004-005-----0
  6
CONTINUOUS
  5
116
 10
374.580601
 20
1208.966603
 30
0.0
 11
376.875679
 21
1211.261681
 31
0.0
  0
LINE
  8
LC-004-005-----0
  6
CONTINUOUS
  5
117
 10
381.24525
 20
1215.631252
 30
0.0
 11
383.24525
 21
1217.631252
 31
0.0
  0
LINE
  8
LC-004-005-----0
  6
CONTINUOUS
  5
118
 10
374.580601
 20
1211.79503
 30
0.0
 11
377.032109
 21
1214.246538
 31
0.0
  0
LINE
  8
LC-004-005-----0
  6
CONTINUOUS
  5
119
 10
378.416823
 20
1215.631252
 30
0.0
 11
380.416823
 21
1217.631252
 31
0.0
  0
LINE
  8
LC-004-005-----0
  6
CONTINUOUS
  5
11A
 10
374.580601
 20
1214.623457
 30
0.0
 11
377.588396
 21
1217.631252
 31
0.0
  0
LINE
  8
LC-004-005-----0
  6
CONTINUOUS
  5
11B
 10
372.759969
 20
1215.631252
 30
0.0
 11
374.759969
 21
1217.631252
 31
0.0
  0
LINE
  8
LC-004-005-----0
  6
CONTINUOUS
  5
11C
 10
369.931542
 20
1215.631252
 30
0.0
 11
371.931542
 21
1217.631252
 31
0.0
  0
LINE
  8
LC-004-005-----0
  6
CONTINUOUS
  5
11D
 10
367.103115
 20
1215.631252
 30
0.0
 11
369.103115
 21
1217.631252
 31
0.0
  0
LINE
  8
LC-004-005-----0
  6
CONTINUOUS
  5
11E
 10
364.274687
 20
1215.631252
 30
0.0
 11
366.274687
 21
1217.631252
 31
0.0
  0
LINE
  8
LC-004-005-----0
  6
CONTINUOUS
  5
11F
 10
361.44626
 20
1215.631252
 30
0.0
 11
363.44626
 21
1217.631252
 31
0.0
  0
LINE
  8
LC-004-005-----0
  6
CONTINUOUS
  5
120
 10
358.617833
 20
1215.631252
 30
0.0
 11
360.617833
 21
1217.631252
 31
0.0
  0
LINE
  8
LC-004-005-----0
  6
CONTINUOUS
  5
121
 10
355.789406
 20
1215.631252
 30
0.0
 11
357.789406
 21
1217.631252
 31
0.0
  0
LINE
  8
LC-004-005-----0
  6
CONTINUOUS
  5
122
 10
352.960979
 20
1215.631252
 30
0.0
 11
354.960979
 21
1217.631252
 31
0.0
  0
LINE
  8
LC-004-005-----0
  6
CONTINUOUS
  5
123
 10
350.132552
 20
1215.631252
 30
0.0
 11
352.132552
 21
1217.631252
 31
0.0
  0
LINE
  8
LC-004-005-----0
  6
CONTINUOUS
  5
124
 10
347.304125
 20
1215.631252
 30
0.0
 11
349.304125
 21
1217.631252
 31
0.0
  0
LINE
  8
LC-004-005-----0
  6
CONTINUOUS
  5
125
 10
344.475698
 20
1215.631252
 30
0.0
 11
346.475698
 21
1217.631252
 31
0.0
  0
LINE
  8
LC-004-005-----0
  6
CONTINUOUS
  5
126
 10
342.259039
 20
1216.24302
 30
0.0
 11
343.647271
 21
1217.631252
 31
0.0
  0
ENDBLK
  8
0
  5
127
  0
BLOCK
  8
0
  5
129
  2
*X9
 70
    65
 10
453.180601
 20
1205.631252
 30
0.0
  3
*X9
  0
LINE
  8
LC-004-005-----0
  6
CONTINUOUS
  5
12A
 10
562.264586
 20
1215.631252
 30
0.0
 11
563.928452
 21
1217.295118
 31
0.0
  0
LINE
  8
LC-004-005-----0
  6
CONTINUOUS
  5
12B
 10
559.436159
 20
1215.631252
 30
0.0
 11
561.436159
 21
1217.631252
 31
0.0
  0
LINE
  8
LC-004-005-----0
  6
CONTINUOUS
  5
12C
 10
556.607732
 20
1215.631252
 30
0.0
 11
558.607732
 21
1217.631252
 31
0.0
  0
LINE
  8
LC-004-005-----0
  6
CONTINUOUS
  5
12D
 10
553.779305
 20
1215.631252
 30
0.0
 11
555.779305
 21
1217.631252
 31
0.0
  0
LINE
  8
LC-004-005-----0
  6
CONTINUOUS
  5
12E
 10
550.950878
 20
1215.631252
 30
0.0
 11
552.950878
 21
1217.631252
 31
0.0
  0
LINE
  8
LC-004-005-----0
  6
CONTINUOUS
  5
12F
 10
548.122451
 20
1215.631252
 30
0.0
 11
550.122451
 21
1217.631252
 31
0.0
  0
LINE
  8
LC-004-005-----0
  6
CONTINUOUS
  5
130
 10
545.294023
 20
1215.631252
 30
0.0
 11
547.294023
 21
1217.631252
 31
0.0
  0
LINE
  8
LC-004-005-----0
  6
CONTINUOUS
  5
131
 10
542.465596
 20
1215.631252
 30
0.0
 11
544.465596
 21
1217.631252
 31
0.0
  0
LINE
  8
LC-004-005-----0
  6
CONTINUOUS
  5
132
 10
529.977771
 20
1205.971854
 30
0.0
 11
531.780601
 21
1207.774684
 31
0.0
  0
LINE
  8
LC-004-005-----0
  6
CONTINUOUS
  5
133
 10
539.637169
 20
1215.631252
 30
0.0
 11
541.637169
 21
1217.631252
 31
0.0
  0
LINE
  8
LC-004-005-----0
  6
CONTINUOUS
  5
134
 10
529.632608
 20
1208.455118
 30
0.0
 11
531.780601
 21
1210.603111
 31
0.0
  0
LINE
  8
LC-004-005-----0
  6
CONTINUOUS
  5
135
 10
536.808742
 20
1215.631252
 30
0.0
 11
538.808742
 21
1217.631252
 31
0.0
  0
LINE
  8
LC-004-005-----0
  6
CONTINUOUS
  5
136
 10
529.491758
 20
1211.142695
 30
0.0
 11
531.780601
 21
1213.431538
 31
0.0
  0
LINE
  8
LC-004-005-----0
  6
CONTINUOUS
  5
137
 10
533.980315
 20
1215.631252
 30
0.0
 11
535.980315
 21
1217.631252
 31
0.0
  0
LINE
  8
LC-004-005-----0
  6
CONTINUOUS
  5
138
 10
529.350908
 20
1213.830272
 30
0.0
 11
533.151888
 21
1217.631252
 31
0.0
  0
LINE
  8
LC-004-005-----0
  6
CONTINUOUS
  5
139
 10
528.323461
 20
1215.631252
 30
0.0
 11
530.323461
 21
1217.631252
 31
0.0
  0
LINE
  8
LC-004-005-----0
  6
CONTINUOUS
  5
13A
 10
525.495034
 20
1215.631252
 30
0.0
 11
527.495034
 21
1217.631252
 31
0.0
  0
LINE
  8
LC-004-005-----0
  6
CONTINUOUS
  5
13B
 10
517.666606
 20
1210.631252
 30
0.0
 11
519.26896
 21
1212.233605
 31
0.0
  0
LINE
  8
LC-004-005-----0
  6
CONTINUOUS
  5
13C
 10
522.666606
 20
1215.631252
 30
0.0
 11
524.666606
 21
1217.631252
 31
0.0
  0
LINE
  8
LC-004-005-----0
  6
CONTINUOUS
  5
13D
 10
514.977787
 20
1210.77086
 30
0.0
 11
516.838179
 21
1212.631252
 31
0.0
  0
LINE
  8
LC-004-005-----0
  6
CONTINUOUS
  5
13E
 10
517.475809
 20
1213.268881
 30
0.0
 11
521.838179
 21
1217.631252
 31
0.0
  0
LINE
  8
LC-004-005-----0
  6
CONTINUOUS
  5
13F
 10
513.370057
 20
1211.991557
 30
0.0
 11
514.830879
 21
1213.452379
 31
0.0
  0
LINE
  8
LC-004-005-----0
  6
CONTINUOUS
  5
140
 10
518.511085
 20
1217.132585
 30
0.0
 11
520.095176
 21
1218.716676
 31
0.0
  0
LINE
  8
LC-004-005-----0
  6
CONTINUOUS
  5
141
 10
512.331501
 20
1213.781428
 30
0.0
 11
513.795603
 21
1215.24553
 31
0.0
  0
LINE
  8
LC-004-005-----0
  6
CONTINUOUS
  5
142
 10
511.20672
 20
1215.485074
 30
0.0
 11
512.634292
 21
1216.912646
 31
0.0
  0
LINE
  8
LC-004-005-----0
  6
CONTINUOUS
  5
143
 10
508.524471
 20
1215.631252
 30
0.0
 11
510.524471
 21
1217.631252
 31
0.0
  0
LINE
  8
LC-004-005-----0
  6
CONTINUOUS
  5
144
 10
505.696044
 20
1215.631252
 30
0.0
 11
507.696044
 21
1217.631252
 31
0.0
  0
LINE
  8
LC-004-005-----0
  6
CONTINUOUS
  5
145
 10
502.867617
 20
1215.631252
 30
0.0
 11
504.867617
 21
1217.631252
 31
0.0
  0
LINE
  8
LC-004-005-----0
  6
CONTINUOUS
  5
146
 10
500.039189
 20
1215.631252
 30
0.0
 11
502.039189
 21
1217.631252
 31
0.0
  0
LINE
  8
LC-004-005-----0
  6
CONTINUOUS
  5
147
 10
497.210762
 20
1215.631252
 30
0.0
 11
499.210762
 21
1217.631252
 31
0.0
  0
LINE
  8
LC-004-005-----0
  6
CONTINUOUS
  5
148
 10
494.382335
 20
1215.631252
 30
0.0
 11
496.382335
 21
1217.631252
 31
0.0
  0
LINE
  8
LC-004-005-----0
  6
CONTINUOUS
  5
149
 10
491.553908
 20
1215.631252
 30
0.0
 11
493.553908
 21
1217.631252
 31
0.0
  0
LINE
  8
LC-004-005-----0
  6
CONTINUOUS
  5
14A
 10
488.725481
 20
1215.631252
 30
0.0
 11
490.725481
 21
1217.631252
 31
0.0
  0
LINE
  8
LC-004-005-----0
  6
CONTINUOUS
  5
14B
 10
485.897054
 20
1215.631252
 30
0.0
 11
487.897054
 21
1217.631252
 31
0.0
  0
LINE
  8
LC-004-005-----0
  6
CONTINUOUS
  5
14C
 10
483.068627
 20
1215.631252
 30
0.0
 11
485.068627
 21
1217.631252
 31
0.0
  0
LINE
  8
LC-004-005-----0
  6
CONTINUOUS
  5
14D
 10
480.2402
 20
1215.631252
 30
0.0
 11
482.2402
 21
1217.631252
 31
0.0
  0
LINE
  8
LC-004-005-----0
  6
CONTINUOUS
  5
14E
 10
477.411772
 20
1215.631252
 30
0.0
 11
479.411772
 21
1217.631252
 31
0.0
  0
LINE
  8
LC-004-005-----0
  6
CONTINUOUS
  5
14F
 10
474.583345
 20
1215.631252
 30
0.0
 11
476.583345
 21
1217.631252
 31
0.0
  0
LINE
  8
LC-004-005-----0
  6
CONTINUOUS
  5
150
 10
471.754918
 20
1215.631252
 30
0.0
 11
473.754918
 21
1217.631252
 31
0.0
  0
LINE
  8
LC-004-005-----0
  6
CONTINUOUS
  5
151
 10
468.926491
 20
1215.631252
 30
0.0
 11
470.926491
 21
1217.631252
 31
0.0
  0
LINE
  8
LC-004-005-----0
  6
CONTINUOUS
  5
152
 10
466.098064
 20
1215.631252
 30
0.0
 11
468.098064
 21
1217.631252
 31
0.0
  0
LINE
  8
LC-004-005-----0
  6
CONTINUOUS
  5
153
 10
463.269637
 20
1215.631252
 30
0.0
 11
465.269637
 21
1217.631252
 31
0.0
  0
LINE
  8
LC-004-005-----0
  6
CONTINUOUS
  5
154
 10
460.44121
 20
1215.631252
 30
0.0
 11
462.44121
 21
1217.631252
 31
0.0
  0
LINE
  8
LC-004-005-----0
  6
CONTINUOUS
  5
155
 10
457.612783
 20
1215.631252
 30
0.0
 11
459.612783
 21
1217.631252
 31
0.0
  0
LINE
  8
LC-004-005-----0
  6
CONTINUOUS
  5
156
 10
454.784355
 20
1215.631252
 30
0.0
 11
456.784355
 21
1217.631252
 31
0.0
  0
LINE
  8
LC-004-005-----0
  6
CONTINUOUS
  5
157
 10
453.180601
 20
1216.855924
 30
0.0
 11
453.955928
 21
1217.631252
 31
0.0
  0
ENDBLK
  8
0
  5
158
  0
BLOCK
  8
0
  5
15A
  2
*X10
 70
    65
 10
527.122125
 20
1128.333593
 30
0.0
  3
*X10
  0
LINE
  8
LC-004-005-----0
  6
CONTINUOUS
  5
15B
 10
527.122125
 20
1130.33617
 30
0.0
 11
527.980371
 21
1129.477924
 31
0.0
  0
LINE
  8
LC-004-005-----0
  6
CONTINUOUS
  5
15C
 10
527.122125
 20
1133.164598
 30
0.0
 11
529.192554
 21
1131.094168
 31
0.0
  0
LINE
  8
LC-004-005-----0
  6
CONTINUOUS
  5
15D
 10
527.122125
 20
1135.993025
 30
0.0
 11
530.122125
 21
1132.993025
 31
0.0
  0
LINE
  8
LC-004-005-----0
  6
CONTINUOUS
  5
15E
 10
527.122125
 20
1138.821452
 30
0.0
 11
530.122125
 21
1135.821452
 31
0.0
  0
LINE
  8
LC-004-005-----0
  6
CONTINUOUS
  5
15F
 10
527.122125
 20
1141.649879
 30
0.0
 11
530.122125
 21
1138.649879
 31
0.0
  0
LINE
  8
LC-004-005-----0
  6
CONTINUOUS
  5
160
 10
527.122125
 20
1144.478306
 30
0.0
 11
530.122125
 21
1141.478306
 31
0.0
  0
LINE
  8
LC-004-005-----0
  6
CONTINUOUS
  5
161
 10
527.596107
 20
1146.832751
 30
0.0
 11
530.122125
 21
1144.306733
 31
0.0
  0
ENDBLK
  8
0
  5
162
  0
BLOCK
  8
0
  5
164
  2
*X11
 70
    65
 10
376.222125
 20
1128.333593
 30
0.0
  3
*X11
  0
LINE
  8
LC-004-005-----0
  6
CONTINUOUS
  5
165
 10
376.222125
 20
1134.15796
 30
0.0
 11
379.222125
 21
1131.15796
 31
0.0
  0
LINE
  8
LC-004-005-----0
  6
CONTINUOUS
  5
166
 10
376.222125
 20
1136.986387
 30
0.0
 11
379.222125
 21
1133.986387
 31
0.0
  0
LINE
  8
LC-004-005-----0
  6
CONTINUOUS
  5
167
 10
376.222125
 20
1139.814814
 30
0.0
 11
379.222125
 21
1136.814814
 31
0.0
  0
LINE
  8
LC-004-005-----0
  6
CONTINUOUS
  5
168
 10
376.222125
 20
1142.643241
 30
0.0
 11
379.222125
 21
1139.643241
 31
0.0
  0
LINE
  8
LC-004-005-----0
  6
CONTINUOUS
  5
169
 10
376.222125
 20
1145.471668
 30
0.0
 11
379.222125
 21
1142.471668
 31
0.0
  0
LINE
  8
LC-004-005-----0
  6
CONTINUOUS
  5
16A
 10
377.68947
 20
1146.832751
 30
0.0
 11
379.222125
 21
1145.300096
 31
0.0
  0
ENDBLK
  8
0
  5
16B
  0
ENDSEC
  0
SECTION
  2
ENTITIES
  0
VIEWPORT
  8
LC-000
  5
22B
 67
     1
 68
     1
 10
420.0
 20
297.0
 30
0.0
 40
840.0
 41
594.0
 69
     1
1001
ACAD
1000
MVIEW
1002
{
1070
    16
1010
0.0
1020
0.0
1030
0.0
1010
0.0
1020
0.0
1030
1.0
1040
0.0
1040
594.0
1040
420.0
1040
297.0
1040
50.0
1040
0.0
1040
0.0
1070
     0
1070
   100
1070
     1
1070
     1
1070
     0
1070
     0
1070
     0
1070
     0
1040
0.0
1040
0.0
1040
0.0
1040
1.0
1040
1.0
1040
0.0
1040
0.0
1070
     0
1002
{
1002
}
1002
}
  0
VIEWPORT
  8
0
  5
22C
 67
     1
 68
     1
 10
0.0
 20
0.0
 30
0.0
 40
0.0
 41
0.0
 69
     1
1001
ACAD
1000
MVIEW
1002
{
1070
    16
1010
0.0
1020
0.0
1030
0.0
1010
0.0
1020
0.0
1030
1.0
1040
0.0
1040
594.0
1040
0.0
1040
0.0
1040
50.0
1040
0.0
1040
0.0
1070
     0
1070
   100
1070
     0
1070
     1
1070
     0
1070
     0
1070
     0
1070
     0
1040
0.0
1040
0.0
1040
0.0
1040
0.5
1040
0.5
1040
0.5
1040
0.5
1070
     0
1002
{
1002
}
1002
}
  0
DIMENSION
  8
0
  5
16C
  2
*D0
 10
443.874394
 20
1080.0
 30
0.0
 11
443.874394
 21
1080.0
 31
0.0
  1
%%c220
 13
343.680349
 23
1061.834072
 33
0.0
 14
562.663901
 24
1061.834072
 34
0.0
  3
LC-DIM-L-0140-02-02
  0
DIMENSION
  8
0
  5
16D
  2
*D1
 10
448.119202
 20
960.0
 30
0.0
 11
448.119202
 21
960.0
 31
0.0
  1
%%c185
 13
361.433957
 23
949.14482
 33
0.0
 14
544.910292
 24
949.14482
 34
0.0
  3
LC-DIM-L-0140-02-02
  0
DIMENSION
  8
0
  5
16E
  2
*D2
 10
453.172125
 20
1162.0
 30
0.0
 11
453.172125
 21
1162.0
 31
0.0
  1
%%c158
 13
376.219338
 23
1146.832751
 33
0.0
 14
530.124912
 24
1146.832751
 34
0.0
  3
LC-DIM-L-0140-02-02
  0
INSERT
  8
0
  5
16F
  2
*X3
 10
342.119839
 20
1027.244714
 30
0.0
  0
INSERT
  8
0
  5
170
  2
*X4
 10
522.424912
 20
1027.244714
 30
0.0
  0
INSERT
  8
0
  5
172
  2
BLK1
 10
0.0
 20
0.0
 30
0.0
  0
INSERT
  8
0
  5
173
  2
*X6
 10
532.777864
 20
933.431555
 30
0.0
  0
INSERT
  8
0
  5
174
  2
*X7
 10
361.433957
 20
933.431555
 30
0.0
  0
INSERT
  8
0
  5
175
  2
*X8
 10
342.180601
 20
1205.631252
 30
0.0
  0
INSERT
  8
0
  5
176
  2
*X9
 10
453.180601
 20
1205.631252
 30
0.0
  0
INSERT
  8
0
  5
177
  2
*X10
 10
527.122125
 20
1128.333593
 30
0.0
  0
INSERT
  8
0
  5
178
  2
*X11
 10
376.222125
 20
1128.333593
 30
0.0
  0
LINE
  8
LC-004-005-----0
  6
CONTINUOUS
  5
179
 10
442.520335
 20
6.071072
 30
0.0
 11
445.065219
 21
8.615955
 31
0.0
  0
LINE
  8
LC-005-002-----0
  6
CONTINUOUS
  5
17B
 10
374.719338
 20
1038.044714
 30
0.0
 11
374.719338
 21
1051.633681
 31
0.0
  0
LINE
  8
LC-005-002-----0
  6
CONTINUOUS
  5
17C
 10
531.624912
 20
1051.633681
 30
0.0
 11
531.624912
 21
1038.044714
 31
0.0
  0
LINE
  8
LC-005-002-----0
  6
CONTINUOUS
  5
17D
 10
344.616723
 20
1061.834072
 30
0.0
 11
561.727274
 21
1061.834072
 31
0.0
  0
LINE
  8
LC-005-002-----0
  6
CONTINUOUS
  5
17E
 10
367.841482
 20
1058.632615
 30
0.0
 11
538.624912
 21
1058.632615
 31
0.0
  0
LINE
  8
LC-005-002-----0
  6
CONTINUOUS
  5
17F
 10
377.519622
 20
1035.245082
 30
0.0
 11
528.824627
 21
1035.245082
 31
0.0
  0
LINE
  8
LC-005-002-----0
  6
CONTINUOUS
  5
180
 10
443.172125
 20
1027.944714
 30
0.0
 11
463.172125
 21
1027.944714
 31
0.0
  0
LINE
  8
LC-005-002-----0
  6
CONTINUOUS
  5
181
 10
443.172125
 20
1027.244714
 30
0.0
 11
463.172125
 21
1027.244714
 31
0.0
  0
LINE
  8
LC-005-002-----0
  6
CONTINUOUS
 62
     2
  5
182
 10
376.190057
 20
1051.633681
 30
0.0
 11
530.368026
 21
1051.633681
 31
0.0
  0
LINE
  8
LC-005-002-----0
  6
CONTINUOUS
 62
     2
  5
183
 10
376.012818
 20
1038.044714
 30
0.0
 11
529.832762
 21
1038.044714
 31
0.0
  0
LINE
  8
LC-005-002-----0
  6
CONTINUOUS
 62
     2
  5
184
 10
443.172125
 20
1030.544714
 30
0.0
 11
463.172125
 21
1030.544714
 31
0.0
  0
LINE
  8
LC-005-002-----0
  6
CONTINUOUS
  5
185
 10
463.172125
 20
1035.245082
 30
0.0
 11
463.172125
 21
1027.244714
 31
0.0
  0
LINE
  8
LC-005-002-----0
  6
CONTINUOUS
  5
186
 10
443.172125
 20
1035.245082
 30
0.0
 11
443.172125
 21
1027.244714
 31
0.0
  0
ARC
  8
LC-005-002-----0
  6
CONTINUOUS
  5
187
 10
349.119839
 20
1066.23997
 30
0.0
 40
6.3
 50
224.378071
 51
266.0
  0
LINE
  8
LC-005-002-----0
  6
CONTINUOUS
  5
188
 10
561.727274
 20
1061.833814
 30
0.0
 11
562.663901
 21
1061.833814
 31
0.0
  0
ARC
  8
LC-005-002-----0
  6
CONTINUOUS
  5
189
 10
349.119839
 20
1066.23997
 30
0.0
 40
7.0
 50
219.006904
 51
266.0
  0
LINE
  8
LC-005-002-----0
  6
CONTINUOUS
  5
18A
 10
348.678158
 20
1059.944892
 30
0.0
 11
367.595872
 21
1058.622036
 31
0.0
  0
LINE
  8
LC-005-002-----0
  6
CONTINUOUS
  5
18B
 10
348.631544
 20
1059.257022
 30
0.0
 11
367.549258
 21
1057.934167
 31
0.0
  0
ARC
  8
LC-005-002-----0
  6
CONTINUOUS
  5
18C
 10
367.719338
 20
1051.633681
 30
0.0
 40
7.0
 50
0.0
 51
91.0
  0
ARC
  8
LC-005-002-----0
  6
CONTINUOUS
  5
18D
 10
367.719338
 20
1051.633681
 30
0.0
 40
6.3
 50
0.0
 51
91.0
  0
LINE
  8
LC-005-002-----0
  6
CONTINUOUS
  5
18E
 10
374.019338
 20
1051.633681
 30
0.0
 11
374.019338
 21
1038.044714
 31
0.0
  0
ARC
  8
LC-005-002-----0
  6
CONTINUOUS
  5
18F
 10
377.519338
 20
1038.044714
 30
0.0
 40
2.8
 50
180.0
 51
270.0
  0
ARC
  8
LC-005-002-----0
  6
CONTINUOUS
  5
190
 10
377.519338
 20
1038.044714
 30
0.0
 40
3.5
 50
180.0
 51
270.0
  0
ARC
  8
LC-005-002-----0
  6
CONTINUOUS
  5
191
 10
377.519618
 20
1034.245082
 30
0.0
 40
1.0
 50
359.99972
 51
89.99972
  0
ARC
  8
LC-005-002-----0
  6
CONTINUOUS
  5
192
 10
377.519618
 20
1034.245082
 30
0.0
 40
0.3
 50
359.99972
 51
89.99972
  0
LINE
  8
LC-005-002-----0
  6
CONTINUOUS
  5
193
 10
378.519338
 20
1034.244714
 30
0.0
 11
378.519338
 21
1030.544714
 31
0.0
  0
LINE
  8
LC-005-002-----0
  6
CONTINUOUS
  5
194
 10
377.819338
 20
1034.244714
 30
0.0
 11
377.819338
 21
1030.544714
 31
0.0
  0
ARC
  8
LC-005-002-----0
  6
CONTINUOUS
  5
195
 10
377.51986
 20
1030.544714
 30
0.0
 40
0.3
 50
270.0
 51
0.0
  0
ARC
  8
LC-005-002-----0
  6
CONTINUOUS
  5
196
 10
377.519338
 20
1028.744714
 30
0.0
 40
1.5
 50
90.0
 51
180.0
  0
ARC
  8
LC-005-002-----0
  6
CONTINUOUS
  5
197
 10
528.824389
 20
1030.544714
 30
0.0
 40
0.3
 50
180.0
 51
270.0
  0
ARC
  8
LC-005-002-----0
  6
CONTINUOUS
  5
198
 10
377.519338
 20
1028.744714
 30
0.0
 40
1.5
 50
180.0
 51
270.0
  0
LINE
  8
LC-005-002-----0
  6
CONTINUOUS
  5
199
 10
377.519338
 20
1027.244714
 30
0.0
 11
383.919338
 21
1027.244714
 31
0.0
  0
LINE
  8
LC-005-002-----0
  6
CONTINUOUS
  5
19A
 10
383.919338
 20
1027.244714
 30
0.0
 11
383.919338
 21
1027.944714
 31
0.0
  0
LINE
  8
LC-005-002-----0
  6
CONTINUOUS
  5
19B
 10
377.519338
 20
1027.944714
 30
0.0
 11
383.919338
 21
1027.944714
 31
0.0
  0
ARC
  8
LC-005-002-----0
  6
CONTINUOUS
  5
19C
 10
377.519338
 20
1028.744714
 30
0.0
 40
0.8
 50
180.0
 51
270.0
  0
ARC
  8
LC-005-002-----0
  6
CONTINUOUS
  5
19D
 10
377.519338
 20
1028.744714
 30
0.0
 40
0.8
 50
90.0
 51
180.0
  0
ARC
  8
LC-005-002-----0
  6
CONTINUOUS
  5
19E
 10
377.519338
 20
1030.544714
 30
0.0
 40
1.0
 50
270.0
 51
0.0
  0
LINE
  8
LC-005-002-----0
  6
CONTINUOUS
  5
19F
 10
378.519338
 20
1034.244714
 30
0.0
 11
378.519338
 21
1030.544714
 31
0.0
  0
ARC
  8
LC-005-002-----0
  6
CONTINUOUS
  5
1A0
 10
528.824632
 20
1034.245082
 30
0.0
 40
1.0
 50
90.00028
 51
180.00028
  0
ARC
  8
LC-005-002-----0
  6
CONTINUOUS
  5
1A1
 10
528.824632
 20
1034.245082
 30
0.0
 40
0.3
 50
90.00028
 51
180.00028
  0
ARC
  8
LC-005-002-----0
  6
CONTINUOUS
  5
1A2
 10
528.824912
 20
1028.744714
 30
0.0
 40
1.5
 50
0.0
 51
90.0
  0
ARC
  8
LC-005-002-----0
  6
CONTINUOUS
  5
1A3
 10
528.824912
 20
1028.744714
 30
0.0
 40
1.5
 50
270.0
 51
0.0
  0
LINE
  8
LC-005-002-----0
  6
CONTINUOUS
  5
1A4
 10
528.824912
 20
1027.944714
 30
0.0
 11
522.424912
 21
1027.944714
 31
0.0
  0
ARC
  8
LC-005-002-----0
  6
CONTINUOUS
  5
1A5
 10
528.824912
 20
1028.744714
 30
0.0
 40
0.8
 50
0.0
 51
90.0
  0
ARC
  8
LC-005-002-----0
  6
CONTINUOUS
  5
1A6
 10
528.824912
 20
1028.744714
 30
0.0
 40
0.8
 50
270.0
 51
0.0
  0
LINE
  8
LC-005-002-----0
  6
CONTINUOUS
  5
1A7
 10
528.824912
 20
1027.244714
 30
0.0
 11
522.424912
 21
1027.244714
 31
0.0
  0
LINE
  8
LC-005-002-----0
  6
CONTINUOUS
  5
1A8
 10
522.424912
 20
1027.244714
 30
0.0
 11
522.424912
 21
1027.944714
 31
0.0
  0
LINE
  8
LC-005-002-----0
  6
CONTINUOUS
  5
1A9
 10
527.824912
 20
1034.244714
 30
0.0
 11
527.824912
 21
1030.544714
 31
0.0
  0
ARC
  8
LC-005-002-----0
  6
CONTINUOUS
  5
1AA
 10
528.824912
 20
1030.544714
 30
0.0
 40
1.0
 50
180.0
 51
270.0
  0
LINE
  8
LC-005-002-----0
  6
CONTINUOUS
  5
1AB
 10
528.524912
 20
1034.244714
 30
0.0
 11
528.524912
 21
1030.544714
 31
0.0
  0
ARC
  8
LC-005-002-----0
  6
CONTINUOUS
  5
1AC
 10
528.824912
 20
1038.044714
 30
0.0
 40
3.5
 50
270.0
 51
0.0
  0
ARC
  8
LC-005-002-----0
  6
CONTINUOUS
  5
1AD
 10
528.824912
 20
1038.044714
 30
0.0
 40
2.8
 50
270.0
 51
0.0
  0
LINE
  8
LC-005-002-----0
  6
CONTINUOUS
  5
1AE
 10
532.324912
 20
1051.633681
 30
0.0
 11
532.324912
 21
1038.044714
 31
0.0
  0
ARC
  8
LC-005-002-----0
  6
CONTINUOUS
  5
1AF
 10
538.624912
 20
1051.633681
 30
0.0
 40
7.0
 50
89.0
 51
180.0
  0
ARC
  8
LC-005-002-----0
  6
CONTINUOUS
  5
1B0
 10
538.624912
 20
1051.633681
 30
0.0
 40
6.3
 50
89.0
 51
180.0
  0
LINE
  8
LC-005-002-----0
  6
CONTINUOUS
  5
1B1
 10
557.712705
 20
1059.257022
 30
0.0
 11
538.794991
 21
1057.934167
 31
0.0
  0
LINE
  8
LC-005-002-----0
  6
CONTINUOUS
  5
1B2
 10
557.666092
 20
1059.944892
 30
0.0
 11
538.748377
 21
1058.622036
 31
0.0
  0
ARC
  8
LC-005-002-----0
  6
CONTINUOUS
  5
1B3
 10
557.22441
 20
1066.23997
 30
0.0
 40
6.3
 50
274.0
 51
315.621929
  0
LINE
  8
LC-005-002-----0
  6
CONTINUOUS
  5
1B4
 10
343.680349
 20
1061.834072
 30
0.0
 11
344.616975
 21
1061.834072
 31
0.0
  0
ARC
  8
LC-005-002-----0
  6
CONTINUOUS
  5
1B5
 10
557.22441
 20
1066.23997
 30
0.0
 40
7.0
 50
274.0
 51
320.993096
  0
LINE
  8
LC-005-002-----0
  6
CONTINUOUS
  5
1B6
 10
361.433957
 20
949.14482
 30
0.0
 11
544.910292
 21
949.14482
 31
0.0
  0
LINE
  8
LC-005-002-----0
  6
CONTINUOUS
  5
1B7
 10
544.91004
 20
949.144803
 30
0.0
 11
538.974388
 21
948.729742
 31
0.0
  0
LINE
  8
LC-005-002-----0
  6
CONTINUOUS
  5
1B8
 10
373.566385
 20
942.968656
 30
0.0
 11
532.842305
 21
942.968656
 31
0.0
  0
LINE
  8
LC-005-002-----0
  6
CONTINUOUS
  5
1B9
 10
373.50099
 20
936.138575
 30
0.0
 11
532.777864
 21
936.138575
 31
0.0
  0
LINE
  8
LC-005-002-----0
  6
CONTINUOUS
  5
1BA
 10
368.549943
 20
933.429647
 30
0.0
 11
537.794306
 21
933.429647
 31
0.0
  0
LINE
  8
LC-005-002-----0
  6
CONTINUOUS
  5
1BB
 10
361.434209
 20
949.144803
 30
0.0
 11
367.369862
 21
948.729742
 31
0.0
  0
ARC
  8
LC-005-002-----0
  6
CONTINUOUS
  5
1BC
 10
367.089191
 20
944.715956
 30
0.0
 40
4.023715
 50
68.753688
 51
86.001164
  0
LINE
  8
LC-005-002-----0
  6
CONTINUOUS
  5
1BD
 10
373.487171
 20
943.169033
 30
0.0
 11
368.547297
 21
948.466184
 31
0.0
  0
ARC
  8
LC-005-002-----0
  6
CONTINUOUS
  5
1BE
 10
373.269942
 20
942.968656
 30
0.0
 40
0.296443
 50
249.999864
 51
42.999864
  0
LINE
  8
LC-005-002-----0
  6
CONTINUOUS
  5
1BF
 10
373.168987
 20
942.688288
 30
0.0
 11
369.875796
 21
943.886836
 31
0.0
  0
ARC
  8
LC-005-002-----0
  6
CONTINUOUS
  5
1C0
 10
369.537851
 20
942.958279
 30
0.0
 40
0.988142
 50
70.001161
 51
180.001414
  0
LINE
  8
LC-005-002-----0
  6
CONTINUOUS
  5
1C1
 10
368.549709
 20
942.958279
 30
0.0
 11
368.549739
 21
941.64254
 31
0.0
  0
LINE
  8
LC-005-002-----0
  6
CONTINUOUS
  5
1C2
 10
373.48733
 20
936.153222
 30
0.0
 11
368.682476
 21
941.305588
 31
0.0
  0
ARC
  8
LC-005-002-----0
  6
CONTINUOUS
  5
1C3
 10
373.269942
 20
935.952846
 30
0.0
 40
0.296443
 50
249.999864
 51
42.999864
  0
LINE
  8
LC-005-002-----0
  6
CONTINUOUS
  5
1C4
 10
373.169146
 20
935.672478
 30
0.0
 11
369.875955
 21
936.871025
 31
0.0
  0
ARC
  8
LC-005-002-----0
  6
CONTINUOUS
  5
1C5
 10
369.538009
 20
935.942469
 30
0.0
 40
0.988142
 50
70.001161
 51
180.001414
  0
LINE
  8
LC-005-002-----0
  6
CONTINUOUS
  5
1C6
 10
368.549882
 20
935.942446
 30
0.0
 11
368.549943
 21
933.429647
 31
0.0
  0
LINE
  8
LC-005-002-----0
  6
CONTINUOUS
  5
1C7
 10
361.433957
 20
949.141198
 30
0.0
 11
361.433957
 21
941.531059
 31
0.0
  0
LINE
  8
LC-005-002-----0
  6
CONTINUOUS
  5
1C8
 10
366.293283
 20
946.283974
 30
0.0
 11
366.293283
 21
933.431555
 31
0.0
  0
ARC
  8
LC-007-002-RND-0
  6
CONTINUOUS
  5
1CA
 10
362.513807
 20
941.531059
 30
0.0
 40
1.07985
 50
180.0
 51
266.000003
  0
LINE
  8
LC-005-002-----0
  6
CONTINUOUS
  5
1CB
 10
362.438481
 20
940.453839
 30
0.0
 11
364.575339
 21
940.304415
 31
0.0
  0
LINE
  8
LC-005-002-----0
  6
CONTINUOUS
  5
1CC
 10
364.575339
 20
940.304415
 30
0.0
 11
364.575339
 21
946.283974
 31
0.0
  0
LINE
  8
LC-005-002-----0
  6
CONTINUOUS
  5
1CD
 10
366.293283
 20
946.283974
 30
0.0
 11
364.575339
 21
946.283974
 31
0.0
  0
LINE
  8
LC-005-002-----0
  6
CONTINUOUS
  5
1CE
 10
540.050967
 20
946.283974
 30
0.0
 11
540.050967
 21
933.431555
 31
0.0
  0
LINE
  8
LC-005-002-----0
  6
CONTINUOUS
  5
1CF
 10
540.050967
 20
946.283974
 30
0.0
 11
541.76891
 21
946.283974
 31
0.0
  0
LINE
  8
LC-005-002-----0
  6
CONTINUOUS
  5
1D0
 10
366.293811
 20
933.431555
 30
0.0
 11
368.549943
 21
933.431555
 31
0.0
  0
LINE
  8
LC-005-002-----0
  6
CONTINUOUS
  5
1D1
 10
544.910292
 20
949.141198
 30
0.0
 11
544.910292
 21
941.518225
 31
0.0
  0
ARC
  8
LC-007-002-RND-0
  6
CONTINUOUS
  5
1D2
 10
543.830442
 20
941.531059
 30
0.0
 40
1.07985
 50
273.999997
 51
0.0
  0
LINE
  8
LC-005-002-----0
  6
CONTINUOUS
  5
1D3
 10
543.905768
 20
940.453839
 30
0.0
 11
541.76891
 21
940.304415
 31
0.0
  0
LINE
  8
LC-005-002-----0
  6
CONTINUOUS
  5
1D4
 10
541.76891
 20
940.304415
 30
0.0
 11
541.76891
 21
946.283974
 31
0.0
  0
ARC
  8
LC-005-002-----0
  6
CONTINUOUS
  5
1D5
 10
539.255059
 20
944.715956
 30
0.0
 40
4.023715
 50
93.998836
 51
111.246312
  0
LINE
  8
LC-005-002-----0
  6
CONTINUOUS
  5
1D6
 10
532.857078
 20
943.169033
 30
0.0
 11
537.796952
 21
948.466184
 31
0.0
  0
ARC
  8
LC-005-002-----0
  6
CONTINUOUS
  5
1D7
 10
533.074307
 20
942.968656
 30
0.0
 40
0.296443
 50
137.000136
 51
290.000136
  0
LINE
  8
LC-005-002-----0
  6
CONTINUOUS
  5
1D8
 10
533.175262
 20
942.688288
 30
0.0
 11
536.468453
 21
943.886836
 31
0.0
  0
ARC
  8
LC-005-002-----0
  6
CONTINUOUS
  5
1D9
 10
536.806399
 20
942.958279
 30
0.0
 40
0.988142
 50
359.998586
 51
109.998839
  0
LINE
  8
LC-005-002-----0
  6
CONTINUOUS
  5
1DA
 10
537.79454
 20
942.958279
 30
0.0
 11
537.794511
 21
941.64254
 31
0.0
  0
ARC
  8
LC-005-002-----0
  6
CONTINUOUS
  5
1DB
 10
537.300439
 20
941.642551
 30
0.0
 40
0.494071
 50
316.998839
 51
359.998703
  0
LINE
  8
LC-005-002-----0
  6
CONTINUOUS
  5
1DC
 10
532.856919
 20
936.153222
 30
0.0
 11
537.661773
 21
941.305588
 31
0.0
  0
ARC
  8
LC-005-002-----0
  6
CONTINUOUS
  5
1DD
 10
533.074307
 20
935.952846
 30
0.0
 40
0.296443
 50
137.000136
 51
290.000136
  0
LINE
  8
LC-005-002-----0
  6
CONTINUOUS
  5
1DE
 10
533.175103
 20
935.672478
 30
0.0
 11
536.468294
 21
936.871025
 31
0.0
  0
ARC
  8
LC-005-002-----0
  6
CONTINUOUS
  5
1DF
 10
536.80624
 20
935.942469
 30
0.0
 40
0.988142
 50
359.998586
 51
109.998839
  0
LINE
  8
LC-005-002-----0
  6
CONTINUOUS
  5
1E0
 10
537.794368
 20
935.942446
 30
0.0
 11
537.794306
 21
933.429647
 31
0.0
  0
LINE
  8
LC-005-002-----0
  6
CONTINUOUS
  5
1E1
 10
540.050438
 20
933.431555
 30
0.0
 11
537.794306
 21
933.431555
 31
0.0
  0
ARC
  8
LC-005-002-----0
  6
CONTINUOUS
  5
1E2
 10
369.04381
 20
941.642551
 30
0.0
 40
0.494071
 50
180.001297
 51
223.001161
  0
LINE
  8
LC-005-002-----0
  6
CONTINUOUS
  5
1E3
 10
387.180601
 20
1219.631252
 30
0.0
 11
389.056245
 21
1212.631252
 31
0.0
  0
LINE
  8
LC-005-002-----0
  6
CONTINUOUS
  5
1E4
 10
386.181845
 20
1215.631252
 30
0.0
 11
387.521591
 21
1210.631252
 31
0.0
  0
LINE
  8
LC-005-002-----0
  6
CONTINUOUS
  5
1E5
 10
453.180601
 20
1217.631252
 30
0.0
 11
395.675047
 21
1217.631252
 31
0.0
  0
ARC
  8
LC-007-002-RND-0
  6
CONTINUOUS
  5
1E6
 10
390.478895
 20
1213.631252
 30
0.0
 40
1.0
 50
270.0
 51
330.0
  0
LINE
  8
LC-005-002-----0
  6
CONTINUOUS
  5
1E7
 10
390.478895
 20
1212.631252
 30
0.0
 11
389.056245
 21
1212.631252
 31
0.0
  0
LINE
  8
LC-005-002-----0
  6
CONTINUOUS
  5
1E8
 10
390.478895
 20
1210.631252
 30
0.0
 11
387.521591
 21
1210.631252
 31
0.0
  0
ARC
  8
LC-007-002-RND-0
  6
CONTINUOUS
  5
1E9
 10
390.478895
 20
1213.631252
 30
0.0
 40
3.0
 50
270.0
 51
330.0
  0
LINE
  8
LC-005-002-----0
  6
CONTINUOUS
  5
1EA
 10
453.180601
 20
1215.631252
 30
0.0
 11
395.675047
 21
1215.631252
 31
0.0
  0
ARC
  8
LC-007-002-RND-0
  6
CONTINUOUS
  5
1EB
 10
395.675047
 20
1214.631252
 30
0.0
 40
1.0
 50
90.0
 51
150.0
  0
LINE
  8
LC-005-002-----0
  6
CONTINUOUS
  5
1EC
 10
393.076971
 20
1212.131252
 30
0.0
 11
394.809022
 21
1215.131252
 31
0.0
  0
ARC
  8
LC-007-002-RND-0
  6
CONTINUOUS
  5
1ED
 10
395.675047
 20
1214.631252
 30
0.0
 40
3.0
 50
90.0
 51
150.0
  0
LINE
  8
LC-005-002-----0
  6
CONTINUOUS
  5
1EE
 10
391.34492
 20
1213.131252
 30
0.0
 11
393.076971
 21
1216.131252
 31
0.0
  0
LINE
  8
LC-005-002-----0
  6
CONTINUOUS
  5
1EF
 10
390.478895
 20
1210.631252
 30
0.0
 11
453.180601
 21
1210.631252
 31
0.0
  0
LINE
  8
LC-005-002-----0
  6
CONTINUOUS
  5
1F0
 10
519.180601
 20
1219.631252
 30
0.0
 11
517.304956
 21
1212.631252
 31
0.0
  0
LINE
  8
LC-005-002-----0
  6
CONTINUOUS
  5
1F1
 10
520.179356
 20
1215.631252
 30
0.0
 11
518.83961
 21
1210.631252
 31
0.0
  0
LINE
  8
LC-005-002-----0
  6
CONTINUOUS
  5
1F2
 10
453.180601
 20
1217.631252
 30
0.0
 11
510.686154
 21
1217.631252
 31
0.0
  0
ARC
  8
LC-007-002-RND-0
  6
CONTINUOUS
  5
1F3
 10
515.882307
 20
1213.631252
 30
0.0
 40
1.0
 50
210.0
 51
270.0
  0
LINE
  8
LC-005-002-----0
  6
CONTINUOUS
  5
1F4
 10
515.882307
 20
1212.631252
 30
0.0
 11
517.304956
 21
1212.631252
 31
0.0
  0
LINE
  8
LC-005-002-----0
  6
CONTINUOUS
  5
1F5
 10
515.882307
 20
1210.631252
 30
0.0
 11
518.83961
 21
1210.631252
 31
0.0
  0
ARC
  8
LC-007-002-RND-0
  6
CONTINUOUS
  5
1F6
 10
515.882307
 20
1213.631252
 30
0.0
 40
3.0
 50
210.0
 51
270.0
  0
LINE
  8
LC-005-002-----0
  6
CONTINUOUS
  5
1F7
 10
453.180601
 20
1215.631252
 30
0.0
 11
510.686154
 21
1215.631252
 31
0.0
  0
ARC
  8
LC-007-002-RND-0
  6
CONTINUOUS
  5
1F8
 10
510.686154
 20
1214.631252
 30
0.0
 40
1.0
 50
30.0
 51
90.0
  0
LINE
  8
LC-005-002-----0
  6
CONTINUOUS
  5
1F9
 10
513.28423
 20
1212.131252
 30
0.0
 11
511.55218
 21
1215.131252
 31
0.0
  0
ARC
  8
LC-007-002-RND-0
  6
CONTINUOUS
  5
1FA
 10
510.686154
 20
1214.631252
 30
0.0
 40
3.0
 50
30.0
 51
90.0
  0
LINE
  8
LC-005-002-----0
  6
CONTINUOUS
  5
1FB
 10
515.016281
 20
1213.131252
 30
0.0
 11
513.28423
 21
1216.131252
 31
0.0
  0
LINE
  8
LC-005-002-----0
  6
CONTINUOUS
  5
1FC
 10
515.882307
 20
1210.631252
 30
0.0
 11
453.180601
 21
1210.631252
 31
0.0
  0
LINE
  8
LC-005-002-----0
  6
CONTINUOUS
  5
1FD
 10
520.179356
 20
1215.631252
 30
0.0
 11
528.412374
 21
1215.631252
 31
0.0
  0
LINE
  8
LC-005-002-----0
  6
CONTINUOUS
  5
1FE
 10
521.180601
 20
1217.631252
 30
0.0
 11
563.180364
 21
1217.631252
 31
0.0
  0
LINE
  8
LC-005-002-----0
  6
CONTINUOUS
  5
1FF
 10
529.730936
 20
1206.578916
 30
0.0
 11
529.256523
 21
1215.631252
 31
0.0
  0
LINE
  8
LC-005-002-----0
  6
CONTINUOUS
  5
200
 10
519.180601
 20
1219.631252
 30
0.0
 11
521.180601
 21
1217.631252
 31
0.0
  0
ARC
  8
LC-007-002-RND-0
  6
CONTINUOUS
  5
201
 10
530.729565
 20
1206.631252
 30
0.0
 40
1.0
 50
183.0
 51
270.0
  0
LINE
  8
LC-005-002-----0
  6
CONTINUOUS
  5
202
 10
522.391604
 20
1215.631252
 30
0.0
 11
529.256523
 21
1215.631252
 31
0.0
  0
LINE
  8
LC-005-002-----0
  6
CONTINUOUS
  5
203
 10
519.180601
 20
1219.631252
 30
0.0
 11
453.180601
 21
1219.631252
 31
0.0
  0
LINE
  8
LC-005-002-----0
  6
CONTINUOUS
  5
204
 10
531.780601
 20
1215.631252
 30
0.0
 11
563.180601
 21
1215.631252
 31
0.0
  0
LINE
  8
LC-005-002-----0
  6
CONTINUOUS
  5
205
 10
531.780601
 20
1215.631252
 30
0.0
 11
531.780601
 21
1205.631252
 31
0.0
  0
ARC
  8
LC-005-002-----0
  6
CONTINUOUS
  5
206
 10
563.180601
 20
1216.631252
 30
0.0
 40
1.0
 50
269.986409
 51
90.013591
  0
LINE
  8
LC-005-002-----0
  6
CONTINUOUS
  5
207
 10
386.181845
 20
1215.631252
 30
0.0
 11
377.948828
 21
1215.631252
 31
0.0
  0
LINE
  8
LC-005-002-----0
  6
CONTINUOUS
  5
208
 10
385.180601
 20
1217.631252
 30
0.0
 11
343.180838
 21
1217.631252
 31
0.0
  0
LINE
  8
LC-005-002-----0
  6
CONTINUOUS
  5
209
 10
376.630266
 20
1206.578916
 30
0.0
 11
377.104679
 21
1215.631252
 31
0.0
  0
LINE
  8
LC-005-002-----0
  6
CONTINUOUS
  5
20A
 10
387.180601
 20
1219.631252
 30
0.0
 11
385.180601
 21
1217.631252
 31
0.0
  0
ARC
  8
LC-007-002-RND-0
  6
CONTINUOUS
  5
20B
 10
375.631636
 20
1206.631252
 30
0.0
 40
1.0
 50
270.0
 51
357.0
  0
LINE
  8
LC-005-002-----0
  6
CONTINUOUS
  5
20C
 10
383.969597
 20
1215.631252
 30
0.0
 11
377.104679
 21
1215.631252
 31
0.0
  0
LINE
  8
LC-005-002-----0
  6
CONTINUOUS
  5
20D
 10
387.180601
 20
1219.631252
 30
0.0
 11
453.180601
 21
1219.631252
 31
0.0
  0
LINE
  8
LC-005-002-----0
  6
CONTINUOUS
  5
20E
 10
374.580601
 20
1215.631252
 30
0.0
 11
343.180601
 21
1215.631252
 31
0.0
  0
LINE
  8
LC-005-002-----0
  6
CONTINUOUS
  5
20F
 10
374.580601
 20
1215.631252
 30
0.0
 11
374.580601
 21
1205.631252
 31
0.0
  0
ARC
  8
LC-005-002-----0
  6
CONTINUOUS
  5
210
 10
343.180601
 20
1216.631252
 30
0.0
 40
1.0
 50
89.986409
 51
270.013591
  0
LINE
  8
LC-005-002-----0
  6
CONTINUOUS
  5
211
 10
374.580601
 20
1205.631252
 30
0.0
 11
453.180601
 21
1205.631252
 31
0.0
  0
LINE
  8
LC-005-002-----0
  6
CONTINUOUS
  5
212
 10
531.780601
 20
1205.631252
 30
0.0
 11
453.180601
 21
1205.631252
 31
0.0
  0
LINE
  8
LC-005-002-----0
  6
CONTINUOUS
  5
213
 10
376.219338
 20
1132.337314
 30
0.0
 11
376.219338
 21
1146.832751
 31
0.0
  0
LINE
  8
LC-005-002-----0
  6
CONTINUOUS
  5
214
 10
530.124912
 20
1132.337314
 30
0.0
 11
530.124912
 21
1146.832751
 31
0.0
  0
LINE
  8
LC-005-002-----0
  6
CONTINUOUS
  5
215
 10
527.122125
 20
1146.832751
 30
0.0
 11
530.122125
 21
1146.832751
 31
0.0
  0
ARC
  8
LC-007-002-RND-0
  6
CONTINUOUS
  5
216
 10
527.122125
 20
1143.832751
 30
0.0
 40
3.0
 50
90.0
 51
180.0
  0
LINE
  8
LC-005-002-----0
  6
CONTINUOUS
  5
217
 10
524.122125
 20
1143.832751
 30
0.0
 11
524.122125
 21
1131.333598
 31
0.0
  0
LINE
  8
LC-005-002-----0
  6
CONTINUOUS
  5
218
 10
520.122125
 20
1131.333598
 30
0.0
 11
524.122125
 21
1131.333598
 31
0.0
  0
LINE
  8
LC-005-002-----0
  6
CONTINUOUS
  5
219
 10
520.122125
 20
1131.333598
 30
0.0
 11
520.122125
 21
1128.333598
 31
0.0
  0
LINE
  8
LC-005-002-----0
  6
CONTINUOUS
  5
21A
 10
527.122125
 20
1128.333593
 30
0.0
 11
520.122125
 21
1128.333593
 31
0.0
  0
LINE
  8
LC-005-002-----0
  6
CONTINUOUS
  5
21B
 10
527.122125
 20
1128.333598
 30
0.0
 11
527.122125
 21
1146.832751
 31
0.0
  0
LINE
  8
LC-005-002-----0
  6
CONTINUOUS
  5
21C
 10
530.122125
 20
1132.333598
 30
0.0
 11
527.122125
 21
1128.333593
 31
0.0
  0
LINE
  8
LC-005-002-----0
  6
CONTINUOUS
  5
21D
 10
379.222125
 20
1128.333593
 30
0.0
 11
520.122125
 21
1128.333593
 31
0.0
  0
LINE
  8
LC-005-002-----0
  6
CONTINUOUS
  5
21E
 10
527.122125
 20
1146.832751
 30
0.0
 11
376.222125
 21
1146.832751
 31
0.0
  0
LINE
  8
LC-005-002-----0
  6
CONTINUOUS
  5
21F
 10
379.222125
 20
1128.333598
 30
0.0
 11
379.222125
 21
1146.832751
 31
0.0
  0
ARC
  8
LC-007-002-RND-0
  6
CONTINUOUS
  5
220
 10
379.222125
 20
1143.832751
 30
0.0
 40
3.0
 50
0.0
 51
90.0
  0
LINE
  8
LC-005-002-----0
  6
CONTINUOUS
  5
221
 10
376.222125
 20
1132.333598
 30
0.0
 11
379.222125
 21
1128.333593
 31
0.0
  0
LINE
  8
LC-005-002-----0
  6
CONTINUOUS
  5
222
 10
386.222125
 20
1131.333598
 30
0.0
 11
386.222125
 21
1128.333598
 31
0.0
  0
LINE
  8
LC-005-002-----0
  6
CONTINUOUS
  5
223
 10
520.122125
 20
1131.333598
 30
0.0
 11
382.222125
 21
1131.333598
 31
0.0
  0
LINE
  8
LC-005-002-----0
  6
CONTINUOUS
  5
224
 10
382.222125
 20
1143.832751
 30
0.0
 11
382.222125
 21
1131.333598
 31
0.0
  0
LINE
  8
LC-005-002-----0
  6
DASHDOT
 62
     2
  5
226
 10
453.172125
 20
1219.631252
 30
0.0
 11
453.172125
 21
1205.631252
 31
0.0
  0
LINE
  8
LC-005-002-----0
  6
DASHDOT
 62
     2
  5
227
 10
453.172125
 20
949.14482
 30
0.0
 11
453.172125
 21
933.429647
 31
0.0
  0
LINE
  8
LC-005-002-----0
  6
DASHDOT
 62
     2
  5
228
 10
453.172125
 20
1061.834072
 30
0.0
 11
453.172125
 21
1027.244714
 31
0.0
  0
LINE
  8
LC-005-002-----0
  6
DASHDOT
 62
     2
  5
229
 10
453.172125
 20
1146.832751
 30
0.0
 11
453.172125
 21
1128.333593
 31
0.0
  0
ENDSEC
  0
EOF
