  0
SECTION
  2
HEADER
  9
$ACADVER
  1
AC1009
  9
$INSBASE
 10
0.0
 20
0.0
 30
0.0
  9
$EXTMIN
 10
0.0
 20
0.0
 30
0.0
  9
$EXTMAX
 10
840.0
 20
594.0
 30
0.0
  9
$LIMMIN
 10
0.0
 20
0.0
  9
$LIMMAX
 10
840.0
 20
594.0
  9
$ORTHOMODE
 70
     0
  9
$REGENMODE
 70
     1
  9
$FILLMODE
 70
     1
  9
$QTEXTMODE
 70
     0
  9
$MIRRTEXT
 70
     1
  9
$DRAGMODE
 70
     2
  9
$LTSCALE
 40
2.0
  9
$OSMODE
 70
     0
  9
$ATTMODE
 70
     1
  9
$TEXTSIZE
 40
0.2
  9
$TRACEWID
 40
0.05
  9
$TEXTSTYLE
  7
STANDARD
  9
$CLAYER
  8
0
  9
$CELTYPE
  6
BYLAYER
  9
$CECOLOR
 62
     7
  9
$DIMSCALE
 40
2.0
  9
$DIMASZ
 40
3.5
  9
$DIMEXO
 40
0.0625
  9
$DIMDLI
 40
0.38
  9
$DIMRND
 40
0.0
  9
$DIMDLE
 40
0.0
  9
$DIMEXE
 40
0.18
  9
$DIMTP
 40
0.0
  9
$DIMTM
 40
0.0
  9
$DIMTXT
 40
3.5
  9
$DIMCEN
 40
0.09
  9
$DIMTSZ
 40
0.0
  9
$DIMTOL
 70
     0
  9
$DIMLIM
 70
     0
  9
$DIMTIH
 70
     1
  9
$DIMTOH
 70
     1
  9
$DIMSE1
 70
     0
  9
$DIMSE2
 70
     0
  9
$DIMTAD
 70
     1
  9
$DIMZIN
 70
     0
  9
$DIMBLK
  1

  9
$DIMASO
 70
     1
  9
$DIMSHO
 70
     1
  9
$DIMPOST
  1

  9
$DIMAPOST
  1

  9
$DIMALT
 70
     0
  9
$DIMALTD
 70
     2
  9
$DIMALTF
 40
25.4
  9
$DIMLFAC
 40
1.0
  9
$DIMTOFL
 70
     0
  9
$DIMTVP
 40
0.0
  9
$DIMTIX
 70
     0
  9
$DIMSOXD
 70
     0
  9
$DIMSAH
 70
     0
  9
$DIMBLK1
  1

  9
$DIMBLK2
  1

  9
$DIMSTYLE
  2
STANDARD
  9
$DIMCLRD
 70
     0
  9
$DIMCLRE
 70
     0
  9
$DIMCLRT
 70
     0
  9
$DIMTFAC
 40
1.0
  9
$DIMGAP
 40
0.09
  9
$LUNITS
 70
     2
  9
$LUPREC
 70
     2
  9
$AXISMODE
 70
     0
  9
$AXISUNIT
 10
0.0
 20
0.0
  9
$SKETCHINC
 40
0.1
  9
$FILLETRAD
 40
0.0
  9
$AUNITS
 70
     0
  9
$AUPREC
 70
     0
  9
$MENU
  1
acad
  9
$ELEVATION
 40
0.0
  9
$PELEVATION
 40
0.0
  9
$THICKNESS
 40
0.0
  9
$LIMCHECK
 70
     0
  9
$BLIPMODE
 70
     1
  9
$CHAMFERA
 40
0.0
  9
$CHAMFERB
 40
0.0
  9
$SKPOLY
 70
     0
  9
$TDCREATE
 40
0.000000000
  9
$TDUPDATE
 40
0.000000000
  9
$TDINDWG
 40
0.0000000000
  9
$TDUSRTIMER
 40
0.0000000000
  9
$USRTIMER
 70
     1
  9
$ANGBASE
 50
0.0
  9
$ANGDIR
 70
     0
  9
$PDMODE
 70
     0
  9
$PDSIZE
 40
0.0
  9
$PLINEWID
 40
0.0
  9
$COORDS
 70
     0
  9
$SPLFRAME
 70
     0
  9
$SPLINETYPE
 70
     6
  9
$SPLINESEGS
 70
     8
  9
$ATTDIA
 70
     0
  9
$ATTREQ
 70
     1
  9
$HANDLING
 70
     1
  9
$HANDSEED
  5
186
  9
$SURFTAB1
 70
     6
  9
$SURFTAB2
 70
     6
  9
$SURFTYPE
 70
     6
  9
$SURFU
 70
     6
  9
$SURFV
 70
     6
  9
$UCSNAME
  2

  9
$UCSORG
 10
0.0
 20
0.0
 30
0.0
  9
$UCSXDIR
 10
1.0
 20
0.0
 30
0.0
  9
$UCSYDIR
 10
0.0
 20
1.0
 30
0.0
  9
$PUCSNAME
  2

  9
$PUCSORG
 10
0.0
 20
0.0
 30
0.0
  9
$PUCSXDIR
 10
1.0
 20
0.0
 30
0.0
  9
$PUCSYDIR
 10
0.0
 20
1.0
 30
0.0
  9
$USERI1
 70
     0
  9
$USERI2
 70
     0
  9
$USERI3
 70
     0
  9
$USERI4
 70
     0
  9
$USERI5
 70
     0
  9
$USERR1
 40
0.0
  9
$USERR2
 40
0.0
  9
$USERR3
 40
0.0
  9
$USERR4
 40
0.0
  9
$USERR5
 40
0.0
  9
$WORLDVIEW
 70
     1
  9
$SHADEDGE
 70
     3
  9
$SHADEDIF
 70
    70
  9
$TILEMODE
 70
     1
  9
$MAXACTVP
 70
    16
  9
$PINSBASE
 10
0.0
 20
0.0
 30
0.0
  9
$PLIMCHECK
 70
     0
  9
$PEXTMIN
 10
1.000000E+20
 20
1.000000E+20
 30
1.000000E+20
  9
$PEXTMAX
 10
-1.000000E+20
 20
-1.000000E+20
 30
-1.000000E+20
  9
$PLIMMIN
 10
0.0
 20
0.0
  9
$PLIMMAX
 10
840.0
 20
594.0
  9
$UNITMODE
 70
     0
  9
$VISRETAIN
 70
     0
  9
$PLINEGEN
 70
     1
  9
$PSLTSCALE
 70
     0
  9
$TREEDEPTH
 70
  3020
  9
$DWGCODEPAGE
  3
dos850
  0
ENDSEC
  0
SECTION
  2
TABLES
  0
TABLE
  2
VPORT
 70
     1
  0
VPORT
  2
*ACTIVE
 70
     0
 10
0.0
 20
0.0
 11
1.0
 21
1.0
 12
420.0
 22
297.0
 13
0.0
 23
0.0
 14
1.0
 24
1.0
 15
0.0
 25
0.0
 16
0.0
 26
0.0
 36
1.0
 17
0.0
 27
0.0
 37
0.0
 40
594.0
 41
1.604229
 42
50.0
 43
0.0
 44
0.0
 50
0.0
 51
0.0
 71
     0
 72
   100
 73
     1
 74
     1
 75
     0
 76
     0
 77
     0
 78
     0
  0
ENDTAB
  0
TABLE
  2
LTYPE
 70
     2
  0
LTYPE
  2
CONTINUOUS
 70
    64
  3
Solid line
 72
    65
 73
     0
 40
0.0
  0
LTYPE
  2
DASHDOT
 70
    64
  3
__ . __ . __ . __ . __
 72
    65
 73
     4
 40
7.5
 49
5.0
 49
-1.25
 49
0.0
 49
-1.25
  0
ENDTAB
  0
TABLE
  2
LAYER
 70
    10
  0
LAYER
  2
0
 70
     0
 62
     7
  6
CONTINUOUS
  0
LAYER
  2
LC-INFO-1-2-MM-A3-0
 70
     1
 62
    -1
  6
CONTINUOUS
  0
LAYER
  2
LC-002-005-----0
 70
     0
 62
     2
  6
CONTINUOUS
  0
LAYER
  2
LC-004-003-MTH-0
 70
     0
 62
     2
  6
CONTINUOUS
  0
LAYER
  2
LC-005-003-MTG-0
 70
     0
 62
     2
  6
CONTINUOUS
  0
LAYER
  2
LC-003-003-----0
 70
     0
 62
     2
  6
CONTINUOUS
  0
LAYER
  2
LC-007-000-----0
 70
     0
 62
     7
  6
CONTINUOUS
  0
LAYER
  2
LC-001-002-----0
 70
     0
 62
     1
  6
CONTINUOUS
  0
LAYER
  2
LC-006-002-RND-0
 70
     0
 62
     1
  6
CONTINUOUS
  0
LAYER
  2
LC-000
 70
     0
 62
     7
  6
CONTINUOUS
  0
ENDTAB
  0
TABLE
  2
STYLE
 70
     4
  0
STYLE
  2
STANDARD
 70
     0
 40
0.0
 41
1.0
 50
0.0
 71
     0
 42
0.0
  3
txt
  4

  0
STYLE
  2
LC-STANDARD
 70
    64
 40
0.0
 41
1.0
 50
0.0
 71
     0
 42
3.5
  3
MONOTXT
  4

  0
STYLE
  2
LC-TXTSTYLE-150-400-0-0-A2
 70
    64
 40
0.0
 41
1.0
 50
15.0
 71
     0
 42
3.5
  3
MONOTXT
  4

  0
STYLE
  2
LC-TXTSTYLE-150-400-0-0-D3
 70
    64
 40
0.0
 41
1.0
 50
15.0
 71
     0
 42
3.5
  3
LC-STANDARD
  4

  0
ENDTAB
  0
TABLE
  2
VIEW
 70
     0
  0
ENDTAB
  0
TABLE
  2
UCS
 70
     0
  0
ENDTAB
  0
TABLE
  2
APPID
 70
     1
  0
APPID
  2
ACAD
 70
     0
  0
ENDTAB
  0
TABLE
  2
DIMSTYLE
 70
     3
  0
DIMSTYLE
  2
STANDARD
 70
     0
  3

  4

  5

  6

  7

 40
1.0
 41
0.18
 42
0.0625
 43
0.38
 44
0.18
 45
0.0
 46
0.0
 47
0.0
 48
0.0
 71
     0
 72
     0
 73
     1
 74
     1
 75
     0
 76
     0
 77
     0
 78
     0
140
0.18
141
0.09
142
0.0
143
25.4
144
1.0
145
0.0
146
1.0
147
0.09
170
     0
171
     2
172
     0
173
     0
174
     0
175
     0
176
     0
177
     0
178
     0
  0
DIMSTYLE
  2
LC-STANDARD
 70
     0
  3

  4

  5

  6

  7

 40
1.0
 41
3.5
 42
0.0
 43
7.5
 44
1.8
 45
0.0
 46
0.0
 47
0.0
 48
0.0
 71
     0
 72
     0
 73
     0
 74
     0
 75
     0
 76
     0
 77
     1
 78
     8
140
3.5
141
0.0
142
0.0
143
25.4
144
1.0
145
0.0
146
0.71
147
1.5
170
     0
171
     2
172
     1
173
     0
174
     0
175
     0
176
     0
177
     0
178
     3
  0
DIMSTYLE
  2
LC-DIM-L-0140-02-02
 70
     0
  3

  4

  5

  6

  7

 40
2.0
 41
3.5
 42
0.0
 43
7.5
 44
1.8
 45
0.0
 46
0.0
 47
0.0
 48
0.0
 71
     0
 72
     0
 73
     0
 74
     0
 75
     0
 76
     0
 77
     1
 78
     8
140
14.0
141
0.0
142
0.0
143
25.4
144
1.0
145
0.0
146
0.71
147
1.5
170
     0
171
     2
172
     0
173
     0
174
     0
175
     0
176
     2
177
     2
178
     8
  0
ENDTAB
  0
ENDSEC
  0
SECTION
  2
BLOCKS
  0
BLOCK
  8
0
  5
23
  2
*X0
 70
    65
 10
155.176751
 20
236.457125
 30
0.0
  3
*X0
  0
LINE
  8
LC-002-005-----0
  6
CONTINUOUS
  5
25
 10
162.918019
 20
236.457125
 30
0.0
 11
163.918019
 21
237.457125
 31
0.0
  0
LINE
  8
LC-002-005-----0
  6
CONTINUOUS
  5
26
 10
160.657018
 20
237.02455
 30
0.0
 11
161.373875
 21
237.741408
 31
0.0
  0
LINE
  8
LC-002-005-----0
  6
CONTINUOUS
  5
27
 10
159.609493
 20
238.805452
 30
0.0
 11
160.58
 21
239.775959
 31
0.0
  0
LINE
  8
LC-002-005-----0
  6
CONTINUOUS
  5
28
 10
155.248085
 20
237.272472
 30
0.0
 11
156.348148
 21
238.372535
 31
0.0
  0
LINE
  8
LC-002-005-----0
  6
CONTINUOUS
  5
29
 10
159.477559
 20
241.501945
 30
0.0
 11
160.221947
 21
242.246334
 31
0.0
  0
LINE
  8
LC-002-005-----0
  6
CONTINUOUS
  5
2A
 10
155.519266
 20
240.372079
 30
0.0
 11
156.705939
 21
241.558753
 31
0.0
  0
LINE
  8
LC-002-005-----0
  6
CONTINUOUS
  5
2B
 10
157.478372
 20
242.331185
 30
0.0
 11
158.558158
 21
243.410972
 31
0.0
  0
ENDBLK
  8
0
  5
2C
  0
BLOCK
  8
0
  5
2E
  2
*X1
 70
    65
 10
295.08
 20
236.457125
 30
0.0
  3
*X1
  0
LINE
  8
LC-002-005-----0
  6
CONTINUOUS
  5
2F
 10
304.339376
 20
236.457125
 30
0.0
 11
304.931449
 21
237.049198
 31
0.0
  0
LINE
  8
LC-002-005-----0
  6
CONTINUOUS
  5
30
 10
303.780839
 20
238.727015
 30
0.0
 11
304.703901
 21
239.650078
 31
0.0
  0
LINE
  8
LC-002-005-----0
  6
CONTINUOUS
  5
31
 10
298.898656
 20
236.673259
 30
0.0
 11
300.363866
 21
238.138469
 31
0.0
  0
LINE
  8
LC-002-005-----0
  6
CONTINUOUS
  5
32
 10
303.537413
 20
241.312016
 30
0.0
 11
304.310877
 21
242.08548
 31
0.0
  0
LINE
  8
LC-002-005-----0
  6
CONTINUOUS
  5
33
 10
295.854094
 20
236.457125
 30
0.0
 11
296.854094
 21
237.457125
 31
0.0
  0
LINE
  8
LC-002-005-----0
  6
CONTINUOUS
  5
34
 10
299.58
 20
240.18303
 30
0.0
 11
300.600352
 21
241.203383
 31
0.0
  0
LINE
  8
LC-002-005-----0
  6
CONTINUOUS
  5
35
 10
301.833742
 20
242.436772
 30
0.0
 11
302.759873
 21
243.362904
 31
0.0
  0
ENDBLK
  8
0
  5
36
  0
BLOCK
  8
0
  5
38
  2
*D2
 70
    65
 10
0.0
 20
0.0
 30
0.0
  3
*D2
  0
LINE
  8
LC-004-003-MTH-0
  6
CONTINUOUS
  5
3A
 10
155.589513
 20
241.175014
 30
0.0
 11
155.589513
 21
282.8
 31
0.0
  0
LINE
  8
LC-004-003-MTH-0
  6
CONTINUOUS
  5
3B
 10
304.570487
 20
241.175014
 30
0.0
 11
304.570487
 21
282.8
 31
0.0
  0
LINE
  8
LC-005-003-MTG-0
  6
CONTINUOUS
  5
3D
 10
155.589513
 20
266.0
 30
0.0
 11
304.570487
 21
266.0
 31
0.0
  0
LINE
  8
LC-003-003-----0
  6
CONTINUOUS
  5
3F
 10
183.349969
 20
269.654733
 30
0.0
 11
155.589513
 21
266.0
 31
0.0
  0
LINE
  8
LC-003-003-----0
  6
CONTINUOUS
  5
40
 10
155.589513
 20
266.0
 30
0.0
 11
183.349969
 21
262.345267
 31
0.0
  0
LINE
  8
LC-003-003-----0
  6
CONTINUOUS
  5
41
 10
183.349969
 20
262.345267
 30
0.0
 11
183.349969
 21
269.654733
 31
0.0
  0
LINE
  8
LC-003-003-----0
  6
CONTINUOUS
  5
42
 10
183.412251
 20
268.704503
 30
0.0
 11
162.869513
 21
266.0
 31
0.0
  0
LINE
  8
LC-003-003-----0
  6
CONTINUOUS
  5
43
 10
162.869513
 20
266.0
 30
0.0
 11
183.412251
 21
263.295497
 31
0.0
  0
LINE
  8
LC-003-003-----0
  6
CONTINUOUS
  5
44
 10
183.474532
 20
267.754272
 30
0.0
 11
170.149513
 21
266.0
 31
0.0
  0
LINE
  8
LC-003-003-----0
  6
CONTINUOUS
  5
45
 10
170.149513
 20
266.0
 30
0.0
 11
183.474532
 21
264.245728
 31
0.0
  0
LINE
  8
LC-003-003-----0
  6
CONTINUOUS
  5
46
 10
183.536814
 20
266.804041
 30
0.0
 11
177.429513
 21
266.0
 31
0.0
  0
LINE
  8
LC-003-003-----0
  6
CONTINUOUS
  5
47
 10
177.429513
 20
266.0
 30
0.0
 11
183.536814
 21
265.195959
 31
0.0
  0
LINE
  8
LC-003-003-----0
  6
CONTINUOUS
  5
48
 10
276.810031
 20
262.345267
 30
0.0
 11
304.570487
 21
266.0
 31
0.0
  0
LINE
  8
LC-003-003-----0
  6
CONTINUOUS
  5
49
 10
304.570487
 20
266.0
 30
0.0
 11
276.810031
 21
269.654733
 31
0.0
  0
LINE
  8
LC-003-003-----0
  6
CONTINUOUS
  5
4A
 10
276.810031
 20
269.654733
 30
0.0
 11
276.810031
 21
262.345267
 31
0.0
  0
LINE
  8
LC-003-003-----0
  6
CONTINUOUS
  5
4B
 10
276.747749
 20
263.295497
 30
0.0
 11
297.290487
 21
266.0
 31
0.0
  0
LINE
  8
LC-003-003-----0
  6
CONTINUOUS
  5
4C
 10
297.290487
 20
266.0
 30
0.0
 11
276.747749
 21
268.704503
 31
0.0
  0
LINE
  8
LC-003-003-----0
  6
CONTINUOUS
  5
4D
 10
276.685468
 20
264.245728
 30
0.0
 11
290.010487
 21
266.0
 31
0.0
  0
LINE
  8
LC-003-003-----0
  6
CONTINUOUS
  5
4E
 10
290.010487
 20
266.0
 30
0.0
 11
276.685468
 21
267.754272
 31
0.0
  0
LINE
  8
LC-003-003-----0
  6
CONTINUOUS
  5
4F
 10
276.623186
 20
265.195959
 30
0.0
 11
282.730487
 21
266.0
 31
0.0
  0
LINE
  8
LC-003-003-----0
  6
CONTINUOUS
  5
50
 10
282.730487
 20
266.0
 30
0.0
 11
276.623186
 21
266.804041
 31
0.0
  0
TEXT
  8
LC-003-003-----0
  6
CONTINUOUS
 62
     8
  5
52
 10
204.66438
 20
273.827554
 30
0.0
 40
28.0
  1
150
 41
0.9
 51
15.0
  7
LC-TXTSTYLE-150-400-0-0-D0
 72
     1
 11
234.42816
 21
273.827554
 31
0.0
  0
ENDBLK
  8
0
  5
53
  0
BLOCK
  8
0
  5
55
  2
*D3
 70
    65
 10
0.0
 20
0.0
 30
0.0
  3
*D3
  0
LINE
  8
LC-004-003-MTH-0
  6
CONTINUOUS
  5
56
 10
155.176751
 20
236.457125
 30
0.0
 11
123.2
 21
236.457125
 31
0.0
  0
LINE
  8
LC-004-003-MTH-0
  6
CONTINUOUS
  5
57
 10
158.08
 20
243.457125
 30
0.0
 11
123.2
 21
243.457125
 31
0.0
  0
LINE
  8
LC-003-003-----0
  6
CONTINUOUS
  5
58
 10
143.654733
 20
208.696668
 30
0.0
 11
140.0
 21
236.457125
 31
0.0
  0
LINE
  8
LC-003-003-----0
  6
CONTINUOUS
  5
59
 10
140.0
 20
236.457125
 30
0.0
 11
136.345267
 21
208.696668
 31
0.0
  0
LINE
  8
LC-003-003-----0
  6
CONTINUOUS
  5
5A
 10
136.345267
 20
208.696668
 30
0.0
 11
143.654733
 21
208.696668
 31
0.0
  0
LINE
  8
LC-003-003-----0
  6
CONTINUOUS
  5
5B
 10
142.704503
 20
208.634387
 30
0.0
 11
140.0
 21
229.177125
 31
0.0
  0
LINE
  8
LC-003-003-----0
  6
CONTINUOUS
  5
5C
 10
140.0
 20
229.177125
 30
0.0
 11
137.295497
 21
208.634387
 31
0.0
  0
LINE
  8
LC-003-003-----0
  6
CONTINUOUS
  5
5D
 10
141.754272
 20
208.572106
 30
0.0
 11
140.0
 21
221.897125
 31
0.0
  0
LINE
  8
LC-003-003-----0
  6
CONTINUOUS
  5
5E
 10
140.0
 20
221.897125
 30
0.0
 11
138.245728
 21
208.572106
 31
0.0
  0
LINE
  8
LC-003-003-----0
  6
CONTINUOUS
  5
5F
 10
140.804041
 20
208.509824
 30
0.0
 11
140.0
 21
214.617125
 31
0.0
  0
LINE
  8
LC-003-003-----0
  6
CONTINUOUS
  5
60
 10
140.0
 20
214.617125
 30
0.0
 11
139.195959
 21
208.509824
 31
0.0
  0
LINE
  8
LC-003-003-----0
  6
CONTINUOUS
  5
61
 10
136.345267
 20
271.217581
 30
0.0
 11
140.0
 21
243.457125
 31
0.0
  0
LINE
  8
LC-003-003-----0
  6
CONTINUOUS
  5
62
 10
140.0
 20
243.457125
 30
0.0
 11
143.654733
 21
271.217581
 31
0.0
  0
LINE
  8
LC-003-003-----0
  6
CONTINUOUS
  5
63
 10
143.654733
 20
271.217581
 30
0.0
 11
136.345267
 21
271.217581
 31
0.0
  0
LINE
  8
LC-003-003-----0
  6
CONTINUOUS
  5
64
 10
137.295497
 20
271.279862
 30
0.0
 11
140.0
 21
250.737125
 31
0.0
  0
LINE
  8
LC-003-003-----0
  6
CONTINUOUS
  5
65
 10
140.0
 20
250.737125
 30
0.0
 11
142.704503
 21
271.279862
 31
0.0
  0
LINE
  8
LC-003-003-----0
  6
CONTINUOUS
  5
66
 10
138.245728
 20
271.342143
 30
0.0
 11
140.0
 21
258.017125
 31
0.0
  0
LINE
  8
LC-003-003-----0
  6
CONTINUOUS
  5
67
 10
140.0
 20
258.017125
 30
0.0
 11
141.754272
 21
271.342143
 31
0.0
  0
LINE
  8
LC-003-003-----0
  6
CONTINUOUS
  5
68
 10
139.195959
 20
271.404425
 30
0.0
 11
140.0
 21
265.297125
 31
0.0
  0
LINE
  8
LC-003-003-----0
  6
CONTINUOUS
  5
69
 10
140.0
 20
265.297125
 30
0.0
 11
140.804041
 21
271.404425
 31
0.0
  0
LINE
  8
LC-005-003-MTG-0
  6
CONTINUOUS
  5
6A
 10
140.0
 20
197.257125
 30
0.0
 11
140.0
 21
309.219325
 31
0.0
  0
TEXT
  8
LC-003-003-----0
  6
CONTINUOUS
 62
     8
  5
6B
 10
132.172446
 20
285.885285
 30
0.0
 40
28.0
  1
7
 50
90.0
 51
15.0
  7
LC-TXTSTYLE-150-400-0-0-D0
  0
ENDBLK
  8
0
  5
6C
  0
BLOCK
  8
0
  5
6E
  2
BLK1
 70
    64
 10
0.0
 20
0.0
 30
0.0
  3
BLK1
  0
ENDBLK
  8
0
  5
6F
  0
BLOCK
  8
0
  5
71
  2
BLK2
 70
    64
 10
0.0
 20
0.0
 30
0.0
  3
BLK2
  0
ENDBLK
  8
0
  5
72
  0
BLOCK
  8
0
  5
74
  2
*X6
 70
    65
 10
161.102
 20
237.960322
 30
0.0
  3
*X6
  0
LINE
  8
LC-002-005-----0
  6
CONTINUOUS
  5
75
 10
297.558
 20
238.16103
 30
0.0
 11
299.058
 21
239.66103
 31
0.0
  0
LINE
  8
LC-002-005-----0
  6
CONTINUOUS
  5
76
 10
297.460194
 20
240.891652
 30
0.0
 11
298.545452
 21
241.976909
 31
0.0
  0
LINE
  8
LC-002-005-----0
  6
CONTINUOUS
  5
77
 10
295.200438
 20
241.460322
 30
0.0
 11
296.696593
 21
242.956478
 31
0.0
  0
LINE
  8
LC-002-005-----0
  6
CONTINUOUS
  5
78
 10
289.87201
 20
238.960322
 30
0.0
 11
291.058
 21
240.146312
 31
0.0
  0
LINE
  8
LC-002-005-----0
  6
CONTINUOUS
  5
79
 10
292.37201
 20
241.460322
 30
0.0
 11
293.87201
 21
242.960322
 31
0.0
  0
LINE
  8
LC-002-005-----0
  6
CONTINUOUS
  5
7A
 10
290.10787
 20
242.024609
 30
0.0
 11
290.493714
 21
242.410453
 31
0.0
  0
LINE
  8
LC-002-005-----0
  6
CONTINUOUS
  5
7B
 10
281.386729
 20
238.960322
 30
0.0
 11
282.558
 21
240.131593
 31
0.0
  0
LINE
  8
LC-002-005-----0
  6
CONTINUOUS
  5
7C
 10
280.765258
 20
241.167278
 30
0.0
 11
281.825918
 21
242.227938
 31
0.0
  0
LINE
  8
LC-002-005-----0
  6
CONTINUOUS
  5
7D
 10
278.229875
 20
241.460322
 30
0.0
 11
279.729875
 21
242.960322
 31
0.0
  0
LINE
  8
LC-002-005-----0
  6
CONTINUOUS
  5
7E
 10
273.558
 20
239.616875
 30
0.0
 11
276.901448
 21
242.960322
 31
0.0
  0
LINE
  8
LC-002-005-----0
  6
CONTINUOUS
  5
7F
 10
265.058
 20
239.602156
 30
0.0
 11
266.491013
 21
241.035169
 31
0.0
  0
LINE
  8
LC-002-005-----0
  6
CONTINUOUS
  5
80
 10
264.08731
 20
241.459893
 30
0.0
 11
265.272766
 21
242.645349
 31
0.0
  0
LINE
  8
LC-002-005-----0
  6
CONTINUOUS
  5
81
 10
258.759312
 20
238.960322
 30
0.0
 11
259.058
 21
239.25901
 31
0.0
  0
LINE
  8
LC-002-005-----0
  6
CONTINUOUS
  5
82
 10
261.259312
 20
241.460322
 30
0.0
 11
262.759312
 21
242.960322
 31
0.0
  0
LINE
  8
LC-002-005-----0
  6
CONTINUOUS
  5
83
 10
257.56141
 20
240.590847
 30
0.0
 11
259.927475
 21
242.956913
 31
0.0
  0
LINE
  8
LC-002-005-----0
  6
CONTINUOUS
  5
84
 10
250.274031
 20
238.960322
 30
0.0
 11
250.558
 21
239.244292
 31
0.0
  0
LINE
  8
LC-002-005-----0
  6
CONTINUOUS
  5
85
 10
249.052292
 20
240.567011
 30
0.0
 11
250.212953
 21
241.727672
 31
0.0
  0
LINE
  8
LC-002-005-----0
  6
CONTINUOUS
  5
86
 10
247.117176
 20
241.460322
 30
0.0
 11
248.565188
 21
242.908334
 31
0.0
  0
LINE
  8
LC-002-005-----0
  6
CONTINUOUS
  5
87
 10
244.288749
 20
241.460322
 30
0.0
 11
245.788749
 21
242.960322
 31
0.0
  0
LINE
  8
LC-002-005-----0
  6
CONTINUOUS
  5
88
 10
241.460322
 20
241.460322
 30
0.0
 11
242.960322
 21
242.960322
 31
0.0
  0
LINE
  8
LC-002-005-----0
  6
CONTINUOUS
  5
89
 10
238.631895
 20
241.460322
 30
0.0
 11
240.131895
 21
242.960322
 31
0.0
  0
LINE
  8
LC-002-005-----0
  6
CONTINUOUS
  5
8A
 10
235.803468
 20
241.460322
 30
0.0
 11
237.303468
 21
242.960322
 31
0.0
  0
LINE
  8
LC-002-005-----0
  6
CONTINUOUS
  5
8B
 10
232.975041
 20
241.460322
 30
0.0
 11
234.475041
 21
242.960322
 31
0.0
  0
LINE
  8
LC-002-005-----0
  6
CONTINUOUS
  5
8C
 10
230.146614
 20
241.460322
 30
0.0
 11
231.646614
 21
242.960322
 31
0.0
  0
LINE
  8
LC-002-005-----0
  6
CONTINUOUS
  5
8D
 10
227.318187
 20
241.460322
 30
0.0
 11
228.818187
 21
242.960322
 31
0.0
  0
LINE
  8
LC-002-005-----0
  6
CONTINUOUS
  5
8E
 10
224.489759
 20
241.460322
 30
0.0
 11
225.989759
 21
242.960322
 31
0.0
  0
LINE
  8
LC-002-005-----0
  6
CONTINUOUS
  5
8F
 10
221.661332
 20
241.460322
 30
0.0
 11
223.161332
 21
242.960322
 31
0.0
  0
LINE
  8
LC-002-005-----0
  6
CONTINUOUS
  5
90
 10
218.832905
 20
241.460322
 30
0.0
 11
220.332905
 21
242.960322
 31
0.0
  0
LINE
  8
LC-002-005-----0
  6
CONTINUOUS
  5
91
 10
216.004478
 20
241.460322
 30
0.0
 11
217.504478
 21
242.960322
 31
0.0
  0
LINE
  8
LC-002-005-----0
  6
CONTINUOUS
  5
92
 10
210.676051
 20
238.960322
 30
0.0
 11
211.102
 21
239.386271
 31
0.0
  0
LINE
  8
LC-002-005-----0
  6
CONTINUOUS
  5
93
 10
213.176051
 20
241.460322
 30
0.0
 11
214.676051
 21
242.960322
 31
0.0
  0
LINE
  8
LC-002-005-----0
  6
CONTINUOUS
  5
94
 10
209.616501
 20
240.729199
 30
0.0
 11
211.833123
 21
242.945821
 31
0.0
  0
LINE
  8
LC-002-005-----0
  6
CONTINUOUS
  5
95
 10
202.19077
 20
238.960322
 30
0.0
 11
202.602
 21
239.371553
 31
0.0
  0
LINE
  8
LC-002-005-----0
  6
CONTINUOUS
  5
96
 10
201.078384
 20
240.676364
 30
0.0
 11
202.208575
 21
241.806555
 31
0.0
  0
LINE
  8
LC-002-005-----0
  6
CONTINUOUS
  5
97
 10
199.033915
 20
241.460322
 30
0.0
 11
200.501749
 21
242.928156
 31
0.0
  0
LINE
  8
LC-002-005-----0
  6
CONTINUOUS
  5
98
 10
193.705488
 20
238.960322
 30
0.0
 11
195.102
 21
240.356834
 31
0.0
  0
LINE
  8
LC-002-005-----0
  6
CONTINUOUS
  5
99
 10
196.205488
 20
241.460322
 30
0.0
 11
197.705488
 21
242.960322
 31
0.0
  0
LINE
  8
LC-002-005-----0
  6
CONTINUOUS
  5
9A
 10
185.220207
 20
238.960322
 30
0.0
 11
186.602
 21
240.342115
 31
0.0
  0
LINE
  8
LC-002-005-----0
  6
CONTINUOUS
  5
9B
 10
184.696141
 20
241.264683
 30
0.0
 11
185.761529
 21
242.330072
 31
0.0
  0
LINE
  8
LC-002-005-----0
  6
CONTINUOUS
  5
9C
 10
182.063353
 20
241.460322
 30
0.0
 11
183.563353
 21
242.960322
 31
0.0
  0
LINE
  8
LC-002-005-----0
  6
CONTINUOUS
  5
9D
 10
177.602
 20
239.827397
 30
0.0
 11
180.734925
 21
242.960322
 31
0.0
  0
LINE
  8
LC-002-005-----0
  6
CONTINUOUS
  5
9E
 10
169.102
 20
239.812678
 30
0.0
 11
170.489893
 21
241.200571
 31
0.0
  0
LINE
  8
LC-002-005-----0
  6
CONTINUOUS
  5
9F
 10
167.921217
 20
241.460322
 30
0.0
 11
169.177873
 21
242.716978
 31
0.0
  0
LINE
  8
LC-002-005-----0
  6
CONTINUOUS
  5
A0
 10
161.59279
 20
237.960322
 30
0.0
 11
162.602
 21
238.969532
 31
0.0
  0
LINE
  8
LC-002-005-----0
  6
CONTINUOUS
  5
A1
 10
165.09279
 20
241.460322
 30
0.0
 11
166.59279
 21
242.960322
 31
0.0
  0
LINE
  8
LC-002-005-----0
  6
CONTINUOUS
  5
A2
 10
161.102
 20
240.297959
 30
0.0
 11
163.764363
 21
242.960322
 31
0.0
  0
ENDBLK
  8
0
  5
A3
  0
BLOCK
  8
0
  5
A5
  2
BLK3
 70
    64
 10
0.0
 20
0.0
 30
0.0
  3
BLK3
  0
ENDBLK
  8
0
  5
A6
  0
BLOCK
  8
0
  5
A8
  2
BLK4
 70
    64
 10
0.0
 20
0.0
 30
0.0
  3
BLK4
  0
ENDBLK
  8
0
  5
A9
  0
ENDSEC
  0
SECTION
  2
ENTITIES
  0
VIEWPORT
  8
LC-000
  5
17E
 67
     1
 68
     1
 10
420.0
 20
297.0
 30
0.0
 40
840.0
 41
594.0
 69
     1
1001
ACAD
1000
MVIEW
1002
{
1070
    16
1010
0.0
1020
0.0
1030
0.0
1010
0.0
1020
0.0
1030
1.0
1040
0.0
1040
594.0
1040
420.0
1040
297.0
1040
50.0
1040
0.0
1040
0.0
1070
     0
1070
   100
1070
     1
1070
     1
1070
     0
1070
     0
1070
     0
1070
     0
1040
0.0
1040
0.0
1040
0.0
1040
1.0
1040
1.0
1040
0.0
1040
0.0
1070
     0
1002
{
1002
}
1002
}
  0
VIEWPORT
  8
0
  5
17F
 67
     1
 68
     1
 10
0.0
 20
0.0
 30
0.0
 40
0.0
 41
0.0
 69
     1
1001
ACAD
1000
MVIEW
1002
{
1070
    16
1010
0.0
1020
0.0
1030
0.0
1010
0.0
1020
0.0
1030
1.0
1040
0.0
1040
594.0
1040
0.0
1040
0.0
1040
50.0
1040
0.0
1040
0.0
1070
     0
1070
   100
1070
     0
1070
     1
1070
     0
1070
     0
1070
     0
1070
     0
1040
0.0
1040
0.0
1040
0.0
1040
0.5
1040
0.5
1040
0.5
1040
0.5
1070
     0
1002
{
1002
}
1002
}
  0
INSERT
  8
0
  5
AA
  2
*X0
 10
155.176751
 20
236.457125
 30
0.0
  0
INSERT
  8
0
  5
AB
  2
*X1
 10
295.08
 20
236.457125
 30
0.0
  0
DIMENSION
  8
0
  5
AC
  2
*D2
 10
230.08
 20
266.0
 30
0.0
 11
230.08
 21
266.0
 31
0.0
  1
150
 13
155.589513
 23
241.175014
 33
0.0
 14
304.570487
 24
241.175014
 34
0.0
  3
LC-DIM-L-0140-02-02
  0
DIMENSION
  8
0
  5
AD
  2
*D3
 10
140.0
 20
239.957125
 30
0.0
 11
140.0
 21
239.957125
 31
0.0
  1
7
 13
158.08
 23
243.457125
 33
0.0
 14
155.176751
 24
236.457125
 34
0.0
 50
90.0
  3
LC-DIM-L-0140-02-02
  0
INSERT
  8
0
  5
AF
  2
BLK1
 10
0.0
 20
0.0
 30
0.0
  0
INSERT
  8
0
  5
B0
  2
BLK2
 10
0.0
 20
0.0
 30
0.0
  0
INSERT
  8
0
  5
B1
  2
*X6
 10
161.102
 20
237.960322
 30
0.0
  0
INSERT
  8
0
  5
B2
  2
BLK3
 10
0.0
 20
0.0
 30
0.0
  0
INSERT
  8
0
  5
B3
  2
BLK4
 10
0.0
 20
0.0
 30
0.0
  0
LINE
  8
LC-001-002-----0
  6
CONTINUOUS
  5
B5
 10
165.08
 20
237.457125
 30
0.0
 11
165.08
 21
236.457125
 31
0.0
  0
LINE
  8
LC-001-002-----0
  6
CONTINUOUS
  5
B6
 10
295.08
 20
237.457125
 30
0.0
 11
295.08
 21
236.457125
 31
0.0
  0
ARC
  8
LC-001-002-----0
  6
CONTINUOUS
  5
B7
 10
405.28
 20
171.364909
 30
0.0
 40
3.0
 50
180.0
 51
270.0
  0
ARC
  8
LC-006-002-RND-0
  6
CONTINUOUS
  5
B9
 10
401.78
 20
307.864909
 30
0.0
 40
5.0
 50
90.0
 51
180.0
  0
ARC
  8
LC-001-002-----0
  6
CONTINUOUS
  5
BA
 10
405.28
 20
304.364909
 30
0.0
 40
3.0
 50
90.0
 51
180.0
  0
LINE
  8
LC-001-002-----0
  6
CONTINUOUS
  5
BB
 10
405.28
 20
307.364909
 30
0.0
 11
538.28
 21
307.364909
 31
0.0
  0
LINE
  8
LC-001-002-----0
  6
CONTINUOUS
  5
BC
 10
402.28
 20
171.364909
 30
0.0
 11
402.28
 21
304.364909
 31
0.0
  0
LINE
  8
LC-001-002-----0
  6
CONTINUOUS
  5
BD
 10
538.28
 20
168.364909
 30
0.0
 11
405.28
 21
168.364909
 31
0.0
  0
LINE
  8
LC-001-002-----0
  6
CONTINUOUS
  5
BE
 10
541.28
 20
304.364909
 30
0.0
 11
541.28
 21
171.364909
 31
0.0
  0
ARC
  8
LC-001-002-----0
  6
CONTINUOUS
  5
BF
 10
538.28
 20
304.364909
 30
0.0
 40
3.0
 50
0.0
 51
90.0
  0
ARC
  8
LC-001-002-----0
  6
CONTINUOUS
  5
C0
 10
538.28
 20
171.364909
 30
0.0
 40
3.0
 50
270.0
 51
0.0
  0
LINE
  8
LC-001-002-----0
  6
CONTINUOUS
  5
C1
 10
395.03
 20
309.614909
 30
0.0
 11
395.03
 21
166.114909
 31
0.0
  0
LINE
  8
LC-001-002-----0
  6
CONTINUOUS
  5
C2
 10
400.03
 20
161.114909
 30
0.0
 11
543.53
 21
161.114909
 31
0.0
  0
LINE
  8
LC-001-002-----0
  6
CONTINUOUS
  5
C3
 10
548.53
 20
166.114909
 30
0.0
 11
548.53
 21
309.614909
 31
0.0
  0
LINE
  8
LC-001-002-----0
  6
CONTINUOUS
  5
C4
 10
541.78
 20
312.864909
 30
0.0
 11
401.78
 21
312.864909
 31
0.0
  0
LINE
  8
LC-001-002-----0
  6
CONTINUOUS
  5
C5
 10
541.78
 20
162.864909
 30
0.0
 11
401.78
 21
162.864909
 31
0.0
  0
LINE
  8
LC-001-002-----0
  6
CONTINUOUS
  5
C6
 10
396.78
 20
167.864909
 30
0.0
 11
396.78
 21
307.864909
 31
0.0
  0
LINE
  8
LC-001-002-----0
  6
CONTINUOUS
  5
C7
 10
546.78
 20
167.864909
 30
0.0
 11
546.78
 21
307.864909
 31
0.0
  0
ARC
  8
LC-006-002-RND-0
  6
CONTINUOUS
  5
C8
 10
401.78
 20
167.864909
 30
0.0
 40
5.0
 50
180.0
 51
270.0
  0
ARC
  8
LC-006-002-RND-0
  6
CONTINUOUS
  5
C9
 10
400.03
 20
309.614909
 30
0.0
 40
5.0
 50
90.0
 51
180.0
  0
ARC
  8
LC-006-002-RND-0
  6
CONTINUOUS
  5
CA
 10
541.78
 20
307.864909
 30
0.0
 40
5.0
 50
360.0
 51
90.0
  0
ARC
  8
LC-006-002-RND-0
  6
CONTINUOUS
  5
CB
 10
541.78
 20
167.864909
 30
0.0
 40
5.0
 50
270.0
 51
360.0
  0
LINE
  8
LC-001-002-----0
  6
CONTINUOUS
  5
CC
 10
543.53
 20
314.614909
 30
0.0
 11
400.03
 21
314.614909
 31
0.0
  0
ARC
  8
LC-006-002-RND-0
  6
CONTINUOUS
  5
CD
 10
543.53
 20
166.114909
 30
0.0
 40
5.0
 50
270.0
 51
0.0
  0
ARC
  8
LC-006-002-RND-0
  6
CONTINUOUS
  5
CE
 10
400.03
 20
166.114909
 30
0.0
 40
5.0
 50
180.0
 51
270.0
  0
ARC
  8
LC-006-002-RND-0
  6
CONTINUOUS
  5
CF
 10
543.53
 20
309.614909
 30
0.0
 40
5.0
 50
0.0
 51
90.0
  0
LINE
  8
LC-001-002-----0
  6
CONTINUOUS
  5
D0
 10
304.570487
 20
241.175014
 30
0.0
 11
304.983249
 21
236.457125
 31
0.0
  0
LINE
  8
LC-001-002-----0
  6
CONTINUOUS
  5
D1
 10
303.574292
 20
241.087858
 30
0.0
 11
303.979429
 21
236.457125
 31
0.0
  0
ARC
  8
LC-001-002-----0
  6
CONTINUOUS
  5
D2
 10
297.83
 20
239.207125
 30
0.0
 40
2.75
 50
270.0
 51
0.0
  0
ARC
  8
LC-001-002-----0
  6
CONTINUOUS
  5
D3
 10
297.83
 20
239.207125
 30
0.0
 40
1.75
 50
270.0
 51
0.0
  0
LINE
  8
LC-001-002-----0
  6
CONTINUOUS
  5
D4
 10
304.983249
 20
236.457125
 30
0.0
 11
163.58
 21
236.457125
 31
0.0
  0
ARC
  8
LC-001-002-----0
  6
CONTINUOUS
  5
D5
 10
302.08
 20
240.957125
 30
0.0
 40
2.5
 50
90.0
 51
180.0
  0
LINE
  8
LC-001-002-----0
  6
CONTINUOUS
  5
D6
 10
302.08
 20
243.457125
 30
0.0
 11
158.08
 21
243.457125
 31
0.0
  0
LINE
  8
LC-001-002-----0
  6
CONTINUOUS
  5
D7
 10
300.58
 20
239.207125
 30
0.0
 11
300.58
 21
240.957125
 31
0.0
  0
LINE
  8
LC-001-002-----0
  6
CONTINUOUS
  5
D8
 10
301.58
 20
243.457125
 30
0.0
 11
301.392087
 21
243.457125
 31
0.0
  0
LINE
  8
LC-001-002-----0
  6
CONTINUOUS
  5
D9
 10
159.58
 20
239.207125
 30
0.0
 11
159.58
 21
240.957125
 31
0.0
  0
LINE
  8
LC-001-002-----0
  6
CONTINUOUS
  5
DA
 10
174.08
 20
237.457125
 30
0.0
 11
163.58
 21
237.457125
 31
0.0
  0
LINE
  8
LC-001-002-----0
  6
CONTINUOUS
  5
DB
 10
299.58
 20
239.207125
 30
0.0
 11
299.58
 21
240.957125
 31
0.0
  0
LINE
  8
LC-001-002-----0
  6
DASHDOT
 62
     2
  5
DD
 10
230.08
 20
243.457125
 30
0.0
 11
230.08
 21
236.457125
 31
0.0
  0
ARC
  8
LC-001-002-----0
  6
CONTINUOUS
  5
DE
 10
158.08
 20
240.957125
 30
0.0
 40
1.5
 50
360.0
 51
175.0
  0
ARC
  8
LC-001-002-----0
  6
CONTINUOUS
  5
DF
 10
302.08
 20
240.957125
 30
0.0
 40
2.5
 50
5.0
 51
90.0
  0
LINE
  8
LC-001-002-----0
  6
CONTINUOUS
  5
E0
 10
160.58
 20
239.207125
 30
0.0
 11
160.58
 21
240.957125
 31
0.0
  0
LINE
  8
LC-001-002-----0
  6
CONTINUOUS
  5
E1
 10
162.33
 20
237.457125
 30
0.0
 11
163.58
 21
237.457125
 31
0.0
  0
LINE
  8
LC-001-002-----0
  6
CONTINUOUS
 62
     2
  5
E2
 10
188.829385
 20
279.18
 30
0.0
 11
203.829385
 21
279.18
 31
0.0
  0
LINE
  8
LC-001-002-----0
  6
CONTINUOUS
 62
     2
  5
E3
 10
188.829385
 20
294.18
 30
0.0
 11
188.829385
 21
279.18
 31
0.0
  0
LINE
  8
LC-001-002-----0
  6
CONTINUOUS
 62
     2
  5
E4
 10
188.829385
 20
294.18
 30
0.0
 11
203.829385
 21
294.18
 31
0.0
  0
LINE
  8
LC-001-002-----0
  6
CONTINUOUS
 62
     2
  5
E5
 10
203.829385
 20
294.18
 30
0.0
 11
203.829385
 21
279.18
 31
0.0
  0
ARC
  8
LC-001-002-----0
  6
CONTINUOUS
  5
E6
 10
162.33
 20
239.207125
 30
0.0
 40
2.75
 50
180.0
 51
270.0
  0
ARC
  8
LC-001-002-----0
  6
CONTINUOUS
  5
E7
 10
162.33
 20
239.207125
 30
0.0
 40
1.75
 50
180.0
 51
270.0
  0
LINE
  8
LC-001-002-----0
  6
CONTINUOUS
  5
E8
 10
480.28
 20
217.386909
 30
0.0
 11
463.28
 21
217.386909
 31
0.0
  0
ARC
  8
LC-006-002-RND-0
  6
CONTINUOUS
  5
E9
 10
536.968
 20
172.676909
 30
0.0
 40
3.79
 50
270.0
 51
0.0
  0
ARC
  8
LC-006-002-RND-0
  6
CONTINUOUS
  5
EA
 10
536.968
 20
303.052909
 30
0.0
 40
3.79
 50
0.0
 51
90.0
  0
ARC
  8
LC-006-002-RND-0
  6
CONTINUOUS
  5
EB
 10
406.592
 20
303.052909
 30
0.0
 40
3.79
 50
90.0
 51
180.0
  0
ARC
  8
LC-006-002-RND-0
  6
CONTINUOUS
  5
EC
 10
406.592
 20
172.676909
 30
0.0
 40
3.79
 50
180.0
 51
270.0
  0
ARC
  8
LC-001-002-----0
  6
CONTINUOUS
  5
ED
 10
431.28
 20
293.842909
 30
0.0
 40
3.5
 50
90.0
 51
270.0
  0
ARC
  8
LC-001-002-----0
  6
CONTINUOUS
  5
EE
 10
512.28
 20
293.842909
 30
0.0
 40
3.5
 50
270.0
 51
90.0
  0
LINE
  8
LC-001-002-----0
  6
CONTINUOUS
  5
EF
 10
431.28
 20
297.342909
 30
0.0
 11
512.28
 21
297.342909
 31
0.0
  0
LINE
  8
LC-001-002-----0
  6
CONTINUOUS
  5
F0
 10
431.28
 20
290.342909
 30
0.0
 11
512.28
 21
290.342909
 31
0.0
  0
ARC
  8
LC-001-002-----0
  6
CONTINUOUS
  5
F1
 10
447.28
 20
277.842909
 30
0.0
 40
3.5
 50
90.0
 51
270.0
  0
ARC
  8
LC-001-002-----0
  6
CONTINUOUS
  5
F2
 10
496.28
 20
277.842909
 30
0.0
 40
3.5
 50
270.0
 51
90.0
  0
LINE
  8
LC-001-002-----0
  6
CONTINUOUS
  5
F3
 10
447.28
 20
281.342909
 30
0.0
 11
496.28
 21
281.342909
 31
0.0
  0
LINE
  8
LC-001-002-----0
  6
CONTINUOUS
  5
F4
 10
447.28
 20
274.342909
 30
0.0
 11
496.28
 21
274.342909
 31
0.0
  0
ARC
  8
LC-001-002-----0
  6
CONTINUOUS
  5
F5
 10
463.28
 20
261.842909
 30
0.0
 40
3.5
 50
90.0
 51
270.0
  0
ARC
  8
LC-001-002-----0
  6
CONTINUOUS
  5
F6
 10
480.28
 20
261.842909
 30
0.0
 40
3.5
 50
270.0
 51
90.0
  0
LINE
  8
LC-001-002-----0
  6
CONTINUOUS
  5
F7
 10
463.28
 20
265.342909
 30
0.0
 11
480.28
 21
265.342909
 31
0.0
  0
LINE
  8
LC-001-002-----0
  6
CONTINUOUS
  5
F8
 10
463.28
 20
258.342909
 30
0.0
 11
480.28
 21
258.342909
 31
0.0
  0
ARC
  8
LC-001-002-----0
  6
CONTINUOUS
  5
F9
 10
415.802
 20
197.364909
 30
0.0
 40
3.5
 50
180.0
 51
0.0
  0
ARC
  8
LC-001-002-----0
  6
CONTINUOUS
  5
FA
 10
415.802
 20
278.364909
 30
0.0
 40
3.5
 50
0.0
 51
180.0
  0
ARC
  8
LC-001-002-----0
  6
CONTINUOUS
  5
FB
 10
527.758
 20
278.364909
 30
0.0
 40
3.5
 50
0.0
 51
180.0
  0
ARC
  8
LC-001-002-----0
  6
CONTINUOUS
  5
FC
 10
527.758
 20
197.364909
 30
0.0
 40
3.5
 50
180.0
 51
0.0
  0
LINE
  8
LC-001-002-----0
  6
CONTINUOUS
  5
FD
 10
531.258
 20
278.364909
 30
0.0
 11
531.258
 21
197.364909
 31
0.0
  0
LINE
  8
LC-001-002-----0
  6
CONTINUOUS
  5
FE
 10
524.258
 20
278.364909
 30
0.0
 11
524.258
 21
197.364909
 31
0.0
  0
LINE
  8
LC-001-002-----0
  6
CONTINUOUS
  5
FF
 10
412.302
 20
197.364909
 30
0.0
 11
412.302
 21
278.364909
 31
0.0
  0
LINE
  8
LC-001-002-----0
  6
CONTINUOUS
  5
100
 10
419.302
 20
197.364909
 30
0.0
 11
419.302
 21
278.364909
 31
0.0
  0
ARC
  8
LC-001-002-----0
  6
CONTINUOUS
  5
101
 10
511.758
 20
262.364909
 30
0.0
 40
3.5
 50
0.0
 51
180.0
  0
ARC
  8
LC-001-002-----0
  6
CONTINUOUS
  5
102
 10
511.758
 20
213.364909
 30
0.0
 40
3.5
 50
180.0
 51
0.0
  0
LINE
  8
LC-001-002-----0
  6
CONTINUOUS
  5
103
 10
515.258
 20
262.364909
 30
0.0
 11
515.258
 21
213.364909
 31
0.0
  0
LINE
  8
LC-001-002-----0
  6
CONTINUOUS
  5
104
 10
508.258
 20
262.364909
 30
0.0
 11
508.258
 21
213.364909
 31
0.0
  0
ARC
  8
LC-001-002-----0
  6
CONTINUOUS
  5
105
 10
431.802
 20
213.364909
 30
0.0
 40
3.5
 50
180.0
 51
0.0
  0
ARC
  8
LC-001-002-----0
  6
CONTINUOUS
  5
106
 10
431.802
 20
262.364909
 30
0.0
 40
3.5
 50
0.0
 51
180.0
  0
LINE
  8
LC-001-002-----0
  6
CONTINUOUS
  5
107
 10
428.302
 20
213.364909
 30
0.0
 11
428.302
 21
262.364909
 31
0.0
  0
LINE
  8
LC-001-002-----0
  6
CONTINUOUS
  5
108
 10
435.302
 20
213.364909
 30
0.0
 11
435.302
 21
262.364909
 31
0.0
  0
ARC
  8
LC-001-002-----0
  6
CONTINUOUS
  5
109
 10
495.758
 20
246.364909
 30
0.0
 40
3.5
 50
0.0
 51
180.0
  0
ARC
  8
LC-001-002-----0
  6
CONTINUOUS
  5
10A
 10
495.758
 20
229.364909
 30
0.0
 40
3.5
 50
180.0
 51
0.0
  0
LINE
  8
LC-001-002-----0
  6
CONTINUOUS
  5
10B
 10
499.258
 20
246.364909
 30
0.0
 11
499.258
 21
229.364909
 31
0.0
  0
LINE
  8
LC-001-002-----0
  6
CONTINUOUS
  5
10C
 10
406.592
 20
306.842909
 30
0.0
 11
536.968
 21
306.842909
 31
0.0
  0
LINE
  8
LC-001-002-----0
  6
CONTINUOUS
  5
10D
 10
540.758
 20
303.052909
 30
0.0
 11
540.758
 21
172.676909
 31
0.0
  0
LINE
  8
LC-001-002-----0
  6
CONTINUOUS
  5
10E
 10
536.968
 20
168.886909
 30
0.0
 11
406.592
 21
168.886909
 31
0.0
  0
LINE
  8
LC-001-002-----0
  6
CONTINUOUS
  5
10F
 10
402.802
 20
172.676909
 30
0.0
 11
402.802
 21
303.052909
 31
0.0
  0
LINE
  8
LC-001-002-----0
  6
CONTINUOUS
  5
110
 10
492.258
 20
246.364909
 30
0.0
 11
492.258
 21
229.364909
 31
0.0
  0
ARC
  8
LC-001-002-----0
  6
CONTINUOUS
  5
111
 10
447.802
 20
229.364909
 30
0.0
 40
3.5
 50
180.0
 51
0.0
  0
ARC
  8
LC-001-002-----0
  6
CONTINUOUS
  5
112
 10
447.802
 20
246.364909
 30
0.0
 40
3.5
 50
0.0
 51
180.0
  0
LINE
  8
LC-001-002-----0
  6
CONTINUOUS
  5
113
 10
444.302
 20
229.364909
 30
0.0
 11
444.302
 21
246.364909
 31
0.0
  0
LINE
  8
LC-001-002-----0
  6
CONTINUOUS
  5
114
 10
451.302
 20
229.364909
 30
0.0
 11
451.302
 21
246.364909
 31
0.0
  0
ARC
  8
LC-001-002-----0
  6
CONTINUOUS
  5
115
 10
512.28
 20
181.886909
 30
0.0
 40
3.5
 50
270.0
 51
90.0
  0
ARC
  8
LC-001-002-----0
  6
CONTINUOUS
  5
116
 10
431.28
 20
181.886909
 30
0.0
 40
3.5
 50
90.0
 51
270.0
  0
LINE
  8
LC-001-002-----0
  6
CONTINUOUS
  5
117
 10
512.28
 20
178.386909
 30
0.0
 11
431.28
 21
178.386909
 31
0.0
  0
LINE
  8
LC-001-002-----0
  6
CONTINUOUS
  5
118
 10
512.28
 20
185.386909
 30
0.0
 11
431.28
 21
185.386909
 31
0.0
  0
ARC
  8
LC-001-002-----0
  6
CONTINUOUS
  5
119
 10
496.28
 20
197.886909
 30
0.0
 40
3.5
 50
270.0
 51
90.0
  0
ARC
  8
LC-001-002-----0
  6
CONTINUOUS
  5
11A
 10
447.28
 20
197.886909
 30
0.0
 40
3.5
 50
90.0
 51
270.0
  0
LINE
  8
LC-001-002-----0
  6
CONTINUOUS
  5
11B
 10
496.28
 20
194.386909
 30
0.0
 11
447.28
 21
194.386909
 31
0.0
  0
LINE
  8
LC-001-002-----0
  6
CONTINUOUS
  5
11C
 10
496.28
 20
201.386909
 30
0.0
 11
447.28
 21
201.386909
 31
0.0
  0
ARC
  8
LC-001-002-----0
  6
CONTINUOUS
  5
11D
 10
480.28
 20
213.886909
 30
0.0
 40
3.5
 50
270.0
 51
90.0
  0
ARC
  8
LC-001-002-----0
  6
CONTINUOUS
  5
11E
 10
463.28
 20
213.886909
 30
0.0
 40
3.5
 50
90.0
 51
270.0
  0
LINE
  8
LC-001-002-----0
  6
CONTINUOUS
  5
11F
 10
480.28
 20
210.386909
 30
0.0
 11
463.28
 21
210.386909
 31
0.0
  0
LINE
  8
LC-001-002-----0
  6
CONTINUOUS
  5
120
 10
155.589513
 20
241.175014
 30
0.0
 11
155.176751
 21
236.457125
 31
0.0
  0
ARC
  8
LC-001-002-----0
  6
CONTINUOUS
  5
121
 10
302.08
 20
240.957125
 30
0.0
 40
1.5
 50
5.0
 51
180.0
  0
ARC
  8
LC-001-002-----0
  6
CONTINUOUS
  5
122
 10
158.08
 20
240.957125
 30
0.0
 40
2.5
 50
360.0
 51
175.0
  0
LINE
  8
LC-001-002-----0
  6
CONTINUOUS
  5
123
 10
156.585708
 20
241.087858
 30
0.0
 11
156.180571
 21
236.457125
 31
0.0
  0
LINE
  8
LC-001-002-----0
  6
CONTINUOUS
  5
124
 10
155.176751
 20
236.457125
 30
0.0
 11
163.58
 21
236.457125
 31
0.0
  0
LINE
  8
LC-001-002-----0
  6
CONTINUOUS
  5
125
 10
174.08
 20
237.457125
 30
0.0
 11
297.83
 21
237.457125
 31
0.0
  0
ARC
  8
LC-006-002-RND-0
  6
CONTINUOUS
  5
126
 10
168.102
 20
240.460322
 30
0.0
 40
2.5
 50
0.0
 51
90.0
  0
ARC
  8
LC-006-002-RND-0
  6
CONTINUOUS
  5
127
 10
180.102
 20
240.460322
 30
0.0
 40
2.5
 50
90.0
 51
180.0
  0
ARC
  8
LC-006-002-RND-0
  6
CONTINUOUS
  5
128
 10
184.102
 20
240.460322
 30
0.0
 40
2.5
 50
0.0
 51
90.0
  0
ARC
  8
LC-006-002-RND-0
  6
CONTINUOUS
  5
129
 10
196.102
 20
240.460322
 30
0.0
 40
2.5
 50
90.0
 51
180.0
  0
ARC
  8
LC-006-002-RND-0
  6
CONTINUOUS
  5
12A
 10
200.102
 20
240.460322
 30
0.0
 40
2.5
 50
0.0
 51
90.0
  0
ARC
  8
LC-006-002-RND-0
  6
CONTINUOUS
  5
12B
 10
212.102
 20
240.460322
 30
0.0
 40
2.5
 50
90.0
 51
180.0
  0
ARC
  8
LC-006-002-RND-0
  6
CONTINUOUS
  5
12C
 10
163.602
 20
240.460322
 30
0.0
 40
2.5
 50
90.0
 51
180.0
  0
ARC
  8
LC-006-002-RND-0
  6
CONTINUOUS
  5
12D
 10
248.058
 20
240.460322
 30
0.0
 40
2.5
 50
0.0
 51
90.0
  0
ARC
  8
LC-006-002-RND-0
  6
CONTINUOUS
  5
12E
 10
260.058
 20
240.460322
 30
0.0
 40
2.5
 50
90.0
 51
180.0
  0
ARC
  8
LC-006-002-RND-0
  6
CONTINUOUS
  5
12F
 10
264.058
 20
240.460322
 30
0.0
 40
2.5
 50
0.0
 51
90.0
  0
ARC
  8
LC-006-002-RND-0
  6
CONTINUOUS
  5
130
 10
276.058
 20
240.460322
 30
0.0
 40
2.5
 50
90.0
 51
180.0
  0
ARC
  8
LC-006-002-RND-0
  6
CONTINUOUS
  5
131
 10
280.058
 20
240.460322
 30
0.0
 40
2.5
 50
0.0
 51
90.0
  0
ARC
  8
LC-006-002-RND-0
  6
CONTINUOUS
  5
132
 10
292.058
 20
240.460322
 30
0.0
 40
2.5
 50
90.0
 51
180.0
  0
ARC
  8
LC-006-002-RND-0
  6
CONTINUOUS
  5
133
 10
296.558
 20
240.460322
 30
0.0
 40
2.5
 50
0.0
 51
90.0
  0
LINE
  8
LC-001-002-----0
  6
CONTINUOUS
  5
134
 10
168.102
 20
242.960322
 30
0.0
 11
180.102
 21
242.960322
 31
0.0
  0
LINE
  8
LC-001-002-----0
  6
CONTINUOUS
  5
135
 10
184.102
 20
242.960322
 30
0.0
 11
196.102
 21
242.960322
 31
0.0
  0
LINE
  8
LC-001-002-----0
  6
CONTINUOUS
  5
136
 10
297.558
 20
237.960322
 30
0.0
 11
297.558
 21
240.460322
 31
0.0
  0
ARC
  8
LC-001-002-----0
  6
CONTINUOUS
  5
137
 10
296.558
 20
240.460322
 30
0.0
 40
1.0
 50
0.0
 51
90.0
  0
LINE
  8
LC-001-002-----0
  6
CONTINUOUS
  5
138
 10
296.558
 20
241.460322
 30
0.0
 11
292.058
 21
241.460322
 31
0.0
  0
ARC
  8
LC-001-002-----0
  6
CONTINUOUS
  5
139
 10
292.058
 20
240.460322
 30
0.0
 40
1.0
 50
90.0
 51
180.0
  0
LINE
  8
LC-001-002-----0
  6
CONTINUOUS
  5
13A
 10
291.058
 20
240.460322
 30
0.0
 11
291.058
 21
238.960322
 31
0.0
  0
LINE
  8
LC-001-002-----0
  6
CONTINUOUS
  5
13B
 10
161.102
 20
237.960322
 30
0.0
 11
161.102
 21
240.460322
 31
0.0
  0
LINE
  8
LC-001-002-----0
  6
CONTINUOUS
  5
13C
 10
163.602
 20
242.960322
 30
0.0
 11
168.102
 21
242.960322
 31
0.0
  0
LINE
  8
LC-001-002-----0
  6
CONTINUOUS
  5
13D
 10
170.602
 20
240.460322
 30
0.0
 11
170.602
 21
238.960322
 31
0.0
  0
LINE
  8
LC-001-002-----0
  6
CONTINUOUS
  5
13E
 10
169.102
 20
238.960322
 30
0.0
 11
179.102
 21
238.960322
 31
0.0
  0
LINE
  8
LC-001-002-----0
  6
CONTINUOUS
  5
13F
 10
177.602
 20
238.960322
 30
0.0
 11
177.602
 21
240.460322
 31
0.0
  0
LINE
  8
LC-001-002-----0
  6
CONTINUOUS
  5
140
 10
180.102
 20
242.960322
 30
0.0
 11
184.102
 21
242.960322
 31
0.0
  0
LINE
  8
LC-001-002-----0
  6
CONTINUOUS
  5
141
 10
186.602
 20
240.460322
 30
0.0
 11
186.602
 21
238.960322
 31
0.0
  0
LINE
  8
LC-001-002-----0
  6
CONTINUOUS
  5
142
 10
185.102
 20
238.960322
 30
0.0
 11
195.102
 21
238.960322
 31
0.0
  0
LINE
  8
LC-001-002-----0
  6
CONTINUOUS
  5
143
 10
193.602
 20
238.960322
 30
0.0
 11
193.602
 21
240.460322
 31
0.0
  0
LINE
  8
LC-001-002-----0
  6
CONTINUOUS
  5
144
 10
196.102
 20
242.960322
 30
0.0
 11
200.102
 21
242.960322
 31
0.0
  0
LINE
  8
LC-001-002-----0
  6
CONTINUOUS
  5
145
 10
202.602
 20
240.460322
 30
0.0
 11
202.602
 21
238.960322
 31
0.0
  0
LINE
  8
LC-001-002-----0
  6
CONTINUOUS
  5
146
 10
201.102
 20
238.960322
 30
0.0
 11
211.102
 21
238.960322
 31
0.0
  0
LINE
  8
LC-001-002-----0
  6
CONTINUOUS
  5
147
 10
209.602
 20
238.960322
 30
0.0
 11
209.602
 21
240.460322
 31
0.0
  0
LINE
  8
LC-001-002-----0
  6
CONTINUOUS
  5
148
 10
212.102
 20
242.960322
 30
0.0
 11
230.08
 21
242.960322
 31
0.0
  0
LINE
  8
LC-001-002-----0
  6
CONTINUOUS
  5
149
 10
162.602
 20
237.960322
 30
0.0
 11
297.558
 21
237.960322
 31
0.0
  0
LINE
  8
LC-001-002-----0
  6
CONTINUOUS
  5
14A
 10
299.058
 20
237.960322
 30
0.0
 11
299.058
 21
240.460322
 31
0.0
  0
LINE
  8
LC-001-002-----0
  6
CONTINUOUS
  5
14B
 10
296.558
 20
242.960322
 30
0.0
 11
292.058
 21
242.960322
 31
0.0
  0
LINE
  8
LC-001-002-----0
  6
CONTINUOUS
  5
14C
 10
289.558
 20
240.460322
 30
0.0
 11
289.558
 21
238.960322
 31
0.0
  0
LINE
  8
LC-001-002-----0
  6
CONTINUOUS
  5
14D
 10
291.058
 20
238.960322
 30
0.0
 11
281.058
 21
238.960322
 31
0.0
  0
LINE
  8
LC-001-002-----0
  6
CONTINUOUS
  5
14E
 10
282.558
 20
238.960322
 30
0.0
 11
282.558
 21
240.460322
 31
0.0
  0
LINE
  8
LC-001-002-----0
  6
CONTINUOUS
  5
14F
 10
280.058
 20
242.960322
 30
0.0
 11
276.058
 21
242.960322
 31
0.0
  0
LINE
  8
LC-001-002-----0
  6
CONTINUOUS
  5
150
 10
273.558
 20
240.460322
 30
0.0
 11
273.558
 21
238.960322
 31
0.0
  0
LINE
  8
LC-001-002-----0
  6
CONTINUOUS
  5
151
 10
275.058
 20
238.960322
 30
0.0
 11
265.058
 21
238.960322
 31
0.0
  0
LINE
  8
LC-001-002-----0
  6
CONTINUOUS
  5
152
 10
266.558
 20
238.960322
 30
0.0
 11
266.558
 21
240.460322
 31
0.0
  0
LINE
  8
LC-001-002-----0
  6
CONTINUOUS
  5
153
 10
264.058
 20
242.960322
 30
0.0
 11
260.058
 21
242.960322
 31
0.0
  0
LINE
  8
LC-001-002-----0
  6
CONTINUOUS
  5
154
 10
257.558
 20
240.460322
 30
0.0
 11
257.558
 21
238.960322
 31
0.0
  0
LINE
  8
LC-001-002-----0
  6
CONTINUOUS
  5
155
 10
259.058
 20
238.960322
 30
0.0
 11
249.058
 21
238.960322
 31
0.0
  0
LINE
  8
LC-001-002-----0
  6
CONTINUOUS
  5
156
 10
250.558
 20
238.960322
 30
0.0
 11
250.558
 21
240.460322
 31
0.0
  0
LINE
  8
LC-001-002-----0
  6
CONTINUOUS
  5
157
 10
248.058
 20
242.960322
 30
0.0
 11
230.08
 21
242.960322
 31
0.0
  0
LINE
  8
LC-001-002-----0
  6
CONTINUOUS
  5
158
 10
248.058
 20
242.960322
 30
0.0
 11
260.058
 21
242.960322
 31
0.0
  0
LINE
  8
LC-001-002-----0
  6
CONTINUOUS
  5
159
 10
281.058
 20
238.960322
 30
0.0
 11
281.058
 21
240.460322
 31
0.0
  0
ARC
  8
LC-001-002-----0
  6
CONTINUOUS
  5
15A
 10
280.058
 20
240.460322
 30
0.0
 40
1.0
 50
0.0
 51
90.0
  0
LINE
  8
LC-001-002-----0
  6
CONTINUOUS
  5
15B
 10
280.058
 20
241.460322
 30
0.0
 11
276.058
 21
241.460322
 31
0.0
  0
ARC
  8
LC-001-002-----0
  6
CONTINUOUS
  5
15C
 10
276.058
 20
240.460322
 30
0.0
 40
1.0
 50
90.0
 51
180.0
  0
LINE
  8
LC-001-002-----0
  6
CONTINUOUS
  5
15D
 10
275.058
 20
240.460322
 30
0.0
 11
275.058
 21
238.960322
 31
0.0
  0
LINE
  8
LC-001-002-----0
  6
CONTINUOUS
  5
15E
 10
264.058
 20
242.960322
 30
0.0
 11
276.058
 21
242.960322
 31
0.0
  0
LINE
  8
LC-001-002-----0
  6
CONTINUOUS
  5
15F
 10
265.058
 20
238.960322
 30
0.0
 11
265.058
 21
240.460322
 31
0.0
  0
ARC
  8
LC-001-002-----0
  6
CONTINUOUS
  5
160
 10
264.058
 20
240.460322
 30
0.0
 40
1.0
 50
0.0
 51
90.0
  0
LINE
  8
LC-001-002-----0
  6
CONTINUOUS
  5
161
 10
264.058
 20
241.460322
 30
0.0
 11
260.058
 21
241.460322
 31
0.0
  0
ARC
  8
LC-001-002-----0
  6
CONTINUOUS
  5
162
 10
260.058
 20
240.460322
 30
0.0
 40
1.0
 50
90.0
 51
180.0
  0
LINE
  8
LC-001-002-----0
  6
CONTINUOUS
  5
163
 10
259.058
 20
240.460322
 30
0.0
 11
259.058
 21
238.960322
 31
0.0
  0
LINE
  8
LC-001-002-----0
  6
CONTINUOUS
  5
164
 10
280.058
 20
242.960322
 30
0.0
 11
292.058
 21
242.960322
 31
0.0
  0
LINE
  8
LC-001-002-----0
  6
CONTINUOUS
  5
165
 10
249.058
 20
238.960322
 30
0.0
 11
249.058
 21
240.460322
 31
0.0
  0
ARC
  8
LC-001-002-----0
  6
CONTINUOUS
  5
166
 10
248.058
 20
240.460322
 30
0.0
 40
1.0
 50
0.0
 51
90.0
  0
LINE
  8
LC-001-002-----0
  6
CONTINUOUS
  5
167
 10
248.058
 20
241.460322
 30
0.0
 11
230.08
 21
241.460322
 31
0.0
  0
LINE
  8
LC-001-002-----0
  6
CONTINUOUS
  5
168
 10
230.08
 20
241.460322
 30
0.0
 11
212.102
 21
241.460322
 31
0.0
  0
ARC
  8
LC-001-002-----0
  6
CONTINUOUS
  5
169
 10
212.102
 20
240.460322
 30
0.0
 40
1.0
 50
90.0
 51
180.0
  0
LINE
  8
LC-001-002-----0
  6
CONTINUOUS
  5
16A
 10
211.102
 20
240.460322
 30
0.0
 11
211.102
 21
238.960322
 31
0.0
  0
LINE
  8
LC-001-002-----0
  6
CONTINUOUS
  5
16B
 10
161.102
 20
237.960322
 30
0.0
 11
162.602
 21
237.960322
 31
0.0
  0
LINE
  8
LC-001-002-----0
  6
CONTINUOUS
  5
16C
 10
201.102
 20
238.960322
 30
0.0
 11
201.102
 21
240.460322
 31
0.0
  0
ARC
  8
LC-001-002-----0
  6
CONTINUOUS
  5
16D
 10
200.102
 20
240.460322
 30
0.0
 40
1.0
 50
0.0
 51
90.0
  0
LINE
  8
LC-001-002-----0
  6
CONTINUOUS
  5
16E
 10
200.102
 20
241.460322
 30
0.0
 11
196.102
 21
241.460322
 31
0.0
  0
ARC
  8
LC-001-002-----0
  6
CONTINUOUS
  5
16F
 10
196.102
 20
240.460322
 30
0.0
 40
1.0
 50
90.0
 51
180.0
  0
LINE
  8
LC-001-002-----0
  6
CONTINUOUS
  5
170
 10
195.102
 20
240.460322
 30
0.0
 11
195.102
 21
238.960322
 31
0.0
  0
LINE
  8
LC-001-002-----0
  6
CONTINUOUS
  5
171
 10
297.558
 20
237.960322
 30
0.0
 11
299.058
 21
237.960322
 31
0.0
  0
LINE
  8
LC-001-002-----0
  6
CONTINUOUS
  5
172
 10
185.102
 20
238.960322
 30
0.0
 11
185.102
 21
240.460322
 31
0.0
  0
ARC
  8
LC-001-002-----0
  6
CONTINUOUS
  5
173
 10
184.102
 20
240.460322
 30
0.0
 40
1.0
 50
0.0
 51
90.0
  0
LINE
  8
LC-001-002-----0
  6
CONTINUOUS
  5
174
 10
184.102
 20
241.460322
 30
0.0
 11
180.102
 21
241.460322
 31
0.0
  0
ARC
  8
LC-001-002-----0
  6
CONTINUOUS
  5
175
 10
180.102
 20
240.460322
 30
0.0
 40
1.0
 50
90.0
 51
180.0
  0
LINE
  8
LC-001-002-----0
  6
CONTINUOUS
  5
176
 10
179.102
 20
240.460322
 30
0.0
 11
179.102
 21
238.960322
 31
0.0
  0
LINE
  8
LC-001-002-----0
  6
CONTINUOUS
  5
177
 10
169.102
 20
238.960322
 30
0.0
 11
169.102
 21
240.460322
 31
0.0
  0
ARC
  8
LC-001-002-----0
  6
CONTINUOUS
  5
178
 10
168.102
 20
240.460322
 30
0.0
 40
1.0
 50
0.0
 51
90.0
  0
LINE
  8
LC-001-002-----0
  6
CONTINUOUS
  5
179
 10
168.102
 20
241.460322
 30
0.0
 11
163.602
 21
241.460322
 31
0.0
  0
ARC
  8
LC-001-002-----0
  6
CONTINUOUS
  5
17A
 10
163.602
 20
240.460322
 30
0.0
 40
1.0
 50
90.0
 51
180.0
  0
LINE
  8
LC-001-002-----0
  6
CONTINUOUS
  5
17B
 10
162.602
 20
240.460322
 30
0.0
 11
162.602
 21
237.960322
 31
0.0
  0
LINE
  8
LC-001-002-----0
  6
CONTINUOUS
  5
17C
 10
200.102
 20
242.960322
 30
0.0
 11
212.102
 21
242.960322
 31
0.0
  0
ENDSEC
  0
EOF
