  0
SECTION
  2
HEADER
  9
$ACADVER
  1
AC1015
  9
$ACADMAINTVER
 70
     6
  9
$DWGCODEPAGE
  3
ANSI_1252
  9
$INSBASE
 10
0.0
 20
0.0
 30
0.0
  9
$EXTMIN
 10
-209.760318
 20
-147.978432
 30
0.0
  9
$EXTMAX
 10
630.239682
 20
446.021568
 30
0.0
  9
$LIMMIN
 10
-209.760318
 20
-147.978432
  9
$LIMMAX
 10
630.239682
 20
446.021568
  9
$ORTHOMODE
 70
     0
  9
$REGENMODE
 70
     1
  9
$FILLMODE
 70
     1
  9
$QTEXTMODE
 70
     0
  9
$MIRRTEXT
 70
     1
  9
$LTSCALE
 40
2.0
  9
$ATTMODE
 70
     1
  9
$TEXTSIZE
 40
2.5
  9
$TRACEWID
 40
1.0
  9
$TEXTSTYLE
  7
Standard
  9
$CLAYER
  8
0
  9
$CELTYPE
  6
ByLayer
  9
$CECOLOR
 62
     7
  9
$CELTSCALE
 40
1.0
  9
$DISPSILH
 70
     0
  9
$DIMSCALE
 40
2.0
  9
$DIMASZ
 40
3.5
  9
$DIMEXO
 40
0.625
  9
$DIMDLI
 40
3.75
  9
$DIMRND
 40
0.0
  9
$DIMDLE
 40
0.0
  9
$DIMEXE
 40
1.25
  9
$DIMTP
 40
0.0
  9
$DIMTM
 40
0.0
  9
$DIMTXT
 40
3.5
  9
$DIMCEN
 40
2.5
  9
$DIMTSZ
 40
0.0
  9
$DIMTOL
 70
     0
  9
$DIMLIM
 70
     0
  9
$DIMTIH
 70
     0
  9
$DIMTOH
 70
     0
  9
$DIMSE1
 70
     0
  9
$DIMSE2
 70
     0
  9
$DIMTAD
 70
     1
  9
$DIMZIN
 70
     8
  9
$DIMBLK
  1

  9
$DIMASO
 70
     1
  9
$DIMSHO
 70
     1
  9
$DIMPOST
  1

  9
$DIMAPOST
  1

  9
$DIMALT
 70
     0
  9
$DIMALTD
 70
     3
  9
$DIMALTF
 40
0.03937
  9
$DIMLFAC
 40
1.0
  9
$DIMTOFL
 70
     1
  9
$DIMTVP
 40
0.0
  9
$DIMTIX
 70
     0
  9
$DIMSOXD
 70
     0
  9
$DIMSAH
 70
     0
  9
$DIMBLK1
  1

  9
$DIMBLK2
  1

  9
$DIMSTYLE
  2
ISO-25
  9
$DIMCLRD
 70
     0
  9
$DIMCLRE
 70
     0
  9
$DIMCLRT
 70
     0
  9
$DIMTFAC
 40
1.0
  9
$DIMGAP
 40
0.625
  9
$DIMJUST
 70
     0
  9
$DIMSD1
 70
     0
  9
$DIMSD2
 70
     0
  9
$DIMTOLJ
 70
     0
  9
$DIMTZIN
 70
     8
  9
$DIMALTZ
 70
     0
  9
$DIMALTTZ
 70
     0
  9
$DIMUPT
 70
     0
  9
$DIMDEC
 70
     2
  9
$DIMTDEC
 70
     2
  9
$DIMALTU
 70
     2
  9
$DIMALTTD
 70
     3
  9
$DIMTXSTY
  7
Standard
  9
$DIMAUNIT
 70
     0
  9
$DIMADEC
 70
     0
  9
$DIMALTRND
 40
0.0
  9
$DIMAZIN
 70
     0
  9
$DIMDSEP
 70
    44
  9
$DIMATFIT
 70
     3
  9
$DIMFRAC
 70
     0
  9
$DIMLDRBLK
  1

  9
$DIMLUNIT
 70
     2
  9
$DIMLWD
 70
    -2
  9
$DIMLWE
 70
    -2
  9
$DIMTMOVE
 70
     0
  9
$LUNITS
 70
     2
  9
$LUPREC
 70
     4
  9
$SKETCHINC
 40
1.0
  9
$FILLETRAD
 40
10.0
  9
$AUNITS
 70
     0
  9
$AUPREC
 70
     0
  9
$MENU
  1
.
  9
$ELEVATION
 40
0.0
  9
$PELEVATION
 40
0.0
  9
$THICKNESS
 40
0.0
  9
$LIMCHECK
 70
     0
  9
$CHAMFERA
 40
10.0
  9
$CHAMFERB
 40
10.0
  9
$CHAMFERC
 40
20.0
  9
$CHAMFERD
 40
0.0
  9
$SKPOLY
 70
     0
  9
$TDCREATE
 40
2455657.344824549
  9
$TDUCREATE
 40
2455657.261491215
  9
$TDUPDATE
 40
2455657.34482456
  9
$TDUUPDATE
 40
2455657.261491227
  9
$TDINDWG
 40
0.0000000116
  9
$TDUSRTIMER
 40
0.0000000116
  9
$USRTIMER
 70
     1
  9
$ANGBASE
 50
0.0
  9
$ANGDIR
 70
     0
  9
$PDMODE
 70
     0
  9
$PDSIZE
 40
0.0
  9
$PLINEWID
 40
0.0
  9
$SPLFRAME
 70
     0
  9
$SPLINETYPE
 70
     6
  9
$SPLINESEGS
 70
     8
  9
$HANDSEED
  5
202
  9
$SURFTAB1
 70
     6
  9
$SURFTAB2
 70
     6
  9
$SURFTYPE
 70
     6
  9
$SURFU
 70
     6
  9
$SURFV
 70
     6
  9
$UCSBASE
  2

  9
$UCSNAME
  2

  9
$UCSORG
 10
0.0
 20
0.0
 30
0.0
  9
$UCSXDIR
 10
1.0
 20
0.0
 30
0.0
  9
$UCSYDIR
 10
0.0
 20
1.0
 30
0.0
  9
$UCSORTHOREF
  2

  9
$UCSORTHOVIEW
 70
     0
  9
$UCSORGTOP
 10
0.0
 20
0.0
 30
0.0
  9
$UCSORGBOTTOM
 10
0.0
 20
0.0
 30
0.0
  9
$UCSORGLEFT
 10
0.0
 20
0.0
 30
0.0
  9
$UCSORGRIGHT
 10
0.0
 20
0.0
 30
0.0
  9
$UCSORGFRONT
 10
0.0
 20
0.0
 30
0.0
  9
$UCSORGBACK
 10
0.0
 20
0.0
 30
0.0
  9
$PUCSBASE
  2

  9
$PUCSNAME
  2

  9
$PUCSORG
 10
0.0
 20
0.0
 30
0.0
  9
$PUCSXDIR
 10
1.0
 20
0.0
 30
0.0
  9
$PUCSYDIR
 10
0.0
 20
1.0
 30
0.0
  9
$PUCSORTHOREF
  2

  9
$PUCSORTHOVIEW
 70
     0
  9
$PUCSORGTOP
 10
0.0
 20
0.0
 30
0.0
  9
$PUCSORGBOTTOM
 10
0.0
 20
0.0
 30
0.0
  9
$PUCSORGLEFT
 10
0.0
 20
0.0
 30
0.0
  9
$PUCSORGRIGHT
 10
0.0
 20
0.0
 30
0.0
  9
$PUCSORGFRONT
 10
0.0
 20
0.0
 30
0.0
  9
$PUCSORGBACK
 10
0.0
 20
0.0
 30
0.0
  9
$USERI1
 70
     0
  9
$USERI2
 70
     0
  9
$USERI3
 70
     0
  9
$USERI4
 70
     0
  9
$USERI5
 70
     0
  9
$USERR1
 40
0.0
  9
$USERR2
 40
0.0
  9
$USERR3
 40
0.0
  9
$USERR4
 40
0.0
  9
$USERR5
 40
0.0
  9
$WORLDVIEW
 70
     1
  9
$SHADEDGE
 70
     3
  9
$SHADEDIF
 70
    70
  9
$TILEMODE
 70
     1
  9
$MAXACTVP
 70
    64
  9
$PINSBASE
 10
0.0
 20
0.0
 30
0.0
  9
$PLIMCHECK
 70
     0
  9
$PEXTMIN
 10
-209.760318
 20
-147.978432
 30
0.0
  9
$PEXTMAX
 10
630.239682
 20
446.021568
 30
0.0
  9
$PLIMMIN
 10
-209.760318
 20
-147.978432
  9
$PLIMMAX
 10
630.239682
 20
446.021568
  9
$UNITMODE
 70
     0
  9
$VISRETAIN
 70
     1
  9
$PLINEGEN
 70
     0
  9
$PSLTSCALE
 70
     1
  9
$TREEDEPTH
 70
  3020
  9
$CMLSTYLE
  2
Standard
  9
$CMLJUST
 70
     0
  9
$CMLSCALE
 40
20.0
  9
$PROXYGRAPHICS
 70
     1
  9
$MEASUREMENT
 70
     1
  9
$CELWEIGHT
370
    -1
  9
$ENDCAPS
280
     0
  9
$JOINSTYLE
280
     0
  9
$LWDISPLAY
290
     0
  9
$INSUNITS
 70
     4
  9
$HYPERLINKBASE
  1

  9
$STYLESHEET
  1

  9
$XEDIT
290
     1
  9
$CEPSNTYPE
380
     0
  9
$PSTYLEMODE
290
     1
  9
$FINGERPRINTGUID
  2
{FAEB1C30-E019-11D5-929B-00C0DF256EC4}
  9
$VERSIONGUID
  2
{FAEB1C32-E019-11D5-929B-00C0DF256EC4}
  9
$EXTNAMES
290
     1
  9
$PSVPSCALE
 40
0.0
  9
$OLESTARTUP
290
     0
  0
ENDSEC
  0
SECTION
  2
CLASSES
  0
CLASS
  1
ACDBDICTIONARYWDFLT
  2
AcDbDictionaryWithDefault
  3
ObjectDBX Classes
 90
        0
280
     0
281
     0
  0
CLASS
  1
ACDBPLACEHOLDER
  2
AcDbPlaceHolder
  3
ObjectDBX Classes
 90
        0
280
     0
281
     0
  0
CLASS
  1
LAYOUT
  2
AcDbLayout
  3
ObjectDBX Classes
 90
        0
280
     0
281
     0
  0
ENDSEC
  0
SECTION
  2
TABLES
  0
TABLE
  2
VPORT
  5
8
330
0
100
AcDbSymbolTable
 70
     2
  0
VPORT
  5
29
330
8
100
AcDbSymbolTableRecord
100
AcDbViewportTableRecord
  2
*ACTIVE
 70
     0
 10
0.0
 20
0.0
 11
1.0
 21
1.0
 12
210.239682
 22
149.021568
 13
0.0
 23
0.0
 14
1.0
 24
1.0
 15
0.0
 25
0.0
 16
0.0
 26
0.0
 36
1.0
 17
0.0
 27
0.0
 37
0.0
 40
594.0
 41
1.414141
 42
50.0
 43
0.0
 44
0.0
 50
0.0
 51
0.0
 71
    16
 72
   100
 73
     1
 74
     0
 75
     0
 76
     0
 77
     0
 78
     0
281
     0
 65
     0
110
0.0
120
0.0
130
0.0
111
1.0
121
0.0
131
0.0
112
0.0
122
1.0
132
0.0
 79
     0
146
0.0
  0
ENDTAB
  0
TABLE
  2
LTYPE
  5
5
330
0
100
AcDbSymbolTable
 70
     2
  0
LTYPE
  5
14
330
5
100
AcDbSymbolTableRecord
100
AcDbLinetypeTableRecord
  2
ByBlock
 70
     0
  3

 72
    65
 73
     0
 40
0.0
  0
LTYPE
  5
15
330
5
100
AcDbSymbolTableRecord
100
AcDbLinetypeTableRecord
  2
ByLayer
 70
     0
  3

 72
    65
 73
     0
 40
0.0
  0
LTYPE
  5
16
330
5
100
AcDbSymbolTableRecord
100
AcDbLinetypeTableRecord
  2
Continuous
 70
     0
  3
Solid line
 72
    65
 73
     0
 40
0.0
  0
LTYPE
  5
2A
330
5
100
AcDbSymbolTableRecord
100
AcDbLinetypeTableRecord
  2
DASHED
 70
     0
  3
__ __ __ __ __
 72
    65
 73
     2
 40
6.25
 49
5.0
 74
     4
 75
     0
340
0
 46
1.0
 50
0.0
 44
0.0
 45
0.0
 49
-1.25
 74
     4
 75
     0
340
0
 46
1.0
 50
0.0
 44
0.0
 45
0.0
  0
ENDTAB
  0
TABLE
  2
LAYER
  5
2
330
0
100
AcDbSymbolTable
 70
     8
  0
LAYER
  5
10
330
2
100
AcDbSymbolTableRecord
100
AcDbLayerTableRecord
  2
0
 70
     0
 62
     7
  6
Continuous
370
    -3
390
F
  0
LAYER
  5
2B
330
2
100
AcDbSymbolTableRecord
100
AcDbLayerTableRecord
  2
LC-INFO-1-2-mm-A3-0
 70
     1
 62
     7
  6
ByBlock
370
    -3
390
F
  0
LAYER
  5
2C
330
2
100
AcDbSymbolTableRecord
100
AcDbLayerTableRecord
  2
LC-CUT-HIDDEN
 70
     0
 62
     7
  6
DASHED
370
    -3
390
F
  0
LAYER
  5
2D
330
2
100
AcDbSymbolTableRecord
100
AcDbLayerTableRecord
  2
LC-VIEWPORT
 70
     0
 62
     7
  6
ByBlock
370
    -3
390
F
  0
LAYER
  5
2E
330
2
100
AcDbSymbolTableRecord
100
AcDbLayerTableRecord
  2
LC-3D-HIDDEN
 70
     0
 62
     9
  6
DASHED
370
    -3
390
F
  0
LAYER
  5
31
330
2
100
AcDbSymbolTableRecord
100
AcDbLayerTableRecord
  2
LC-001-100-D00-0
 70
     0
 62
     2
  6
ByBlock
370
    -3
390
F
  0
LAYER
  5
1F3
330
2
100
AcDbSymbolTableRecord
100
AcDbLayerTableRecord
  2
LC-002-003-----0
 70
     0
 62
     2
  6
ByBlock
370
    -3
390
F
  0
LAYER
  5
1F5
330
2
100
AcDbSymbolTableRecord
100
AcDbLayerTableRecord
  2
Defpoints
 70
     0
 62
     7
  6
Continuous
290
     0
370
    -3
390
F
  0
ENDTAB
  0
TABLE
  2
STYLE
  5
3
330
0
100
AcDbSymbolTable
 70
     4
  0
STYLE
  5
11
330
3
100
AcDbSymbolTableRecord
100
AcDbTextStyleTableRecord
  2
Standard
 70
     0
 40
0.0
 41
1.0
 50
0.0
 71
     0
 42
2.5
  3
txt
  4

  0
STYLE
  5
2F
330
3
100
AcDbSymbolTableRecord
100
AcDbTextStyleTableRecord
  2
LCTX0-400-0-0pDIN-Schrift
 70
     0
 40
0.0
 41
0.75
 50
0.0
 71
     0
 42
3.5
  3
TXT
  4

  0
STYLE
  5
30
330
3
100
AcDbSymbolTableRecord
100
AcDbTextStyleTableRecord
  2
LCTX15-400-0-0-Arial
 70
     0
 40
0.0
 41
0.8
 50
0.0
 71
     0
 42
3.5
  3

  4

1001
ACAD
1000
Arial
1071
 16777218
  0
STYLE
  5
1F1
330
3
100
AcDbSymbolTableRecord
100
AcDbTextStyleTableRecord
  2
LCTX15-400-0-0pDIN-Schrift
 70
     0
 40
2.5
 41
0.8
 50
15.0
 71
     0
 42
3.5
  3
STANDARD
  4

  0
ENDTAB
  0
TABLE
  2
VIEW
  5
6
330
0
100
AcDbSymbolTable
 70
     0
  0
ENDTAB
  0
TABLE
  2
UCS
  5
7
330
0
100
AcDbSymbolTable
 70
     0
  0
ENDTAB
  0
TABLE
  2
APPID
  5
9
330
0
100
AcDbSymbolTable
 70
     1
  0
APPID
  5
12
330
9
100
AcDbSymbolTableRecord
100
AcDbRegAppTableRecord
  2
ACAD
 70
     0
  0
ENDTAB
  0
TABLE
  2
DIMSTYLE
  5
A
330
0
100
AcDbSymbolTable
 70
     2
100
AcDbDimStyleTable
  0
DIMSTYLE
105
27
330
A
100
AcDbSymbolTableRecord
100
AcDbDimStyleTableRecord
  2
ISO-25
 70
     0
 41
2.5
 42
0.625
 43
3.75
 44
1.25
 73
     0
 74
     0
 77
     1
 78
     8
140
2.5
141
2.5
143
0.03937
147
0.625
171
     3
172
     1
271
     2
272
     2
274
     3
278
    44
283
     0
284
     8
340
11
  0
DIMSTYLE
105
1F2
102
{ACAD_REACTORS
330
1F4
102
}
330
A
100
AcDbSymbolTableRecord
100
AcDbDimStyleTableRecord
  2
LC-DIM-L-0140-02-02
 70
     0
 40
2.0
 41
14.0
 42
0.0
 43
7.5
 44
1.8
 73
     0
 74
     0
 77
     1
 78
     8
 79
     2
140
14.0
141
0.0
146
0.71
147
1.5
176
     2
177
     2
178
     2
179
     2
271
     2
278
    44
289
     1
340
1F1
  0
ENDTAB
  0
TABLE
  2
BLOCK_RECORD
  5
1
330
0
100
AcDbSymbolTable
 70
     2
  0
BLOCK_RECORD
  5
1F
330
1
100
AcDbSymbolTableRecord
100
AcDbBlockTableRecord
  2
*Model_Space
340
22
  0
BLOCK_RECORD
  5
1B
330
1
100
AcDbSymbolTableRecord
100
AcDbBlockTableRecord
  2
*Paper_Space
340
1E
  0
BLOCK_RECORD
  5
23
330
1
100
AcDbSymbolTableRecord
100
AcDbBlockTableRecord
  2
*Paper_Space0
340
26
  0
BLOCK_RECORD
  5
1F6
330
1
100
AcDbSymbolTableRecord
100
AcDbBlockTableRecord
  2
*D1
340
0
  0
ENDTAB
  0
ENDSEC
  0
SECTION
  2
BLOCKS
  0
BLOCK
  5
20
330
1F
100
AcDbEntity
  8
0
100
AcDbBlockBegin
  2
*Model_Space
 70
     0
 71
     0
 10
0.0
 20
0.0
 30
0.0
  3
*Model_Space
  1

  0
ENDBLK
  5
21
330
1F
100
AcDbEntity
  8
0
100
AcDbBlockEnd
  0
BLOCK
  5
1C
330
1B
100
AcDbEntity
 67
     1
  8
0
100
AcDbBlockBegin
  2
*Paper_Space
 70
     0
 71
     0
 10
0.0
 20
0.0
 30
0.0
  3
*Paper_Space
  1

  0
ENDBLK
  5
1D
330
1B
100
AcDbEntity
 67
     1
  8
0
100
AcDbBlockEnd
  0
BLOCK
  5
24
330
23
100
AcDbEntity
  8
0
100
AcDbBlockBegin
  2
*Paper_Space0
 70
     0
 71
     0
 10
0.0
 20
0.0
 30
0.0
  3
*Paper_Space0
  1

  0
ENDBLK
  5
25
330
23
100
AcDbEntity
  8
0
100
AcDbBlockEnd
  0
BLOCK
  5
200
330
1F6
100
AcDbEntity
  8
0
100
AcDbBlockBegin
  2
*D1
 70
     1
 71
     0
 10
0.0
 20
0.0
 30
0.0
  3
*D1
  1

  0
LINE
  5
1F7
330
1F6
100
AcDbEntity
  8
LC-002-003-----0
 62
     2
370
    -2
100
AcDbLine
 10
175.173332
 20
211.471971
 30
0.0
 11
175.173332
 21
242.552414
 31
0.0
  0
LINE
  5
1F8
330
1F6
100
AcDbEntity
  8
LC-002-003-----0
 62
     2
370
    -2
100
AcDbLine
 10
266.173332
 20
211.471971
 30
0.0
 11
266.173332
 21
242.552414
 31
0.0
  0
LINE
  5
1F9
330
1F6
100
AcDbEntity
  8
LC-002-003-----0
 62
     2
370
    -2
100
AcDbLine
 10
203.173332
 20
238.952414
 30
0.0
 11
238.173332
 21
238.952414
 31
0.0
  0
SOLID
  5
1FA
330
1F6
100
AcDbEntity
  8
LC-002-003-----0
 62
     2
100
AcDbTrace
 10
203.173332
 20
243.619081
 30
0.0
 11
203.173332
 21
234.285748
 31
0.0
 12
175.173332
 22
238.952414
 32
0.0
 13
175.173332
 23
238.952414
 33
0.0
  0
SOLID
  5
1FB
330
1F6
100
AcDbEntity
  8
LC-002-003-----0
 62
     2
100
AcDbTrace
 10
238.173332
 20
234.285748
 30
0.0
 11
238.173332
 21
243.619081
 31
0.0
 12
266.173332
 22
238.952414
 32
0.0
 13
266.173332
 23
238.952414
 33
0.0
  0
MTEXT
  5
1FC
330
1F6
100
AcDbEntity
  8
LC-002-003-----0
 62
     2
100
AcDbMText
 10
222.869449
 20
269.752414
 30
0.0
 40
28.0
 41
0.0
 71
     5
 72
     1
  1
\A1;90
  7
LCTX15-400-0-0pDIN-Schrift
 73
     1
 44
1.0
  0
POINT
  5
1FD
330
1F6
100
AcDbEntity
  8
Defpoints
 62
     0
100
AcDbPoint
 10
175.173332
 20
211.471971
 30
0.0
  0
POINT
  5
1FE
330
1F6
100
AcDbEntity
  8
Defpoints
 62
     0
100
AcDbPoint
 10
266.173332
 20
211.471971
 30
0.0
  0
POINT
  5
1FF
330
1F6
100
AcDbEntity
  8
Defpoints
 62
     0
100
AcDbPoint
 10
266.173332
 20
238.952414
 30
0.0
  0
ENDBLK
  5
201
330
1F6
100
AcDbEntity
  8
0
100
AcDbBlockEnd
  0
ENDSEC
  0
SECTION
  2
ENTITIES
  0
LINE
  5
32
330
1F
100
AcDbEntity
  8
LC-001-100-D00-0
 62
     7
370
    25
100
AcDbLine
 10
227.587609
 20
131.224949
 30
0.0
 11
229.512288
 21
131.925475
 31
0.0
  0
ARC
  5
33
330
1F
100
AcDbEntity
  8
LC-001-100-D00-0
 62
     7
370
    25
100
AcDbCircle
 10
227.619451
 20
131.137463
 30
0.0
 40
0.0930999999999956
100
AcDbArc
 50
110.0
 51
290.0
  0
LINE
  5
34
330
1F
100
AcDbEntity
  8
LC-001-100-D00-0
 62
     7
370
    25
100
AcDbLine
 10
228.613633
 20
131.400239
 30
0.0
 11
227.651293
 21
131.049976
 31
0.0
  0
LINE
  5
35
330
1F
100
AcDbEntity
  8
LC-001-100-D00-0
 62
     7
370
    25
100
AcDbLine
 10
228.613633
 20
131.400239
 30
0.0
 11
229.575972
 21
131.750502
 31
0.0
  0
ARC
  5
36
330
1F
100
AcDbEntity
  8
LC-001-100-D00-0
 62
     7
370
    25
100
AcDbCircle
 10
229.54413
 20
131.837988
 30
0.0
 40
0.0931000000000539
100
AcDbArc
 50
290.0
 51
110.0
  0
ARC
  5
37
330
1F
100
AcDbEntity
  8
LC-001-100-D00-0
 62
     7
370
    25
100
AcDbCircle
 10
229.277814
 20
131.344757
 30
0.0
 40
0.0931000000000684
100
AcDbArc
 50
290.0
 51
110.0
  0
LINE
  5
38
330
1F
100
AcDbEntity
  8
LC-001-100-D00-0
 62
     7
370
    25
100
AcDbLine
 10
228.677317
 20
131.225269
 30
0.0
 11
229.245972
 21
131.432243
 31
0.0
  0
LINE
  5
39
330
1F
100
AcDbEntity
  8
LC-001-100-D00-0
 62
     7
370
    25
100
AcDbLine
 10
228.677317
 20
131.225269
 30
0.0
 11
228.108662
 21
131.018296
 31
0.0
  0
ARC
  5
3A
330
1F
100
AcDbEntity
  8
LC-001-100-D00-0
 62
     7
370
    25
100
AcDbCircle
 10
228.140504
 20
130.930811
 30
0.0
 40
0.0931000000001218
100
AcDbArc
 50
110.0
 51
290.0
  0
LINE
  5
3B
330
1F
100
AcDbEntity
  8
LC-001-100-D00-0
 62
     7
370
    25
100
AcDbLine
 10
228.741001
 20
131.0503
 30
0.0
 11
228.172346
 21
130.843326
 31
0.0
  0
LINE
  5
3C
330
1F
100
AcDbEntity
  8
LC-001-100-D00-0
 62
     7
370
    25
100
AcDbLine
 10
228.741001
 20
131.0503
 30
0.0
 11
229.309656
 21
131.257269
 31
0.0
  0
LINE
  5
3D
330
1F
100
AcDbEntity
  8
LC-001-100-D00-0
 62
     7
370
    25
100
AcDbLine
 10
228.804685
 20
130.875327
 30
0.0
 11
228.979656
 21
130.93901
 31
0.0
  0
LINE
  5
3E
330
1F
100
AcDbEntity
  8
LC-001-100-D00-0
 62
     7
370
    25
100
AcDbLine
 10
228.804685
 20
130.875327
 30
0.0
 11
228.629715
 21
130.811643
 31
0.0
  0
ARC
  5
3F
330
1F
100
AcDbEntity
  8
LC-001-100-D00-0
 62
     7
370
    25
100
AcDbCircle
 10
228.661557
 20
130.724158
 30
0.0
 40
0.0930999999999422
100
AcDbArc
 50
110.0
 51
290.0
  0
LINE
  5
40
330
1F
100
AcDbEntity
  8
LC-001-100-D00-0
 62
     7
370
    25
100
AcDbLine
 10
229.04334
 20
130.764041
 30
0.0
 11
228.693399
 21
130.636673
 31
0.0
  0
ARC
  5
41
330
1F
100
AcDbEntity
  8
LC-001-100-D00-0
 62
     7
370
    25
100
AcDbCircle
 10
229.011498
 20
130.851527
 30
0.0
 40
0.0930999999999956
100
AcDbArc
 50
290.0
 51
110.0
  0
ARC
  5
42
330
1F
100
AcDbEntity
  8
LC-001-100-D00-0
 62
     7
370
    25
100
AcDbCircle
 10
228.510708
 20
129.777579
 30
0.0
 40
0.0931000000000684
100
AcDbArc
 50
200.0
 51
20.0
  0
LINE
  5
43
330
1F
100
AcDbEntity
  8
LC-001-100-D00-0
 62
     7
370
    25
100
AcDbLine
 10
228.53451
 20
129.98439
 30
0.0
 11
228.598193
 21
129.80942
 31
0.0
  0
LINE
  5
44
330
1F
100
AcDbEntity
  8
LC-001-100-D00-0
 62
     7
370
    25
100
AcDbLine
 10
228.53451
 20
129.98439
 30
0.0
 11
228.470826
 21
130.159363
 31
0.0
  0
ARC
  5
45
330
1F
100
AcDbEntity
  8
LC-001-100-D00-0
 62
     7
370
    25
100
AcDbCircle
 10
228.38334
 20
130.127521
 30
0.0
 40
0.093100000000049
100
AcDbArc
 50
20.0
 51
200.0
  0
LINE
  5
46
330
1F
100
AcDbEntity
  8
LC-001-100-D00-0
 62
     7
370
    25
100
AcDbLine
 10
228.359539
 20
129.920706
 30
0.0
 11
228.295855
 21
130.095679
 31
0.0
  0
LINE
  5
47
330
1F
100
AcDbEntity
  8
LC-001-100-D00-0
 62
     7
370
    25
100
AcDbLine
 10
228.359539
 20
129.920706
 30
0.0
 11
228.423222
 21
129.745737
 31
0.0
  0
ARC
  5
48
330
1F
100
AcDbEntity
  8
LC-001-100-D00-0
 62
     7
370
    25
100
AcDbCircle
 10
228.304056
 20
129.256527
 30
0.0
 40
0.0931000000000684
100
AcDbArc
 50
200.0
 51
20.0
  0
LINE
  5
49
330
1F
100
AcDbEntity
  8
LC-001-100-D00-0
 62
     7
370
    25
100
AcDbLine
 10
227.977594
 20
130.42568
 30
0.0
 11
228.391541
 21
129.288368
 31
0.0
  0
ARC
  5
4A
330
1F
100
AcDbEntity
  8
LC-001-100-D00-0
 62
     7
370
    25
100
AcDbCircle
 10
227.890109
 20
130.393837
 30
0.0
 40
0.0931000000001218
100
AcDbArc
 50
20.0
 51
200.0
  0
LINE
  5
4B
330
1F
100
AcDbEntity
  8
LC-001-100-D00-0
 62
     7
370
    25
100
AcDbLine
 10
227.802624
 20
130.361993
 30
0.0
 11
228.216571
 21
129.224684
 31
0.0
  0
LINE
  5
4C
330
1F
100
AcDbEntity
  8
LC-001-100-D00-0
 62
     7
370
    25
100
AcDbLine
 10
229.075504
 20
129.586849
 30
0.0
 11
229.425445
 21
129.714217
 31
0.0
  0
ARC
  5
4D
330
1F
100
AcDbEntity
  8
LC-001-100-D00-0
 62
     7
370
    25
100
AcDbCircle
 10
229.107346
 20
129.499363
 30
0.0
 40
0.093100000000015
100
AcDbArc
 50
110.0
 51
290.0
  0
LINE
  5
4E
330
1F
100
AcDbEntity
  8
LC-001-100-D00-0
 62
     7
370
    25
100
AcDbLine
 10
229.314158
 20
129.47556
 30
0.0
 11
229.139188
 21
129.411876
 31
0.0
  0
LINE
  5
4F
330
1F
100
AcDbEntity
  8
LC-001-100-D00-0
 62
     7
370
    25
100
AcDbLine
 10
229.314158
 20
129.47556
 30
0.0
 11
229.489129
 21
129.539244
 31
0.0
  0
ARC
  5
50
330
1F
100
AcDbEntity
  8
LC-001-100-D00-0
 62
     7
370
    25
100
AcDbCircle
 10
229.457287
 20
129.626731
 30
0.0
 40
0.0930999999999956
100
AcDbArc
 50
290.0
 51
110.0
  0
LINE
  5
51
330
1F
100
AcDbEntity
  8
LC-001-100-D00-0
 62
     7
370
    25
100
AcDbLine
 10
229.584334
 20
130.366497
 30
0.0
 11
229.52065
 21
130.541466
 31
0.0
  0
LINE
  5
52
330
1F
100
AcDbEntity
  8
LC-001-100-D00-0
 62
     7
370
    25
100
AcDbLine
 10
229.584334
 20
130.366497
 30
0.0
 11
229.648018
 21
130.191527
 31
0.0
  0
ARC
  5
53
330
1F
100
AcDbEntity
  8
LC-001-100-D00-0
 62
     7
370
    25
100
AcDbCircle
 10
229.735504
 20
130.223369
 30
0.0
 40
0.093100000000015
100
AcDbArc
 50
200.0
 51
20.0
  0
LINE
  5
54
330
1F
100
AcDbEntity
  8
LC-001-100-D00-0
 62
     7
370
    25
100
AcDbLine
 10
229.69562
 20
130.60515
 30
0.0
 11
229.82299
 21
130.255211
 31
0.0
  0
ARC
  5
55
330
1F
100
AcDbEntity
  8
LC-001-100-D00-0
 62
     7
370
    25
100
AcDbCircle
 10
229.608135
 20
130.57331
 30
0.0
 40
0.0931000000001218
100
AcDbArc
 50
20.0
 51
200.0
  0
LINE
  5
56
330
1F
100
AcDbEntity
  8
LC-001-100-D00-0
 62
     7
370
    25
100
AcDbLine
 10
228.486264
 20
131.750181
 30
0.0
 11
230.061001
 21
132.323339
 31
0.0
  0
LINE
  5
57
330
1F
100
AcDbEntity
  8
LC-001-100-D00-0
 62
     7
370
    25
100
AcDbLine
 10
230.634159
 20
130.748603
 30
0.0
 11
230.061001
 21
132.323339
 31
0.0
  0
LINE
  5
58
330
1F
100
AcDbEntity
  8
LC-001-100-D00-0
 62
     7
370
    25
100
AcDbLine
 10
230.634159
 20
130.748603
 30
0.0
 11
231.207316
 21
129.173864
 31
0.0
  0
LINE
  5
59
330
1F
100
AcDbEntity
  8
LC-001-100-D00-0
 62
     7
370
    25
100
AcDbLine
 10
228.057842
 20
128.027551
 30
0.0
 11
231.207316
 21
129.173864
 31
0.0
  0
LINE
  5
5A
330
1F
100
AcDbEntity
  8
LC-001-100-D00-0
 62
     7
370
    25
100
AcDbLine
 10
226.911528
 20
131.177023
 30
0.0
 11
228.057842
 21
128.027551
 31
0.0
  0
LINE
  5
5B
330
1F
100
AcDbEntity
  8
LC-001-100-D00-0
 62
     7
370
    25
100
AcDbLine
 10
228.486264
 20
131.750181
 30
0.0
 11
226.911528
 21
131.177023
 31
0.0
  0
ARC
  5
5C
330
1F
100
AcDbEntity
  8
LC-001-100-D00-0
 62
     7
370
    25
100
AcDbCircle
 10
230.02144
 20
131.615415
 30
0.0
 40
0.0931000000000684
100
AcDbArc
 50
20.0
 51
200.0
  0
LINE
  5
5D
330
1F
100
AcDbEntity
  8
LC-001-100-D00-0
 62
     7
370
    25
100
AcDbLine
 10
230.63448
 20
129.658893
 30
0.0
 11
229.933955
 21
131.583571
 31
0.0
  0
ARC
  5
5E
330
1F
100
AcDbEntity
  8
LC-001-100-D00-0
 62
     7
370
    25
100
AcDbCircle
 10
230.721965
 20
129.690737
 30
0.0
 40
0.0931000000001947
100
AcDbArc
 50
200.0
 51
20.0
  0
LINE
  5
5F
330
1F
100
AcDbEntity
  8
LC-001-100-D00-0
 62
     7
370
    25
100
AcDbLine
 10
230.80945
 20
129.72258
 30
0.0
 11
230.108925
 21
131.647255
 31
0.0
  0
LINE
  5
60
330
1F
100
AcDbEntity
  8
LC-001-100-D00-0
 62
     7
370
    25
100
AcDbLine
 10
230.14125
 20
129.92521
 30
0.0
 11
229.727303
 21
131.062519
 31
0.0
  0
ARC
  5
61
330
1F
100
AcDbEntity
  8
LC-001-100-D00-0
 62
     7
370
    25
100
AcDbCircle
 10
230.228735
 20
129.957053
 30
0.0
 40
0.093100000000049
100
AcDbArc
 50
200.0
 51
20.0
  0
LINE
  5
62
330
1F
100
AcDbEntity
  8
LC-001-100-D00-0
 62
     7
370
    25
100
AcDbLine
 10
230.109247
 20
130.557548
 30
0.0
 11
230.316221
 21
129.988894
 31
0.0
  0
LINE
  5
63
330
1F
100
AcDbEntity
  8
LC-001-100-D00-0
 62
     7
370
    25
100
AcDbLine
 10
230.109247
 20
130.557548
 30
0.0
 11
229.902273
 21
131.126206
 31
0.0
  0
ARC
  5
64
330
1F
100
AcDbEntity
  8
LC-001-100-D00-0
 62
     7
370
    25
100
AcDbCircle
 10
229.814788
 20
131.094363
 30
0.0
 40
0.0931000000000684
100
AcDbArc
 50
20.0
 51
200.0
  0
ARC
  5
65
330
1F
100
AcDbEntity
  8
LC-001-100-D00-0
 62
     7
370
    25
100
AcDbCircle
 10
229.97834
 20
129.420079
 30
0.0
 40
0.0931000000000684
100
AcDbArc
 50
290.0
 51
110.0
  0
LINE
  5
66
330
1F
100
AcDbEntity
  8
LC-001-100-D00-0
 62
     7
370
    25
100
AcDbLine
 10
228.809188
 20
129.093617
 30
0.0
 11
229.946498
 21
129.507564
 31
0.0
  0
ARC
  5
67
330
1F
100
AcDbEntity
  8
LC-001-100-D00-0
 62
     7
370
    25
100
AcDbCircle
 10
228.84103
 20
129.006132
 30
0.0
 40
0.0931000000000635
100
AcDbArc
 50
110.0
 51
290.0
  0
LINE
  5
68
330
1F
100
AcDbEntity
  8
LC-001-100-D00-0
 62
     7
370
    25
100
AcDbLine
 10
228.872872
 20
128.918648
 30
0.0
 11
230.010182
 21
129.332594
 31
0.0
  0
ARC
  5
69
330
1F
100
AcDbEntity
  8
LC-001-100-D00-0
 62
     7
370
    25
100
AcDbCircle
 10
230.499392
 20
129.213427
 30
0.0
 40
0.0930999999999956
100
AcDbArc
 50
290.0
 51
110.0
  0
LINE
  5
6A
330
1F
100
AcDbEntity
  8
LC-001-100-D00-0
 62
     7
370
    25
100
AcDbLine
 10
229.505211
 20
128.950648
 30
0.0
 11
230.46755
 21
129.300911
 31
0.0
  0
LINE
  5
6B
330
1F
100
AcDbEntity
  8
LC-001-100-D00-0
 62
     7
370
    25
100
AcDbLine
 10
229.505211
 20
128.950648
 30
0.0
 11
228.542872
 21
128.600385
 31
0.0
  0
ARC
  5
6C
330
1F
100
AcDbEntity
  8
LC-001-100-D00-0
 62
     7
370
    25
100
AcDbCircle
 10
228.574714
 20
128.512901
 30
0.0
 40
0.0931000000000684
100
AcDbArc
 50
110.0
 51
290.0
  0
LINE
  5
6D
330
1F
100
AcDbEntity
  8
LC-001-100-D00-0
 62
     7
370
    25
100
AcDbLine
 10
229.568895
 20
128.775678
 30
0.0
 11
228.606556
 21
128.425415
 31
0.0
  0
LINE
  5
6E
330
1F
100
AcDbEntity
  8
LC-001-100-D00-0
 62
     7
370
    25
100
AcDbLine
 10
229.568895
 20
128.775678
 30
0.0
 11
230.531234
 21
129.125941
 31
0.0
  0
LINE
  5
6F
330
1F
100
AcDbEntity
  8
LC-001-100-D00-0
 62
     7
370
    25
100
AcDbLine
 10
227.484364
 20
130.691994
 30
0.0
 11
228.18489
 21
128.767315
 31
0.0
  0
ARC
  5
70
330
1F
100
AcDbEntity
  8
LC-001-100-D00-0
 62
     7
370
    25
100
AcDbCircle
 10
227.396878
 20
130.660153
 30
0.0
 40
0.0931000000000684
100
AcDbArc
 50
20.0
 51
200.0
  0
LINE
  5
71
330
1F
100
AcDbEntity
  8
LC-001-100-D00-0
 62
     7
370
    25
100
AcDbLine
 10
227.659656
 20
129.665971
 30
0.0
 11
227.309393
 21
130.62831
 31
0.0
  0
LINE
  5
72
330
1F
100
AcDbEntity
  8
LC-001-100-D00-0
 62
     7
370
    25
100
AcDbLine
 10
227.659656
 20
129.665971
 30
0.0
 11
228.009919
 21
128.703631
 31
0.0
  0
ARC
  5
73
330
1F
100
AcDbEntity
  8
LC-001-100-D00-0
 62
     7
370
    25
100
AcDbCircle
 10
228.097404
 20
128.735474
 30
0.0
 40
0.0931000000001218
100
AcDbArc
 50
200.0
 51
20.0
  0
LINE
  5
74
330
1F
100
AcDbEntity
  8
LC-001-100-D00-0
 62
     7
370
    25
100
AcDbLine
 10
251.125133
 20
131.047394
 30
0.0
 11
252.009584
 21
131.047394
 31
0.0
  0
LINE
  5
75
330
1F
100
AcDbEntity
  8
LC-001-100-D00-0
 62
     7
370
    25
100
AcDbLine
 10
251.125133
 20
130.14777
 30
0.0
 11
251.125133
 21
131.047394
 31
0.0
  0
LINE
  5
76
330
1F
100
AcDbEntity
  8
LC-001-100-D00-0
 62
     7
370
    25
100
AcDbLine
 10
252.009584
 20
130.14777
 30
0.0
 11
251.125133
 21
130.14777
 31
0.0
  0
ARC
  5
77
330
1F
100
AcDbEntity
  8
LC-001-100-D00-0
 62
     7
370
    25
100
AcDbCircle
 10
252.009582
 20
130.566721
 30
0.0
 40
0.4189499999999384
100
AcDbArc
 50
270.0
 51
0.0
  0
LINE
  5
78
330
1F
100
AcDbEntity
  8
LC-001-100-D00-0
 62
     7
370
    25
100
AcDbLine
 10
252.428534
 20
130.628444
 30
0.0
 11
252.428534
 21
130.56672
 31
0.0
  0
ARC
  5
79
330
1F
100
AcDbEntity
  8
LC-001-100-D00-0
 62
     7
370
    25
100
AcDbCircle
 10
252.009582
 20
130.628446
 30
0.0
 40
0.418950000000109
100
AcDbArc
 50
0.0
 51
90.0
  0
LINE
  5
7A
330
1F
100
AcDbEntity
  8
LC-001-100-D00-0
 62
     7
370
    25
100
AcDbLine
 10
251.125133
 20
129.58917
 30
0.0
 11
252.009584
 21
129.58917
 31
0.0
  0
LINE
  5
7B
330
1F
100
AcDbEntity
  8
LC-001-100-D00-0
 62
     7
370
    25
100
AcDbLine
 10
251.125133
 20
128.658172
 30
0.0
 11
251.125133
 21
129.58917
 31
0.0
  0
LINE
  5
7C
330
1F
100
AcDbEntity
  8
LC-001-100-D00-0
 62
     7
370
    25
100
AcDbLine
 10
250.566533
 20
128.658172
 30
0.0
 11
251.125133
 21
128.658172
 31
0.0
  0
LINE
  5
7D
330
1F
100
AcDbEntity
  8
LC-001-100-D00-0
 62
     7
370
    25
100
AcDbLine
 10
250.566533
 20
131.605994
 30
0.0
 11
250.566533
 21
128.658172
 31
0.0
  0
LINE
  5
7E
330
1F
100
AcDbEntity
  8
LC-001-100-D00-0
 62
     7
370
    25
100
AcDbLine
 10
252.521632
 20
131.605994
 30
0.0
 11
250.566533
 21
131.605994
 31
0.0
  0
ARC
  5
7F
330
1F
100
AcDbEntity
  8
LC-001-100-D00-0
 62
     7
370
    25
100
AcDbCircle
 10
252.521632
 20
131.140496
 30
0.0
 40
0.46550000000002
100
AcDbArc
 50
0.0
 51
90.0
  0
LINE
  5
80
330
1F
100
AcDbEntity
  8
LC-001-100-D00-0
 62
     7
370
    25
100
AcDbLine
 10
252.987133
 20
130.324565
 30
0.0
 11
252.987133
 21
131.140496
 31
0.0
  0
ARC
  5
81
330
1F
100
AcDbEntity
  8
LC-001-100-D00-0
 62
     7
370
    25
100
AcDbCircle
 10
252.521632
 20
130.324566
 30
0.0
 40
0.4655000000000663
100
AcDbArc
 50
281.536959
 51
0.0
  0
ARC
  5
82
330
1F
100
AcDbEntity
  8
LC-001-100-D00-0
 62
     7
370
    25
100
AcDbCircle
 10
252.521632
 20
129.412376
 30
0.0
 40
0.4655000000002478
100
AcDbArc
 50
359.999998
 51
78.463041
  0
LINE
  5
83
330
1F
100
AcDbEntity
  8
LC-001-100-D00-0
 62
     7
370
    25
100
AcDbLine
 10
252.987133
 20
128.658172
 30
0.0
 11
252.987133
 21
129.412375
 31
0.0
  0
LINE
  5
84
330
1F
100
AcDbEntity
  8
LC-001-100-D00-0
 62
     7
370
    25
100
AcDbLine
 10
252.428534
 20
128.658172
 30
0.0
 11
252.987133
 21
128.658172
 31
0.0
  0
LINE
  5
85
330
1F
100
AcDbEntity
  8
LC-001-100-D00-0
 62
     7
370
    25
100
AcDbLine
 10
252.428534
 20
129.17022
 30
0.0
 11
252.428534
 21
128.658172
 31
0.0
  0
ARC
  5
86
330
1F
100
AcDbEntity
  8
LC-001-100-D00-0
 62
     7
370
    25
100
AcDbCircle
 10
252.009582
 20
129.170221
 30
0.0
 40
0.4189500000000521
100
AcDbArc
 50
0.0
 51
90.0
  0
LINE
  5
87
330
1F
100
AcDbEntity
  8
LC-001-100-D00-0
 62
     7
370
    25
100
AcDbLine
 10
250.380332
 20
131.792195
 30
0.0
 11
252.521632
 21
131.792195
 31
0.0
  0
LINE
  5
88
330
1F
100
AcDbEntity
  8
LC-001-100-D00-0
 62
     7
370
    25
100
AcDbLine
 10
250.380332
 20
131.792195
 30
0.0
 11
250.380332
 21
128.47197
 31
0.0
  0
LINE
  5
89
330
1F
100
AcDbEntity
  8
LC-001-100-D00-0
 62
     7
370
    25
100
AcDbLine
 10
250.380332
 20
128.47197
 30
0.0
 11
251.311332
 21
128.47197
 31
0.0
  0
LINE
  5
8A
330
1F
100
AcDbEntity
  8
LC-001-100-D00-0
 62
     7
370
    25
100
AcDbLine
 10
251.311332
 20
129.402969
 30
0.0
 11
251.311332
 21
128.47197
 31
0.0
  0
LINE
  5
8B
330
1F
100
AcDbEntity
  8
LC-001-100-D00-0
 62
     7
370
    25
100
AcDbLine
 10
251.311332
 20
129.402969
 30
0.0
 11
252.009584
 21
129.402969
 31
0.0
  0
ARC
  5
8C
330
1F
100
AcDbEntity
  8
LC-001-100-D00-0
 62
     7
370
    25
100
AcDbCircle
 10
252.009582
 20
129.170221
 30
0.0
 40
0.2327500000001237
100
AcDbArc
 50
0.0
 51
90.0
  0
LINE
  5
8D
330
1F
100
AcDbEntity
  8
LC-001-100-D00-0
 62
     7
370
    25
100
AcDbLine
 10
252.242332
 20
129.17022
 30
0.0
 11
252.242332
 21
128.47197
 31
0.0
  0
LINE
  5
8E
330
1F
100
AcDbEntity
  8
LC-001-100-D00-0
 62
     7
370
    25
100
AcDbLine
 10
252.242332
 20
128.47197
 30
0.0
 11
253.173331
 21
128.47197
 31
0.0
  0
LINE
  5
8F
330
1F
100
AcDbEntity
  8
LC-001-100-D00-0
 62
     7
370
    25
100
AcDbLine
 10
253.173331
 20
129.412375
 30
0.0
 11
253.173331
 21
128.47197
 31
0.0
  0
ARC
  5
90
330
1F
100
AcDbEntity
  8
LC-001-100-D00-0
 62
     7
370
    25
100
AcDbCircle
 10
252.521632
 20
129.412376
 30
0.0
 40
0.6516999977470167
100
AcDbArc
 50
359.999998
 51
44.415309
  0
ARC
  5
91
330
1F
100
AcDbEntity
  8
LC-001-100-D00-0
 62
     7
370
    25
100
AcDbCircle
 10
252.521632
 20
130.324566
 30
0.0
 40
0.6517000000457875
100
AcDbArc
 50
315.584691
 51
0.0
  0
LINE
  5
92
330
1F
100
AcDbEntity
  8
LC-001-100-D00-0
 62
     7
370
    25
100
AcDbLine
 10
253.173331
 20
131.140496
 30
0.0
 11
253.173331
 21
130.324565
 31
0.0
  0
ARC
  5
93
330
1F
100
AcDbEntity
  8
LC-001-100-D00-0
 62
     7
370
    25
100
AcDbCircle
 10
252.521632
 20
131.140496
 30
0.0
 40
0.6517000000457074
100
AcDbArc
 50
0.0
 51
90.0
  0
LINE
  5
94
330
1F
100
AcDbEntity
  8
LC-001-100-D00-0
 62
     7
370
    25
100
AcDbLine
 10
245.483177
 20
131.792195
 30
0.0
 11
246.470133
 21
131.792195
 31
0.0
  0
ARC
  5
95
330
1F
100
AcDbEntity
  8
LC-001-100-D00-0
 62
     7
370
    25
100
AcDbCircle
 10
245.483177
 20
131.140496
 30
0.0
 40
0.6516999954940278
100
AcDbArc
 50
89.999998
 51
134.415309
  0
ARC
  5
96
330
1F
100
AcDbEntity
  8
LC-001-100-D00-0
 62
     7
370
    25
100
AcDbCircle
 10
244.570987
 20
131.140496
 30
0.0
 40
0.6516999999998923
100
AcDbArc
 50
45.584691
 51
90.0
  0
LINE
  5
97
330
1F
100
AcDbEntity
  8
LC-001-100-D00-0
 62
     7
370
    25
100
AcDbLine
 10
243.584031
 20
131.792195
 30
0.0
 11
244.570987
 21
131.792195
 31
0.0
  0
ARC
  5
98
330
1F
100
AcDbEntity
  8
LC-001-100-D00-0
 62
     7
370
    25
100
AcDbCircle
 10
243.584032
 20
131.140496
 30
0.0
 40
0.6517000000000621
100
AcDbArc
 50
90.0
 51
180.0
  0
LINE
  5
99
330
1F
100
AcDbEntity
  8
LC-001-100-D00-0
 62
     7
370
    25
100
AcDbLine
 10
242.932333
 20
131.140496
 30
0.0
 11
242.932333
 21
128.47197
 31
0.0
  0
LINE
  5
9A
330
1F
100
AcDbEntity
  8
LC-001-100-D00-0
 62
     7
370
    25
100
AcDbLine
 10
242.932333
 20
128.47197
 30
0.0
 11
243.863331
 21
128.47197
 31
0.0
  0
LINE
  5
9B
330
1F
100
AcDbEntity
  8
LC-001-100-D00-0
 62
     7
370
    25
100
AcDbLine
 10
243.863331
 20
130.628444
 30
0.0
 11
243.863331
 21
128.47197
 31
0.0
  0
ARC
  5
9C
330
1F
100
AcDbEntity
  8
LC-001-100-D00-0
 62
     7
370
    25
100
AcDbCircle
 10
244.096082
 20
130.628446
 30
0.0
 40
0.23275000000001
100
AcDbArc
 50
90.0
 51
180.0
  0
LINE
  5
9D
330
1F
100
AcDbEntity
  8
LC-001-100-D00-0
 62
     7
370
    25
100
AcDbLine
 10
244.096082
 20
130.861197
 30
0.0
 11
244.328832
 21
130.861197
 31
0.0
  0
ARC
  5
9E
330
1F
100
AcDbEntity
  8
LC-001-100-D00-0
 62
     7
370
    25
100
AcDbCircle
 10
244.328832
 20
130.628446
 30
0.0
 40
0.23275000000001
100
AcDbArc
 50
0.0
 51
90.0
  0
LINE
  5
9F
330
1F
100
AcDbEntity
  8
LC-001-100-D00-0
 62
     7
370
    25
100
AcDbLine
 10
244.561583
 20
130.628444
 30
0.0
 11
244.561583
 21
128.47197
 31
0.0
  0
LINE
  5
A0
330
1F
100
AcDbEntity
  8
LC-001-100-D00-0
 62
     7
370
    25
100
AcDbLine
 10
244.561583
 20
128.47197
 30
0.0
 11
245.492581
 21
128.47197
 31
0.0
  0
LINE
  5
A1
330
1F
100
AcDbEntity
  8
LC-001-100-D00-0
 62
     7
370
    25
100
AcDbLine
 10
245.492581
 20
130.628444
 30
0.0
 11
245.492581
 21
128.47197
 31
0.0
  0
ARC
  5
A2
330
1F
100
AcDbEntity
  8
LC-001-100-D00-0
 62
     7
370
    25
100
AcDbCircle
 10
245.725332
 20
130.628446
 30
0.0
 40
0.2327499999999532
100
AcDbArc
 50
90.0
 51
180.0
  0
LINE
  5
A3
330
1F
100
AcDbEntity
  8
LC-001-100-D00-0
 62
     7
370
    25
100
AcDbLine
 10
245.725332
 20
130.861197
 30
0.0
 11
245.958082
 21
130.861197
 31
0.0
  0
ARC
  5
A4
330
1F
100
AcDbEntity
  8
LC-001-100-D00-0
 62
     7
370
    25
100
AcDbCircle
 10
245.958082
 20
130.628446
 30
0.0
 40
0.2327500000000669
100
AcDbArc
 50
0.0
 51
90.0
  0
LINE
  5
A5
330
1F
100
AcDbEntity
  8
LC-001-100-D00-0
 62
     7
370
    25
100
AcDbLine
 10
246.190831
 20
130.628444
 30
0.0
 11
246.190831
 21
128.47197
 31
0.0
  0
LINE
  5
A6
330
1F
100
AcDbEntity
  8
LC-001-100-D00-0
 62
     7
370
    25
100
AcDbLine
 10
246.190831
 20
128.47197
 30
0.0
 11
247.121831
 21
128.47197
 31
0.0
  0
LINE
  5
A7
330
1F
100
AcDbEntity
  8
LC-001-100-D00-0
 62
     7
370
    25
100
AcDbLine
 10
247.121831
 20
131.140496
 30
0.0
 11
247.121831
 21
128.47197
 31
0.0
  0
ARC
  5
A8
330
1F
100
AcDbEntity
  8
LC-001-100-D00-0
 62
     7
370
    25
100
AcDbCircle
 10
246.470132
 20
131.140496
 30
0.0
 40
0.6516999954940843
100
AcDbArc
 50
0.0
 51
90.0
  0
LINE
  5
A9
330
1F
100
AcDbEntity
  8
LC-001-100-D00-0
 62
     7
370
    25
100
AcDbLine
 10
238.277333
 20
128.47197
 30
0.0
 11
240.139332
 21
128.47197
 31
0.0
  0
LINE
  5
AA
330
1F
100
AcDbEntity
  8
LC-001-100-D00-0
 62
     7
370
    25
100
AcDbLine
 10
240.139332
 20
129.402969
 30
0.0
 11
240.139332
 21
128.47197
 31
0.0
  0
LINE
  5
AB
330
1F
100
AcDbEntity
  8
LC-001-100-D00-0
 62
     7
370
    25
100
AcDbLine
 10
239.208331
 20
129.402969
 30
0.0
 11
240.139332
 21
129.402969
 31
0.0
  0
LINE
  5
AC
330
1F
100
AcDbEntity
  8
LC-001-100-D00-0
 62
     7
370
    25
100
AcDbLine
 10
239.208331
 20
131.792195
 30
0.0
 11
239.208331
 21
129.402969
 31
0.0
  0
LINE
  5
AD
330
1F
100
AcDbEntity
  8
LC-001-100-D00-0
 62
     7
370
    25
100
AcDbLine
 10
238.277333
 20
131.792195
 30
0.0
 11
239.208331
 21
131.792195
 31
0.0
  0
LINE
  5
AE
330
1F
100
AcDbEntity
  8
LC-001-100-D00-0
 62
     7
370
    25
100
AcDbLine
 10
238.277333
 20
131.792195
 30
0.0
 11
238.277333
 21
128.47197
 31
0.0
  0
ARC
  5
AF
330
1F
100
AcDbEntity
  8
LC-001-100-D00-0
 62
     7
370
    50
100
AcDbCircle
 10
178.173332
 20
126.471971
 30
0.0
 40
3.0
100
AcDbArc
 50
180.0
 51
270.0
  0
LINE
  5
B0
330
1F
100
AcDbEntity
  8
LC-001-100-D00-0
 62
     7
370
    50
100
AcDbLine
 10
175.173333
 20
211.471971
 30
0.0
 11
175.173333
 21
126.47197
 31
0.0
  0
ARC
  5
B1
330
1F
100
AcDbEntity
  8
LC-001-100-D00-0
 62
     7
370
    50
100
AcDbCircle
 10
178.173332
 20
211.471971
 30
0.0
 40
3.0
100
AcDbArc
 50
90.0
 51
180.0
  0
LINE
  5
B2
330
1F
100
AcDbEntity
  8
LC-001-100-D00-0
 62
     7
370
    50
100
AcDbLine
 10
263.173333
 20
214.47197
 30
0.0
 11
178.173332
 21
214.47197
 31
0.0
  0
ARC
  5
B3
330
1F
100
AcDbEntity
  8
LC-001-100-D00-0
 62
     7
370
    50
100
AcDbCircle
 10
263.173332
 20
211.471971
 30
0.0
 40
3.0
100
AcDbArc
 50
0.0
 51
90.0
  0
LINE
  5
B4
330
1F
100
AcDbEntity
  8
LC-001-100-D00-0
 62
     7
370
    50
100
AcDbLine
 10
266.173331
 20
126.47197
 30
0.0
 11
266.173331
 21
211.471971
 31
0.0
  0
ARC
  5
B5
330
1F
100
AcDbEntity
  8
LC-001-100-D00-0
 62
     7
370
    50
100
AcDbCircle
 10
263.173332
 20
126.471971
 30
0.0
 40
3.0
100
AcDbArc
 50
270.0
 51
0.0
  0
LINE
  5
B6
330
1F
100
AcDbEntity
  8
LC-001-100-D00-0
 62
     7
370
    50
100
AcDbLine
 10
178.173332
 20
123.471971
 30
0.0
 11
263.173333
 21
123.471971
 31
0.0
  0
LINE
  5
B7
330
1F
100
AcDbEntity
  8
LC-001-100-D00-0
 62
     7
370
    50
100
AcDbLine
 10
190.195635
 20
200.883694
 30
0.0
 11
188.891353
 21
194.24838
 31
0.0
  0
LINE
  5
B8
330
1F
100
AcDbEntity
  8
LC-001-100-D00-0
 62
     7
370
    50
100
AcDbLine
 10
188.891353
 20
194.24838
 30
0.0
 11
189.276232
 21
188.508069
 31
0.0
  0
ARC
  5
B9
330
1F
100
AcDbEntity
  8
LC-001-100-D00-0
 62
     7
370
    50
100
AcDbCircle
 10
184.287433
 20
188.173578
 30
0.0
 40
4.999999999982223
100
AcDbArc
 50
0.000607
 51
3.835852
  0
ARC
  5
BA
330
1F
100
AcDbEntity
  8
LC-001-100-D00-0
 62
     7
370
    50
100
AcDbCircle
 10
184.287433
 20
188.173594
 30
0.0
 40
4.999999999810198
100
AcDbArc
 50
334.027378
 51
0.000421
  0
LINE
  5
BB
330
1F
100
AcDbEntity
  8
LC-001-100-D00-0
 62
     7
370
    50
100
AcDbLine
 10
188.782452
 20
185.983885
 30
0.0
 11
187.180569
 21
182.69556
 31
0.0
  0
ARC
  5
BC
330
1F
100
AcDbEntity
  8
LC-001-100-D00-0
 62
     7
370
    50
100
AcDbCircle
 10
191.675588
 20
180.505852
 30
0.0
 40
4.999999999970539
100
AcDbArc
 50
154.027378
 51
189.563443
  0
LINE
  5
BD
330
1F
100
AcDbEntity
  8
LC-001-100-D00-0
 62
     7
370
    50
100
AcDbLine
 10
186.745076
 20
179.675153
 30
0.0
 11
187.390348
 21
175.845222
 31
0.0
  0
LINE
  5
BE
330
1F
100
AcDbEntity
  8
LC-001-100-D00-0
 62
     7
370
    50
100
AcDbLine
 10
187.390348
 20
175.845222
 30
0.0
 11
187.390363
 21
170.843572
 31
0.0
  0
ARC
  5
BF
330
1F
100
AcDbEntity
  8
LC-001-100-D00-0
 62
     7
370
    50
100
AcDbCircle
 10
192.390363
 20
170.843587
 30
0.0
 40
4.999999999999634
100
AcDbArc
 50
180.000172
 51
206.581187
  0
LINE
  5
C0
330
1F
100
AcDbEntity
  8
LC-001-100-D00-0
 62
     7
370
    50
100
AcDbLine
 10
187.918859
 20
168.606259
 30
0.0
 11
188.787093
 21
166.871011
 31
0.0
  0
ARC
  5
C1
330
1F
100
AcDbEntity
  8
LC-001-100-D00-0
 62
     7
370
    50
100
AcDbCircle
 10
184.315586
 20
164.633684
 30
0.0
 40
4.999999999999661
100
AcDbArc
 50
0.000653
 51
26.581187
  0
ARC
  5
C2
330
1F
100
AcDbEntity
  8
LC-001-100-D00-0
 62
     7
370
    50
100
AcDbCircle
 10
184.315586
 20
164.633761
 30
0.0
 40
4.99999999912127
100
AcDbArc
 50
350.436306
 51
359.99977
  0
LINE
  5
C3
330
1F
100
AcDbEntity
  8
LC-001-100-D00-0
 62
     7
370
    50
100
AcDbLine
 10
189.246094
 20
163.803041
 30
0.0
 11
188.453754
 21
159.100322
 31
0.0
  0
LINE
  5
C4
330
1F
100
AcDbEntity
  8
LC-001-100-D00-0
 62
     7
370
    50
100
AcDbLine
 10
188.453754
 20
159.100322
 30
0.0
 11
188.149924
 21
152.402362
 31
0.0
  0
LINE
  5
C5
330
1F
100
AcDbEntity
  8
LC-001-100-D00-0
 62
     7
370
    50
100
AcDbLine
 10
188.149924
 20
152.402362
 30
0.0
 11
189.39581
 21
147.120569
 31
0.0
  0
ARC
  5
C6
330
1F
100
AcDbEntity
  8
LC-001-100-D00-0
 62
     7
370
    50
100
AcDbCircle
 10
184.529365
 20
145.972655
 30
0.0
 40
4.999999999991854
100
AcDbArc
 50
346.490719
 51
13.272509
  0
LINE
  5
C7
330
1F
100
AcDbEntity
  8
LC-001-100-D00-0
 62
     7
370
    50
100
AcDbLine
 10
189.391026
 20
144.80464
 30
0.0
 11
187.99801
 21
139.006443
 31
0.0
  0
LINE
  5
C8
330
1F
100
AcDbEntity
  8
LC-001-100-D00-0
 62
     7
370
    50
100
AcDbLine
 10
187.99801
 20
139.006443
 30
0.0
 11
187.645545
 21
134.971969
 31
0.0
  0
LINE
  5
C9
330
1F
100
AcDbEntity
  8
LC-001-100-D00-0
 62
     7
370
    50
100
AcDbLine
 10
187.645545
 20
134.971969
 30
0.0
 11
191.645546
 21
134.971969
 31
0.0
  0
LINE
  5
CA
330
1F
100
AcDbEntity
  8
LC-001-100-D00-0
 62
     7
370
    50
100
AcDbLine
 10
191.645546
 20
134.971969
 30
0.0
 11
191.998009
 21
139.006443
 31
0.0
  0
LINE
  5
CB
330
1F
100
AcDbEntity
  8
LC-001-100-D00-0
 62
     7
370
    50
100
AcDbLine
 10
191.998009
 20
139.006443
 30
0.0
 11
193.391029
 21
144.804696
 31
0.0
  0
ARC
  5
CC
330
1F
100
AcDbEntity
  8
LC-001-100-D00-0
 62
     7
370
    50
100
AcDbCircle
 10
188.529365
 20
145.972701
 30
0.0
 40
4.999999999610201
100
AcDbArc
 50
346.490823
 51
359.999921
  0
ARC
  5
CD
330
1F
100
AcDbEntity
  8
LC-001-100-D00-0
 62
     7
370
    50
100
AcDbCircle
 10
188.529365
 20
145.972655
 30
0.0
 40
4.999999999973982
100
AcDbArc
 50
0.000451
 51
13.272509
  0
LINE
  5
CE
330
1F
100
AcDbEntity
  8
LC-001-100-D00-0
 62
     7
370
    50
100
AcDbLine
 10
193.39581
 20
147.120569
 30
0.0
 11
192.149924
 21
152.402362
 31
0.0
  0
LINE
  5
CF
330
1F
100
AcDbEntity
  8
LC-001-100-D00-0
 62
     7
370
    50
100
AcDbLine
 10
192.149924
 20
152.402362
 30
0.0
 11
192.453753
 21
159.100322
 31
0.0
  0
LINE
  5
D0
330
1F
100
AcDbEntity
  8
LC-001-100-D00-0
 62
     7
370
    50
100
AcDbLine
 10
192.453753
 20
159.100322
 30
0.0
 11
193.246095
 21
163.803041
 31
0.0
  0
ARC
  5
D1
330
1F
100
AcDbEntity
  8
LC-001-100-D00-0
 62
     7
370
    50
100
AcDbCircle
 10
188.315586
 20
164.633761
 30
0.0
 40
4.99999999912127
100
AcDbArc
 50
350.436306
 51
359.99977
  0
ARC
  5
D2
330
1F
100
AcDbEntity
  8
LC-001-100-D00-0
 62
     7
370
    50
100
AcDbCircle
 10
188.315586
 20
164.633684
 30
0.0
 40
4.999999999999592
100
AcDbArc
 50
0.000653
 51
26.581187
  0
LINE
  5
D3
330
1F
100
AcDbEntity
  8
LC-001-100-D00-0
 62
     7
370
    50
100
AcDbLine
 10
192.787092
 20
166.871011
 30
0.0
 11
191.918857
 21
168.606259
 31
0.0
  0
ARC
  5
D4
330
1F
100
AcDbEntity
  8
LC-001-100-D00-0
 62
     7
370
    50
100
AcDbCircle
 10
196.390363
 20
170.843587
 30
0.0
 40
4.99999999998855
100
AcDbArc
 50
180.000172
 51
206.581187
  0
LINE
  5
D5
330
1F
100
AcDbEntity
  8
LC-001-100-D00-0
 62
     7
370
    50
100
AcDbLine
 10
191.390364
 20
170.843572
 30
0.0
 11
191.390349
 21
175.845222
 31
0.0
  0
LINE
  5
D6
330
1F
100
AcDbEntity
  8
LC-001-100-D00-0
 62
     7
370
    50
100
AcDbLine
 10
191.390349
 20
175.845222
 30
0.0
 11
190.745078
 21
179.675153
 31
0.0
  0
ARC
  5
D7
330
1F
100
AcDbEntity
  8
LC-001-100-D00-0
 62
     7
370
    50
100
AcDbCircle
 10
195.675588
 20
180.505852
 30
0.0
 40
5.000000000000028
100
AcDbArc
 50
154.027267
 51
189.563443
  0
LINE
  5
D8
330
1F
100
AcDbEntity
  8
LC-001-100-D00-0
 62
     7
370
    50
100
AcDbLine
 10
191.180576
 20
182.695568
 30
0.0
 11
192.782447
 21
185.983861
 31
0.0
  0
ARC
  5
D9
330
1F
100
AcDbEntity
  8
LC-001-100-D00-0
 62
     7
370
    50
100
AcDbCircle
 10
188.287433
 20
188.173578
 30
0.0
 40
5.000000000000028
100
AcDbArc
 50
334.027267
 51
3.835852
  0
LINE
  5
DA
330
1F
100
AcDbEntity
  8
LC-001-100-D00-0
 62
     7
370
    50
100
AcDbLine
 10
193.276232
 20
188.508069
 30
0.0
 11
192.891354
 21
194.24838
 31
0.0
  0
LINE
  5
DB
330
1F
100
AcDbEntity
  8
LC-001-100-D00-0
 62
     7
370
    50
100
AcDbLine
 10
192.891354
 20
194.24838
 30
0.0
 11
194.195634
 21
200.883694
 31
0.0
  0
LINE
  5
DC
330
1F
100
AcDbEntity
  8
LC-001-100-D00-0
 62
     7
370
    50
100
AcDbLine
 10
194.195634
 20
200.883694
 30
0.0
 11
194.343409
 21
202.971972
 31
0.0
  0
LINE
  5
DD
330
1F
100
AcDbEntity
  8
LC-001-100-D00-0
 62
     7
370
    50
100
AcDbLine
 10
194.343409
 20
202.971972
 30
0.0
 11
190.34341
 21
202.971972
 31
0.0
  0
LINE
  5
DE
330
1F
100
AcDbEntity
  8
LC-001-100-D00-0
 62
     7
370
    50
100
AcDbLine
 10
190.34341
 20
202.971972
 30
0.0
 11
190.195635
 21
200.883694
 31
0.0
  0
LINE
  5
DF
330
1F
100
AcDbEntity
  8
LC-001-100-D00-0
 62
     7
370
    50
100
AcDbLine
 10
204.119025
 20
137.317691
 30
0.0
 11
203.377334
 21
144.628324
 31
0.0
  0
ARC
  5
E0
330
1F
100
AcDbEntity
  8
LC-001-100-D00-0
 62
     7
370
    50
100
AcDbCircle
 10
213.326263
 20
145.637681
 30
0.0
 40
9.999999999999524
100
AcDbArc
 50
175.676516
 51
185.793053
  0
LINE
  5
E1
330
1F
100
AcDbEntity
  8
LC-001-100-D00-0
 62
     7
370
    50
100
AcDbLine
 10
203.35472
 20
146.391556
 30
0.0
 11
203.807388
 21
152.379025
 31
0.0
  0
LINE
  5
E2
330
1F
100
AcDbEntity
  8
LC-001-100-D00-0
 62
     7
370
    50
100
AcDbLine
 10
203.807388
 20
152.379025
 30
0.0
 11
203.391871
 21
161.274901
 31
0.0
  0
LINE
  5
E3
330
1F
100
AcDbEntity
  8
LC-001-100-D00-0
 62
     7
370
    50
100
AcDbLine
 10
203.391871
 20
161.274901
 30
0.0
 11
204.221768
 21
166.693001
 31
0.0
  0
ARC
  5
E4
330
1F
100
AcDbEntity
  8
LC-001-100-D00-0
 62
     7
370
    50
100
AcDbCircle
 10
194.33705
 20
168.207055
 30
0.0
 40
9.999999999974936
100
AcDbArc
 50
351.291622
 51
7.004062
  0
LINE
  5
E5
330
1F
100
AcDbEntity
  8
LC-001-100-D00-0
 62
     7
370
    50
100
AcDbLine
 10
204.262426
 20
169.426452
 30
0.0
 11
203.391871
 21
176.512393
 31
0.0
  0
LINE
  5
E6
330
1F
100
AcDbEntity
  8
LC-001-100-D00-0
 62
     7
370
    50
100
AcDbLine
 10
203.391871
 20
176.512393
 30
0.0
 11
203.391871
 21
183.999021
 31
0.0
  0
LINE
  5
E7
330
1F
100
AcDbEntity
  8
LC-001-100-D00-0
 62
     7
370
    50
100
AcDbLine
 10
203.391871
 20
183.999021
 30
0.0
 11
204.015147
 21
190.692948
 31
0.0
  0
LINE
  5
E8
330
1F
100
AcDbEntity
  8
LC-001-100-D00-0
 62
     7
370
    50
100
AcDbLine
 10
204.015147
 20
190.692948
 30
0.0
 11
204.792971
 21
192.305066
 31
0.0
  0
ARC
  5
E9
330
1F
100
AcDbEntity
  8
LC-001-100-D00-0
 62
     7
370
    50
100
AcDbCircle
 10
195.786495
 20
196.650569
 30
0.0
 40
9.999999999978154
100
AcDbArc
 50
334.243319
 51
2.455875
  0
LINE
  5
EA
330
1F
100
AcDbEntity
  8
LC-001-100-D00-0
 62
     7
370
    50
100
AcDbLine
 10
205.777311
 20
197.079068
 30
0.0
 11
205.524568
 21
202.971972
 31
0.0
  0
LINE
  5
EB
330
1F
100
AcDbEntity
  8
LC-001-100-D00-0
 62
     7
370
    50
100
AcDbLine
 10
205.524568
 20
202.971972
 30
0.0
 11
201.333337
 21
202.971972
 31
0.0
  0
LINE
  5
EC
330
1F
100
AcDbEntity
  8
LC-001-100-D00-0
 62
     7
370
    50
100
AcDbLine
 10
201.333337
 20
202.971972
 30
0.0
 11
201.501323
 21
201.737668
 31
0.0
  0
ARC
  5
ED
330
1F
100
AcDbEntity
  8
LC-001-100-D00-0
 62
     7
370
    50
100
AcDbCircle
 10
191.592668
 20
200.389126
 30
0.0
 40
9.999999999997176
100
AcDbArc
 50
331.894709
 51
7.75019
  0
LINE
  5
EE
330
1F
100
AcDbEntity
  8
LC-001-100-D00-0
 62
     7
370
    50
100
AcDbLine
 10
200.413503
 20
195.678193
 30
0.0
 11
200.110691
 21
195.111204
 31
0.0
  0
ARC
  5
EF
330
1F
100
AcDbEntity
  8
LC-001-100-D00-0
 62
     7
370
    50
100
AcDbCircle
 10
208.931524
 20
190.40027
 30
0.0
 40
9.999999999962594
100
AcDbArc
 50
151.894709
 51
167.993086
  0
LINE
  5
F0
330
1F
100
AcDbEntity
  8
LC-001-100-D00-0
 62
     7
370
    50
100
AcDbLine
 10
199.1503
 20
192.480566
 30
0.0
 11
198.505171
 21
189.447278
 31
0.0
  0
ARC
  5
F1
330
1F
100
AcDbEntity
  8
LC-001-100-D00-0
 62
     7
370
    50
100
AcDbCircle
 10
208.286396
 20
187.36698
 30
0.0
 40
9.999999999990028
100
AcDbArc
 50
167.993086
 51
179.160701
  0
LINE
  5
F2
330
1F
100
AcDbEntity
  8
LC-001-100-D00-0
 62
     7
370
    50
100
AcDbLine
 10
198.287468
 20
187.513461
 30
0.0
 11
198.122358
 21
176.242713
 31
0.0
  0
ARC
  5
F3
330
1F
100
AcDbEntity
  8
LC-001-100-D00-0
 62
     7
370
    50
100
AcDbCircle
 10
208.121285
 20
176.096233
 30
0.0
 40
9.999999998350438
100
AcDbArc
 50
179.160701
 51
201.037288
  0
LINE
  5
F4
330
1F
100
AcDbEntity
  8
LC-001-100-D00-0
 62
     7
370
    50
100
AcDbLine
 10
198.787814
 20
172.506479
 30
0.0
 11
199.113537
 21
171.659592
 31
0.0
  0
ARC
  5
F5
330
1F
100
AcDbEntity
  8
LC-001-100-D00-0
 62
     7
370
    50
100
AcDbCircle
 10
189.780066
 20
168.069838
 30
0.0
 40
9.999999999938249
100
AcDbArc
 50
3.968418
 51
21.037288
  0
LINE
  5
F6
330
1F
100
AcDbEntity
  8
LC-001-100-D00-0
 62
     7
370
    50
100
AcDbLine
 10
199.75609
 20
168.761904
 30
0.0
 11
200.067738
 21
164.269553
 31
0.0
  0
LINE
  5
F7
330
1F
100
AcDbEntity
  8
LC-001-100-D00-0
 62
     7
370
    50
100
AcDbLine
 10
200.067738
 20
164.269553
 30
0.0
 11
198.993618
 21
158.805083
 31
0.0
  0
ARC
  5
F8
330
1F
100
AcDbEntity
  8
LC-001-100-D00-0
 62
     7
370
    50
100
AcDbCircle
 10
208.805853
 20
156.876348
 30
0.0
 40
9.999999999971463
100
AcDbArc
 50
168.879468
 51
185.183713
  0
LINE
  5
F9
330
1F
100
AcDbEntity
  8
LC-001-100-D00-0
 62
     7
370
    50
100
AcDbLine
 10
198.846752
 20
155.972853
 30
0.0
 11
199.444462
 21
149.384374
 31
0.0
  0
LINE
  5
FA
330
1F
100
AcDbEntity
  8
LC-001-100-D00-0
 62
     7
370
    50
100
AcDbLine
 10
199.444462
 20
149.384374
 30
0.0
 11
199.277107
 21
145.340281
 31
0.0
  0
ARC
  5
FB
330
1F
100
AcDbEntity
  8
LC-001-100-D00-0
 62
     7
370
    50
100
AcDbCircle
 10
209.268556
 20
144.926809
 30
0.0
 40
9.999999999999444
100
AcDbArc
 50
177.630307
 51
188.792572
  0
LINE
  5
FC
330
1F
100
AcDbEntity
  8
LC-001-100-D00-0
 62
     7
370
    50
100
AcDbLine
 10
199.386073
 20
143.398233
 30
0.0
 11
199.878171
 21
140.216753
 31
0.0
  0
ARC
  5
FD
330
1F
100
AcDbEntity
  8
LC-001-100-D00-0
 62
     7
370
    50
100
AcDbCircle
 10
189.995688
 20
138.688176
 30
0.0
 40
9.999999999513729
100
AcDbArc
 50
0.000819
 51
8.792572
  0
ARC
  5
FE
330
1F
100
AcDbEntity
  8
LC-001-100-D00-0
 62
     7
370
    50
100
AcDbCircle
 10
189.995688
 20
138.688434
 30
0.0
 40
9.999999998729779
100
AcDbArc
 50
354.652505
 51
359.999342
  0
LINE
  5
FF
330
1F
100
AcDbEntity
  8
LC-001-100-D00-0
 62
     7
370
    50
100
AcDbLine
 10
199.952167
 20
137.756474
 30
0.0
 11
199.691527
 21
134.971969
 31
0.0
  0
LINE
  5
100
330
1F
100
AcDbEntity
  8
LC-001-100-D00-0
 62
     7
370
    50
100
AcDbLine
 10
199.691527
 20
134.971969
 30
0.0
 11
204.255086
 21
134.971969
 31
0.0
  0
LINE
  5
101
330
1F
100
AcDbEntity
  8
LC-001-100-D00-0
 62
     7
370
    50
100
AcDbLine
 10
204.255086
 20
134.971969
 30
0.0
 11
204.119025
 21
137.317691
 31
0.0
  0
LINE
  5
102
330
1F
100
AcDbEntity
  8
LC-001-100-D00-0
 62
     7
370
    50
100
AcDbLine
 10
224.579971
 20
179.239373
 30
0.0
 11
225.115686
 21
177.304704
 31
0.0
  0
ARC
  5
103
330
1F
100
AcDbEntity
  8
LC-001-100-D00-0
 62
     7
370
    50
100
AcDbCircle
 10
201.022309
 20
170.633182
 30
0.0
 40
25.00000000000011
100
AcDbArc
 50
0.0001
 51
15.477555
  0
ARC
  5
104
330
1F
100
AcDbEntity
  8
LC-001-100-D00-0
 62
     7
370
    50
100
AcDbCircle
 10
201.022309
 20
170.633224
 30
0.0
 40
24.99999999992549
100
AcDbArc
 50
344.966487
 51
0.0
  0
LINE
  5
105
330
1F
100
AcDbEntity
  8
LC-001-100-D00-0
 62
     7
370
    50
100
AcDbLine
 10
225.166666
 20
164.148624
 30
0.0
 11
224.121356
 21
160.256582
 31
0.0
  0
ARC
  5
106
330
1F
100
AcDbEntity
  8
LC-001-100-D00-0
 62
     7
370
    50
100
AcDbCircle
 10
233.779099
 20
157.662743
 30
0.0
 40
9.999999999959183
100
AcDbArc
 50
164.966487
 51
196.60687
  0
LINE
  5
107
330
1F
100
AcDbEntity
  8
LC-001-100-D00-0
 62
     7
370
    50
100
AcDbLine
 10
224.196216
 20
154.80471
 30
0.0
 11
225.452456
 21
150.59258
 31
0.0
  0
ARC
  5
108
330
1F
100
AcDbEntity
  8
LC-001-100-D00-0
 62
     7
370
    50
100
AcDbCircle
 10
201.495248
 20
143.447499
 30
0.0
 40
24.99999999994671
100
AcDbArc
 50
355.541158
 51
16.60687
  0
LINE
  5
109
330
1F
100
AcDbEntity
  8
LC-001-100-D00-0
 62
     7
370
    50
100
AcDbLine
 10
226.419584
 20
141.503924
 30
0.0
 11
225.910229
 21
134.971969
 31
0.0
  0
LINE
  5
10A
330
1F
100
AcDbEntity
  8
LC-001-100-D00-0
 62
     7
370
    50
100
AcDbLine
 10
225.910229
 20
134.971969
 30
0.0
 11
229.910229
 21
134.971969
 31
0.0
  0
LINE
  5
10B
330
1F
100
AcDbEntity
  8
LC-001-100-D00-0
 62
     7
370
    50
100
AcDbLine
 10
229.910229
 20
134.971969
 30
0.0
 11
230.419588
 21
141.504154
 31
0.0
  0
ARC
  5
10C
330
1F
100
AcDbEntity
  8
LC-001-100-D00-0
 62
     7
370
    50
100
AcDbCircle
 10
205.495248
 20
143.447675
 30
0.0
 40
24.9999999992539
100
AcDbArc
 50
355.541279
 51
359.999652
  0
ARC
  5
10D
330
1F
100
AcDbEntity
  8
LC-001-100-D00-0
 62
     7
370
    50
100
AcDbCircle
 10
205.495248
 20
143.447433
 30
0.0
 40
24.99999999949458
100
AcDbArc
 50
0.000206
 51
16.606392
  0
LINE
  5
10E
330
1F
100
AcDbEntity
  8
LC-001-100-D00-0
 62
     7
370
    50
100
AcDbLine
 10
229.452516
 20
150.592316
 30
0.0
 11
228.196201
 21
154.804823
 31
0.0
  0
ARC
  5
10F
330
1F
100
AcDbEntity
  8
LC-001-100-D00-0
 62
     7
370
    50
100
AcDbCircle
 10
237.779108
 20
157.662776
 30
0.0
 40
9.999999999941878
100
AcDbArc
 50
164.966487
 51
196.606392
  0
LINE
  5
110
330
1F
100
AcDbEntity
  8
LC-001-100-D00-0
 62
     7
370
    50
100
AcDbLine
 10
228.121365
 20
160.256616
 30
0.0
 11
229.166666
 21
164.148624
 31
0.0
  0
ARC
  5
111
330
1F
100
AcDbEntity
  8
LC-001-100-D00-0
 62
     7
370
    50
100
AcDbCircle
 10
205.022309
 20
170.633224
 30
0.0
 40
24.99999999992549
100
AcDbArc
 50
344.966487
 51
359.998461
  0
ARC
  5
112
330
1F
100
AcDbEntity
  8
LC-001-100-D00-0
 62
     7
370
    50
100
AcDbCircle
 10
205.022309
 20
170.633182
 30
0.0
 40
24.99999999885308
100
AcDbArc
 50
359.998559
 51
15.478099
  0
LINE
  5
113
330
1F
100
AcDbEntity
  8
LC-001-100-D00-0
 62
     7
370
    50
100
AcDbLine
 10
229.115623
 20
177.304932
 30
0.0
 11
228.580019
 21
179.239129
 31
0.0
  0
ARC
  5
114
330
1F
100
AcDbEntity
  8
LC-001-100-D00-0
 62
     7
370
    50
100
AcDbCircle
 10
252.673332
 20
185.910879
 30
0.0
 40
24.99999975968027
100
AcDbArc
 50
165.096068
 51
195.478099
  0
LINE
  5
115
330
1F
100
AcDbEntity
  8
LC-001-100-D00-0
 62
     7
370
    50
100
AcDbLine
 10
228.514372
 20
192.340856
 30
0.0
 11
228.525639
 21
192.383189
 31
0.0
  0
ARC
  5
116
330
1F
100
AcDbEntity
  8
LC-001-100-D00-0
 62
     7
370
    50
100
AcDbCircle
 10
204.366678
 20
198.813167
 30
0.0
 40
24.99999952032871
100
AcDbArc
 50
345.096068
 51
0.401635
  0
ARC
  5
117
330
1F
100
AcDbEntity
  8
LC-001-100-D00-0
 62
     7
370
    50
100
AcDbCircle
 10
204.366678
 20
198.813098
 30
0.0
 40
24.99999999993991
100
AcDbArc
 50
0.401792
 51
9.575952
  0
LINE
  5
118
330
1F
100
AcDbEntity
  8
LC-001-100-D00-0
 62
     7
370
    50
100
AcDbLine
 10
229.018327
 20
202.971972
 30
0.0
 11
225.018327
 21
202.971972
 31
0.0
  0
ARC
  5
119
330
1F
100
AcDbEntity
  8
LC-001-100-D00-0
 62
     7
370
    50
100
AcDbCircle
 10
200.366678
 20
198.813098
 30
0.0
 40
24.99999999993957
100
AcDbArc
 50
0.271226
 51
9.575952
  0
ARC
  5
11A
330
1F
100
AcDbEntity
  8
LC-001-100-D00-0
 62
     7
370
    50
100
AcDbCircle
 10
200.366678
 20
198.813208
 30
0.0
 40
24.99999948174784
100
AcDbArc
 50
345.118825
 51
0.270975
  0
LINE
  5
11B
330
1F
100
AcDbEntity
  8
LC-001-100-D00-0
 62
     7
370
    50
100
AcDbLine
 10
224.528191
 20
192.392826
 30
0.0
 11
224.511835
 21
192.331277
 31
0.0
  0
ARC
  5
11C
330
1F
100
AcDbEntity
  8
LC-001-100-D00-0
 62
     7
370
    50
100
AcDbCircle
 10
248.673347
 20
185.910895
 30
0.0
 40
25.00000000000009
100
AcDbArc
 50
165.118825
 51
195.477555
  0
LINE
  5
11D
330
1F
100
AcDbEntity
  8
LC-001-100-D00-0
 62
     7
370
    50
100
AcDbLine
 10
211.622578
 20
200.729176
 30
0.0
 11
211.487489
 21
198.171109
 31
0.0
  0
ARC
  5
11E
330
1F
100
AcDbEntity
  8
LC-001-100-D00-0
 62
     7
370
    50
100
AcDbCircle
 10
236.452701
 20
196.852716
 30
0.0
 40
24.99999999969077
100
AcDbArc
 50
176.977065
 51
188.779904
  0
LINE
  5
11F
330
1F
100
AcDbEntity
  8
LC-001-100-D00-0
 62
     7
370
    50
100
AcDbLine
 10
211.745652
 20
193.036735
 30
0.0
 11
212.423547
 21
188.647617
 31
0.0
  0
ARC
  5
120
330
1F
100
AcDbEntity
  8
LC-001-100-D00-0
 62
     7
370
    50
100
AcDbCircle
 10
187.716497
 20
184.831637
 30
0.0
 40
24.99999999993205
100
AcDbArc
 50
350.178005
 51
8.779904
  0
LINE
  5
121
330
1F
100
AcDbEntity
  8
LC-001-100-D00-0
 62
     7
370
    50
100
AcDbLine
 10
212.350059
 20
180.566942
 30
0.0
 11
211.457735
 21
175.41273
 31
0.0
  0
ARC
  5
122
330
1F
100
AcDbEntity
  8
LC-001-100-D00-0
 62
     7
370
    50
100
AcDbCircle
 10
236.091297
 20
171.148036
 30
0.0
 40
24.99999999996027
100
AcDbArc
 50
170.178005
 51
193.445111
  0
LINE
  5
123
330
1F
100
AcDbEntity
  8
LC-001-100-D00-0
 62
     7
370
    50
100
AcDbLine
 10
211.776469
 20
165.335193
 30
0.0
 11
211.848839
 21
165.03247
 31
0.0
  0
ARC
  5
124
330
1F
100
AcDbEntity
  8
LC-001-100-D00-0
 62
     7
370
    50
100
AcDbCircle
 10
192.396977
 20
160.382196
 30
0.0
 40
19.99999999974909
100
AcDbArc
 50
0.000188
 51
13.445111
  0
ARC
  5
125
330
1F
100
AcDbEntity
  8
LC-001-100-D00-0
 62
     7
370
    50
100
AcDbCircle
 10
192.396977
 20
160.382335
 30
0.0
 40
19.99999999984147
100
AcDbArc
 50
348.106917
 51
359.99979
  0
LINE
  5
126
330
1F
100
AcDbEntity
  8
LC-001-100-D00-0
 62
     7
370
    50
100
AcDbLine
 10
211.967655
 20
156.260613
 30
0.0
 11
211.444741
 21
153.777725
 31
0.0
  0
ARC
  5
127
330
1F
100
AcDbEntity
  8
LC-001-100-D00-0
 62
     7
370
    50
100
AcDbCircle
 10
235.908088
 20
148.625573
 30
0.0
 40
24.99999999992155
100
AcDbArc
 50
168.106917
 51
187.168196
  0
LINE
  5
128
330
1F
100
AcDbEntity
  8
LC-001-100-D00-0
 62
     7
370
    50
100
AcDbLine
 10
211.103485
 20
145.506011
 30
0.0
 11
212.428304
 21
134.971969
 31
0.0
  0
LINE
  5
129
330
1F
100
AcDbEntity
  8
LC-001-100-D00-0
 62
     7
370
    50
100
AcDbLine
 10
212.428304
 20
134.971969
 30
0.0
 11
216.75161
 21
134.971969
 31
0.0
  0
LINE
  5
12A
330
1F
100
AcDbEntity
  8
LC-001-100-D00-0
 62
     7
370
    50
100
AcDbLine
 10
216.75161
 20
134.971969
 30
0.0
 11
216.75161
 21
136.195276
 31
0.0
  0
LINE
  5
12B
330
1F
100
AcDbEntity
  8
LC-001-100-D00-0
 62
     7
370
    50
100
AcDbLine
 10
216.75161
 20
136.195276
 30
0.0
 11
215.979866
 21
141.037481
 31
0.0
  0
ARC
  5
12C
330
1F
100
AcDbEntity
  8
LC-001-100-D00-0
 62
     7
370
    50
100
AcDbCircle
 10
240.668272
 20
144.97228
 30
0.0
 40
24.99999999996261
100
AcDbArc
 50
166.876646
 51
189.055549
  0
LINE
  5
12D
330
1F
100
AcDbEntity
  8
LC-001-100-D00-0
 62
     7
370
    50
100
AcDbLine
 10
216.321184
 20
150.648488
 30
0.0
 11
216.55453
 21
151.649382
 31
0.0
  0
ARC
  5
12E
330
1F
100
AcDbEntity
  8
LC-001-100-D00-0
 62
     7
370
    50
100
AcDbCircle
 10
192.207442
 20
157.32559
 30
0.0
 40
24.99999999999962
100
AcDbArc
 50
346.876646
 51
359.997533
  0
ARC
  5
12F
330
1F
100
AcDbEntity
  8
LC-001-100-D00-0
 62
     7
370
    50
100
AcDbCircle
 10
192.207442
 20
157.325505
 30
0.0
 40
24.99999999633797
100
AcDbArc
 50
359.997727
 51
12.237139
  0
LINE
  5
130
330
1F
100
AcDbEntity
  8
LC-001-100-D00-0
 62
     7
370
    50
100
AcDbLine
 10
216.63941
 20
162.624462
 30
0.0
 11
216.372958
 21
163.852994
 31
0.0
  0
ARC
  5
131
330
1F
100
AcDbEntity
  8
LC-001-100-D00-0
 62
     7
370
    50
100
AcDbCircle
 10
240.804926
 20
169.151951
 30
0.0
 40
24.99999999995783
100
AcDbArc
 50
170.654748
 51
192.237139
  0
LINE
  5
132
330
1F
100
AcDbEntity
  8
LC-001-100-D00-0
 62
     7
370
    50
100
AcDbLine
 10
216.136732
 20
173.211531
 30
0.0
 11
216.614651
 21
176.115624
 31
0.0
  0
ARC
  5
133
330
1F
100
AcDbEntity
  8
LC-001-100-D00-0
 62
     7
370
    50
100
AcDbCircle
 10
191.946456
 20
180.175204
 30
0.0
 40
24.99999999982043
100
AcDbArc
 50
350.654748
 51
359.999961
  0
ARC
  5
134
330
1F
100
AcDbEntity
  8
LC-001-100-D00-0
 62
     7
370
    50
100
AcDbCircle
 10
191.946456
 20
180.175128
 30
0.0
 40
25.00000000000014
100
AcDbArc
 50
0.000135
 51
7.465754
  0
LINE
  5
135
330
1F
100
AcDbEntity
  8
LC-001-100-D00-0
 62
     7
370
    50
100
AcDbLine
 10
216.734524
 20
183.423467
 30
0.0
 11
215.958498
 21
189.345319
 31
0.0
  0
ARC
  5
136
330
1F
100
AcDbEntity
  8
LC-001-100-D00-0
 62
     7
370
    50
100
AcDbCircle
 10
240.746565
 20
192.593659
 30
0.0
 40
24.99999999994784
100
AcDbArc
 50
177.369238
 51
187.465754
  0
LINE
  5
137
330
1F
100
AcDbEntity
  8
LC-001-100-D00-0
 62
     7
370
    50
100
AcDbLine
 10
215.772914
 20
193.741143
 30
0.0
 11
215.99099
 21
198.487326
 31
0.0
  0
ARC
  5
138
330
1F
100
AcDbEntity
  8
LC-001-100-D00-0
 62
     7
370
    50
100
AcDbCircle
 10
191.017338
 20
199.634809
 30
0.0
 40
24.99999999700685
100
AcDbArc
 50
357.369238
 51
359.999744
  0
ARC
  5
139
330
1F
100
AcDbEntity
  8
LC-001-100-D00-0
 62
     7
370
    50
100
AcDbCircle
 10
191.017338
 20
199.634424
 30
0.0
 40
24.99999999990295
100
AcDbArc
 50
0.000627
 51
7.671999
  0
LINE
  5
13A
330
1F
100
AcDbEntity
  8
LC-001-100-D00-0
 62
     7
370
    50
100
AcDbLine
 10
215.793552
 20
202.971972
 30
0.0
 11
211.64027
 21
202.971972
 31
0.0
  0
ARC
  5
13B
330
1F
100
AcDbEntity
  8
LC-001-100-D00-0
 62
     7
370
    50
100
AcDbCircle
 10
186.657365
 20
202.04757
 30
0.0
 40
24.99999999999969
100
AcDbArc
 50
356.977065
 51
2.119054
  0
ARC
  5
13C
330
1F
100
AcDbEntity
  8
LC-001-100-D00-0
 62
     7
370
    50
100
AcDbCircle
 10
229.138874
 20
162.739758
 30
0.0
 40
24.99999999994377
100
AcDbArc
 50
0.000199
 51
15.145995
  0
LINE
  5
13D
330
1F
100
AcDbEntity
  8
LC-001-100-D00-0
 62
     7
370
    50
100
AcDbLine
 10
253.270453
 20
169.271745
 30
0.0
 11
252.332239
 21
172.737865
 31
0.0
  0
ARC
  5
13E
330
1F
100
AcDbEntity
  8
LC-001-100-D00-0
 62
     7
370
    50
100
AcDbCircle
 10
271.637502
 20
177.963454
 30
0.0
 40
19.99999999998016
100
AcDbArc
 50
163.8449
 51
195.145995
  0
LINE
  5
13F
330
1F
100
AcDbEntity
  8
LC-001-100-D00-0
 62
     7
370
    50
100
AcDbLine
 10
252.42726
 20
183.528224
 30
0.0
 11
252.663774
 21
184.3447
 31
0.0
  0
ARC
  5
140
330
1F
100
AcDbEntity
  8
LC-001-100-D00-0
 62
     7
370
    50
100
AcDbCircle
 10
228.650975
 20
191.300663
 30
0.0
 40
25.00000000000014
100
AcDbArc
 50
343.8449
 51
16.568063
  0
LINE
  5
141
330
1F
100
AcDbEntity
  8
LC-001-100-D00-0
 62
     7
370
    50
100
AcDbLine
 10
252.613017
 20
198.429515
 30
0.0
 11
252.408063
 21
199.118417
 31
0.0
  0
ARC
  5
142
330
1F
100
AcDbEntity
  8
LC-001-100-D00-0
 62
     7
370
    50
100
AcDbCircle
 10
276.370107
 20
206.247271
 30
0.0
 40
24.999999999977
100
AcDbArc
 50
187.528076
 51
196.568063
  0
LINE
  5
143
330
1F
100
AcDbEntity
  8
LC-001-100-D00-0
 62
     7
370
    50
100
AcDbLine
 10
251.585588
 20
202.971972
 30
0.0
 11
247.585593
 21
202.971972
 31
0.0
  0
ARC
  5
144
330
1F
100
AcDbEntity
  8
LC-001-100-D00-0
 62
     7
370
    50
100
AcDbCircle
 10
272.370115
 20
206.247242
 30
0.0
 40
24.99999999189414
100
AcDbArc
 50
187.528009
 51
196.566616
  0
LINE
  5
145
330
1F
100
AcDbEntity
  8
LC-001-100-D00-0
 62
     7
370
    50
100
AcDbLine
 10
248.407893
 20
199.118992
 30
0.0
 11
248.613197
 21
198.428847
 31
0.0
  0
ARC
  5
146
330
1F
100
AcDbEntity
  8
LC-001-100-D00-0
 62
     7
370
    50
100
AcDbCircle
 10
224.650975
 20
191.300599
 30
0.0
 40
24.99999999057116
100
AcDbArc
 50
359.996045
 51
16.566616
  0
ARC
  5
147
330
1F
100
AcDbEntity
  8
LC-001-100-D00-0
 62
     7
370
    50
100
AcDbCircle
 10
224.650975
 20
191.300698
 30
0.0
 40
24.99999999765959
100
AcDbArc
 50
343.845564
 51
359.995818
  0
LINE
  5
148
330
1F
100
AcDbEntity
  8
LC-001-100-D00-0
 62
     7
370
    50
100
AcDbLine
 10
248.663856
 20
184.345014
 30
0.0
 11
248.427207
 21
183.528035
 31
0.0
  0
ARC
  5
149
330
1F
100
AcDbEntity
  8
LC-001-100-D00-0
 62
     7
370
    50
100
AcDbCircle
 10
267.637511
 20
177.963488
 30
0.0
 40
19.99999999975682
100
AcDbArc
 50
163.845564
 51
195.145706
  0
LINE
  5
14A
330
1F
100
AcDbEntity
  8
LC-001-100-D00-0
 62
     7
370
    50
100
AcDbLine
 10
248.332221
 20
172.737995
 30
0.0
 11
249.270488
 21
169.271624
 31
0.0
  0
ARC
  5
14B
330
1F
100
AcDbEntity
  8
LC-001-100-D00-0
 62
     7
370
    50
100
AcDbCircle
 10
225.138874
 20
162.739758
 30
0.0
 40
24.99999999935842
100
AcDbArc
 50
0.000075
 51
15.145706
  0
ARC
  5
14C
330
1F
100
AcDbEntity
  8
LC-001-100-D00-0
 62
     7
370
    50
100
AcDbCircle
 10
225.138874
 20
162.739901
 30
0.0
 40
24.9999999995654
100
AcDbArc
 50
350.3569
 51
359.999748
  0
LINE
  5
14D
330
1F
100
AcDbEntity
  8
LC-001-100-D00-0
 62
     7
370
    50
100
AcDbLine
 10
249.785632
 20
158.552141
 30
0.0
 11
248.909287
 21
153.39448
 31
0.0
  0
ARC
  5
14E
330
1F
100
AcDbEntity
  8
LC-001-100-D00-0
 62
     7
370
    50
100
AcDbCircle
 10
273.556045
 20
149.20672
 30
0.0
 40
24.99999999997782
100
AcDbArc
 50
170.3569
 51
184.873054
  0
LINE
  5
14F
330
1F
100
AcDbEntity
  8
LC-001-100-D00-0
 62
     7
370
    50
100
AcDbLine
 10
248.646412
 20
147.083012
 30
0.0
 11
249.678956
 21
134.971969
 31
0.0
  0
LINE
  5
150
330
1F
100
AcDbEntity
  8
LC-001-100-D00-0
 62
     7
370
    50
100
AcDbLine
 10
249.678956
 20
134.971969
 30
0.0
 11
253.678957
 21
134.971969
 31
0.0
  0
LINE
  5
151
330
1F
100
AcDbEntity
  8
LC-001-100-D00-0
 62
     7
370
    50
100
AcDbLine
 10
253.678957
 20
134.971969
 30
0.0
 11
252.646407
 21
147.083061
 31
0.0
  0
ARC
  5
152
330
1F
100
AcDbEntity
  8
LC-001-100-D00-0
 62
     7
370
    50
100
AcDbCircle
 10
277.556041
 20
149.206768
 30
0.0
 40
24.99999999991466
100
AcDbArc
 50
170.356766
 51
184.873054
  0
LINE
  5
153
330
1F
100
AcDbEntity
  8
LC-001-100-D00-0
 62
     7
370
    50
100
AcDbLine
 10
252.909293
 20
153.394586
 30
0.0
 11
253.785623
 21
158.552083
 31
0.0
  0
ARC
  5
154
330
1F
100
AcDbEntity
  8
LC-001-100-D00-0
 62
     7
370
    50
100
AcDbCircle
 10
229.138874
 20
162.739901
 30
0.0
 40
24.99999999984188
100
AcDbArc
 50
350.356766
 51
359.999872
  0
LINE
  5
155
330
1F
100
AcDbEntity
  8
LC-001-100-D00-0
 62
     7
370
    50
100
AcDbLine
 10
242.11264
 20
145.248832
 30
0.0
 11
242.876653
 21
151.510879
 31
0.0
  0
ARC
  5
156
330
1F
100
AcDbEntity
  8
LC-001-100-D00-0
 62
     7
370
    50
100
AcDbCircle
 10
213.097475
 20
155.144143
 30
0.0
 40
29.99999999973445
100
AcDbArc
 50
353.043903
 51
359.9999
  0
ARC
  5
157
330
1F
100
AcDbEntity
  8
LC-001-100-D00-0
 62
     7
370
    50
100
AcDbCircle
 10
213.097475
 20
155.144035
 30
0.0
 40
29.99999999993729
100
AcDbArc
 50
0.000107
 51
11.917533
  0
LINE
  5
158
330
1F
100
AcDbEntity
  8
LC-001-100-D00-0
 62
     7
370
    50
100
AcDbLine
 10
242.45085
 20
161.339143
 30
0.0
 11
240.618842
 21
170.019481
 31
0.0
  0
ARC
  5
159
330
1F
100
AcDbEntity
  8
LC-001-100-D00-0
 62
     7
370
    50
100
AcDbCircle
 10
260.187759
 20
174.149553
 30
0.0
 40
20.00000000000014
100
AcDbArc
 50
168.037733
 51
191.917533
  0
LINE
  5
15A
330
1F
100
AcDbEntity
  8
LC-001-100-D00-0
 62
     7
370
    50
100
AcDbLine
 10
240.622072
 20
178.294903
 30
0.0
 11
241.804453
 21
183.875634
 31
0.0
  0
ARC
  5
15B
330
1F
100
AcDbEntity
  8
LC-001-100-D00-0
 62
     7
370
    50
100
AcDbCircle
 10
212.455923
 20
190.093659
 30
0.0
 40
29.99999999992009
100
AcDbArc
 50
348.037733
 51
359.999959
  0
ARC
  5
15C
330
1F
100
AcDbEntity
  8
LC-001-100-D00-0
 62
     7
370
    50
100
AcDbCircle
 10
212.455923
 20
190.093605
 30
0.0
 40
29.99999999997856
100
AcDbArc
 50
0.000062
 51
10.534656
  0
LINE
  5
15D
330
1F
100
AcDbEntity
  8
LC-001-100-D00-0
 62
     7
370
    50
100
AcDbLine
 10
241.950259
 20
195.578512
 30
0.0
 11
240.575336
 21
202.971972
 31
0.0
  0
LINE
  5
15E
330
1F
100
AcDbEntity
  8
LC-001-100-D00-0
 62
     7
370
    50
100
AcDbLine
 10
240.575336
 20
202.971972
 30
0.0
 11
236.575326
 21
202.971972
 31
0.0
  0
LINE
  5
15F
330
1F
100
AcDbEntity
  8
LC-001-100-D00-0
 62
     7
370
    50
100
AcDbLine
 10
236.575326
 20
202.971972
 30
0.0
 11
238.313884
 21
193.623062
 31
0.0
  0
ARC
  5
160
330
1F
100
AcDbEntity
  8
LC-001-100-D00-0
 62
     7
370
    50
100
AcDbCircle
 10
218.650988
 20
189.966481
 30
0.0
 40
19.99999999982234
100
AcDbArc
 50
0.000338
 51
10.534587
  0
ARC
  5
161
330
1F
100
AcDbEntity
  8
LC-001-100-D00-0
 62
     7
370
    50
100
AcDbCircle
 10
218.650988
 20
189.966637
 30
0.0
 40
19.99999999966348
100
AcDbArc
 50
348.037855
 51
359.999891
  0
LINE
  5
162
330
1F
100
AcDbEntity
  8
LC-001-100-D00-0
 62
     7
370
    50
100
AcDbLine
 10
238.216683
 20
185.821328
 30
0.0
 11
237.060351
 21
180.363489
 31
0.0
  0
ARC
  5
163
330
1F
100
AcDbEntity
  8
LC-001-100-D00-0
 62
     7
370
    50
100
AcDbCircle
 10
266.408895
 20
174.145528
 30
0.0
 40
29.99999999999111
100
AcDbArc
 50
168.037855
 51
191.91741
  0
LINE
  5
164
330
1F
100
AcDbEntity
  8
LC-001-100-D00-0
 62
     7
370
    50
100
AcDbLine
 10
237.055507
 20
167.950483
 30
0.0
 11
238.794087
 21
159.712736
 31
0.0
  0
ARC
  5
165
330
1F
100
AcDbEntity
  8
LC-001-100-D00-0
 62
     7
370
    50
100
AcDbCircle
 10
219.22516
 20
155.582706
 30
0.0
 40
19.99999999985606
100
AcDbArc
 50
0.000193
 51
11.91741
  0
ARC
  5
166
330
1F
100
AcDbEntity
  8
LC-001-100-D00-0
 62
     7
370
    50
100
AcDbCircle
 10
219.22516
 20
155.582794
 30
0.0
 40
19.99999999994355
100
AcDbArc
 50
353.043763
 51
359.999943
  0
LINE
  5
167
330
1F
100
AcDbEntity
  8
LC-001-100-D00-0
 62
     7
370
    50
100
AcDbLine
 10
239.077939
 20
153.16057
 30
0.0
 11
238.417383
 21
147.746595
 31
0.0
  0
ARC
  5
168
330
1F
100
AcDbEntity
  8
LC-001-100-D00-0
 62
     7
370
    50
100
AcDbCircle
 10
268.196552
 20
144.113259
 30
0.0
 40
29.99999999991762
100
AcDbArc
 50
173.043763
 51
197.740695
  0
LINE
  5
169
330
1F
100
AcDbEntity
  8
LC-001-100-D00-0
 62
     7
370
    50
100
AcDbLine
 10
239.623193
 20
134.971969
 30
0.0
 11
243.56138
 21
134.971969
 31
0.0
  0
LINE
  5
16A
330
1F
100
AcDbEntity
  8
LC-001-100-D00-0
 62
     7
370
    50
100
AcDbLine
 10
243.56138
 20
134.971969
 30
0.0
 11
243.330315
 21
135.564927
 31
0.0
  0
ARC
  5
16B
330
1F
100
AcDbEntity
  8
LC-001-100-D00-0
 62
     7
370
    50
100
AcDbCircle
 10
261.965425
 20
142.826657
 30
0.0
 40
19.99999999996243
100
AcDbArc
 50
173.043903
 51
201.289866
  0
ARC
  5
16C
330
1F
100
AcDbEntity
  8
LC-001-100-D00-0
 62
     7
370
    25
100
AcDbCircle
 10
233.901632
 20
129.185396
 30
0.0
 40
0.651700000000119
100
AcDbArc
 50
270.0
 51
0.0
  0
LINE
  5
16D
330
1F
100
AcDbEntity
  8
LC-001-100-D00-0
 62
     7
370
    25
100
AcDbLine
 10
234.553333
 20
131.140496
 30
0.0
 11
234.553333
 21
129.185397
 31
0.0
  0
ARC
  5
16E
330
1F
100
AcDbEntity
  8
LC-001-100-D00-0
 62
     7
370
    25
100
AcDbCircle
 10
233.901632
 20
131.140496
 30
0.0
 40
0.6517000000002895
100
AcDbArc
 50
0.0
 51
90.0
  0
LINE
  5
16F
330
1F
100
AcDbEntity
  8
LC-001-100-D00-0
 62
     7
370
    25
100
AcDbLine
 10
232.225832
 20
131.792195
 30
0.0
 11
233.901632
 21
131.792195
 31
0.0
  0
LINE
  5
170
330
1F
100
AcDbEntity
  8
LC-001-100-D00-0
 62
     7
370
    25
100
AcDbLine
 10
232.225832
 20
131.792195
 30
0.0
 11
232.225832
 21
128.533695
 31
0.0
  0
LINE
  5
171
330
1F
100
AcDbEntity
  8
LC-001-100-D00-0
 62
     7
370
    25
100
AcDbLine
 10
232.225832
 20
128.533695
 30
0.0
 11
233.901632
 21
128.533695
 31
0.0
  0
LINE
  5
172
330
1F
100
AcDbEntity
  8
LC-001-100-D00-0
 62
     7
370
    25
100
AcDbLine
 10
235.018832
 20
131.140496
 30
0.0
 11
235.018832
 21
128.47197
 31
0.0
  0
LINE
  5
173
330
1F
100
AcDbEntity
  8
LC-001-100-D00-0
 62
     7
370
    25
100
AcDbLine
 10
235.018832
 20
128.47197
 30
0.0
 11
235.949832
 21
128.47197
 31
0.0
  0
LINE
  5
174
330
1F
100
AcDbEntity
  8
LC-001-100-D00-0
 62
     7
370
    25
100
AcDbLine
 10
235.949832
 20
129.402969
 30
0.0
 11
235.949832
 21
128.47197
 31
0.0
  0
LINE
  5
175
330
1F
100
AcDbEntity
  8
LC-001-100-D00-0
 62
     7
370
    25
100
AcDbLine
 10
235.949832
 20
129.402969
 30
0.0
 11
236.880831
 21
129.402969
 31
0.0
  0
LINE
  5
176
330
1F
100
AcDbEntity
  8
LC-001-100-D00-0
 62
     7
370
    25
100
AcDbLine
 10
236.880831
 20
129.402969
 30
0.0
 11
236.880831
 21
128.47197
 31
0.0
  0
LINE
  5
177
330
1F
100
AcDbEntity
  8
LC-001-100-D00-0
 62
     7
370
    25
100
AcDbLine
 10
236.880831
 20
128.47197
 30
0.0
 11
237.811832
 21
128.47197
 31
0.0
  0
LINE
  5
178
330
1F
100
AcDbEntity
  8
LC-001-100-D00-0
 62
     7
370
    25
100
AcDbLine
 10
237.811832
 20
131.140496
 30
0.0
 11
237.811832
 21
128.47197
 31
0.0
  0
ARC
  5
179
330
1F
100
AcDbEntity
  8
LC-001-100-D00-0
 62
     7
370
    25
100
AcDbCircle
 10
237.160132
 20
131.140496
 30
0.0
 40
0.6517000000000053
100
AcDbArc
 50
0.0
 51
90.0
  0
LINE
  5
17A
330
1F
100
AcDbEntity
  8
LC-001-100-D00-0
 62
     7
370
    25
100
AcDbLine
 10
235.670532
 20
131.792195
 30
0.0
 11
237.160131
 21
131.792195
 31
0.0
  0
ARC
  5
17B
330
1F
100
AcDbEntity
  8
LC-001-100-D00-0
 62
     7
370
    25
100
AcDbCircle
 10
235.670532
 20
131.140496
 30
0.0
 40
0.6517000000000053
100
AcDbArc
 50
90.0
 51
180.0
  0
LINE
  5
17C
330
1F
100
AcDbEntity
  8
LC-001-100-D00-0
 62
     7
370
    25
100
AcDbLine
 10
240.604833
 20
128.47197
 30
0.0
 11
242.466832
 21
128.47197
 31
0.0
  0
LINE
  5
17D
330
1F
100
AcDbEntity
  8
LC-001-100-D00-0
 62
     7
370
    25
100
AcDbLine
 10
242.466832
 20
129.402969
 30
0.0
 11
242.466832
 21
128.47197
 31
0.0
  0
LINE
  5
17E
330
1F
100
AcDbEntity
  8
LC-001-100-D00-0
 62
     7
370
    25
100
AcDbLine
 10
241.535831
 20
129.402969
 30
0.0
 11
242.466832
 21
129.402969
 31
0.0
  0
LINE
  5
17F
330
1F
100
AcDbEntity
  8
LC-001-100-D00-0
 62
     7
370
    25
100
AcDbLine
 10
241.535831
 20
131.792195
 30
0.0
 11
241.535831
 21
129.402969
 31
0.0
  0
LINE
  5
180
330
1F
100
AcDbEntity
  8
LC-001-100-D00-0
 62
     7
370
    25
100
AcDbLine
 10
240.604833
 20
131.792195
 30
0.0
 11
241.535831
 21
131.792195
 31
0.0
  0
LINE
  5
181
330
1F
100
AcDbEntity
  8
LC-001-100-D00-0
 62
     7
370
    25
100
AcDbLine
 10
240.604833
 20
131.792195
 30
0.0
 11
240.604833
 21
128.47197
 31
0.0
  0
LINE
  5
182
330
1F
100
AcDbEntity
  8
LC-001-100-D00-0
 62
     7
370
    25
100
AcDbLine
 10
249.914832
 20
129.216771
 30
0.0
 11
249.914832
 21
128.47197
 31
0.0
  0
LINE
  5
183
330
1F
100
AcDbEntity
  8
LC-001-100-D00-0
 62
     7
370
    25
100
AcDbLine
 10
248.518333
 20
129.216771
 30
0.0
 11
249.914832
 21
129.216771
 31
0.0
  0
LINE
  5
184
330
1F
100
AcDbEntity
  8
LC-001-100-D00-0
 62
     7
370
    25
100
AcDbLine
 10
248.518333
 20
129.759684
 30
0.0
 11
248.518333
 21
129.216771
 31
0.0
  0
LINE
  5
185
330
1F
100
AcDbEntity
  8
LC-001-100-D00-0
 62
     7
370
    25
100
AcDbLine
 10
249.914832
 20
129.759684
 30
0.0
 11
248.518333
 21
129.759684
 31
0.0
  0
LINE
  5
186
330
1F
100
AcDbEntity
  8
LC-001-100-D00-0
 62
     7
370
    25
100
AcDbLine
 10
249.914832
 20
130.504485
 30
0.0
 11
249.914832
 21
129.759684
 31
0.0
  0
LINE
  5
187
330
1F
100
AcDbEntity
  8
LC-001-100-D00-0
 62
     7
370
    25
100
AcDbLine
 10
249.914832
 20
130.504485
 30
0.0
 11
248.518333
 21
130.504485
 31
0.0
  0
LINE
  5
188
330
1F
100
AcDbEntity
  8
LC-001-100-D00-0
 62
     7
370
    25
100
AcDbLine
 10
248.518333
 20
131.047394
 30
0.0
 11
248.518333
 21
130.504485
 31
0.0
  0
LINE
  5
189
330
1F
100
AcDbEntity
  8
LC-001-100-D00-0
 62
     7
370
    25
100
AcDbLine
 10
248.518333
 20
131.047394
 30
0.0
 11
249.914832
 21
131.047394
 31
0.0
  0
LINE
  5
18A
330
1F
100
AcDbEntity
  8
LC-001-100-D00-0
 62
     7
370
    25
100
AcDbLine
 10
249.914832
 20
131.792195
 30
0.0
 11
249.914832
 21
131.047394
 31
0.0
  0
LINE
  5
18B
330
1F
100
AcDbEntity
  8
LC-001-100-D00-0
 62
     7
370
    25
100
AcDbLine
 10
247.587333
 20
131.792195
 30
0.0
 11
249.914832
 21
131.792195
 31
0.0
  0
LINE
  5
18C
330
1F
100
AcDbEntity
  8
LC-001-100-D00-0
 62
     7
370
    25
100
AcDbLine
 10
247.587333
 20
131.792195
 30
0.0
 11
247.587333
 21
128.47197
 31
0.0
  0
LINE
  5
18D
330
1F
100
AcDbEntity
  8
LC-001-100-D00-0
 62
     7
370
    25
100
AcDbLine
 10
227.309714
 20
129.538603
 30
0.0
 11
227.946556
 21
127.788894
 31
0.0
  0
LINE
  5
18E
330
1F
100
AcDbEntity
  8
LC-001-100-D00-0
 62
     7
370
    25
100
AcDbLine
 10
229.696263
 20
128.425736
 30
0.0
 11
227.946556
 21
127.788894
 31
0.0
  0
LINE
  5
18F
330
1F
100
AcDbEntity
  8
LC-001-100-D00-0
 62
     7
370
    25
100
AcDbLine
 10
229.696263
 20
128.425736
 30
0.0
 11
231.445971
 21
129.062578
 31
0.0
  0
LINE
  5
190
330
1F
100
AcDbEntity
  8
LC-001-100-D00-0
 62
     7
370
    25
100
AcDbLine
 10
230.809129
 20
130.812287
 30
0.0
 11
231.445971
 21
129.062578
 31
0.0
  0
LINE
  5
191
330
1F
100
AcDbEntity
  8
LC-001-100-D00-0
 62
     7
370
    25
100
AcDbLine
 10
230.809129
 20
130.812287
 30
0.0
 11
230.172288
 21
132.561993
 31
0.0
  0
LINE
  5
192
330
1F
100
AcDbEntity
  8
LC-001-100-D00-0
 62
     7
370
    25
100
AcDbLine
 10
228.42258
 20
131.925151
 30
0.0
 11
230.172288
 21
132.561993
 31
0.0
  0
LINE
  5
193
330
1F
100
AcDbEntity
  8
LC-001-100-D00-0
 62
     7
370
    25
100
AcDbLine
 10
228.42258
 20
131.925151
 30
0.0
 11
226.672873
 21
131.288312
 31
0.0
  0
LINE
  5
194
330
1F
100
AcDbEntity
  8
LC-001-100-D00-0
 62
     7
370
    25
100
AcDbLine
 10
227.309714
 20
129.538603
 30
0.0
 11
226.672873
 21
131.288312
 31
0.0
  0
LINE
  5
195
330
1F
100
AcDbEntity
  8
LC-001-100-D00-0
 62
     7
370
    25
100
AcDbLine
 10
247.587333
 20
128.47197
 30
0.0
 11
249.914832
 21
128.47197
 31
0.0
  0
LINE
  5
196
330
1F
100
AcDbEntity
  8
LC-001-100-D00-0
 62
     7
370
    25
100
AcDbLine
 10
235.763632
 20
130.14777
 30
0.0
 11
235.763632
 21
130.628444
 31
0.0
  0
LINE
  5
197
330
1F
100
AcDbEntity
  8
LC-001-100-D00-0
 62
     7
370
    25
100
AcDbLine
 10
237.067033
 20
130.14777
 30
0.0
 11
235.763632
 21
130.14777
 31
0.0
  0
LINE
  5
198
330
1F
100
AcDbEntity
  8
LC-001-100-D00-0
 62
     7
370
    25
100
AcDbLine
 10
237.067033
 20
130.628444
 30
0.0
 11
237.067033
 21
130.14777
 31
0.0
  0
ARC
  5
199
330
1F
100
AcDbEntity
  8
LC-001-100-D00-0
 62
     7
370
    25
100
AcDbCircle
 10
236.648082
 20
130.628446
 30
0.0
 40
0.4189500000000521
100
AcDbArc
 50
0.0
 51
90.0
  0
LINE
  5
19A
330
1F
100
AcDbEntity
  8
LC-001-100-D00-0
 62
     7
370
    25
100
AcDbLine
 10
236.182582
 20
131.047394
 30
0.0
 11
236.648083
 21
131.047394
 31
0.0
  0
ARC
  5
19B
330
1F
100
AcDbEntity
  8
LC-001-100-D00-0
 62
     7
370
    25
100
AcDbCircle
 10
236.182582
 20
130.628446
 30
0.0
 40
0.4189499999999953
100
AcDbArc
 50
90.0
 51
180.0
  0
LINE
  5
19C
330
1F
100
AcDbEntity
  8
LC-001-100-D00-0
 62
     7
370
    25
100
AcDbLine
 10
237.067033
 20
128.658172
 30
0.0
 11
237.625633
 21
128.658172
 31
0.0
  0
LINE
  5
19D
330
1F
100
AcDbEntity
  8
LC-001-100-D00-0
 62
     7
370
    25
100
AcDbLine
 10
237.067033
 20
129.58917
 30
0.0
 11
237.067033
 21
128.658172
 31
0.0
  0
LINE
  5
19E
330
1F
100
AcDbEntity
  8
LC-001-100-D00-0
 62
     7
370
    25
100
AcDbLine
 10
235.763632
 20
129.58917
 30
0.0
 11
237.067033
 21
129.58917
 31
0.0
  0
LINE
  5
19F
330
1F
100
AcDbEntity
  8
LC-001-100-D00-0
 62
     7
370
    25
100
AcDbLine
 10
235.763632
 20
128.658172
 30
0.0
 11
235.763632
 21
129.58917
 31
0.0
  0
LINE
  5
1A0
330
1F
100
AcDbEntity
  8
LC-001-100-D00-0
 62
     7
370
    25
100
AcDbLine
 10
235.205032
 20
128.658172
 30
0.0
 11
235.763632
 21
128.658172
 31
0.0
  0
LINE
  5
1A1
330
1F
100
AcDbEntity
  8
LC-001-100-D00-0
 62
     7
370
    25
100
AcDbLine
 10
235.205032
 20
131.140496
 30
0.0
 11
235.205032
 21
128.658172
 31
0.0
  0
ARC
  5
1A2
330
1F
100
AcDbEntity
  8
LC-001-100-D00-0
 62
     7
370
    25
100
AcDbCircle
 10
235.670532
 20
131.140496
 30
0.0
 40
0.46550000000002
100
AcDbArc
 50
90.0
 51
180.0
  0
LINE
  5
1A3
330
1F
100
AcDbEntity
  8
LC-001-100-D00-0
 62
     7
370
    25
100
AcDbLine
 10
237.160131
 20
131.605994
 30
0.0
 11
235.670532
 21
131.605994
 31
0.0
  0
ARC
  5
1A4
330
1F
100
AcDbEntity
  8
LC-001-100-D00-0
 62
     7
370
    25
100
AcDbCircle
 10
237.160132
 20
131.140496
 30
0.0
 40
0.4655000000001337
100
AcDbArc
 50
360.0
 51
90.0
  0
LINE
  5
1A5
330
1F
100
AcDbEntity
  8
LC-001-100-D00-0
 62
     7
370
    25
100
AcDbLine
 10
237.625633
 20
128.658172
 30
0.0
 11
237.625633
 21
131.140496
 31
0.0
  0
LINE
  5
1A6
330
1F
100
AcDbEntity
  8
LC-001-100-D00-0
 62
     7
370
    25
100
AcDbLine
 10
232.970632
 20
131.047394
 30
0.0
 11
233.389582
 21
131.047394
 31
0.0
  0
LINE
  5
1A7
330
1F
100
AcDbEntity
  8
LC-001-100-D00-0
 62
     7
370
    25
100
AcDbLine
 10
232.970632
 20
129.278496
 30
0.0
 11
232.970632
 21
131.047394
 31
0.0
  0
LINE
  5
1A8
330
1F
100
AcDbEntity
  8
LC-001-100-D00-0
 62
     7
370
    25
100
AcDbLine
 10
233.389582
 20
129.278496
 30
0.0
 11
232.970632
 21
129.278496
 31
0.0
  0
ARC
  5
1A9
330
1F
100
AcDbEntity
  8
LC-001-100-D00-0
 62
     7
370
    25
100
AcDbCircle
 10
233.389582
 20
129.697446
 30
0.0
 40
0.4189500000000521
100
AcDbArc
 50
270.0
 51
0.0
  0
LINE
  5
1AA
330
1F
100
AcDbEntity
  8
LC-001-100-D00-0
 62
     7
370
    25
100
AcDbLine
 10
233.808532
 20
130.628444
 30
0.0
 11
233.808532
 21
129.697446
 31
0.0
  0
ARC
  5
1AB
330
1F
100
AcDbEntity
  8
LC-001-100-D00-0
 62
     7
370
    25
100
AcDbCircle
 10
233.389582
 20
130.628446
 30
0.0
 40
0.4189499999999953
100
AcDbArc
 50
0.0
 51
90.0
  0
LINE
  5
1AC
330
1F
100
AcDbEntity
  8
LC-001-100-D00-0
 62
     7
370
    25
100
AcDbLine
 10
232.412032
 20
131.605994
 30
0.0
 11
232.412032
 21
128.719896
 31
0.0
  0
LINE
  5
1AD
330
1F
100
AcDbEntity
  8
LC-001-100-D00-0
 62
     7
370
    25
100
AcDbLine
 10
233.901632
 20
131.605994
 30
0.0
 11
232.412032
 21
131.605994
 31
0.0
  0
ARC
  5
1AE
330
1F
100
AcDbEntity
  8
LC-001-100-D00-0
 62
     7
370
    25
100
AcDbCircle
 10
233.901632
 20
131.140496
 30
0.0
 40
0.4655000000002474
100
AcDbArc
 50
0.0
 51
90.0
  0
LINE
  5
1AF
330
1F
100
AcDbEntity
  8
LC-001-100-D00-0
 62
     7
370
    25
100
AcDbLine
 10
234.367132
 20
129.185397
 30
0.0
 11
234.367132
 21
131.140496
 31
0.0
  0
ARC
  5
1B0
330
1F
100
AcDbEntity
  8
LC-001-100-D00-0
 62
     7
370
    25
100
AcDbCircle
 10
233.901632
 20
129.185396
 30
0.0
 40
0.4655000000000769
100
AcDbArc
 50
270.0
 51
0.0
  0
LINE
  5
1B1
330
1F
100
AcDbEntity
  8
LC-001-100-D00-0
 62
     7
370
    25
100
AcDbLine
 10
232.412032
 20
128.719896
 30
0.0
 11
233.901632
 21
128.719896
 31
0.0
  0
LINE
  5
1B2
330
1F
100
AcDbEntity
  8
LC-001-100-D00-0
 62
     7
370
    25
100
AcDbLine
 10
248.332132
 20
129.03057
 30
0.0
 11
248.332132
 21
129.945885
 31
0.0
  0
LINE
  5
1B3
330
1F
100
AcDbEntity
  8
LC-001-100-D00-0
 62
     7
370
    25
100
AcDbLine
 10
249.728631
 20
129.03057
 30
0.0
 11
248.332132
 21
129.03057
 31
0.0
  0
LINE
  5
1B4
330
1F
100
AcDbEntity
  8
LC-001-100-D00-0
 62
     7
370
    25
100
AcDbLine
 10
249.728631
 20
128.658172
 30
0.0
 11
249.728631
 21
129.03057
 31
0.0
  0
LINE
  5
1B5
330
1F
100
AcDbEntity
  8
LC-001-100-D00-0
 62
     7
370
    25
100
AcDbLine
 10
247.773532
 20
128.658172
 30
0.0
 11
249.728631
 21
128.658172
 31
0.0
  0
LINE
  5
1B6
330
1F
100
AcDbEntity
  8
LC-001-100-D00-0
 62
     7
370
    25
100
AcDbLine
 10
247.773532
 20
131.605994
 30
0.0
 11
247.773532
 21
128.658172
 31
0.0
  0
LINE
  5
1B7
330
1F
100
AcDbEntity
  8
LC-001-100-D00-0
 62
     7
370
    25
100
AcDbLine
 10
249.728631
 20
131.605994
 30
0.0
 11
247.773532
 21
131.605994
 31
0.0
  0
LINE
  5
1B8
330
1F
100
AcDbEntity
  8
LC-001-100-D00-0
 62
     7
370
    25
100
AcDbLine
 10
249.728631
 20
131.233595
 30
0.0
 11
249.728631
 21
131.605994
 31
0.0
  0
LINE
  5
1B9
330
1F
100
AcDbEntity
  8
LC-001-100-D00-0
 62
     7
370
    25
100
AcDbLine
 10
248.332132
 20
131.233595
 30
0.0
 11
249.728631
 21
131.233595
 31
0.0
  0
LINE
  5
1BA
330
1F
100
AcDbEntity
  8
LC-001-100-D00-0
 62
     7
370
    25
100
AcDbLine
 10
248.332132
 20
130.318284
 30
0.0
 11
248.332132
 21
131.233595
 31
0.0
  0
LINE
  5
1BB
330
1F
100
AcDbEntity
  8
LC-001-100-D00-0
 62
     7
370
    25
100
AcDbLine
 10
249.728631
 20
130.318284
 30
0.0
 11
248.332132
 21
130.318284
 31
0.0
  0
LINE
  5
1BC
330
1F
100
AcDbEntity
  8
LC-001-100-D00-0
 62
     7
370
    25
100
AcDbLine
 10
249.728631
 20
129.945885
 30
0.0
 11
249.728631
 21
130.318284
 31
0.0
  0
LINE
  5
1BD
330
1F
100
AcDbEntity
  8
LC-001-100-D00-0
 62
     7
370
    25
100
AcDbLine
 10
248.332132
 20
129.945885
 30
0.0
 11
249.728631
 21
129.945885
 31
0.0
  0
LINE
  5
1BE
330
1F
100
AcDbEntity
  8
LC-001-100-D00-0
 62
     7
370
    25
100
AcDbLine
 10
252.242332
 20
130.628444
 30
0.0
 11
252.242332
 21
130.56672
 31
0.0
  0
ARC
  5
1BF
330
1F
100
AcDbEntity
  8
LC-001-100-D00-0
 62
     7
370
    25
100
AcDbCircle
 10
252.009582
 20
130.566721
 30
0.0
 40
0.23275000000001
100
AcDbArc
 50
270.0
 51
0.0
  0
LINE
  5
1C0
330
1F
100
AcDbEntity
  8
LC-001-100-D00-0
 62
     7
370
    25
100
AcDbLine
 10
251.311332
 20
130.333971
 30
0.0
 11
252.009584
 21
130.333971
 31
0.0
  0
LINE
  5
1C1
330
1F
100
AcDbEntity
  8
LC-001-100-D00-0
 62
     7
370
    25
100
AcDbLine
 10
251.311332
 20
130.861197
 30
0.0
 11
251.311332
 21
130.333971
 31
0.0
  0
LINE
  5
1C2
330
1F
100
AcDbEntity
  8
LC-001-100-D00-0
 62
     7
370
    25
100
AcDbLine
 10
251.311332
 20
130.861197
 30
0.0
 11
252.009584
 21
130.861197
 31
0.0
  0
ARC
  5
1C3
330
1F
100
AcDbEntity
  8
LC-001-100-D00-0
 62
     7
370
    25
100
AcDbCircle
 10
252.009582
 20
130.628446
 30
0.0
 40
0.23275000000001
100
AcDbArc
 50
0.0
 51
90.0
  0
LINE
  5
1C4
330
1F
100
AcDbEntity
  8
LC-001-100-D00-0
 62
     7
370
    25
100
AcDbLine
 10
241.349632
 20
129.216771
 30
0.0
 11
241.349632
 21
131.605994
 31
0.0
  0
LINE
  5
1C5
330
1F
100
AcDbEntity
  8
LC-001-100-D00-0
 62
     7
370
    25
100
AcDbLine
 10
242.280632
 20
128.658172
 30
0.0
 11
242.280632
 21
129.216771
 31
0.0
  0
LINE
  5
1C6
330
1F
100
AcDbEntity
  8
LC-001-100-D00-0
 62
     7
370
    25
100
AcDbLine
 10
240.791032
 20
128.658172
 30
0.0
 11
242.280632
 21
128.658172
 31
0.0
  0
LINE
  5
1C7
330
1F
100
AcDbEntity
  8
LC-001-100-D00-0
 62
     7
370
    25
100
AcDbLine
 10
240.791032
 20
131.605994
 30
0.0
 11
240.791032
 21
128.658172
 31
0.0
  0
LINE
  5
1C8
330
1F
100
AcDbEntity
  8
LC-001-100-D00-0
 62
     7
370
    25
100
AcDbLine
 10
241.349632
 20
131.605994
 30
0.0
 11
240.791032
 21
131.605994
 31
0.0
  0
LINE
  5
1C9
330
1F
100
AcDbEntity
  8
LC-001-100-D00-0
 62
     7
370
    25
100
AcDbLine
 10
242.280632
 20
129.216771
 30
0.0
 11
241.349632
 21
129.216771
 31
0.0
  0
ARC
  5
1CA
330
1F
100
AcDbEntity
  8
LC-001-100-D00-0
 62
     7
370
    25
100
AcDbCircle
 10
244.096082
 20
130.628446
 30
0.0
 40
0.4189499999999953
100
AcDbArc
 50
90.0
 51
180.0
  0
LINE
  5
1CB
330
1F
100
AcDbEntity
  8
LC-001-100-D00-0
 62
     7
370
    25
100
AcDbLine
 10
243.677132
 20
128.658172
 30
0.0
 11
243.677132
 21
130.628444
 31
0.0
  0
LINE
  5
1CC
330
1F
100
AcDbEntity
  8
LC-001-100-D00-0
 62
     7
370
    25
100
AcDbLine
 10
243.118532
 20
128.658172
 30
0.0
 11
243.677132
 21
128.658172
 31
0.0
  0
LINE
  5
1CD
330
1F
100
AcDbEntity
  8
LC-001-100-D00-0
 62
     7
370
    25
100
AcDbLine
 10
243.118532
 20
131.140496
 30
0.0
 11
243.118532
 21
128.658172
 31
0.0
  0
ARC
  5
1CE
330
1F
100
AcDbEntity
  8
LC-001-100-D00-0
 62
     7
370
    25
100
AcDbCircle
 10
243.584032
 20
131.140496
 30
0.0
 40
0.4655000000000769
100
AcDbArc
 50
90.0
 51
180.0
  0
LINE
  5
1CF
330
1F
100
AcDbEntity
  8
LC-001-100-D00-0
 62
     7
370
    25
100
AcDbLine
 10
244.570987
 20
131.605994
 30
0.0
 11
243.584031
 21
131.605994
 31
0.0
  0
ARC
  5
1D0
330
1F
100
AcDbEntity
  8
LC-001-100-D00-0
 62
     7
370
    25
100
AcDbCircle
 10
244.570987
 20
131.140496
 30
0.0
 40
0.4655000000000663
100
AcDbArc
 50
11.536959
 51
90.0
  0
ARC
  5
1D1
330
1F
100
AcDbEntity
  8
LC-001-100-D00-0
 62
     7
370
    25
100
AcDbCircle
 10
245.483177
 20
131.140496
 30
0.0
 40
0.4655000000001341
100
AcDbArc
 50
89.999998
 51
168.463041
  0
LINE
  5
1D2
330
1F
100
AcDbEntity
  8
LC-001-100-D00-0
 62
     7
370
    25
100
AcDbLine
 10
246.470133
 20
131.605994
 30
0.0
 11
245.483177
 21
131.605994
 31
0.0
  0
ARC
  5
1D3
330
1F
100
AcDbEntity
  8
LC-001-100-D00-0
 62
     7
370
    25
100
AcDbCircle
 10
246.470132
 20
131.140496
 30
0.0
 40
0.4655000000001337
100
AcDbArc
 50
0.0
 51
90.0
  0
LINE
  5
1D4
330
1F
100
AcDbEntity
  8
LC-001-100-D00-0
 62
     7
370
    25
100
AcDbLine
 10
246.935632
 20
128.658172
 30
0.0
 11
246.935632
 21
131.140496
 31
0.0
  0
LINE
  5
1D5
330
1F
100
AcDbEntity
  8
LC-001-100-D00-0
 62
     7
370
    25
100
AcDbLine
 10
246.377032
 20
128.658172
 30
0.0
 11
246.935632
 21
128.658172
 31
0.0
  0
LINE
  5
1D6
330
1F
100
AcDbEntity
  8
LC-001-100-D00-0
 62
     7
370
    25
100
AcDbLine
 10
246.377032
 20
130.628444
 30
0.0
 11
246.377032
 21
128.658172
 31
0.0
  0
ARC
  5
1D7
330
1F
100
AcDbEntity
  8
LC-001-100-D00-0
 62
     7
370
    25
100
AcDbCircle
 10
245.958082
 20
130.628446
 30
0.0
 40
0.4189500000000521
100
AcDbArc
 50
0.0
 51
90.0
  0
LINE
  5
1D8
330
1F
100
AcDbEntity
  8
LC-001-100-D00-0
 62
     7
370
    25
100
AcDbLine
 10
245.725332
 20
131.047394
 30
0.0
 11
245.958082
 21
131.047394
 31
0.0
  0
ARC
  5
1D9
330
1F
100
AcDbEntity
  8
LC-001-100-D00-0
 62
     7
370
    25
100
AcDbCircle
 10
245.725332
 20
130.628446
 30
0.0
 40
0.4189499999999953
100
AcDbArc
 50
90.0
 51
180.0
  0
LINE
  5
1DA
330
1F
100
AcDbEntity
  8
LC-001-100-D00-0
 62
     7
370
    25
100
AcDbLine
 10
245.306382
 20
128.658172
 30
0.0
 11
245.306382
 21
130.628444
 31
0.0
  0
LINE
  5
1DB
330
1F
100
AcDbEntity
  8
LC-001-100-D00-0
 62
     7
370
    25
100
AcDbLine
 10
244.747782
 20
128.658172
 30
0.0
 11
245.306382
 21
128.658172
 31
0.0
  0
LINE
  5
1DC
330
1F
100
AcDbEntity
  8
LC-001-100-D00-0
 62
     7
370
    25
100
AcDbLine
 10
244.747782
 20
130.628444
 30
0.0
 11
244.747782
 21
128.658172
 31
0.0
  0
ARC
  5
1DD
330
1F
100
AcDbEntity
  8
LC-001-100-D00-0
 62
     7
370
    25
100
AcDbCircle
 10
244.328832
 20
130.628446
 30
0.0
 40
0.418950000000109
100
AcDbArc
 50
0.0
 51
90.0
  0
LINE
  5
1DE
330
1F
100
AcDbEntity
  8
LC-001-100-D00-0
 62
     7
370
    25
100
AcDbLine
 10
244.096082
 20
131.047394
 30
0.0
 11
244.328832
 21
131.047394
 31
0.0
  0
LINE
  5
1DF
330
1F
100
AcDbEntity
  8
LC-001-100-D00-0
 62
     7
370
    25
100
AcDbLine
 10
239.022132
 20
131.605994
 30
0.0
 11
238.463532
 21
131.605994
 31
0.0
  0
LINE
  5
1E0
330
1F
100
AcDbEntity
  8
LC-001-100-D00-0
 62
     7
370
    25
100
AcDbLine
 10
239.953132
 20
129.216771
 30
0.0
 11
239.022132
 21
129.216771
 31
0.0
  0
LINE
  5
1E1
330
1F
100
AcDbEntity
  8
LC-001-100-D00-0
 62
     7
370
    25
100
AcDbLine
 10
238.463532
 20
128.658172
 30
0.0
 11
239.953132
 21
128.658172
 31
0.0
  0
LINE
  5
1E2
330
1F
100
AcDbEntity
  8
LC-001-100-D00-0
 62
     7
370
    25
100
AcDbLine
 10
238.463532
 20
131.605994
 30
0.0
 11
238.463532
 21
128.658172
 31
0.0
  0
LINE
  5
1E3
330
1F
100
AcDbEntity
  8
LC-001-100-D00-0
 62
     7
370
    25
100
AcDbLine
 10
239.022132
 20
129.216771
 30
0.0
 11
239.022132
 21
131.605994
 31
0.0
  0
LINE
  5
1E4
330
1F
100
AcDbEntity
  8
LC-001-100-D00-0
 62
     7
370
    25
100
AcDbLine
 10
239.953132
 20
128.658172
 30
0.0
 11
239.953132
 21
129.216771
 31
0.0
  0
ARC
  5
1E5
330
1F
100
AcDbEntity
  8
LC-001-100-D00-0
 62
     7
370
    25
100
AcDbCircle
 10
233.389582
 20
129.697446
 30
0.0
 40
0.2327500000000669
100
AcDbArc
 50
270.0
 51
0.0
  0
LINE
  5
1E6
330
1F
100
AcDbEntity
  8
LC-001-100-D00-0
 62
     7
370
    25
100
AcDbLine
 10
233.156832
 20
129.464697
 30
0.0
 11
233.389582
 21
129.464697
 31
0.0
  0
LINE
  5
1E7
330
1F
100
AcDbEntity
  8
LC-001-100-D00-0
 62
     7
370
    25
100
AcDbLine
 10
233.156832
 20
130.861197
 30
0.0
 11
233.156832
 21
129.464697
 31
0.0
  0
LINE
  5
1E8
330
1F
100
AcDbEntity
  8
LC-001-100-D00-0
 62
     7
370
    25
100
AcDbLine
 10
233.156832
 20
130.861197
 30
0.0
 11
233.389582
 21
130.861197
 31
0.0
  0
ARC
  5
1E9
330
1F
100
AcDbEntity
  8
LC-001-100-D00-0
 62
     7
370
    25
100
AcDbCircle
 10
233.389582
 20
130.628446
 30
0.0
 40
0.23275000000001
100
AcDbArc
 50
0.0
 51
90.0
  0
LINE
  5
1EA
330
1F
100
AcDbEntity
  8
LC-001-100-D00-0
 62
     7
370
    25
100
AcDbLine
 10
233.622332
 20
130.628444
 30
0.0
 11
233.622332
 21
129.697446
 31
0.0
  0
ARC
  5
1EB
330
1F
100
AcDbEntity
  8
LC-001-100-D00-0
 62
     7
370
    25
100
AcDbCircle
 10
236.182582
 20
130.628446
 30
0.0
 40
0.23275000000001
100
AcDbArc
 50
90.0
 51
180.0
  0
LINE
  5
1EC
330
1F
100
AcDbEntity
  8
LC-001-100-D00-0
 62
     7
370
    25
100
AcDbLine
 10
235.949832
 20
130.333971
 30
0.0
 11
236.880831
 21
130.333971
 31
0.0
  0
LINE
  5
1ED
330
1F
100
AcDbEntity
  8
LC-001-100-D00-0
 62
     7
370
    25
100
AcDbLine
 10
235.949832
 20
130.628444
 30
0.0
 11
235.949832
 21
130.333971
 31
0.0
  0
ARC
  5
1EE
330
1F
100
AcDbEntity
  8
LC-001-100-D00-0
 62
     7
370
    25
100
AcDbCircle
 10
236.648082
 20
130.628446
 30
0.0
 40
0.23275000000001
100
AcDbArc
 50
0.0
 51
90.0
  0
LINE
  5
1EF
330
1F
100
AcDbEntity
  8
LC-001-100-D00-0
 62
     7
370
    25
100
AcDbLine
 10
236.880831
 20
130.628444
 30
0.0
 11
236.880831
 21
130.333971
 31
0.0
  0
LINE
  5
1F0
330
1F
100
AcDbEntity
  8
LC-001-100-D00-0
 62
     7
370
    25
100
AcDbLine
 10
236.182582
 20
130.861197
 30
0.0
 11
236.648083
 21
130.861197
 31
0.0
  0
DIMENSION
  5
1F4
330
1F
100
AcDbEntity
  8
LC-002-003-----0
 62
     7
370
    25
100
AcDbDimension
  2
*D1
 10
266.173332
 20
238.952414
 30
0.0
 11
222.869449
 21
269.752414
 31
0.0
 70
   160
  1
90
 71
     5
 42
91.0
  3
LC-DIM-L-0140-02-02
100
AcDbAlignedDimension
 13
175.173332
 23
211.471971
 33
0.0
 14
266.173332
 24
211.471971
 34
0.0
100
AcDbRotatedDimension
  0
ENDSEC
  0
SECTION
  2
OBJECTS
  0
DICTIONARY
  5
C
330
0
100
AcDbDictionary
281
     1
  3
ACAD_GROUP
350
D
  3
ACAD_LAYOUT
350
1A
  3
ACAD_MLINESTYLE
350
17
  3
ACAD_PLOTSETTINGS
350
19
  3
ACAD_PLOTSTYLENAME
350
E
  0
DICTIONARY
  5
D
102
{ACAD_REACTORS
330
C
102
}
330
C
100
AcDbDictionary
281
     1
  0
DICTIONARY
  5
1A
102
{ACAD_REACTORS
330
C
102
}
330
C
100
AcDbDictionary
281
     1
  3
Layout1
350
1E
  3
Layout2
350
26
  3
Model
350
22
  0
DICTIONARY
  5
17
102
{ACAD_REACTORS
330
C
102
}
330
C
100
AcDbDictionary
281
     1
  3
Standard
350
18
  0
DICTIONARY
  5
19
102
{ACAD_REACTORS
330
C
102
}
330
C
100
AcDbDictionary
281
     1
  0
ACDBDICTIONARYWDFLT
  5
E
102
{ACAD_REACTORS
330
C
102
}
330
C
100
AcDbDictionary
281
     1
  3
Normal
350
F
100
AcDbDictionaryWithDefault
340
F
  0
LAYOUT
  5
1E
102
{ACAD_REACTORS
330
1A
102
}
330
1A
100
AcDbPlotSettings
  1

  2

  4

  6

 40
0.0
 41
0.0
 42
0.0
 43
0.0
 44
0.0
 45
0.0
 46
0.0
 47
0.0
 48
0.0
 49
0.0
140
0.0
141
0.0
142
1.0
143
1.0
 70
   688
 72
     0
 73
     0
 74
     5
  7

 75
    16
147
1.0
148
0.0
149
0.0
100
AcDbLayout
  1
Layout1
 70
     1
 71
     1
 10
-209.760318
 20
-147.978432
 11
630.239682
 21
446.021568
 12
0.0
 22
0.0
 32
0.0
 14
-209.760318
 24
-147.978432
 34
0.0
 15
630.239682
 25
446.021568
 35
0.0
146
0.0
 13
0.0
 23
0.0
 33
0.0
 16
1.0
 26
0.0
 36
0.0
 17
0.0
 27
1.0
 37
0.0
 76
     0
330
1B
  0
LAYOUT
  5
26
102
{ACAD_REACTORS
330
1A
102
}
330
1A
100
AcDbPlotSettings
  1

  2

  4

  6

 40
0.0
 41
0.0
 42
0.0
 43
0.0
 44
0.0
 45
0.0
 46
0.0
 47
0.0
 48
0.0
 49
0.0
140
0.0
141
0.0
142
1.0
143
1.0
 70
   688
 72
     0
 73
     0
 74
     5
  7

 75
    16
147
1.0
148
0.0
149
0.0
100
AcDbLayout
  1
Layout2
 70
     1
 71
     2
 10
0.0
 20
0.0
 11
0.0
 21
0.0
 12
0.0
 22
0.0
 32
0.0
 14
0.0
 24
0.0
 34
0.0
 15
0.0
 25
0.0
 35
0.0
146
0.0
 13
0.0
 23
0.0
 33
0.0
 16
1.0
 26
0.0
 36
0.0
 17
0.0
 27
1.0
 37
0.0
 76
     0
330
23
  0
LAYOUT
  5
22
102
{ACAD_REACTORS
330
1A
102
}
330
1A
100
AcDbPlotSettings
  1

  2

  4

  6

 40
0.0
 41
0.0
 42
0.0
 43
0.0
 44
0.0
 45
0.0
 46
0.0
 47
0.0
 48
0.0
 49
0.0
140
0.0
141
0.0
142
1.0
143
1.0
 70
  1776
 72
     0
 73
     0
 74
     0
  7

 75
     0
147
1.0
148
0.0
149
0.0
100
AcDbLayout
  1
Model
 70
     1
 71
     0
 10
-209.760318
 20
-147.978432
 11
630.239682
 21
446.021568
 12
0.0
 22
0.0
 32
0.0
 14
-209.760318
 24
-147.978432
 34
0.0
 15
630.239682
 25
446.021568
 35
0.0
146
0.0
 13
0.0
 23
0.0
 33
0.0
 16
1.0
 26
0.0
 36
0.0
 17
0.0
 27
1.0
 37
0.0
 76
     0
330
1F
  0
MLINESTYLE
  5
18
102
{ACAD_REACTORS
330
17
102
}
330
17
100
AcDbMlineStyle
  2
Standard
 70
     0
  3

 62
   256
 51
90.0
 52
90.0
 71
     2
 49
0.5
 62
   256
  6
BYLAYER
 49
-0.5
 62
   256
  6
BYLAYER
  0
ACDBPLACEHOLDER
  5
F
102
{ACAD_REACTORS
330
E
102
}
330
E
  0
ENDSEC
  0
EOF
