  0
SECTION
  2
HEADER
  9
$ACADVER
  1
AC1009
  9
$DWGCODEPAGE
  3
dos850
  9
$INSBASE
 10
104.740469
 20
1.882426
 30
0.0
  9
$EXTMIN
 10
-210.0
 20
-148.5
 30
0.0
  9
$EXTMAX
 10
630.0
 20
445.5
 30
0.0
  9
$LIMMIN
 10
-210.0
 20
-148.5
  9
$LIMMAX
 10
630.0
 20
445.5
  9
$ORTHOMODE
 70
     0
  9
$REGENMODE
 70
     1
  9
$FILLMODE
 70
     1
  9
$QTEXTMODE
 70
     0
  9
$MIRRTEXT
 70
     1
  9
$DRAGMODE
 70
     2
  9
$LTSCALE
 40
2.0
  9
$OSMODE
 70
     0
  9
$ATTMODE
 70
     1
  9
$TEXTSIZE
 40
0.2
  9
$TRACEWID
 40
0.05
  9
$TEXTSTYLE
  7
STANDARD
  9
$CLAYER
  8
0
  9
$CELTYPE
  6
BYBLOCK
  9
$CECOLOR
 62
     7
  9
$DIMSCALE
 40
2.0
  9
$DIMASZ
 40
3.5
  9
$DIMEXO
 40
0.0625
  9
$DIMDLI
 40
0.38
  9
$DIMRND
 40
0.0
  9
$DIMDLE
 40
0.0
  9
$DIMEXE
 40
0.18
  9
$DIMTP
 40
0.0
  9
$DIMTM
 40
0.0
  9
$DIMTXT
 40
3.5
  9
$DIMCEN
 40
0.09
  9
$DIMTSZ
 40
0.0
  9
$DIMTOL
 70
     0
  9
$DIMLIM
 70
     0
  9
$DIMTIH
 70
     1
  9
$DIMTOH
 70
     1
  9
$DIMSE1
 70
     0
  9
$DIMSE2
 70
     0
  9
$DIMTAD
 70
     1
  9
$DIMZIN
 70
     0
  9
$DIMBLK
  1

  9
$DIMASO
 70
     1
  9
$DIMSHO
 70
     1
  9
$DIMPOST
  1

  9
$DIMAPOST
  1

  9
$DIMALT
 70
     0
  9
$DIMALTD
 70
     2
  9
$DIMALTF
 40
25.4
  9
$DIMLFAC
 40
1.0
  9
$DIMTOFL
 70
     0
  9
$DIMTVP
 40
0.0
  9
$DIMTIX
 70
     0
  9
$DIMSOXD
 70
     0
  9
$DIMSAH
 70
     0
  9
$DIMBLK1
  1

  9
$DIMBLK2
  1

  9
$DIMSTYLE
  2
STANDARD
  9
$DIMCLRD
 70
     0
  9
$DIMCLRE
 70
     0
  9
$DIMCLRT
 70
     0
  9
$DIMTFAC
 40
1.0
  9
$DIMGAP
 40
0.09
  9
$LUNITS
 70
     2
  9
$LUPREC
 70
     6
  9
$AXISMODE
 70
     0
  9
$AXISUNIT
 10
0.0
 20
0.0
  9
$SKETCHINC
 40
0.1
  9
$FILLETRAD
 40
0.0
  9
$AUNITS
 70
     0
  9
$AUPREC
 70
     0
  9
$MENU
  1
acad
  9
$ELEVATION
 40
0.0
  9
$PELEVATION
 40
0.0
  9
$THICKNESS
 40
0.0
  9
$LIMCHECK
 70
     0
  9
$BLIPMODE
 70
     1
  9
$CHAMFERA
 40
0.0
  9
$CHAMFERB
 40
0.0
  9
$SKPOLY
 70
     0
  9
$TDCREATE
 40
0.000000000
  9
$TDUPDATE
 40
0.000000000
  9
$TDINDWG
 40
0.0000000000
  9
$TDUSRTIMER
 40
0.0000000000
  9
$USRTIMER
 70
     1
  9
$ANGBASE
 50
0.0
  9
$ANGDIR
 70
     0
  9
$PDMODE
 70
     0
  9
$PDSIZE
 40
0.0
  9
$PLINEWID
 40
0.0
  9
$COORDS
 70
     0
  9
$SPLFRAME
 70
     0
  9
$SPLINETYPE
 70
     6
  9
$SPLINESEGS
 70
     8
  9
$ATTDIA
 70
     0
  9
$ATTREQ
 70
     1
  9
$HANDLING
 70
     1
  9
$HANDSEED
  5
EA
  9
$SURFTAB1
 70
     6
  9
$SURFTAB2
 70
     6
  9
$SURFTYPE
 70
     6
  9
$SURFU
 70
     6
  9
$SURFV
 70
     6
  9
$UCSNAME
  2

  9
$UCSORG
 10
0.0
 20
0.0
 30
0.0
  9
$UCSXDIR
 10
1.0
 20
0.0
 30
0.0
  9
$UCSYDIR
 10
0.0
 20
1.0
 30
0.0
  9
$PUCSNAME
  2

  9
$PUCSORG
 10
0.0
 20
0.0
 30
0.0
  9
$PUCSXDIR
 10
1.0
 20
0.0
 30
0.0
  9
$PUCSYDIR
 10
0.0
 20
1.0
 30
0.0
  9
$USERI1
 70
     0
  9
$USERI2
 70
     0
  9
$USERI3
 70
     0
  9
$USERI4
 70
     0
  9
$USERI5
 70
     0
  9
$USERR1
 40
0.0
  9
$USERR2
 40
0.0
  9
$USERR3
 40
0.0
  9
$USERR4
 40
0.0
  9
$USERR5
 40
0.0
  9
$WORLDVIEW
 70
     1
  9
$SHADEDGE
 70
     3
  9
$SHADEDIF
 70
    70
  9
$TILEMODE
 70
     1
  9
$MAXACTVP
 70
    16
  9
$PINSBASE
 10
0.0
 20
0.0
 30
0.0
  9
$PLIMCHECK
 70
     0
  9
$PEXTMIN
 10
-210.0
 20
-148.5
 30
0.0
  9
$PEXTMAX
 10
630.0
 20
445.5
 30
0.0
  9
$PLIMMIN
 10
-210.0
 20
-148.5
  9
$PLIMMAX
 10
630.0
 20
445.5
  9
$UNITMODE
 70
     0
  9
$VISRETAIN
 70
     0
  9
$PLINEGEN
 70
     1
  9
$PSLTSCALE
 70
     0
  9
$TREEDEPTH
 70
  3020
  0
ENDSEC
  0
SECTION
  2
TABLES
  0
TABLE
  2
VPORT
 70
     1
  0
VPORT
  2
*ACTIVE
 70
     0
 10
0.0
 20
0.0
 11
1.0
 21
1.0
 12
420.0
 22
297.0
 13
0.0
 23
0.0
 14
1.0
 24
1.0
 15
0.0
 25
0.0
 16
0.0
 26
0.0
 36
1.0
 17
-210.0
 27
-148.5
 37
0.0
 40
594.0
 41
1.604229
 42
50.0
 43
0.0
 44
0.0
 50
0.0
 51
0.0
 71
     0
 72
   100
 73
     1
 74
     1
 75
     0
 76
     0
 77
     0
 78
     0
  0
ENDTAB
  0
TABLE
  2
LTYPE
 70
     2
  0
LTYPE
  2
CONTINUOUS
 70
    64
  3
Solid line
 72
    65
 73
     0
 40
0.0
  0
LTYPE
  2
DASHED
 70
    64
  3
__ __ __ __ __
 72
    65
 73
     2
 40
6.25
 49
5.0
 49
-1.25
  0
ENDTAB
  0
TABLE
  2
LAYER
 70
    10
  0
LAYER
  2
0
 70
     0
 62
     7
  6
CONTINUOUS
  0
LAYER
  2
LC-INFO-1-2-MM-A3-0
 70
     1
 62
   255
  6
BYBLOCK
  0
LAYER
  2
LC-3D-HIDDEN
 70
     0
 62
     9
  6
DASHED
  0
LAYER
  2
LC-CUT-HIDDEN
 70
     0
 62
     9
  6
DASHED
  0
LAYER
  2
LC-VIEWPORT
 70
     0
 62
     7
  6
BYBLOCK
  0
LAYER
  2
LC-001-002-----0
 70
     0
 62
     2
  6
BYBLOCK
  0
LAYER
  2
LC-002-002-RND-0
 70
     0
 62
     1
  6
BYBLOCK
  0
LAYER
  2
LC-003-003-MTH-0
 70
     0
 62
     2
  6
BYBLOCK
  0
LAYER
  2
LC-004-003-MTG-0
 70
     0
 62
     2
  6
BYBLOCK
  0
LAYER
  2
LC-005-003-----0
 70
     0
 62
     2
  6
BYBLOCK
  0
ENDTAB
  0
TABLE
  2
STYLE
 70
    12
  0
STYLE
  2
STANDARD
 70
     0
 40
0.0
 41
1.0
 50
0.0
 71
     0
 42
0.0
  3
txt
  4

  0
STYLE
  2
LCTX0-500-0-0-DIN-SCHRIFT
 70
    64
 40
3.5
 41
1.0
 50
0.0
 71
     0
 42
0.0
  3
MONOTXT
  4

  0
STYLE
  2
LCTX15-286-0-0-DIN-SCHRIFT
 70
    64
 40
3.5
 41
1.0
 50
15.0
 71
     0
 42
0.0
  3
MONOTXT
  4

  0
STYLE
  2
LCTX15-667-0-0-DIN-SCHRIFT
 70
    64
 40
3.5
 41
1.0
 50
15.0
 71
     0
 42
0.0
  3
MONOTXT
  4

  0
STYLE
  2
LCTX15-400-0-0-DIN-SCHRIFT
 70
    64
 40
3.5
 41
1.0
 50
15.0
 71
     0
 42
0.0
  3
MONOTXT
  4

  0
STYLE
  2
LCTX15-500-0-0-DIN-SCHRIFT
 70
    64
 40
3.5
 41
1.0
 50
15.0
 71
     0
 42
0.0
  3
MONOTXT
  4

  0
STYLE
  2
LCTX0-286-0-0-DIN-SCHRIFT
 70
    64
 40
3.5
 41
1.0
 50
0.0
 71
     0
 42
0.0
  3
MONOTXT
  4

  0
STYLE
  2
LCTX0-400-0-0-DIN-SCHRIFT
 70
    64
 40
3.5
 41
1.0
 50
0.0
 71
     0
 42
0.0
  3
MONOTXT
  4

  0
STYLE
  2
LCTX0-286-0-0-DIN-SCHRIFT__P_
 70
    64
 40
3.5
 41
1.0
 50
0.0
 71
     0
 42
0.0
  3
MONOTXT
  4

  0
STYLE
  2
LCTX0-408-0-0-DIN-SCHRIFT__P_
 70
    64
 40
3.5
 41
1.0
 50
0.0
 71
     0
 42
0.0
  3
MONOTXT
  4

  0
STYLE
  2
LCTX15-400-0-0-ARIAL
 70
    64
 40
3.5
 41
1.0
 50
0.0
 71
     0
 42
0.0
  3
Arial
  4

  0
STYLE
  2
LCTX15-400-0-0-DIN-SCHRIFT__P_
 70
    64
 40
0.0
 41
1.0
 50
1.5
 71
     0
 42
3.5
  3
STANDARD
  4

  0
ENDTAB
  0
TABLE
  2
VIEW
 70
     0
  0
ENDTAB
  0
TABLE
  2
UCS
 70
     0
  0
ENDTAB
  0
TABLE
  2
APPID
 70
     1
  0
APPID
  2
ACAD
 70
     0
  0
ENDTAB
  0
TABLE
  2
DIMSTYLE
 70
     2
  0
DIMSTYLE
  2
STANDARD
 70
     0
  3

  4

  5

  6

  7

 40
1.0
 41
0.18
 42
0.0625
 43
0.38
 44
0.18
 45
0.0
 46
0.0
 47
0.0
 48
0.0
 71
     0
 72
     0
 73
     1
 74
     1
 75
     0
 76
     0
 77
     0
 78
     0
140
0.18
141
0.09
142
0.0
143
25.4
144
1.0
145
0.0
146
1.0
147
0.09
170
     0
171
     2
172
     0
173
     0
174
     0
175
     0
176
     0
177
     0
178
     0
  0
DIMSTYLE
  2
LC-DIM-L-0140-02-02
 70
     0
  3

  4

  5

  6

  7

 40
2.0
 41
3.5
 42
0.0
 43
7.5
 44
1.8
 45
0.0
 46
0.0
 47
0.0
 48
0.0
 71
     0
 72
     0
 73
     0
 74
     0
 75
     0
 76
     0
 77
     1
 78
     8
140
14.0
141
0.0
142
0.0
143
25.4
144
1.0
145
0.0
146
0.71
147
1.5
170
     0
171
     2
172
     0
173
     0
174
     0
175
     0
176
     2
177
     2
178
     2
  0
ENDTAB
  0
ENDSEC
  0
SECTION
  2
BLOCKS
  0
BLOCK
  8
0
  5
CE
  2
*D0
 70
    65
 10
0.0
 20
0.0
 30
0.0
  3
*D0
  0
LINE
  8
LC-003-003-MTH-0
 62
     2
  5
D0
 10
200.798462
 20
235.283321
 30
0.0
 11
200.798462
 21
286.424921
 31
0.0
  0
LINE
  8
LC-003-003-MTH-0
 62
     2
  5
D1
 10
320.798462
 20
235.283321
 30
0.0
 11
320.798462
 21
286.424921
 31
0.0
  0
LINE
  8
LC-004-003-MTG-0
 62
     2
  5
D3
 10
200.798462
 20
269.624921
 30
0.0
 11
229.221929
 21
269.624921
 31
0.0
  0
LINE
  8
LC-004-003-MTG-0
 62
     2
  5
D4
 10
306.868862
 20
269.624921
 30
0.0
 11
320.798462
 21
269.624921
 31
0.0
  0
LINE
  8
LC-005-003-----0
 62
     2
  5
D6
 10
228.558918
 20
273.279654
 30
0.0
 11
200.798462
 21
269.624921
 31
0.0
  0
LINE
  8
LC-005-003-----0
 62
     2
  5
D7
 10
200.798462
 20
269.624921
 30
0.0
 11
228.558918
 21
265.970187
 31
0.0
  0
LINE
  8
LC-005-003-----0
 62
     2
  5
D8
 10
228.558918
 20
265.970187
 30
0.0
 11
228.558918
 21
273.279654
 31
0.0
  0
LINE
  8
LC-005-003-----0
 62
     2
  5
D9
 10
228.6212
 20
272.329423
 30
0.0
 11
208.078462
 21
269.624921
 31
0.0
  0
LINE
  8
LC-005-003-----0
 62
     2
  5
DA
 10
208.078462
 20
269.624921
 30
0.0
 11
228.6212
 21
266.920418
 31
0.0
  0
LINE
  8
LC-005-003-----0
 62
     2
  5
DB
 10
228.683481
 20
271.379193
 30
0.0
 11
215.358462
 21
269.624921
 31
0.0
  0
LINE
  8
LC-005-003-----0
 62
     2
  5
DC
 10
215.358462
 20
269.624921
 30
0.0
 11
228.683481
 21
267.870649
 31
0.0
  0
LINE
  8
LC-005-003-----0
 62
     2
  5
DD
 10
228.745762
 20
270.428962
 30
0.0
 11
222.638462
 21
269.624921
 31
0.0
  0
LINE
  8
LC-005-003-----0
 62
     2
  5
DE
 10
222.638462
 20
269.624921
 30
0.0
 11
228.745762
 21
268.820879
 31
0.0
  0
LINE
  8
LC-005-003-----0
 62
     2
  5
DF
 10
306.868862
 20
267.791054
 30
0.0
 11
320.798462
 21
269.624921
 31
0.0
  0
LINE
  8
LC-005-003-----0
 62
     2
  5
E0
 10
320.798462
 20
269.624921
 30
0.0
 11
306.868862
 21
271.458787
 31
0.0
  0
LINE
  8
LC-005-003-----0
 62
     2
  5
E1
 10
306.868862
 20
268.749484
 30
0.0
 11
313.518462
 21
269.624921
 31
0.0
  0
LINE
  8
LC-005-003-----0
 62
     2
  5
E2
 10
313.518462
 20
269.624921
 30
0.0
 11
306.868862
 21
270.500357
 31
0.0
  0
TEXT
  8
LC-005-003-----0
 62
     8
  5
E3
 10
228.497235
 20
272.04329
 30
0.0
 40
28.0
  1
120
 41
0.9
 51
15.0
  7
LCTX15-400-0-0-ARIAL
 72
     1
 11
263.697235
 21
272.04329
 31
0.0
  0
ENDBLK
  8
0
  5
E4
  0
ENDSEC
  0
SECTION
  2
ENTITIES
  0
VIEWPORT
  8
LC-VIEWPORT
  5
E6
 67
     1
 68
     1
 10
420.0
 20
297.0
 30
0.0
 40
840.0
 41
594.0
 69
     1
1001
ACAD
1000
MVIEW
1002
{
1070
    16
1010
0.0
1020
0.0
1030
0.0
1010
0.0
1020
0.0
1030
1.0
1040
0.0
1040
594.0
1040
420.0
1040
297.0
1040
50.0
1040
0.0
1040
0.0
1070
     0
1070
   100
1070
     1
1070
     1
1070
     0
1070
     0
1070
     0
1070
     0
1040
0.0
1040
0.0
1040
0.0
1040
1.0
1040
1.0
1040
0.0
1040
0.0
1070
     0
1002
{
1002
}
1002
}
  0
LINE
  8
LC-001-002-----0
 62
     2
  5
2E
 10
211.075701
 20
281.363981
 30
0.0
 11
211.075701
 21
296.363981
 31
0.0
  0
ARC
  8
LC-002-002-RND-0
 62
     1
  5
30
 10
210.798462
 20
235.283321
 30
0.0
 40
10.0
 50
90.0
 51
180.0
  0
ARC
  8
LC-002-002-RND-0
 62
     1
  5
31
 10
310.798462
 20
235.283321
 30
0.0
 40
10.0
 50
0.0
 51
90.0
  0
ARC
  8
LC-002-002-RND-0
 62
     1
  5
32
 10
310.798462
 20
135.283321
 30
0.0
 40
10.0
 50
270.0
 51
0.0
  0
ARC
  8
LC-002-002-RND-0
 62
     1
  5
33
 10
210.798462
 20
135.283321
 30
0.0
 40
10.0
 50
180.0
 51
270.0
  0
LINE
  8
LC-001-002-----0
 62
     1
  5
34
 10
250.498462
 20
188.283321
 30
0.0
 11
257.798462
 21
188.283321
 31
0.0
  0
LINE
  8
LC-001-002-----0
 62
     1
  5
35
 10
250.498462
 20
195.583321
 30
0.0
 11
257.798462
 21
195.583321
 31
0.0
  0
LINE
  8
LC-001-002-----0
 62
     1
  5
36
 10
257.798462
 20
195.583321
 30
0.0
 11
257.798462
 21
188.283321
 31
0.0
  0
LINE
  8
LC-001-002-----0
 62
     1
  5
37
 10
250.498462
 20
195.583321
 30
0.0
 11
250.498462
 21
188.283321
 31
0.0
  0
LINE
  8
LC-001-002-----0
 62
     1
  5
38
 10
257.798462
 20
174.983321
 30
0.0
 11
257.798462
 21
182.283321
 31
0.0
  0
LINE
  8
LC-001-002-----0
 62
     1
  5
39
 10
250.498462
 20
174.983321
 30
0.0
 11
250.498462
 21
182.283321
 31
0.0
  0
LINE
  8
LC-001-002-----0
 62
     1
  5
3A
 10
250.498462
 20
182.283321
 30
0.0
 11
257.798462
 21
182.283321
 31
0.0
  0
LINE
  8
LC-001-002-----0
 62
     1
  5
3B
 10
250.498462
 20
174.983321
 30
0.0
 11
257.798462
 21
174.983321
 31
0.0
  0
LINE
  8
LC-001-002-----0
 62
     1
  5
3C
 10
271.098462
 20
182.283321
 30
0.0
 11
263.798462
 21
182.283321
 31
0.0
  0
LINE
  8
LC-001-002-----0
 62
     1
  5
3D
 10
271.098462
 20
174.983321
 30
0.0
 11
263.798462
 21
174.983321
 31
0.0
  0
LINE
  8
LC-001-002-----0
 62
     1
  5
3E
 10
263.798462
 20
174.983321
 30
0.0
 11
263.798462
 21
182.283321
 31
0.0
  0
LINE
  8
LC-001-002-----0
 62
     1
  5
3F
 10
271.098462
 20
174.983321
 30
0.0
 11
271.098462
 21
182.283321
 31
0.0
  0
LINE
  8
LC-001-002-----0
 62
     1
  5
40
 10
263.798462
 20
195.583321
 30
0.0
 11
263.798462
 21
188.283321
 31
0.0
  0
LINE
  8
LC-001-002-----0
 62
     1
  5
41
 10
271.098462
 20
195.583321
 30
0.0
 11
271.098462
 21
188.283321
 31
0.0
  0
LINE
  8
LC-001-002-----0
 62
     1
  5
42
 10
271.098462
 20
188.283321
 30
0.0
 11
263.798462
 21
188.283321
 31
0.0
  0
LINE
  8
LC-001-002-----0
 62
     1
  5
43
 10
271.098462
 20
195.583321
 30
0.0
 11
263.798462
 21
195.583321
 31
0.0
  0
LINE
  8
LC-001-002-----0
 62
     1
  5
44
 10
257.798462
 20
208.883321
 30
0.0
 11
257.798462
 21
201.583321
 31
0.0
  0
LINE
  8
LC-001-002-----0
 62
     1
  5
45
 10
250.498462
 20
208.883321
 30
0.0
 11
250.498462
 21
201.583321
 31
0.0
  0
LINE
  8
LC-001-002-----0
 62
     1
  5
46
 10
250.498462
 20
201.583321
 30
0.0
 11
257.798462
 21
201.583321
 31
0.0
  0
LINE
  8
LC-001-002-----0
 62
     1
  5
47
 10
250.498462
 20
208.883321
 30
0.0
 11
257.798462
 21
208.883321
 31
0.0
  0
LINE
  8
LC-001-002-----0
 62
     1
  5
48
 10
271.098462
 20
201.583321
 30
0.0
 11
263.798462
 21
201.583321
 31
0.0
  0
LINE
  8
LC-001-002-----0
 62
     1
  5
49
 10
271.098462
 20
208.883321
 30
0.0
 11
263.798462
 21
208.883321
 31
0.0
  0
LINE
  8
LC-001-002-----0
 62
     1
  5
4A
 10
263.798462
 20
208.883321
 30
0.0
 11
263.798462
 21
201.583321
 31
0.0
  0
LINE
  8
LC-001-002-----0
 62
     1
  5
4B
 10
271.098462
 20
208.883321
 30
0.0
 11
271.098462
 21
201.583321
 31
0.0
  0
LINE
  8
LC-001-002-----0
 62
     1
  5
4C
 10
257.798462
 20
161.683321
 30
0.0
 11
257.798462
 21
168.983321
 31
0.0
  0
LINE
  8
LC-001-002-----0
 62
     1
  5
4D
 10
250.498462
 20
161.683321
 30
0.0
 11
250.498462
 21
168.983321
 31
0.0
  0
LINE
  8
LC-001-002-----0
 62
     1
  5
4E
 10
250.498462
 20
168.983321
 30
0.0
 11
257.798462
 21
168.983321
 31
0.0
  0
LINE
  8
LC-001-002-----0
 62
     1
  5
4F
 10
250.498462
 20
161.683321
 30
0.0
 11
257.798462
 21
161.683321
 31
0.0
  0
LINE
  8
LC-001-002-----0
 62
     1
  5
50
 10
271.098462
 20
168.983321
 30
0.0
 11
263.798462
 21
168.983321
 31
0.0
  0
LINE
  8
LC-001-002-----0
 62
     1
  5
51
 10
271.098462
 20
161.683321
 30
0.0
 11
263.798462
 21
161.683321
 31
0.0
  0
LINE
  8
LC-001-002-----0
 62
     1
  5
52
 10
263.798462
 20
161.683321
 30
0.0
 11
263.798462
 21
168.983321
 31
0.0
  0
LINE
  8
LC-001-002-----0
 62
     1
  5
53
 10
271.098462
 20
161.683321
 30
0.0
 11
271.098462
 21
168.983321
 31
0.0
  0
LINE
  8
LC-001-002-----0
 62
     1
  5
54
 10
284.398462
 20
188.283321
 30
0.0
 11
277.098462
 21
188.283321
 31
0.0
  0
LINE
  8
LC-001-002-----0
 62
     1
  5
55
 10
284.398462
 20
195.583321
 30
0.0
 11
277.098462
 21
195.583321
 31
0.0
  0
LINE
  8
LC-001-002-----0
 62
     1
  5
56
 10
277.098462
 20
195.583321
 30
0.0
 11
277.098462
 21
188.283321
 31
0.0
  0
LINE
  8
LC-001-002-----0
 62
     1
  5
57
 10
284.398462
 20
195.583321
 30
0.0
 11
284.398462
 21
188.283321
 31
0.0
  0
LINE
  8
LC-001-002-----0
 62
     1
  5
58
 10
277.098462
 20
174.983321
 30
0.0
 11
277.098462
 21
182.283321
 31
0.0
  0
LINE
  8
LC-001-002-----0
 62
     1
  5
59
 10
284.398462
 20
174.983321
 30
0.0
 11
284.398462
 21
182.283321
 31
0.0
  0
LINE
  8
LC-001-002-----0
 62
     1
  5
5A
 10
284.398462
 20
182.283321
 30
0.0
 11
277.098462
 21
182.283321
 31
0.0
  0
LINE
  8
LC-001-002-----0
 62
     1
  5
5B
 10
284.398462
 20
174.983321
 30
0.0
 11
277.098462
 21
174.983321
 31
0.0
  0
LINE
  8
LC-001-002-----0
 62
     1
  5
5C
 10
277.098462
 20
208.883321
 30
0.0
 11
277.098462
 21
201.583321
 31
0.0
  0
LINE
  8
LC-001-002-----0
 62
     1
  5
5D
 10
284.398462
 20
208.883321
 30
0.0
 11
284.398462
 21
201.583321
 31
0.0
  0
LINE
  8
LC-001-002-----0
 62
     1
  5
5E
 10
284.398462
 20
201.583321
 30
0.0
 11
277.098462
 21
201.583321
 31
0.0
  0
LINE
  8
LC-001-002-----0
 62
     1
  5
5F
 10
284.398462
 20
208.883321
 30
0.0
 11
277.098462
 21
208.883321
 31
0.0
  0
LINE
  8
LC-001-002-----0
 62
     1
  5
60
 10
277.098462
 20
161.683321
 30
0.0
 11
277.098462
 21
168.983321
 31
0.0
  0
LINE
  8
LC-001-002-----0
 62
     1
  5
61
 10
284.398462
 20
161.683321
 30
0.0
 11
284.398462
 21
168.983321
 31
0.0
  0
LINE
  8
LC-001-002-----0
 62
     1
  5
62
 10
284.398462
 20
168.983321
 30
0.0
 11
277.098462
 21
168.983321
 31
0.0
  0
LINE
  8
LC-001-002-----0
 62
     1
  5
63
 10
284.398462
 20
161.683321
 30
0.0
 11
277.098462
 21
161.683321
 31
0.0
  0
LINE
  8
LC-001-002-----0
 62
     1
  5
64
 10
237.198462
 20
188.283321
 30
0.0
 11
244.498462
 21
188.283321
 31
0.0
  0
LINE
  8
LC-001-002-----0
 62
     1
  5
65
 10
237.198462
 20
195.583321
 30
0.0
 11
244.498462
 21
195.583321
 31
0.0
  0
LINE
  8
LC-001-002-----0
 62
     1
  5
66
 10
244.498462
 20
195.583321
 30
0.0
 11
244.498462
 21
188.283321
 31
0.0
  0
LINE
  8
LC-001-002-----0
 62
     1
  5
67
 10
237.198462
 20
195.583321
 30
0.0
 11
237.198462
 21
188.283321
 31
0.0
  0
LINE
  8
LC-001-002-----0
 62
     1
  5
68
 10
244.498462
 20
174.983321
 30
0.0
 11
244.498462
 21
182.283321
 31
0.0
  0
LINE
  8
LC-001-002-----0
 62
     1
  5
69
 10
237.198462
 20
174.983321
 30
0.0
 11
237.198462
 21
182.283321
 31
0.0
  0
LINE
  8
LC-001-002-----0
 62
     1
  5
6A
 10
237.198462
 20
182.283321
 30
0.0
 11
244.498462
 21
182.283321
 31
0.0
  0
LINE
  8
LC-001-002-----0
 62
     1
  5
6B
 10
237.198462
 20
174.983321
 30
0.0
 11
244.498462
 21
174.983321
 31
0.0
  0
LINE
  8
LC-001-002-----0
 62
     1
  5
6C
 10
244.498462
 20
208.883321
 30
0.0
 11
244.498462
 21
201.583321
 31
0.0
  0
LINE
  8
LC-001-002-----0
 62
     1
  5
6D
 10
237.198462
 20
208.883321
 30
0.0
 11
237.198462
 21
201.583321
 31
0.0
  0
LINE
  8
LC-001-002-----0
 62
     1
  5
6E
 10
237.198462
 20
201.583321
 30
0.0
 11
244.498462
 21
201.583321
 31
0.0
  0
LINE
  8
LC-001-002-----0
 62
     1
  5
6F
 10
237.198462
 20
208.883321
 30
0.0
 11
244.498462
 21
208.883321
 31
0.0
  0
LINE
  8
LC-001-002-----0
 62
     1
  5
70
 10
244.498462
 20
161.683321
 30
0.0
 11
244.498462
 21
168.983321
 31
0.0
  0
LINE
  8
LC-001-002-----0
 62
     1
  5
71
 10
237.198462
 20
161.683321
 30
0.0
 11
237.198462
 21
168.983321
 31
0.0
  0
LINE
  8
LC-001-002-----0
 62
     1
  5
72
 10
237.198462
 20
168.983321
 30
0.0
 11
244.498462
 21
168.983321
 31
0.0
  0
LINE
  8
LC-001-002-----0
 62
     1
  5
73
 10
237.198462
 20
161.683321
 30
0.0
 11
244.498462
 21
161.683321
 31
0.0
  0
LINE
  8
LC-001-002-----0
 62
     1
  5
74
 10
257.798462
 20
222.183321
 30
0.0
 11
257.798462
 21
214.883321
 31
0.0
  0
LINE
  8
LC-001-002-----0
 62
     1
  5
75
 10
250.498462
 20
222.183321
 30
0.0
 11
250.498462
 21
214.883321
 31
0.0
  0
LINE
  8
LC-001-002-----0
 62
     1
  5
76
 10
250.498462
 20
214.883321
 30
0.0
 11
257.798462
 21
214.883321
 31
0.0
  0
LINE
  8
LC-001-002-----0
 62
     1
  5
77
 10
250.498462
 20
222.183321
 30
0.0
 11
257.798462
 21
222.183321
 31
0.0
  0
LINE
  8
LC-001-002-----0
 62
     1
  5
78
 10
271.098462
 20
214.883321
 30
0.0
 11
263.798462
 21
214.883321
 31
0.0
  0
LINE
  8
LC-001-002-----0
 62
     1
  5
79
 10
271.098462
 20
222.183321
 30
0.0
 11
263.798462
 21
222.183321
 31
0.0
  0
LINE
  8
LC-001-002-----0
 62
     1
  5
7A
 10
263.798462
 20
222.183321
 30
0.0
 11
263.798462
 21
214.883321
 31
0.0
  0
LINE
  8
LC-001-002-----0
 62
     1
  5
7B
 10
271.098462
 20
222.183321
 30
0.0
 11
271.098462
 21
214.883321
 31
0.0
  0
LINE
  8
LC-001-002-----0
 62
     1
  5
7C
 10
277.098462
 20
222.183321
 30
0.0
 11
277.098462
 21
214.883321
 31
0.0
  0
LINE
  8
LC-001-002-----0
 62
     1
  5
7D
 10
284.398462
 20
222.183321
 30
0.0
 11
284.398462
 21
214.883321
 31
0.0
  0
LINE
  8
LC-001-002-----0
 62
     1
  5
7E
 10
284.398462
 20
214.883321
 30
0.0
 11
277.098462
 21
214.883321
 31
0.0
  0
LINE
  8
LC-001-002-----0
 62
     1
  5
7F
 10
284.398462
 20
222.183321
 30
0.0
 11
277.098462
 21
222.183321
 31
0.0
  0
LINE
  8
LC-001-002-----0
 62
     1
  5
80
 10
244.498462
 20
222.183321
 30
0.0
 11
244.498462
 21
214.883321
 31
0.0
  0
LINE
  8
LC-001-002-----0
 62
     1
  5
81
 10
237.198462
 20
222.183321
 30
0.0
 11
237.198462
 21
214.883321
 31
0.0
  0
LINE
  8
LC-001-002-----0
 62
     1
  5
82
 10
237.198462
 20
214.883321
 30
0.0
 11
244.498462
 21
214.883321
 31
0.0
  0
LINE
  8
LC-001-002-----0
 62
     1
  5
83
 10
237.198462
 20
222.183321
 30
0.0
 11
244.498462
 21
222.183321
 31
0.0
  0
LINE
  8
LC-001-002-----0
 62
     1
  5
84
 10
257.798462
 20
148.383321
 30
0.0
 11
257.798462
 21
155.683321
 31
0.0
  0
LINE
  8
LC-001-002-----0
 62
     1
  5
85
 10
250.498462
 20
148.383321
 30
0.0
 11
250.498462
 21
155.683321
 31
0.0
  0
LINE
  8
LC-001-002-----0
 62
     1
  5
86
 10
250.498462
 20
155.683321
 30
0.0
 11
257.798462
 21
155.683321
 31
0.0
  0
LINE
  8
LC-001-002-----0
 62
     1
  5
87
 10
250.498462
 20
148.383321
 30
0.0
 11
257.798462
 21
148.383321
 31
0.0
  0
LINE
  8
LC-001-002-----0
 62
     1
  5
88
 10
271.098462
 20
155.683321
 30
0.0
 11
263.798462
 21
155.683321
 31
0.0
  0
LINE
  8
LC-001-002-----0
 62
     1
  5
89
 10
271.098462
 20
148.383321
 30
0.0
 11
263.798462
 21
148.383321
 31
0.0
  0
LINE
  8
LC-001-002-----0
 62
     1
  5
8A
 10
263.798462
 20
148.383321
 30
0.0
 11
263.798462
 21
155.683321
 31
0.0
  0
LINE
  8
LC-001-002-----0
 62
     1
  5
8B
 10
271.098462
 20
148.383321
 30
0.0
 11
271.098462
 21
155.683321
 31
0.0
  0
LINE
  8
LC-001-002-----0
 62
     1
  5
8C
 10
277.098462
 20
148.383321
 30
0.0
 11
277.098462
 21
155.683321
 31
0.0
  0
LINE
  8
LC-001-002-----0
 62
     1
  5
8D
 10
284.398462
 20
148.383321
 30
0.0
 11
284.398462
 21
155.683321
 31
0.0
  0
LINE
  8
LC-001-002-----0
 62
     1
  5
8E
 10
284.398462
 20
155.683321
 30
0.0
 11
277.098462
 21
155.683321
 31
0.0
  0
LINE
  8
LC-001-002-----0
 62
     1
  5
8F
 10
284.398462
 20
148.383321
 30
0.0
 11
277.098462
 21
148.383321
 31
0.0
  0
LINE
  8
LC-001-002-----0
 62
     1
  5
90
 10
244.498462
 20
148.383321
 30
0.0
 11
244.498462
 21
155.683321
 31
0.0
  0
LINE
  8
LC-001-002-----0
 62
     1
  5
91
 10
237.198462
 20
148.383321
 30
0.0
 11
237.198462
 21
155.683321
 31
0.0
  0
LINE
  8
LC-001-002-----0
 62
     1
  5
92
 10
237.198462
 20
155.683321
 30
0.0
 11
244.498462
 21
155.683321
 31
0.0
  0
LINE
  8
LC-001-002-----0
 62
     1
  5
93
 10
237.198462
 20
148.383321
 30
0.0
 11
244.498462
 21
148.383321
 31
0.0
  0
LINE
  8
LC-001-002-----0
 62
     1
  5
94
 10
223.898462
 20
188.283321
 30
0.0
 11
231.198462
 21
188.283321
 31
0.0
  0
LINE
  8
LC-001-002-----0
 62
     1
  5
95
 10
223.898462
 20
195.583321
 30
0.0
 11
231.198462
 21
195.583321
 31
0.0
  0
LINE
  8
LC-001-002-----0
 62
     1
  5
96
 10
231.198462
 20
195.583321
 30
0.0
 11
231.198462
 21
188.283321
 31
0.0
  0
LINE
  8
LC-001-002-----0
 62
     1
  5
97
 10
223.898462
 20
195.583321
 30
0.0
 11
223.898462
 21
188.283321
 31
0.0
  0
LINE
  8
LC-001-002-----0
 62
     1
  5
98
 10
231.198462
 20
174.983321
 30
0.0
 11
231.198462
 21
182.283321
 31
0.0
  0
LINE
  8
LC-001-002-----0
 62
     1
  5
99
 10
223.898462
 20
174.983321
 30
0.0
 11
223.898462
 21
182.283321
 31
0.0
  0
LINE
  8
LC-001-002-----0
 62
     1
  5
9A
 10
223.898462
 20
182.283321
 30
0.0
 11
231.198462
 21
182.283321
 31
0.0
  0
LINE
  8
LC-001-002-----0
 62
     1
  5
9B
 10
223.898462
 20
174.983321
 30
0.0
 11
231.198462
 21
174.983321
 31
0.0
  0
LINE
  8
LC-001-002-----0
 62
     1
  5
9C
 10
231.198462
 20
208.883321
 30
0.0
 11
231.198462
 21
201.583321
 31
0.0
  0
LINE
  8
LC-001-002-----0
 62
     1
  5
9D
 10
223.898462
 20
208.883321
 30
0.0
 11
223.898462
 21
201.583321
 31
0.0
  0
LINE
  8
LC-001-002-----0
 62
     1
  5
9E
 10
223.898462
 20
201.583321
 30
0.0
 11
231.198462
 21
201.583321
 31
0.0
  0
LINE
  8
LC-001-002-----0
 62
     1
  5
9F
 10
223.898462
 20
208.883321
 30
0.0
 11
231.198462
 21
208.883321
 31
0.0
  0
LINE
  8
LC-001-002-----0
 62
     1
  5
A0
 10
231.198462
 20
161.683321
 30
0.0
 11
231.198462
 21
168.983321
 31
0.0
  0
LINE
  8
LC-001-002-----0
 62
     1
  5
A1
 10
223.898462
 20
161.683321
 30
0.0
 11
223.898462
 21
168.983321
 31
0.0
  0
LINE
  8
LC-001-002-----0
 62
     1
  5
A2
 10
223.898462
 20
168.983321
 30
0.0
 11
231.198462
 21
168.983321
 31
0.0
  0
LINE
  8
LC-001-002-----0
 62
     1
  5
A3
 10
223.898462
 20
161.683321
 30
0.0
 11
231.198462
 21
161.683321
 31
0.0
  0
LINE
  8
LC-001-002-----0
 62
     1
  5
A4
 10
231.198462
 20
222.183321
 30
0.0
 11
231.198462
 21
214.883321
 31
0.0
  0
LINE
  8
LC-001-002-----0
 62
     1
  5
A5
 10
223.898462
 20
222.183321
 30
0.0
 11
223.898462
 21
214.883321
 31
0.0
  0
LINE
  8
LC-001-002-----0
 62
     1
  5
A6
 10
223.898462
 20
214.883321
 30
0.0
 11
231.198462
 21
214.883321
 31
0.0
  0
LINE
  8
LC-001-002-----0
 62
     1
  5
A7
 10
223.898462
 20
222.183321
 30
0.0
 11
231.198462
 21
222.183321
 31
0.0
  0
LINE
  8
LC-001-002-----0
 62
     1
  5
A8
 10
231.198462
 20
148.383321
 30
0.0
 11
231.198462
 21
155.683321
 31
0.0
  0
LINE
  8
LC-001-002-----0
 62
     1
  5
A9
 10
223.898462
 20
148.383321
 30
0.0
 11
223.898462
 21
155.683321
 31
0.0
  0
LINE
  8
LC-001-002-----0
 62
     1
  5
AA
 10
223.898462
 20
155.683321
 30
0.0
 11
231.198462
 21
155.683321
 31
0.0
  0
LINE
  8
LC-001-002-----0
 62
     1
  5
AB
 10
223.898462
 20
148.383321
 30
0.0
 11
231.198462
 21
148.383321
 31
0.0
  0
LINE
  8
LC-001-002-----0
 62
     1
  5
AC
 10
297.698462
 20
188.283321
 30
0.0
 11
290.398462
 21
188.283321
 31
0.0
  0
LINE
  8
LC-001-002-----0
 62
     1
  5
AD
 10
297.698462
 20
195.583321
 30
0.0
 11
290.398462
 21
195.583321
 31
0.0
  0
LINE
  8
LC-001-002-----0
 62
     1
  5
AE
 10
290.398462
 20
195.583321
 30
0.0
 11
290.398462
 21
188.283321
 31
0.0
  0
LINE
  8
LC-001-002-----0
 62
     1
  5
AF
 10
297.698462
 20
195.583321
 30
0.0
 11
297.698462
 21
188.283321
 31
0.0
  0
LINE
  8
LC-001-002-----0
 62
     1
  5
B0
 10
290.398462
 20
174.983321
 30
0.0
 11
290.398462
 21
182.283321
 31
0.0
  0
LINE
  8
LC-001-002-----0
 62
     1
  5
B1
 10
297.698462
 20
174.983321
 30
0.0
 11
297.698462
 21
182.283321
 31
0.0
  0
LINE
  8
LC-001-002-----0
 62
     1
  5
B2
 10
297.698462
 20
182.283321
 30
0.0
 11
290.398462
 21
182.283321
 31
0.0
  0
LINE
  8
LC-001-002-----0
 62
     1
  5
B3
 10
297.698462
 20
174.983321
 30
0.0
 11
290.398462
 21
174.983321
 31
0.0
  0
LINE
  8
LC-001-002-----0
 62
     1
  5
B4
 10
290.398462
 20
208.883321
 30
0.0
 11
290.398462
 21
201.583321
 31
0.0
  0
LINE
  8
LC-001-002-----0
 62
     1
  5
B5
 10
297.698462
 20
208.883321
 30
0.0
 11
297.698462
 21
201.583321
 31
0.0
  0
LINE
  8
LC-001-002-----0
 62
     1
  5
B6
 10
297.698462
 20
201.583321
 30
0.0
 11
290.398462
 21
201.583321
 31
0.0
  0
LINE
  8
LC-001-002-----0
 62
     1
  5
B7
 10
297.698462
 20
208.883321
 30
0.0
 11
290.398462
 21
208.883321
 31
0.0
  0
LINE
  8
LC-001-002-----0
 62
     1
  5
B8
 10
290.398462
 20
161.683321
 30
0.0
 11
290.398462
 21
168.983321
 31
0.0
  0
LINE
  8
LC-001-002-----0
 62
     1
  5
B9
 10
297.698462
 20
161.683321
 30
0.0
 11
297.698462
 21
168.983321
 31
0.0
  0
LINE
  8
LC-001-002-----0
 62
     1
  5
BA
 10
297.698462
 20
168.983321
 30
0.0
 11
290.398462
 21
168.983321
 31
0.0
  0
LINE
  8
LC-001-002-----0
 62
     1
  5
BB
 10
297.698462
 20
161.683321
 30
0.0
 11
290.398462
 21
161.683321
 31
0.0
  0
LINE
  8
LC-001-002-----0
 62
     1
  5
BC
 10
290.398462
 20
222.183321
 30
0.0
 11
290.398462
 21
214.883321
 31
0.0
  0
LINE
  8
LC-001-002-----0
 62
     1
  5
BD
 10
297.698462
 20
222.183321
 30
0.0
 11
297.698462
 21
214.883321
 31
0.0
  0
LINE
  8
LC-001-002-----0
 62
     1
  5
BE
 10
297.698462
 20
214.883321
 30
0.0
 11
290.398462
 21
214.883321
 31
0.0
  0
LINE
  8
LC-001-002-----0
 62
     1
  5
BF
 10
297.698462
 20
222.183321
 30
0.0
 11
290.398462
 21
222.183321
 31
0.0
  0
LINE
  8
LC-001-002-----0
 62
     1
  5
C0
 10
290.398462
 20
148.383321
 30
0.0
 11
290.398462
 21
155.683321
 31
0.0
  0
LINE
  8
LC-001-002-----0
 62
     1
  5
C1
 10
297.698462
 20
148.383321
 30
0.0
 11
297.698462
 21
155.683321
 31
0.0
  0
LINE
  8
LC-001-002-----0
 62
     1
  5
C2
 10
297.698462
 20
155.683321
 30
0.0
 11
290.398462
 21
155.683321
 31
0.0
  0
LINE
  8
LC-001-002-----0
 62
     1
  5
C3
 10
297.698462
 20
148.383321
 30
0.0
 11
290.398462
 21
148.383321
 31
0.0
  0
LINE
  8
LC-001-002-----0
 62
     2
  5
C4
 10
211.075701
 20
296.363981
 30
0.0
 11
226.075701
 21
296.363981
 31
0.0
  0
LINE
  8
LC-001-002-----0
 62
     2
  5
C5
 10
226.075701
 20
296.363981
 30
0.0
 11
226.075701
 21
281.363981
 31
0.0
  0
LINE
  8
LC-001-002-----0
 62
     2
  5
C6
 10
226.075701
 20
281.363981
 30
0.0
 11
211.075701
 21
281.363981
 31
0.0
  0
LINE
  8
LC-001-002-----0
 62
     1
  5
C7
 10
210.798462
 20
245.283321
 30
0.0
 11
310.798462
 21
245.283321
 31
0.0
  0
LINE
  8
LC-001-002-----0
 62
     1
  5
C8
 10
320.798462
 20
235.283321
 30
0.0
 11
320.798462
 21
135.283321
 31
0.0
  0
LINE
  8
LC-001-002-----0
 62
     1
  5
C9
 10
310.798462
 20
125.28332
 30
0.0
 11
210.798462
 21
125.28332
 31
0.0
  0
LINE
  8
LC-001-002-----0
 62
     1
  5
CA
 10
200.798462
 20
135.283321
 30
0.0
 11
200.798462
 21
235.283321
 31
0.0
  0
DIMENSION
  8
LC-005-003-----0
 62
     2
  5
E5
  2
*D0
 10
260.798462
 20
269.624921
 30
0.0
 11
260.798462
 21
269.624921
 31
0.0
 13
200.798462
 23
235.283321
 33
0.0
 14
320.798462
 24
235.283321
 34
0.0
  3
LC-DIM-L-0140-02-02
  0
ENDSEC
  0
EOF
