  0
SECTION
  2
HEADER
  9
$ACADVER
  1
AC1009
  9
$INSBASE
 10
0.0
 20
0.0
 30
0.0
  9
$EXTMIN
 10
-315.0
 20
-148.5
 30
0.0
  9
$EXTMAX
 10
525.0
 20
445.5
 30
0.0
  9
$LIMMIN
 10
-315.0
 20
-148.5
  9
$LIMMAX
 10
525.0
 20
445.5
  9
$ORTHOMODE
 70
     0
  9
$REGENMODE
 70
     1
  9
$FILLMODE
 70
     1
  9
$QTEXTMODE
 70
     0
  9
$MIRRTEXT
 70
     1
  9
$DRAGMODE
 70
     2
  9
$LTSCALE
 40
2.0
  9
$OSMODE
 70
     0
  9
$ATTMODE
 70
     1
  9
$TEXTSIZE
 40
0.2
  9
$TRACEWID
 40
0.05
  9
$TEXTSTYLE
  7
STANDARD
  9
$CLAYER
  8
0
  9
$CELTYPE
  6
BYLAYER
  9
$CECOLOR
 62
     7
  9
$DIMSCALE
 40
2.0
  9
$DIMASZ
 40
3.5
  9
$DIMEXO
 40
0.0625
  9
$DIMDLI
 40
0.38
  9
$DIMRND
 40
0.0
  9
$DIMDLE
 40
0.0
  9
$DIMEXE
 40
0.18
  9
$DIMTP
 40
0.0
  9
$DIMTM
 40
0.0
  9
$DIMTXT
 40
3.5
  9
$DIMCEN
 40
0.09
  9
$DIMTSZ
 40
0.0
  9
$DIMTOL
 70
     0
  9
$DIMLIM
 70
     0
  9
$DIMTIH
 70
     1
  9
$DIMTOH
 70
     1
  9
$DIMSE1
 70
     0
  9
$DIMSE2
 70
     0
  9
$DIMTAD
 70
     1
  9
$DIMZIN
 70
     0
  9
$DIMBLK
  1

  9
$DIMASO
 70
     1
  9
$DIMSHO
 70
     1
  9
$DIMPOST
  1

  9
$DIMAPOST
  1

  9
$DIMALT
 70
     0
  9
$DIMALTD
 70
     2
  9
$DIMALTF
 40
25.4
  9
$DIMLFAC
 40
1.0
  9
$DIMTOFL
 70
     0
  9
$DIMTVP
 40
0.0
  9
$DIMTIX
 70
     0
  9
$DIMSOXD
 70
     0
  9
$DIMSAH
 70
     0
  9
$DIMBLK1
  1

  9
$DIMBLK2
  1

  9
$DIMSTYLE
  2
STANDARD
  9
$DIMCLRD
 70
     0
  9
$DIMCLRE
 70
     0
  9
$DIMCLRT
 70
     0
  9
$DIMTFAC
 40
1.0
  9
$DIMGAP
 40
0.09
  9
$LUNITS
 70
     2
  9
$LUPREC
 70
     2
  9
$AXISMODE
 70
     0
  9
$AXISUNIT
 10
0.0
 20
0.0
  9
$SKETCHINC
 40
0.1
  9
$FILLETRAD
 40
0.0
  9
$AUNITS
 70
     0
  9
$AUPREC
 70
     0
  9
$MENU
  1
acad
  9
$ELEVATION
 40
0.0
  9
$PELEVATION
 40
0.0
  9
$THICKNESS
 40
0.0
  9
$LIMCHECK
 70
     0
  9
$BLIPMODE
 70
     1
  9
$CHAMFERA
 40
0.0
  9
$CHAMFERB
 40
0.0
  9
$SKPOLY
 70
     0
  9
$TDCREATE
 40
0.000000000
  9
$TDUPDATE
 40
0.000000000
  9
$TDINDWG
 40
0.0000000000
  9
$TDUSRTIMER
 40
0.0000000000
  9
$USRTIMER
 70
     1
  9
$ANGBASE
 50
0.0
  9
$ANGDIR
 70
     0
  9
$PDMODE
 70
     0
  9
$PDSIZE
 40
0.0
  9
$PLINEWID
 40
0.0
  9
$COORDS
 70
     0
  9
$SPLFRAME
 70
     0
  9
$SPLINETYPE
 70
     6
  9
$SPLINESEGS
 70
     8
  9
$ATTDIA
 70
     0
  9
$ATTREQ
 70
     1
  9
$HANDLING
 70
     1
  9
$HANDSEED
  5
BE
  9
$SURFTAB1
 70
     6
  9
$SURFTAB2
 70
     6
  9
$SURFTYPE
 70
     6
  9
$SURFU
 70
     6
  9
$SURFV
 70
     6
  9
$UCSNAME
  2

  9
$UCSORG
 10
0.0
 20
0.0
 30
0.0
  9
$UCSXDIR
 10
1.0
 20
0.0
 30
0.0
  9
$UCSYDIR
 10
0.0
 20
1.0
 30
0.0
  9
$PUCSNAME
  2

  9
$PUCSORG
 10
0.0
 20
0.0
 30
0.0
  9
$PUCSXDIR
 10
1.0
 20
0.0
 30
0.0
  9
$PUCSYDIR
 10
0.0
 20
1.0
 30
0.0
  9
$USERI1
 70
     0
  9
$USERI2
 70
     0
  9
$USERI3
 70
     0
  9
$USERI4
 70
     0
  9
$USERI5
 70
     0
  9
$USERR1
 40
0.0
  9
$USERR2
 40
0.0
  9
$USERR3
 40
0.0
  9
$USERR4
 40
0.0
  9
$USERR5
 40
0.0
  9
$WORLDVIEW
 70
     1
  9
$SHADEDGE
 70
     3
  9
$SHADEDIF
 70
    70
  9
$TILEMODE
 70
     1
  9
$MAXACTVP
 70
    16
  9
$PINSBASE
 10
0.0
 20
0.0
 30
0.0
  9
$PLIMCHECK
 70
     0
  9
$PEXTMIN
 10
1.000000E+20
 20
1.000000E+20
 30
1.000000E+20
  9
$PEXTMAX
 10
-1.000000E+20
 20
-1.000000E+20
 30
-1.000000E+20
  9
$PLIMMIN
 10
-315.0
 20
-148.5
  9
$PLIMMAX
 10
525.0
 20
445.5
  9
$UNITMODE
 70
     0
  9
$VISRETAIN
 70
     0
  9
$PLINEGEN
 70
     1
  9
$PSLTSCALE
 70
     0
  9
$TREEDEPTH
 70
  3020
  9
$DWGCODEPAGE
  3
dos850
  0
ENDSEC
  0
SECTION
  2
TABLES
  0
TABLE
  2
VPORT
 70
     1
  0
VPORT
  2
*ACTIVE
 70
     0
 10
0.0
 20
0.0
 11
1.0
 21
1.0
 12
420.0
 22
297.0
 13
0.0
 23
0.0
 14
1.0
 24
1.0
 15
0.0
 25
0.0
 16
0.0
 26
0.0
 36
1.0
 17
-315.0
 27
-148.5
 37
0.0
 40
594.0
 41
1.604229
 42
50.0
 43
0.0
 44
0.0
 50
0.0
 51
0.0
 71
     0
 72
   100
 73
     1
 74
     1
 75
     0
 76
     0
 77
     0
 78
     0
  0
ENDTAB
  0
TABLE
  2
LTYPE
 70
     1
  0
LTYPE
  2
CONTINUOUS
 70
    64
  3
Solid line
 72
    65
 73
     0
 40
0.0
  0
ENDTAB
  0
TABLE
  2
LAYER
 70
     8
  0
LAYER
  2
0
 70
     0
 62
     7
  6
CONTINUOUS
  0
LAYER
  2
LC-INFO-1-2-MM-A3-0
 70
     1
 62
    -1
  6
CONTINUOUS
  0
LAYER
  2
LC-004-003-MTH-0
 70
     0
 62
     2
  6
CONTINUOUS
  0
LAYER
  2
LC-005-003-MTG-0
 70
     0
 62
     2
  6
CONTINUOUS
  0
LAYER
  2
LC-003-003-----0
 70
     0
 62
     2
  6
CONTINUOUS
  0
LAYER
  2
LC-001-000-----0
 70
     0
 62
     7
  6
CONTINUOUS
  0
LAYER
  2
LC-002-002-----0
 70
     0
 62
     1
  6
CONTINUOUS
  0
LAYER
  2
LC-000
 70
     0
 62
     7
  6
CONTINUOUS
  0
ENDTAB
  0
TABLE
  2
STYLE
 70
     4
  0
STYLE
  2
STANDARD
 70
     0
 40
0.0
 41
1.0
 50
0.0
 71
     0
 42
0.0
  3
txt
  4

  0
STYLE
  2
LC-STANDARD
 70
    64
 40
0.0
 41
1.0
 50
0.0
 71
     0
 42
3.5
  3
MONOTXT
  4

  0
STYLE
  2
LC-TXTSTYLE-150-400-0-0-A2
 70
    64
 40
0.0
 41
1.0
 50
15.0
 71
     0
 42
3.5
  3
MONOTXT
  4

  0
STYLE
  2
LC-TXTSTYLE-150-400-0-0-D3
 70
    64
 40
0.0
 41
1.0
 50
15.0
 71
     0
 42
3.5
  3
LC-STANDARD
  4

  0
ENDTAB
  0
TABLE
  2
VIEW
 70
     0
  0
ENDTAB
  0
TABLE
  2
UCS
 70
     0
  0
ENDTAB
  0
TABLE
  2
APPID
 70
     1
  0
APPID
  2
ACAD
 70
     0
  0
ENDTAB
  0
TABLE
  2
DIMSTYLE
 70
     3
  0
DIMSTYLE
  2
STANDARD
 70
     0
  3

  4

  5

  6

  7

 40
1.0
 41
0.18
 42
0.0625
 43
0.38
 44
0.18
 45
0.0
 46
0.0
 47
0.0
 48
0.0
 71
     0
 72
     0
 73
     1
 74
     1
 75
     0
 76
     0
 77
     0
 78
     0
140
0.18
141
0.09
142
0.0
143
25.4
144
1.0
145
0.0
146
1.0
147
0.09
170
     0
171
     2
172
     0
173
     0
174
     0
175
     0
176
     0
177
     0
178
     0
  0
DIMSTYLE
  2
LC-STANDARD
 70
     0
  3

  4

  5

  6

  7

 40
1.0
 41
3.5
 42
0.0
 43
7.5
 44
1.8
 45
0.0
 46
0.0
 47
0.0
 48
0.0
 71
     0
 72
     0
 73
     0
 74
     0
 75
     0
 76
     0
 77
     1
 78
     8
140
3.5
141
0.0
142
0.0
143
25.4
144
1.0
145
0.0
146
0.71
147
1.5
170
     0
171
     2
172
     1
173
     0
174
     0
175
     0
176
     0
177
     0
178
     3
  0
DIMSTYLE
  2
LC-DIM-L-0140-02-02
 70
     0
  3

  4

  5

  6

  7

 40
2.0
 41
3.5
 42
0.0
 43
7.5
 44
1.8
 45
0.0
 46
0.0
 47
0.0
 48
0.0
 71
     0
 72
     0
 73
     0
 74
     0
 75
     0
 76
     0
 77
     1
 78
     8
140
14.0
141
0.0
142
0.0
143
25.4
144
1.0
145
0.0
146
0.71
147
1.5
170
     0
171
     2
172
     0
173
     0
174
     0
175
     0
176
     2
177
     2
178
     8
  0
ENDTAB
  0
ENDSEC
  0
SECTION
  2
BLOCKS
  0
BLOCK
  8
0
  5
23
  2
BLK1
 70
    64
 10
0.0
 20
0.0
 30
0.0
  3
BLK1
  0
ENDBLK
  8
0
  5
24
  0
BLOCK
  8
0
  5
26
  2
*D1
 70
    65
 10
0.0
 20
0.0
 30
0.0
  3
*D1
  0
LINE
  8
LC-004-003-MTH-0
  6
CONTINUOUS
  5
28
 10
53.746661
 20
257.82429
 30
0.0
 11
53.746661
 21
292.189475
 31
0.0
  0
LINE
  8
LC-004-003-MTH-0
  6
CONTINUOUS
  5
29
 10
168.746661
 20
257.82429
 30
0.0
 11
168.746661
 21
292.189475
 31
0.0
  0
LINE
  8
LC-005-003-MTG-0
  6
CONTINUOUS
  5
2B
 10
53.746661
 20
275.389475
 30
0.0
 11
168.746661
 21
275.389475
 31
0.0
  0
LINE
  8
LC-003-003-----0
  6
CONTINUOUS
  5
2D
 10
81.507118
 20
279.044208
 30
0.0
 11
53.746661
 21
275.389475
 31
0.0
  0
LINE
  8
LC-003-003-----0
  6
CONTINUOUS
  5
2E
 10
53.746661
 20
275.389475
 30
0.0
 11
81.507118
 21
271.734741
 31
0.0
  0
LINE
  8
LC-003-003-----0
  6
CONTINUOUS
  5
2F
 10
81.507118
 20
271.734741
 30
0.0
 11
81.507118
 21
279.044208
 31
0.0
  0
LINE
  8
LC-003-003-----0
  6
CONTINUOUS
  5
30
 10
81.569399
 20
278.093977
 30
0.0
 11
61.026661
 21
275.389475
 31
0.0
  0
LINE
  8
LC-003-003-----0
  6
CONTINUOUS
  5
31
 10
61.026661
 20
275.389475
 30
0.0
 11
81.569399
 21
272.684972
 31
0.0
  0
LINE
  8
LC-003-003-----0
  6
CONTINUOUS
  5
32
 10
81.63168
 20
277.143747
 30
0.0
 11
68.306661
 21
275.389475
 31
0.0
  0
LINE
  8
LC-003-003-----0
  6
CONTINUOUS
  5
33
 10
68.306661
 20
275.389475
 30
0.0
 11
81.63168
 21
273.635203
 31
0.0
  0
LINE
  8
LC-003-003-----0
  6
CONTINUOUS
  5
34
 10
81.693962
 20
276.193516
 30
0.0
 11
75.586661
 21
275.389475
 31
0.0
  0
LINE
  8
LC-003-003-----0
  6
CONTINUOUS
  5
35
 10
75.586661
 20
275.389475
 30
0.0
 11
81.693962
 21
274.585433
 31
0.0
  0
LINE
  8
LC-003-003-----0
  6
CONTINUOUS
  5
36
 10
140.986205
 20
271.734741
 30
0.0
 11
168.746661
 21
275.389475
 31
0.0
  0
LINE
  8
LC-003-003-----0
  6
CONTINUOUS
  5
37
 10
168.746661
 20
275.389475
 30
0.0
 11
140.986205
 21
279.044208
 31
0.0
  0
LINE
  8
LC-003-003-----0
  6
CONTINUOUS
  5
38
 10
140.986205
 20
279.044208
 30
0.0
 11
140.986205
 21
271.734741
 31
0.0
  0
LINE
  8
LC-003-003-----0
  6
CONTINUOUS
  5
39
 10
140.923924
 20
272.684972
 30
0.0
 11
161.466661
 21
275.389475
 31
0.0
  0
LINE
  8
LC-003-003-----0
  6
CONTINUOUS
  5
3A
 10
161.466661
 20
275.389475
 30
0.0
 11
140.923924
 21
278.093977
 31
0.0
  0
LINE
  8
LC-003-003-----0
  6
CONTINUOUS
  5
3B
 10
140.861643
 20
273.635203
 30
0.0
 11
154.186661
 21
275.389475
 31
0.0
  0
LINE
  8
LC-003-003-----0
  6
CONTINUOUS
  5
3C
 10
154.186661
 20
275.389475
 30
0.0
 11
140.861643
 21
277.143747
 31
0.0
  0
LINE
  8
LC-003-003-----0
  6
CONTINUOUS
  5
3D
 10
140.799361
 20
274.585433
 30
0.0
 11
146.906661
 21
275.389475
 31
0.0
  0
LINE
  8
LC-003-003-----0
  6
CONTINUOUS
  5
3E
 10
146.906661
 20
275.389475
 30
0.0
 11
140.799361
 21
276.193516
 31
0.0
  0
TEXT
  8
LC-003-003-----0
  6
CONTINUOUS
 62
     8
  5
40
 10
85.8094
 20
283.217029
 30
0.0
 40
28.0
  1
115
 41
0.9
 51
15.0
  7
LC-TXTSTYLE-150-400-0-0-D0
 72
     1
 11
115.57318
 21
283.217029
 31
0.0
  0
ENDBLK
  8
0
  5
41
  0
ENDSEC
  0
SECTION
  2
ENTITIES
  0
VIEWPORT
  8
LC-000
  5
B9
 67
     1
 68
     1
 10
420.0
 20
297.0
 30
0.0
 40
840.0
 41
594.0
 69
     1
1001
ACAD
1000
MVIEW
1002
{
1070
    16
1010
0.0
1020
0.0
1030
0.0
1010
0.0
1020
0.0
1030
1.0
1040
0.0
1040
594.0
1040
420.0
1040
297.0
1040
50.0
1040
0.0
1040
0.0
1070
     0
1070
   100
1070
     1
1070
     1
1070
     0
1070
     0
1070
     0
1070
     0
1040
0.0
1040
0.0
1040
0.0
1040
1.0
1040
1.0
1040
0.0
1040
0.0
1070
     0
1002
{
1002
}
1002
}
  0
VIEWPORT
  8
0
  5
BA
 67
     1
 68
     1
 10
0.0
 20
0.0
 30
0.0
 40
0.0
 41
0.0
 69
     1
1001
ACAD
1000
MVIEW
1002
{
1070
    16
1010
0.0
1020
0.0
1030
0.0
1010
0.0
1020
0.0
1030
1.0
1040
0.0
1040
594.0
1040
0.0
1040
0.0
1040
50.0
1040
0.0
1040
0.0
1070
     0
1070
   100
1070
     0
1070
     1
1070
     0
1070
     0
1070
     0
1070
     0
1040
0.0
1040
0.0
1040
0.0
1040
0.5
1040
0.5
1040
0.5
1040
0.5
1070
     0
1002
{
1002
}
1002
}
  0
INSERT
  8
0
  5
43
  2
BLK1
 10
0.0
 20
0.0
 30
0.0
  0
DIMENSION
  8
0
  5
44
  2
*D1
 10
111.22502
 20
275.389475
 30
0.0
 11
111.22502
 21
275.389475
 31
0.0
 13
53.746661
 23
257.82429
 33
0.0
 14
168.746661
 24
257.82429
 34
0.0
  3
LC-DIM-L-0140-02-02
  0
ARC
  8
LC-002-002-----0
  6
CONTINUOUS
  5
46
 10
95.342594
 20
175.824305
 30
0.0
 40
2.0
 50
0.0
 51
168.463041
  0
ARC
  8
LC-002-002-----0
  6
CONTINUOUS
  5
47
 10
95.342594
 20
175.824305
 30
0.0
 40
2.0
 50
348.463041
 51
0.0
  0
ARC
  8
LC-002-002-----0
  6
CONTINUOUS
  5
48
 10
111.246676
 20
228.294305
 30
0.0
 40
8.0
 50
191.536959
 51
348.463041
  0
ARC
  8
LC-002-002-----0
  6
CONTINUOUS
  5
49
 10
72.693615
 20
228.824305
 30
0.0
 40
12.0
 50
11.536959
 51
84.965526
  0
ARC
  8
LC-002-002-----0
  6
CONTINUOUS
  5
4A
 10
149.799738
 20
203.764305
 30
0.0
 40
8.0
 50
97.56395
 51
168.463041
  0
ARC
  8
LC-002-002-----0
  6
CONTINUOUS
  5
4B
 10
146.746676
 20
200.884305
 30
0.0
 40
2.0
 50
0.0
 51
168.463041
  0
ARC
  8
LC-002-002-----0
  6
CONTINUOUS
  5
4C
 10
146.746676
 20
200.884305
 30
0.0
 40
2.0
 50
348.463041
 51
0.0
  0
ARC
  8
LC-002-002-----0
  6
CONTINUOUS
  5
4D
 10
136.948717
 20
177.824305
 30
0.0
 40
12.0
 50
191.536959
 51
348.463041
  0
ARC
  8
LC-002-002-----0
  6
CONTINUOUS
  5
4E
 10
121.044635
 20
175.824305
 30
0.0
 40
2.0
 50
0.0
 51
168.463041
  0
ARC
  8
LC-002-002-----0
  6
CONTINUOUS
  5
4F
 10
121.044635
 20
175.824305
 30
0.0
 40
2.0
 50
348.463041
 51
0.0
  0
LINE
  8
LC-002-002-----0
  6
CONTINUOUS
  5
50
 10
73.746661
 20
236.754678
 30
0.0
 11
73.746661
 21
240.777995
 31
0.0
  0
ARC
  8
LC-002-002-----0
  6
CONTINUOUS
  5
51
 10
101.448717
 20
226.294305
 30
0.0
 40
2.0
 50
11.536959
 51
191.536959
  0
ARC
  8
LC-002-002-----0
  6
CONTINUOUS
  5
52
 10
149.799738
 20
178.354305
 30
0.0
 40
12.0
 50
95.034474
 51
168.463041
  0
ARC
  8
LC-002-002-----0
  6
CONTINUOUS
  5
53
 10
72.693615
 20
203.764305
 30
0.0
 40
12.0
 50
11.536959
 51
84.965526
  0
ARC
  8
LC-002-002-----0
  6
CONTINUOUS
  5
54
 10
124.097697
 20
178.354305
 30
0.0
 40
12.0
 50
11.536959
 51
168.463041
  0
ARC
  8
LC-002-002-----0
  6
CONTINUOUS
  5
55
 10
108.193615
 20
180.354305
 30
0.0
 40
2.0
 50
0.0
 51
11.536959
  0
ARC
  8
LC-002-002-----0
  6
CONTINUOUS
  5
56
 10
108.193615
 20
180.354305
 30
0.0
 40
2.0
 50
191.536959
 51
0.0
  0
ARC
  8
LC-002-002-----0
  6
CONTINUOUS
  5
57
 10
136.948717
 20
228.294305
 30
0.0
 40
8.0
 50
191.536959
 51
348.463041
  0
ARC
  8
LC-002-002-----0
  6
CONTINUOUS
  5
58
 10
75.746676
 20
200.884305
 30
0.0
 40
2.0
 50
11.536959
 51
191.536959
  0
ARC
  8
LC-002-002-----0
  6
CONTINUOUS
  5
59
 10
56.746676
 20
257.824305
 30
0.0
 40
3.0
 50
90.0
 51
180.0
  0
ARC
  8
LC-002-002-----0
  6
CONTINUOUS
  5
5A
 10
111.246676
 20
228.294305
 30
0.0
 40
12.0
 50
191.536959
 51
348.463041
  0
ARC
  8
LC-002-002-----0
  6
CONTINUOUS
  5
5B
 10
98.395656
 20
228.824305
 30
0.0
 40
8.0
 50
11.536959
 51
168.463041
  0
ARC
  8
LC-002-002-----0
  6
CONTINUOUS
  5
5C
 10
108.193615
 20
205.764305
 30
0.0
 40
2.0
 50
0.0
 51
11.536959
  0
ARC
  8
LC-002-002-----0
  6
CONTINUOUS
  5
5D
 10
108.193615
 20
205.764305
 30
0.0
 40
2.0
 50
191.536959
 51
0.0
  0
LINE
  8
LC-002-002-----0
  6
CONTINUOUS
  5
5E
 10
165.746661
 20
145.82429
 30
0.0
 11
56.746661
 21
145.82429
 31
0.0
  0
ARC
  8
LC-002-002-----0
  6
CONTINUOUS
  5
5F
 10
133.895656
 20
205.764305
 30
0.0
 40
2.0
 50
0.0
 51
11.536959
  0
ARC
  8
LC-002-002-----0
  6
CONTINUOUS
  5
60
 10
133.895656
 20
205.764305
 30
0.0
 40
2.0
 50
191.536959
 51
0.0
  0
ARC
  8
LC-002-002-----0
  6
CONTINUOUS
  5
61
 10
72.693615
 20
203.764305
 30
0.0
 40
8.0
 50
11.536959
 51
82.43605
  0
ARC
  8
LC-002-002-----0
  6
CONTINUOUS
  5
62
 10
88.597697
 20
180.354305
 30
0.0
 40
2.0
 50
168.463041
 51
348.463041
  0
ARC
  8
LC-002-002-----0
  6
CONTINUOUS
  5
63
 10
111.246676
 20
202.884305
 30
0.0
 40
8.0
 50
191.536959
 51
348.463041
  0
ARC
  8
LC-002-002-----0
  6
CONTINUOUS
  5
64
 10
124.097697
 20
203.764305
 30
0.0
 40
12.0
 50
11.536959
 51
168.463041
  0
ARC
  8
LC-002-002-----0
  6
CONTINUOUS
  5
65
 10
127.150758
 20
175.824305
 30
0.0
 40
2.0
 50
11.536959
 51
191.536959
  0
LINE
  8
LC-002-002-----0
  6
CONTINUOUS
  5
66
 10
148.746661
 20
190.307995
 30
0.0
 11
148.746661
 21
186.284678
 31
0.0
  0
ARC
  8
LC-002-002-----0
  6
CONTINUOUS
  5
67
 10
72.693615
 20
178.354305
 30
0.0
 40
12.0
 50
11.536959
 51
84.965526
  0
ARC
  8
LC-002-002-----0
  6
CONTINUOUS
  5
68
 10
149.799738
 20
228.824305
 30
0.0
 40
12.0
 50
95.034474
 51
168.463041
  0
ARC
  8
LC-002-002-----0
  6
CONTINUOUS
  5
69
 10
136.948717
 20
228.294305
 30
0.0
 40
12.0
 50
191.536959
 51
348.463041
  0
ARC
  8
LC-002-002-----0
  6
CONTINUOUS
  5
6A
 10
101.448717
 20
175.824305
 30
0.0
 40
2.0
 50
11.536959
 51
191.536959
  0
ARC
  8
LC-002-002-----0
  6
CONTINUOUS
  5
6B
 10
98.395656
 20
178.354305
 30
0.0
 40
12.0
 50
11.536959
 51
168.463041
  0
ARC
  8
LC-002-002-----0
  6
CONTINUOUS
  5
6C
 10
140.001779
 20
180.354305
 30
0.0
 40
2.0
 50
168.463041
 51
348.463041
  0
LINE
  8
LC-002-002-----0
  6
CONTINUOUS
  5
6D
 10
53.746661
 20
148.82429
 30
0.0
 11
53.746661
 21
257.82429
 31
0.0
  0
ARC
  8
LC-002-002-----0
  6
CONTINUOUS
  5
6E
 10
72.693615
 20
178.354305
 30
0.0
 40
8.0
 50
11.536959
 51
82.43605
  0
ARC
  8
LC-002-002-----0
  6
CONTINUOUS
  5
6F
 10
82.491574
 20
205.764305
 30
0.0
 40
2.0
 50
0.0
 51
11.536959
  0
ARC
  8
LC-002-002-----0
  6
CONTINUOUS
  5
70
 10
82.491574
 20
205.764305
 30
0.0
 40
2.0
 50
191.536959
 51
0.0
  0
ARC
  8
LC-002-002-----0
  6
CONTINUOUS
  5
71
 10
165.746676
 20
148.824305
 30
0.0
 40
3.0
 50
270.0
 51
0.0
  0
ARC
  8
LC-002-002-----0
  6
CONTINUOUS
  5
72
 10
85.544635
 20
202.884305
 30
0.0
 40
12.0
 50
191.536959
 51
348.463041
  0
ARC
  8
LC-002-002-----0
  6
CONTINUOUS
  5
73
 10
82.491574
 20
230.824305
 30
0.0
 40
2.0
 50
0.0
 51
11.536959
  0
ARC
  8
LC-002-002-----0
  6
CONTINUOUS
  5
74
 10
82.491574
 20
230.824305
 30
0.0
 40
2.0
 50
191.536959
 51
0.0
  0
ARC
  8
LC-002-002-----0
  6
CONTINUOUS
  5
75
 10
75.746676
 20
226.294305
 30
0.0
 40
2.0
 50
11.536959
 51
191.536959
  0
ARC
  8
LC-002-002-----0
  6
CONTINUOUS
  5
76
 10
98.395656
 20
178.354305
 30
0.0
 40
8.0
 50
11.536959
 51
168.463041
  0
LINE
  8
LC-002-002-----0
  6
CONTINUOUS
  5
77
 10
56.746661
 20
260.82429
 30
0.0
 11
165.746661
 21
260.82429
 31
0.0
  0
ARC
  8
LC-002-002-----0
  6
CONTINUOUS
  5
78
 10
114.299738
 20
230.824305
 30
0.0
 40
2.0
 50
168.463041
 51
348.463041
  0
ARC
  8
LC-002-002-----0
  6
CONTINUOUS
  5
79
 10
114.299738
 20
205.764305
 30
0.0
 40
2.0
 50
168.463041
 51
348.463041
  0
ARC
  8
LC-002-002-----0
  6
CONTINUOUS
  5
7A
 10
140.001779
 20
230.824305
 30
0.0
 40
2.0
 50
168.463041
 51
348.463041
  0
ARC
  8
LC-002-002-----0
  6
CONTINUOUS
  5
7B
 10
111.246676
 20
177.824305
 30
0.0
 40
12.0
 50
191.536959
 51
348.463041
  0
ARC
  8
LC-002-002-----0
  6
CONTINUOUS
  5
7C
 10
95.342594
 20
226.294305
 30
0.0
 40
2.0
 50
0.0
 51
168.463041
  0
ARC
  8
LC-002-002-----0
  6
CONTINUOUS
  5
7D
 10
95.342594
 20
226.294305
 30
0.0
 40
2.0
 50
348.463041
 51
0.0
  0
ARC
  8
LC-002-002-----0
  6
CONTINUOUS
  5
7E
 10
114.299738
 20
180.354305
 30
0.0
 40
2.0
 50
168.463041
 51
348.463041
  0
ARC
  8
LC-002-002-----0
  6
CONTINUOUS
  5
7F
 10
98.395656
 20
203.764305
 30
0.0
 40
12.0
 50
11.536959
 51
168.463041
  0
ARC
  8
LC-002-002-----0
  6
CONTINUOUS
  5
80
 10
111.246676
 20
202.884305
 30
0.0
 40
12.0
 50
191.536959
 51
348.463041
  0
ARC
  8
LC-002-002-----0
  6
CONTINUOUS
  5
81
 10
85.544635
 20
228.294305
 30
0.0
 40
8.0
 50
191.536959
 51
348.463041
  0
ARC
  8
LC-002-002-----0
  6
CONTINUOUS
  5
82
 10
88.597697
 20
205.764305
 30
0.0
 40
2.0
 50
168.463041
 51
348.463041
  0
LINE
  8
LC-002-002-----0
  6
CONTINUOUS
  5
83
 10
148.746661
 20
215.717995
 30
0.0
 11
148.746661
 21
211.694678
 31
0.0
  0
ARC
  8
LC-002-002-----0
  6
CONTINUOUS
  5
84
 10
136.948717
 20
202.884305
 30
0.0
 40
12.0
 50
191.536959
 51
348.463041
  0
ARC
  8
LC-002-002-----0
  6
CONTINUOUS
  5
85
 10
85.544635
 20
228.294305
 30
0.0
 40
12.0
 50
191.536959
 51
348.463041
  0
ARC
  8
LC-002-002-----0
  6
CONTINUOUS
  5
86
 10
85.544635
 20
177.824305
 30
0.0
 40
8.0
 50
191.536959
 51
348.463041
  0
ARC
  8
LC-002-002-----0
  6
CONTINUOUS
  5
87
 10
82.491574
 20
180.354305
 30
0.0
 40
2.0
 50
0.0
 51
11.536959
  0
ARC
  8
LC-002-002-----0
  6
CONTINUOUS
  5
88
 10
82.491574
 20
180.354305
 30
0.0
 40
2.0
 50
191.536959
 51
0.0
  0
ARC
  8
LC-002-002-----0
  6
CONTINUOUS
  5
89
 10
149.799738
 20
228.824305
 30
0.0
 40
8.0
 50
97.56395
 51
168.463041
  0
ARC
  8
LC-002-002-----0
  6
CONTINUOUS
  5
8A
 10
140.001779
 20
205.764305
 30
0.0
 40
2.0
 50
168.463041
 51
348.463041
  0
ARC
  8
LC-002-002-----0
  6
CONTINUOUS
  5
8B
 10
121.044635
 20
226.294305
 30
0.0
 40
2.0
 50
0.0
 51
168.463041
  0
ARC
  8
LC-002-002-----0
  6
CONTINUOUS
  5
8C
 10
121.044635
 20
226.294305
 30
0.0
 40
2.0
 50
348.463041
 51
0.0
  0
ARC
  8
LC-002-002-----0
  6
CONTINUOUS
  5
8D
 10
85.544635
 20
202.884305
 30
0.0
 40
8.0
 50
191.536959
 51
348.463041
  0
ARC
  8
LC-002-002-----0
  6
CONTINUOUS
  5
8E
 10
136.948717
 20
177.824305
 30
0.0
 40
8.0
 50
191.536959
 51
348.463041
  0
ARC
  8
LC-002-002-----0
  6
CONTINUOUS
  5
8F
 10
127.150758
 20
226.294305
 30
0.0
 40
2.0
 50
11.536959
 51
191.536959
  0
ARC
  8
LC-002-002-----0
  6
CONTINUOUS
  5
90
 10
146.746676
 20
175.824305
 30
0.0
 40
2.0
 50
0.0
 51
168.463041
  0
ARC
  8
LC-002-002-----0
  6
CONTINUOUS
  5
91
 10
146.746676
 20
175.824305
 30
0.0
 40
2.0
 50
348.463041
 51
0.0
  0
ARC
  8
LC-002-002-----0
  6
CONTINUOUS
  5
92
 10
165.746676
 20
257.824305
 30
0.0
 40
3.0
 50
0.0
 51
90.0
  0
ARC
  8
LC-002-002-----0
  6
CONTINUOUS
  5
93
 10
98.395656
 20
203.764305
 30
0.0
 40
8.0
 50
11.536959
 51
168.463041
  0
ARC
  8
LC-002-002-----0
  6
CONTINUOUS
  5
94
 10
85.544635
 20
177.824305
 30
0.0
 40
12.0
 50
191.536959
 51
348.463041
  0
LINE
  8
LC-002-002-----0
  6
CONTINUOUS
  5
95
 10
168.746661
 20
257.82429
 30
0.0
 11
168.746661
 21
148.82429
 31
0.0
  0
ARC
  8
LC-002-002-----0
  6
CONTINUOUS
  5
96
 10
56.746676
 20
148.824305
 30
0.0
 40
3.0
 50
180.0
 51
270.0
  0
ARC
  8
LC-002-002-----0
  6
CONTINUOUS
  5
97
 10
124.097697
 20
228.824305
 30
0.0
 40
12.0
 50
11.536959
 51
168.463041
  0
LINE
  8
LC-002-002-----0
  6
CONTINUOUS
  5
98
 10
73.746661
 20
211.694678
 30
0.0
 11
73.746661
 21
215.717995
 31
0.0
  0
ARC
  8
LC-002-002-----0
  6
CONTINUOUS
  5
99
 10
111.246676
 20
177.824305
 30
0.0
 40
8.0
 50
191.536959
 51
348.463041
  0
ARC
  8
LC-002-002-----0
  6
CONTINUOUS
  5
9A
 10
101.448717
 20
200.884305
 30
0.0
 40
2.0
 50
11.536959
 51
191.536959
  0
ARC
  8
LC-002-002-----0
  6
CONTINUOUS
  5
9B
 10
88.597697
 20
230.824305
 30
0.0
 40
2.0
 50
168.463041
 51
348.463041
  0
ARC
  8
LC-002-002-----0
  6
CONTINUOUS
  5
9C
 10
124.097697
 20
203.764305
 30
0.0
 40
8.0
 50
11.536959
 51
168.463041
  0
ARC
  8
LC-002-002-----0
  6
CONTINUOUS
  5
9D
 10
72.693615
 20
228.824305
 30
0.0
 40
8.0
 50
11.536959
 51
82.43605
  0
ARC
  8
LC-002-002-----0
  6
CONTINUOUS
  5
9E
 10
98.395656
 20
228.824305
 30
0.0
 40
12.0
 50
11.536959
 51
168.463041
  0
ARC
  8
LC-002-002-----0
  6
CONTINUOUS
  5
9F
 10
149.799738
 20
203.764305
 30
0.0
 40
12.0
 50
95.034474
 51
168.463041
  0
ARC
  8
LC-002-002-----0
  6
CONTINUOUS
  5
A0
 10
121.044635
 20
200.884305
 30
0.0
 40
2.0
 50
0.0
 51
168.463041
  0
ARC
  8
LC-002-002-----0
  6
CONTINUOUS
  5
A1
 10
121.044635
 20
200.884305
 30
0.0
 40
2.0
 50
348.463041
 51
0.0
  0
ARC
  8
LC-002-002-----0
  6
CONTINUOUS
  5
A2
 10
124.097697
 20
178.354305
 30
0.0
 40
8.0
 50
11.536959
 51
168.463041
  0
ARC
  8
LC-002-002-----0
  6
CONTINUOUS
  5
A3
 10
133.895656
 20
180.354305
 30
0.0
 40
2.0
 50
0.0
 51
11.536959
  0
ARC
  8
LC-002-002-----0
  6
CONTINUOUS
  5
A4
 10
133.895656
 20
180.354305
 30
0.0
 40
2.0
 50
191.536959
 51
0.0
  0
ARC
  8
LC-002-002-----0
  6
CONTINUOUS
  5
A5
 10
146.746676
 20
226.294305
 30
0.0
 40
2.0
 50
0.0
 51
168.463041
  0
ARC
  8
LC-002-002-----0
  6
CONTINUOUS
  5
A6
 10
146.746676
 20
226.294305
 30
0.0
 40
2.0
 50
348.463041
 51
0.0
  0
ARC
  8
LC-002-002-----0
  6
CONTINUOUS
  5
A7
 10
108.193615
 20
230.824305
 30
0.0
 40
2.0
 50
0.0
 51
11.536959
  0
ARC
  8
LC-002-002-----0
  6
CONTINUOUS
  5
A8
 10
108.193615
 20
230.824305
 30
0.0
 40
2.0
 50
191.536959
 51
0.0
  0
LINE
  8
LC-002-002-----0
  6
CONTINUOUS
  5
A9
 10
73.746661
 20
186.284678
 30
0.0
 11
73.746661
 21
190.307995
 31
0.0
  0
ARC
  8
LC-002-002-----0
  6
CONTINUOUS
  5
AA
 10
124.097697
 20
228.824305
 30
0.0
 40
8.0
 50
11.536959
 51
168.463041
  0
ARC
  8
LC-002-002-----0
  6
CONTINUOUS
  5
AB
 10
133.895656
 20
230.824305
 30
0.0
 40
2.0
 50
0.0
 51
11.536959
  0
ARC
  8
LC-002-002-----0
  6
CONTINUOUS
  5
AC
 10
133.895656
 20
230.824305
 30
0.0
 40
2.0
 50
191.536959
 51
0.0
  0
ARC
  8
LC-002-002-----0
  6
CONTINUOUS
  5
AD
 10
127.150758
 20
200.884305
 30
0.0
 40
2.0
 50
11.536959
 51
191.536959
  0
ARC
  8
LC-002-002-----0
  6
CONTINUOUS
  5
AE
 10
149.799738
 20
178.354305
 30
0.0
 40
8.0
 50
97.56395
 51
168.463041
  0
ARC
  8
LC-002-002-----0
  6
CONTINUOUS
  5
AF
 10
136.948717
 20
202.884305
 30
0.0
 40
8.0
 50
191.536959
 51
348.463041
  0
ARC
  8
LC-002-002-----0
  6
CONTINUOUS
  5
B0
 10
95.342594
 20
200.884305
 30
0.0
 40
2.0
 50
0.0
 51
168.463041
  0
ARC
  8
LC-002-002-----0
  6
CONTINUOUS
  5
B1
 10
95.342594
 20
200.884305
 30
0.0
 40
2.0
 50
348.463041
 51
0.0
  0
ARC
  8
LC-002-002-----0
  6
CONTINUOUS
  5
B2
 10
75.746676
 20
175.824305
 30
0.0
 40
2.0
 50
11.536959
 51
191.536959
  0
LINE
  8
LC-002-002-----0
  6
CONTINUOUS
  5
B3
 10
148.746661
 20
240.777995
 30
0.0
 11
148.746661
 21
236.754678
 31
0.0
  0
LINE
  8
LC-002-002-----0
  6
CONTINUOUS
 62
     2
  5
B4
 10
73.54908
 20
285.714
 30
0.0
 11
88.54908
 21
285.714
 31
0.0
  0
LINE
  8
LC-002-002-----0
  6
CONTINUOUS
 62
     2
  5
B5
 10
88.54908
 20
285.714
 30
0.0
 11
88.54908
 21
300.714
 31
0.0
  0
LINE
  8
LC-002-002-----0
  6
CONTINUOUS
 62
     2
  5
B6
 10
73.54908
 20
300.714
 30
0.0
 11
88.54908
 21
300.714
 31
0.0
  0
LINE
  8
LC-002-002-----0
  6
CONTINUOUS
 62
     2
  5
B7
 10
73.54908
 20
285.714
 30
0.0
 11
73.54908
 21
300.714
 31
0.0
  0
ENDSEC
  0
EOF
