  0
SECTION
  2
HEADER
  9
$ACADVER
  1
AC1009
  9
$DWGCODEPAGE
  3
ansi_1252
  9
$INSBASE
 10
0.0
 20
0.0
 30
0.0
  9
$EXTMIN
 10
0.0
 20
0.0
 30
0.0
  9
$EXTMAX
 10
420.0
 20
297.0
 30
0.0
  9
$LIMMIN
 10
0.0
 20
0.0
  9
$LIMMAX
 10
420.0
 20
297.0
  9
$ORTHOMODE
 70
     0
  9
$REGENMODE
 70
     1
  9
$FILLMODE
 70
     1
  9
$QTEXTMODE
 70
     0
  9
$MIRRTEXT
 70
     1
  9
$DRAGMODE
 70
     2
  9
$LTSCALE
 40
1.0
  9
$OSMODE
 70
    37
  9
$ATTMODE
 70
     1
  9
$TEXTSIZE
 40
3.5
  9
$TRACEWID
 40
1.0
  9
$TEXTSTYLE
  7
STANDARD
  9
$CLAYER
  8
0
  9
$CELTYPE
  6
BYLAYER
  9
$CECOLOR
 62
   256
  9
$DIMSCALE
 40
1.0
  9
$DIMASZ
 40
4.0
  9
$DIMEXO
 40
1.0
  9
$DIMDLI
 40
3.75
  9
$DIMRND
 40
0.0
  9
$DIMDLE
 40
0.0
  9
$DIMEXE
 40
1.0
  9
$DIMTP
 40
0.0
  9
$DIMTM
 40
0.0
  9
$DIMTXT
 40
9.8777777778
  9
$DIMCEN
 40
2.5
  9
$DIMTSZ
 40
0.0
  9
$DIMTOL
 70
     0
  9
$DIMLIM
 70
     0
  9
$DIMTIH
 70
     1
  9
$DIMTOH
 70
     1
  9
$DIMSE1
 70
     0
  9
$DIMSE2
 70
     0
  9
$DIMTAD
 70
     1
  9
$DIMZIN
 70
     0
  9
$DIMBLK
  1

  9
$DIMASO
 70
     1
  9
$DIMSHO
 70
     1
  9
$DIMPOST
  1

  9
$DIMAPOST
  1

  9
$DIMALT
 70
     0
  9
$DIMALTD
 70
     3
  9
$DIMALTF
 40
0.0393700787
  9
$DIMLFAC
 40
1.0
  9
$DIMTOFL
 70
     1
  9
$DIMTVP
 40
0.0
  9
$DIMTIX
 70
     0
  9
$DIMSOXD
 70
     0
  9
$DIMSAH
 70
     0
  9
$DIMBLK1
  1

  9
$DIMBLK2
  1

  9
$DIMSTYLE
  2
ISO-25
  9
$DIMCLRD
 70
     0
  9
$DIMCLRE
 70
     0
  9
$DIMCLRT
 70
     0
  9
$DIMTFAC
 40
1.0
  9
$DIMGAP
 40
1.524
  9
$LUNITS
 70
     2
  9
$LUPREC
 70
     2
  9
$SKETCHINC
 40
1.0
  9
$FILLETRAD
 40
10.0
  9
$AUNITS
 70
     0
  9
$AUPREC
 70
     2
  9
$MENU
  1
.
  9
$ELEVATION
 40
0.0
  9
$PELEVATION
 40
0.0
  9
$THICKNESS
 40
0.0
  9
$LIMCHECK
 70
     0
  9
$CHAMFERA
 40
0.0
  9
$CHAMFERB
 40
0.0
  9
$SKPOLY
 70
     0
  9
$TDCREATE
 40
2460060.555975926
  9
$TDUPDATE
 40
2460060.555976296
  9
$TDINDWG
 40
0.0000000116
  9
$TDUSRTIMER
 40
0.0000000116
  9
$USRTIMER
 70
     1
  9
$ANGBASE
 50
0.0
  9
$ANGDIR
 70
     0
  9
$PDMODE
 70
     0
  9
$PDSIZE
 40
-1.0
  9
$PLINEWID
 40
0.0
  9
$COORDS
 70
     1
  9
$SPLFRAME
 70
     0
  9
$SPLINETYPE
 70
     6
  9
$SPLINESEGS
 70
     8
  9
$ATTDIA
 70
     0
  9
$ATTREQ
 70
     1
  9
$HANDLING
 70
     1
  9
$HANDSEED
  5
158
  9
$SURFTAB1
 70
     6
  9
$SURFTAB2
 70
     6
  9
$SURFTYPE
 70
     6
  9
$SURFU
 70
     6
  9
$SURFV
 70
     6
  9
$UCSNAME
  2

  9
$UCSORG
 10
0.0
 20
0.0
 30
0.0
  9
$UCSXDIR
 10
1.0
 20
0.0
 30
0.0
  9
$UCSYDIR
 10
0.0
 20
1.0
 30
0.0
  9
$PUCSNAME
  2

  9
$PUCSORG
 10
0.0
 20
0.0
 30
0.0
  9
$PUCSXDIR
 10
1.0
 20
0.0
 30
0.0
  9
$PUCSYDIR
 10
0.0
 20
1.0
 30
0.0
  9
$USERI1
 70
     0
  9
$USERI2
 70
     0
  9
$USERI3
 70
     0
  9
$USERI4
 70
     0
  9
$USERI5
 70
     0
  9
$USERR1
 40
0.0
  9
$USERR2
 40
0.0
  9
$USERR3
 40
0.0
  9
$USERR4
 40
0.0
  9
$USERR5
 40
0.0
  9
$WORLDVIEW
 70
     1
  9
$SHADEDGE
 70
     3
  9
$SHADEDIF
 70
    70
  9
$TILEMODE
 70
     1
  9
$MAXACTVP
 70
    64
  9
$PLIMCHECK
 70
     0
  9
$PEXTMIN
 10
1.0000000000E+20
 20
1.0000000000E+20
 30
1.0000000000E+20
  9
$PEXTMAX
 10
-1.0000000000E+20
 20
-1.0000000000E+20
 30
-1.0000000000E+20
  9
$PLIMMIN
 10
0.0
 20
0.0
  9
$PLIMMAX
 10
420.0
 20
297.0
  9
$UNITMODE
 70
     0
  9
$VISRETAIN
 70
     1
  9
$PLINEGEN
 70
     0
  9
$PSLTSCALE
 70
     1
  0
ENDSEC
  0
SECTION
  2
TABLES
  0
TABLE
  2
VPORT
 70
     1
  0
VPORT
  2
*ACTIVE
 70
     0
 10
0.0
 20
0.0
 11
1.0
 21
1.0
 12
210.0
 22
148.5
 13
0.0
 23
0.0
 14
10.0
 24
10.0
 15
10.0
 25
10.0
 16
0.0
 26
0.0
 36
1.0
 17
0.0
 27
0.0
 37
0.0
 40
297.0
 41
1.4141414141
 42
50.0
 43
0.0
 44
0.0
 50
0.0
 51
0.0
 71
     0
 72
  2000
 73
     1
 74
     3
 75
     0
 76
     0
 77
     0
 78
     0
  0
ENDTAB
  0
TABLE
  2
LTYPE
 70
     6
  0
LTYPE
  2
CONTINUOUS
 70
     0
  3
Solid line
 72
    65
 73
     0
 40
0.0
  0
LTYPE
  2
HIDDEN
 70
     0
  3
Hidden __ __ __ __ __ __ __ __ __ __ __ __ __ __
 72
    65
 73
     2
 40
1.905
 49
1.27
 49
-0.635
  0
LTYPE
  2
PHANTOM
 70
     0
  3
Phantom ______  __  __  ______  __  __  ______
 72
    65
 73
     6
 40
12.7
 49
6.35
 49
-1.27
 49
1.27
 49
-1.27
 49
1.27
 49
-1.27
  0
LTYPE
  2
CENTER
 70
     0
  3
Center ____ _ ____ _ ____ _ ____ _ ____ _ ____
 72
    65
 73
     4
 40
10.16
 49
6.35
 49
-1.27
 49
1.27
 49
-1.27
  0
LTYPE
  2
CENTERX2
 70
     0
  3
Center (2x) ________  __  ________  __  _____
 72
    65
 73
     4
 40
20.32
 49
12.7
 49
-2.54
 49
2.54
 49
-2.54
  0
LTYPE
  2
DOT2
 70
     0
  3
Dot (.5x) ........................................
 72
    65
 73
     2
 40
0.635
 49
0.0
 49
-0.635
  0
ENDTAB
  0
TABLE
  2
LAYER
 70
     7
  0
LAYER
  2
0
 70
     0
 62
     7
  6
CONTINUOUS
  0
LAYER
  2
FORMAT
 70
     0
 62
     7
  6
CONTINUOUS
  0
LAYER
  2
RED
 70
     0
 62
     1
  6
CONTINUOUS
  0
LAYER
  2
GREEN
 70
     0
 62
   114
  6
CONTINUOUS
  0
LAYER
  2
BLUE
 70
     0
 62
     5
  6
CONTINUOUS
  0
LAYER
  2
BLATTFORMAT
 70
     0
 62
     7
  6
CONTINUOUS
  0
LAYER
  2
BEMAßUNG
 70
     0
 62
     7
  6
CONTINUOUS
  0
ENDTAB
  0
TABLE
  2
STYLE
 70
     1
  0
STYLE
  2
STANDARD
 70
     0
 40
0.0
 41
1.0
 50
0.0
 71
     0
 42
3.5
  3
txt
  4

  0
ENDTAB
  0
TABLE
  2
VIEW
 70
     0
  0
ENDTAB
  0
TABLE
  2
UCS
 70
     0
  0
ENDTAB
  0
TABLE
  2
APPID
 70
     1
  0
APPID
  2
ACAD
 70
     0
  0
ENDTAB
  0
TABLE
  2
DIMSTYLE
 70
     2
  0
DIMSTYLE
  2
ISO-25
 70
     0
  3

  4

  5

  6

  7

 40
1.0
 41
2.5
 42
0.625
 43
3.75
 44
1.25
 45
0.0
 46
0.0
 47
0.0
 48
0.0
140
2.5
141
2.5
142
0.0
143
0.0393700787
144
1.0
145
0.0
146
1.0
147
0.625
 71
     0
 72
     0
 73
     0
 74
     0
 75
     0
 76
     0
 77
     1
 78
     8
170
     0
171
     3
172
     1
173
     0
174
     0
175
     0
176
     0
177
     0
178
     0
  0
DIMSTYLE
  2
SLDDIMSTYLE0
 70
     0
  3

  4

  5

  6

  7

 40
1.0
 41
4.0
 42
0.0625
 43
0.38
 44
0.0
 45
0.000000001
 46
0.0
 47
0.0
 48
0.0
140
7.1912923177
141
0.09
142
0.0
143
25.4
144
1.0
145
0.0
146
1.0
147
1.7978230794
 71
     0
 72
     0
 73
     0
 74
     0
 75
     0
 76
     0
 77
     1
 78
    12
170
     0
171
     2
172
     0
173
     1
174
     0
175
     0
176
     0
177
     0
178
     0
  0
ENDTAB
  0
ENDSEC
  0
SECTION
  2
BLOCKS
  0
BLOCK
  8
0
  2
$MODEL_SPACE
 70
     0
 10
0.0
 20
0.0
 30
0.0
  3
$MODEL_SPACE
  1

  0
ENDBLK
  5
21
  8
0
  0
BLOCK
 67
     1
  8
0
  2
$PAPER_SPACE
 70
     0
 10
0.0
 20
0.0
 30
0.0
  3
$PAPER_SPACE
  1

  0
ENDBLK
  5
1D
 67
     1
  8
0
  0
BLOCK
  8
0
  2
_D
 70
     0
 10
0.0
 20
0.0
 30
0.0
  3
_D
  1

  0
SOLID
  5
11B
  8
BEMAßUNG
 10
148.3923389831
 20
212.1490677966
 30
0.0
 11
152.3923389831
 21
211.2490677966
 31
0.0
 12
152.3923389831
 22
213.0490677966
 32
0.0
 13
152.3923389831
 23
213.0490677966
 33
0.0
  0
SOLID
  5
11C
  8
BEMAßUNG
 10
263.3923389831
 20
212.1490677966
 30
0.0
 11
259.3923389831
 21
213.0490677966
 31
0.0
 12
259.3923389831
 22
211.2490677966
 32
0.0
 13
259.3923389831
 23
211.2490677966
 33
0.0
  0
LINE
  5
11D
  8
BEMAßUNG
 10
148.3923389831
 20
200.8990677966
 30
0.0
 11
148.3923389831
 21
213.1490677966
 31
0.0
  0
LINE
  5
11E
  8
BEMAßUNG
 10
263.3923389831
 20
200.8990677966
 30
0.0
 11
263.3923389831
 21
213.1490677966
 31
0.0
  0
LINE
  5
11F
  8
BEMAßUNG
 10
148.3923389831
 20
212.1490677966
 30
0.0
 11
263.3923389831
 21
212.1490677966
 31
0.0
  0
INSERT
  5
127
  8
BEMAßUNG
  2
SW_SYMBOL_MOD_BOX
 10
189.8670834464
 20
213.2198228827
 30
0.0
 41
0.0095498435
 42
0.0095498435
 43
0.0095498435
 50
0.0
  0
TEXT
  5
128
  8
BEMAßUNG
 10
199.806597547
 20
214.7661360887
 30
-1.0
 40
7.4083333333
  1
115
 50
360.0
 41
0.7
 11
199.806597547
 21
212.1490677966
 31
-1.0
 73
     1
  0
ENDBLK
  5
11A
  8
0
  0
BLOCK
  8
0
  2
SW_SYMBOL_MOD_BOX
 70
     0
 10
0.0
 20
0.0
 30
0.0
  3
SW_SYMBOL_MOD_BOX
  1

  0
LINE
  5
123
  8
BEMAßUNG
 62
     0
 10
200.0
 20
200.0
 30
0.0
 11
800.0
 21
200.0
 31
0.0
  0
LINE
  5
124
  8
BEMAßUNG
 62
     0
 10
200.0
 20
200.0
 30
0.0
 11
200.0
 21
800.0
 31
0.0
  0
LINE
  5
125
  8
BEMAßUNG
 62
     0
 10
200.0
 20
800.0
 30
0.0
 11
800.0
 21
800.0
 31
0.0
  0
LINE
  5
126
  8
BEMAßUNG
 62
     0
 10
800.0
 20
800.0
 30
0.0
 11
800.0
 21
200.0
 31
0.0
  0
ENDBLK
  5
122
  8
0
  0
ENDSEC
  0
SECTION
  2
ENTITIES
  0
ARC
  5
79
  8
0
  6
CONTINUOUS
 62
     7
 10
185.8923389831
 20
175.1490677966
 30
0.0
 40
3.0
 50
90.0
 51
270.0
  0
LINE
  5
7A
  8
0
  6
CONTINUOUS
 62
     7
 10
212.7035529434
 20
144.2163420985
 30
0.0
 11
214.0209093328
 21
144.2163420985
 31
0.0
  0
LINE
  5
7B
  8
0
  6
CONTINUOUS
 62
     7
 10
214.0209093328
 20
144.2163420985
 30
0.0
 11
214.0209093328
 21
145.0759117961
 31
0.0
  0
LINE
  5
7C
  8
0
  6
CONTINUOUS
 62
     7
 10
214.0209093328
 20
145.0759117961
 30
0.0
 11
212.7035529434
 21
145.0759117961
 31
0.0
  0
LINE
  5
7D
  8
0
  6
CONTINUOUS
 62
     7
 10
212.7035529434
 20
145.0759117961
 30
0.0
 11
212.7035529434
 21
145.7857819041
 31
0.0
  0
LINE
  5
7E
  8
0
  6
CONTINUOUS
 62
     7
 10
212.7035529434
 20
145.7857819041
 30
0.0
 11
214.0209093328
 21
145.7857819041
 31
0.0
  0
LINE
  5
7F
  8
0
  6
CONTINUOUS
 62
     7
 10
214.0209093328
 20
145.7857819041
 30
0.0
 11
214.0209093328
 21
146.6453516017
 31
0.0
  0
LINE
  5
80
  8
0
  6
CONTINUOUS
 62
     7
 10
214.0209093328
 20
146.6453516017
 30
0.0
 11
211.843314944
 21
146.6453516017
 31
0.0
  0
LINE
  5
81
  8
0
  6
CONTINUOUS
 62
     7
 10
211.843314944
 20
146.6453516017
 30
0.0
 11
211.843314944
 21
142.6466349722
 31
0.0
  0
LINE
  5
82
  8
0
  6
CONTINUOUS
 62
     7
 10
211.843314944
 20
142.6466349722
 30
0.0
 11
214.0209093328
 21
142.6466349722
 31
0.0
  0
ARC
  5
83
  8
0
  6
CONTINUOUS
 62
     7
 10
216.9131487503
 20
144.924288755
 30
0.0
 40
0.6322014083803806
 50
300.9462145726
 51
0.9375156327
  0
POLYLINE
  5
84
  8
0
  6
CONTINUOUS
 62
     7
 66
     1
 10
0.0
 20
0.0
 30
0.0
 70
   128
  0
VERTEX
  5
129
  8
0
  6
CONTINUOUS
 62
     7
 10
217.5452655281
 20
144.9346328372
 30
0.0
  0
VERTEX
  5
12A
  8
0
  6
CONTINUOUS
 62
     7
 10
217.5450140327
 20
145.2303853346
 30
0.0
  0
VERTEX
  5
12B
  8
0
  6
CONTINUOUS
 62
     7
 10
217.544463566
 20
145.523807651
 30
0.0
  0
SEQEND
  5
150
  8
0
  6
CONTINUOUS
 62
     7
  0
POLYLINE
  5
85
  8
0
  6
CONTINUOUS
 62
     7
 66
     1
 10
0.0
 20
0.0
 30
0.0
 70
   128
  0
VERTEX
  5
12C
  8
0
  6
CONTINUOUS
 62
     7
 10
217.544463566
 20
145.523807651
 30
0.0
  0
VERTEX
  5
12D
  8
0
  6
CONTINUOUS
 62
     7
 10
217.5238859577
 20
145.8796370563
 30
0.0
  0
VERTEX
  5
12E
  8
0
  6
CONTINUOUS
 62
     7
 10
217.4617672971
 20
146.1532737073
 30
0.0
  0
VERTEX
  5
12F
  8
0
  6
CONTINUOUS
 62
     7
 10
217.3575288306
 20
146.3548865024
 30
0.0
  0
VERTEX
  5
130
  8
0
  6
CONTINUOUS
 62
     7
 10
217.2105918046
 20
146.4946443403
 30
0.0
  0
VERTEX
  5
131
  8
0
  6
CONTINUOUS
 62
     7
 10
216.8920301998
 20
146.61375026
 30
0.0
  0
VERTEX
  5
132
  8
0
  6
CONTINUOUS
 62
     7
 10
216.4643542942
 20
146.6446833289
 30
0.0
  0
SEQEND
  5
151
  8
0
  6
CONTINUOUS
 62
     7
  0
LINE
  5
86
  8
0
  6
CONTINUOUS
 62
     7
 10
216.4643542942
 20
146.6446833289
 30
0.0
 11
214.7902583027
 21
146.6446833289
 31
0.0
  0
LINE
  5
87
  8
0
  6
CONTINUOUS
 62
     7
 10
214.7902583027
 20
146.6446833289
 30
0.0
 11
214.7902583027
 21
142.6462339911
 31
0.0
  0
LINE
  5
88
  8
0
  6
CONTINUOUS
 62
     7
 10
214.7902583027
 20
142.6462339911
 30
0.0
 11
215.6493210437
 21
142.6462339911
 31
0.0
  0
LINE
  5
89
  8
0
  6
CONTINUOUS
 62
     7
 10
215.6493210437
 20
142.6462339911
 30
0.0
 11
215.6495607934
 21
143.9142697121
 31
0.0
  0
LINE
  5
8A
  8
0
  6
CONTINUOUS
 62
     7
 10
215.6495607934
 20
143.9142697121
 30
0.0
 11
216.3564903863
 21
143.9142697121
 31
0.0
  0
ARC
  5
8B
  8
0
  6
CONTINUOUS
 62
     7
 10
216.3993743494
 20
143.5595207763
 30
0.0
 40
0.3573315571317501
 50
351.8090068743
 51
96.8927770911
  0
LINE
  5
8C
  8
0
  6
CONTINUOUS
 62
     7
 10
216.7530606387
 20
143.5086105561
 30
0.0
 11
216.753194299
 21
142.6452983687
 31
0.0
  0
ARC
  5
8D
  8
0
  6
CONTINUOUS
 62
     7
 10
209.4931485704
 20
146.0246320571
 30
0.0
 40
0.621103266800547
 50
87.6612071118
 51
149.7067321016
  0
ARC
  5
8E
  8
0
  6
CONTINUOUS
 62
     7
 10
208.4148104422
 20
146.0131182399
 30
0.0
 40
0.631914291683475
 50
30.9317590955
 51
90.9225374558
  0
LINE
  5
8F
  8
0
  6
CONTINUOUS
 62
     7
 10
208.4046362301
 20
146.6449506207
 30
0.0
 11
207.9908227351
 21
146.6449506207
 31
0.0
  0
POLYLINE
  5
90
  8
0
  6
CONTINUOUS
 62
     7
 66
     1
 10
0.0
 20
0.0
 30
0.0
 70
   128
  0
VERTEX
  5
133
  8
0
  6
CONTINUOUS
 62
     7
 10
207.9908227351
 20
146.6449506207
 30
0.0
  0
VERTEX
  5
134
  8
0
  6
CONTINUOUS
 62
     7
 10
207.6609774511
 20
146.6332992097
 30
0.0
  0
VERTEX
  5
135
  8
0
  6
CONTINUOUS
 62
     7
 10
207.3959516253
 20
146.5906267953
 30
0.0
  0
VERTEX
  5
136
  8
0
  6
CONTINUOUS
 62
     7
 10
207.1903582282
 20
146.5053561051
 30
0.0
  0
VERTEX
  5
137
  8
0
  6
CONTINUOUS
 62
     7
 10
207.0388102303
 20
146.3659098669
 30
0.0
  0
VERTEX
  5
138
  8
0
  6
CONTINUOUS
 62
     7
 10
206.9321430837
 20
146.149102231
 30
0.0
  0
VERTEX
  5
139
  8
0
  6
CONTINUOUS
 62
     7
 10
206.8726849401
 20
145.8468193268
 30
0.0
  0
VERTEX
  5
13A
  8
0
  6
CONTINUOUS
 62
     7
 10
206.8542419664
 20
145.4457499789
 30
0.0
  0
SEQEND
  5
152
  8
0
  6
CONTINUOUS
 62
     7
  0
LINE
  5
91
  8
0
  6
CONTINUOUS
 62
     7
 10
206.8542419664
 20
145.4457499789
 30
0.0
 11
206.8574498147
 21
142.6465013118
 31
0.0
  0
LINE
  5
92
  8
0
  6
CONTINUOUS
 62
     7
 10
206.8574498147
 20
142.6465013118
 30
0.0
 11
207.7108711364
 21
142.6465013118
 31
0.0
  0
LINE
  5
93
  8
0
  6
CONTINUOUS
 62
     7
 10
207.7108711364
 20
142.6465013118
 30
0.0
 11
207.7108711364
 21
145.5475993149
 31
0.0
  0
ARC
  5
94
  8
0
  6
CONTINUOUS
 62
     7
 10
207.8814311061
 20
145.5936040691
 30
0.0
 40
0.1766554292652816
 50
146.5349459055
 51
195.0950343862
  0
ARC
  5
95
  8
0
  6
CONTINUOUS
 62
     7
 10
207.8092073581
 20
145.5970417978
 30
0.0
 40
0.1203256329160924
 50
80.1964908737
 51
128.6472014112
  0
LINE
  5
96
  8
0
  6
CONTINUOUS
 62
     7
 10
207.8296951857
 20
145.7156103723
 30
0.0
 11
208.4130557743
 21
145.7156103723
 31
0.0
  0
POLYLINE
  5
97
  8
0
  6
CONTINUOUS
 62
     7
 66
     1
 10
0.0
 20
0.0
 30
0.0
 70
   128
  0
VERTEX
  5
13B
  8
0
  6
CONTINUOUS
 62
     7
 10
208.4130557743
 20
145.7156103723
 30
0.0
  0
VERTEX
  5
13C
  8
0
  6
CONTINUOUS
 62
     7
 10
208.4708661032
 20
145.7094924495
 30
0.0
  0
VERTEX
  5
13D
  8
0
  6
CONTINUOUS
 62
     7
 10
208.5026750376
 20
145.6914178493
 30
0.0
  0
SEQEND
  5
153
  8
0
  6
CONTINUOUS
 62
     7
  0
ARC
  5
98
  8
0
  6
CONTINUOUS
 62
     7
 10
208.3516891982
 20
145.5899148344
 30
0.0
 40
0.1819329154448459
 50
346.3339792541
 51
33.9116951309
  0
LINE
  5
99
  8
0
  6
CONTINUOUS
 62
     7
 10
208.5284714848
 20
145.5469310132
 30
0.0
 11
208.5284714848
 21
142.646501425
 31
0.0
  0
LINE
  5
9A
  8
0
  6
CONTINUOUS
 62
     7
 10
208.5284714848
 20
142.646501425
 30
0.0
 11
208.5330843642
 21
142.6464995853
 31
0.0
  0
LINE
  5
9B
  8
0
  6
CONTINUOUS
 62
     7
 10
208.5330843642
 20
142.6464995853
 30
0.0
 11
209.3986019473
 21
142.6464995853
 31
0.0
  0
LINE
  5
9C
  8
0
  6
CONTINUOUS
 62
     7
 10
209.3986019473
 20
142.6464995853
 30
0.0
 11
209.3986019473
 21
145.5462608718
 31
0.0
  0
POLYLINE
  5
9D
  8
0
  6
CONTINUOUS
 62
     7
 66
     1
 10
0.0
 20
0.0
 30
0.0
 70
   128
  0
VERTEX
  5
13E
  8
0
  6
CONTINUOUS
 62
     7
 10
209.3986019473
 20
145.5462608718
 30
0.0
  0
VERTEX
  5
13F
  8
0
  6
CONTINUOUS
 62
     7
 10
209.4036144884
 20
145.6493487996
 30
0.0
  0
VERTEX
  5
140
  8
0
  6
CONTINUOUS
 62
     7
 10
209.4111560303
 20
145.6727625158
 30
0.0
  0
VERTEX
  5
141
  8
0
  6
CONTINUOUS
 62
     7
 10
209.4243315643
 20
145.6906140476
 30
0.0
  0
SEQEND
  5
154
  8
0
  6
CONTINUOUS
 62
     7
  0
ARC
  5
9E
  8
0
  6
CONTINUOUS
 62
     7
 10
209.4965368251
 20
145.6012735928
 30
0.0
 40
0.1148708689887425
 50
81.2468271507
 51
128.9452618681
  0
LINE
  5
9F
  8
0
  6
CONTINUOUS
 62
     7
 10
209.5140176578
 20
145.7148065705
 30
0.0
 11
210.0974450766
 21
145.7148065705
 31
0.0
  0
ARC
  5
A0
  8
0
  6
CONTINUOUS
 62
     7
 10
210.1200822695
 20
145.6043271254
 30
0.0
 40
0.1127747768626099
 50
49.7077383976
 51
101.579605019
  0
ARC
  5
A1
  8
0
  6
CONTINUOUS
 62
     7
 10
210.0224456663
 20
145.5890928135
 30
0.0
 40
0.1983565125150968
 50
347.7272932727
 51
30.694759809
  0
LINE
  5
A2
  8
0
  6
CONTINUOUS
 62
     7
 10
210.2162691259
 20
145.5469291735
 30
0.0
 11
210.2162691259
 21
142.6464994721
 31
0.0
  0
LINE
  5
A3
  8
0
  6
CONTINUOUS
 62
     7
 10
210.2162691259
 20
142.6464994721
 30
0.0
 11
211.0690221458
 21
142.6464994721
 31
0.0
  0
LINE
  5
A4
  8
0
  6
CONTINUOUS
 62
     7
 10
211.0690221458
 20
142.6464994721
 30
0.0
 11
211.0690221458
 21
145.4460172996
 31
0.0
  0
POLYLINE
  5
A5
  8
0
  6
CONTINUOUS
 62
     7
 66
     1
 10
0.0
 20
0.0
 30
0.0
 70
   128
  0
VERTEX
  5
142
  8
0
  6
CONTINUOUS
 62
     7
 10
211.0690221458
 20
145.4460172996
 30
0.0
  0
VERTEX
  5
143
  8
0
  6
CONTINUOUS
 62
     7
 10
211.0522430074
 20
145.8310999508
 30
0.0
  0
VERTEX
  5
144
  8
0
  6
CONTINUOUS
 62
     7
 10
210.9983230416
 20
146.1256213413
 30
0.0
  0
VERTEX
  5
145
  8
0
  6
CONTINUOUS
 62
     7
 10
210.9018884222
 20
146.3411587431
 30
0.0
  0
VERTEX
  5
146
  8
0
  6
CONTINUOUS
 62
     7
 10
210.7575653232
 20
146.4892894288
 30
0.0
  0
VERTEX
  5
147
  8
0
  6
CONTINUOUS
 62
     7
 10
210.5491510632
 20
146.5847904971
 30
0.0
  0
VERTEX
  5
148
  8
0
  6
CONTINUOUS
 62
     7
 10
210.2761024684
 20
146.6323296096
 30
0.0
  0
VERTEX
  5
149
  8
0
  6
CONTINUOUS
 62
     7
 10
209.9322408865
 20
146.6452179414
 30
0.0
  0
SEQEND
  5
155
  8
0
  6
CONTINUOUS
 62
     7
  0
LINE
  5
A6
  8
0
  6
CONTINUOUS
 62
     7
 10
209.9322408865
 20
146.6452179414
 30
0.0
 11
209.5184947397
 21
146.6452179414
 31
0.0
  0
LINE
  5
A7
  8
0
  6
CONTINUOUS
 62
     7
 10
206.2305159527
 20
142.6466349722
 30
0.0
 11
206.2305159527
 21
143.5063383302
 31
0.0
  0
LINE
  5
A8
  8
0
  6
CONTINUOUS
 62
     7
 10
206.2305159527
 20
143.5063383302
 30
0.0
 11
205.0451491569
 21
143.5063383302
 31
0.0
  0
LINE
  5
A9
  8
0
  6
CONTINUOUS
 62
     7
 10
205.0451491569
 20
143.5063383302
 30
0.0
 11
205.0451491569
 21
146.6453516017
 31
0.0
  0
LINE
  5
AA
  8
0
  6
CONTINUOUS
 62
     7
 10
205.0451491569
 20
146.6453516017
 30
0.0
 11
204.1850448178
 21
146.6453516017
 31
0.0
  0
LINE
  5
AB
  8
0
  6
CONTINUOUS
 62
     7
 10
204.1850448178
 20
146.6453516017
 30
0.0
 11
204.1850448178
 21
142.6466349722
 31
0.0
  0
LINE
  5
AC
  8
0
  6
CONTINUOUS
 62
     7
 10
204.1850448178
 20
142.6466349722
 30
0.0
 11
206.2305159527
 21
142.6466349722
 31
0.0
  0
LINE
  5
AD
  8
0
  6
CONTINUOUS
 62
     7
 10
203.5918601936
 20
142.6466349722
 30
0.0
 11
203.5918601936
 21
143.5063383302
 31
0.0
  0
LINE
  5
AE
  8
0
  6
CONTINUOUS
 62
     7
 10
203.5918601936
 20
143.5063383302
 30
0.0
 11
202.406560228
 21
143.5063383302
 31
0.0
  0
LINE
  5
AF
  8
0
  6
CONTINUOUS
 62
     7
 10
202.406560228
 20
143.5063383302
 30
0.0
 11
202.406560228
 21
146.6453516017
 31
0.0
  0
LINE
  5
B0
  8
0
  6
CONTINUOUS
 62
     7
 10
202.406560228
 20
146.6453516017
 30
0.0
 11
201.5463890588
 21
146.6453516017
 31
0.0
  0
LINE
  5
B1
  8
0
  6
CONTINUOUS
 62
     7
 10
201.5463890588
 20
146.6453516017
 30
0.0
 11
201.5463890588
 21
142.6466349722
 31
0.0
  0
LINE
  5
B2
  8
0
  6
CONTINUOUS
 62
     7
 10
201.5463890588
 20
142.6466349722
 30
0.0
 11
203.5918601936
 21
142.6466349722
 31
0.0
  0
LINE
  5
B3
  8
0
  6
CONTINUOUS
 62
     7
 10
197.8394529688
 20
145.4694078605
 30
0.0
 11
197.8394529688
 21
142.6498428205
 31
0.0
  0
LINE
  5
B4
  8
0
  6
CONTINUOUS
 62
     7
 10
197.8394529688
 20
142.6498428205
 30
0.0
 11
198.6978197233
 21
142.6498428205
 31
0.0
  0
LINE
  5
B5
  8
0
  6
CONTINUOUS
 62
     7
 10
198.6978197233
 20
142.6498428205
 30
0.0
 11
198.6978197233
 21
143.5910789908
 31
0.0
  0
LINE
  5
B6
  8
0
  6
CONTINUOUS
 62
     7
 10
198.6978197233
 20
143.5910789908
 30
0.0
 11
199.8672141152
 21
143.5910789908
 31
0.0
  0
LINE
  5
B7
  8
0
  6
CONTINUOUS
 62
     7
 10
199.8672141152
 20
143.5910789908
 30
0.0
 11
199.8672141152
 21
142.6438281049
 31
0.0
  0
LINE
  5
B8
  8
0
  6
CONTINUOUS
 62
     7
 10
199.8672141152
 20
142.6438281049
 30
0.0
 11
200.7259818431
 21
142.6438281049
 31
0.0
  0
LINE
  5
B9
  8
0
  6
CONTINUOUS
 62
     7
 10
200.7259818431
 20
142.6438281049
 30
0.0
 11
200.7259818431
 21
145.4490914876
 31
0.0
  0
ARC
  5
BA
  8
0
  6
CONTINUOUS
 62
     7
 10
199.6422600576
 20
145.5648901552
 30
0.0
 40
1.08989093020089
 50
353.9009294438
 51
96.2553157329
  0
LINE
  5
BB
  8
0
  6
CONTINUOUS
 62
     7
 10
199.5235065228
 20
146.6482921294
 30
0.0
 11
199.0360472338
 21
146.6482921294
 31
0.0
  0
ARC
  5
BC
  8
0
  6
CONTINUOUS
 62
     7
 10
198.9123680002
 20
145.5771020653
 30
0.0
 40
1.078306406502309
 50
83.4138125022
 51
185.7318844862
  0
POLYLINE
  5
BD
  8
0
  6
CONTINUOUS
 62
     7
 66
     1
 10
0.0
 20
0.0
 30
0.0
 70
   128
  0
VERTEX
  5
14A
  8
0
  6
CONTINUOUS
 62
     7
 10
195.9077938724
 20
142.6486397322
 30
0.0
  0
VERTEX
  5
14B
  8
0
  6
CONTINUOUS
 62
     7
 10
196.4214087934
 20
142.7282715308
 30
0.0
  0
VERTEX
  5
14C
  8
0
  6
CONTINUOUS
 62
     7
 10
196.7270649751
 20
142.9013914502
 30
0.0
  0
SEQEND
  5
156
  8
0
  6
CONTINUOUS
 62
     7
  0
ARC
  5
BE
  8
0
  6
CONTINUOUS
 62
     7
 10
195.9650490235
 20
143.718322455
 30
0.0
 40
1.117159154750835
 50
313.0080818797
 51
5.0587901156
  0
LINE
  5
BF
  8
0
  6
CONTINUOUS
 62
     7
 10
197.0778565583
 20
143.8168311733
 30
0.0
 11
197.0778565583
 21
145.4482898472
 31
0.0
  0
ARC
  5
C0
  8
0
  6
CONTINUOUS
 62
     7
 10
196.0317928437
 20
145.5965277395
 30
0.0
 40
1.056514916033713
 50
351.9343089651
 51
95.4352411581
  0
LINE
  5
C1
  8
0
  6
CONTINUOUS
 62
     7
 10
195.9317190746
 20
146.648292451
 30
0.0
 11
194.2655758733
 21
146.648292451
 31
0.0
  0
LINE
  5
C2
  8
0
  6
CONTINUOUS
 62
     7
 10
194.2655758733
 20
146.648292451
 30
0.0
 11
194.2655758733
 21
142.6498431422
 31
0.0
  0
LINE
  5
C3
  8
0
  6
CONTINUOUS
 62
     7
 10
194.2655758733
 20
142.6498431422
 30
0.0
 11
195.8393597824
 21
142.6498431422
 31
0.0
  0
POLYLINE
  5
C4
  8
0
  6
CONTINUOUS
 62
     7
 66
     1
 10
0.0
 20
0.0
 30
0.0
 70
   128
  0
VERTEX
  5
14D
  8
0
  6
CONTINUOUS
 62
     7
 10
195.8393597824
 20
142.6498431422
 30
0.0
  0
VERTEX
  5
14E
  8
0
  6
CONTINUOUS
 62
     7
 10
195.8777559837
 20
142.6488293542
 30
0.0
  0
VERTEX
  5
14F
  8
0
  6
CONTINUOUS
 62
     7
 10
195.9077938724
 20
142.6486397322
 30
0.0
  0
SEQEND
  5
157
  8
0
  6
CONTINUOUS
 62
     7
  0
LINE
  5
C5
  8
0
  6
CONTINUOUS
 62
     7
 10
216.753194299
 20
142.6452983687
 30
0.0
 11
217.5455328416
 21
142.6452983687
 31
0.0
  0
LINE
  5
C6
  8
0
  6
CONTINUOUS
 62
     7
 10
217.5455328416
 20
142.6452983687
 30
0.0
 11
217.5455328416
 21
143.8201728576
 31
0.0
  0
ARC
  5
C7
  8
0
  6
CONTINUOUS
 62
     7
 10
216.9249075061
 20
143.8457526516
 30
0.0
 40
0.6211522623075025
 50
357.6398237658
 51
59.7051578005
  0
LINE
  5
C8
  8
0
  6
CONTINUOUS
 62
     7
 10
214.0209093328
 20
142.6466349722
 30
0.0
 11
214.0209093328
 21
143.5063383302
 31
0.0
  0
LINE
  5
C9
  8
0
  6
CONTINUOUS
 62
     7
 10
214.0209093328
 20
143.5063383302
 30
0.0
 11
212.7035529434
 21
143.5063383302
 31
0.0
  0
LINE
  5
CA
  8
0
  6
CONTINUOUS
 62
     7
 10
212.7035529434
 20
143.5063383302
 30
0.0
 11
212.7035529434
 21
144.2163420985
 31
0.0
  0
ARC
  5
CB
  8
0
  6
CONTINUOUS
 62
     7
 10
150.6423389831
 20
199.8990677966
 30
0.0
 40
2.250000000000028
 50
90.0
 51
180.0
  0
LINE
  5
CC
  8
0
  6
CONTINUOUS
 62
     7
 10
148.3923389831
 20
89.3990677966
 30
0.0
 11
148.3923389831
 21
199.8990677966
 31
0.0
  0
LINE
  5
CD
  8
0
  6
CONTINUOUS
 62
     7
 10
150.6423389831
 20
202.1490677966
 30
0.0
 11
261.1423389831
 21
202.1490677966
 31
0.0
  0
ARC
  5
CE
  8
0
  6
CONTINUOUS
 62
     7
 10
150.6423389831
 20
89.3990677966
 30
0.0
 40
2.25
 50
180.0
 51
270.0
  0
ARC
  5
CF
  8
0
  6
CONTINUOUS
 62
     7
 10
261.1423389831
 20
199.8990677966
 30
0.0
 40
2.250000000000057
 50
0.0
 51
90.0
  0
LINE
  5
D0
  8
0
  6
CONTINUOUS
 62
     7
 10
261.1423389831
 20
87.1490677966
 30
0.0
 11
150.6423389831
 21
87.1490677966
 31
0.0
  0
LINE
  5
D1
  8
0
  6
CONTINUOUS
 62
     7
 10
263.3923389831
 20
199.8990677966
 30
0.0
 11
263.3923389831
 21
89.3990677966
 31
0.0
  0
ARC
  5
D2
  8
0
  6
CONTINUOUS
 62
     7
 10
261.1423389831
 20
89.3990677966
 30
0.0
 40
2.250000000000057
 50
270.0
 51
0.0
  0
ARC
  5
D3
  8
0
  6
CONTINUOUS
 62
     7
 10
163.3923389831
 20
176.6490677966
 30
0.0
 40
3.000000000000028
 50
360.0
 51
180.0
  0
LINE
  5
D4
  8
0
  6
CONTINUOUS
 62
     7
 10
185.8923389831
 20
111.1490677966
 30
0.0
 11
225.8923389831
 21
111.1490677966
 31
0.0
  0
LINE
  5
D5
  8
0
  6
CONTINUOUS
 62
     7
 10
221.3923389831
 20
152.6490677966
 30
0.0
 11
221.3923389831
 21
136.6490677966
 31
0.0
  0
ARC
  5
D6
  8
0
  6
CONTINUOUS
 62
     7
 10
197.8923389831
 20
163.1490677966
 30
0.0
 40
3.0
 50
90.0
 51
270.0
  0
LINE
  5
D7
  8
0
  6
CONTINUOUS
 62
     7
 10
197.8923389831
 20
160.1490677966
 30
0.0
 11
213.8923389831
 21
160.1490677966
 31
0.0
  0
LINE
  5
D8
  8
0
  6
CONTINUOUS
 62
     7
 10
213.8923389831
 20
166.1490677966
 30
0.0
 11
197.8923389831
 21
166.1490677966
 31
0.0
  0
ARC
  5
D9
  8
0
  6
CONTINUOUS
 62
     7
 10
213.8923389831
 20
163.1490677966
 30
0.0
 40
3.0
 50
270.0
 51
90.0
  0
LINE
  5
DA
  8
0
  6
CONTINUOUS
 62
     7
 10
233.3923389831
 20
164.6490677966
 30
0.0
 11
233.3923389831
 21
124.6490677966
 31
0.0
  0
LINE
  5
DB
  8
0
  6
CONTINUOUS
 62
     7
 10
185.8923389831
 20
172.1490677966
 30
0.0
 11
225.8923389831
 21
172.1490677966
 31
0.0
  0
LINE
  5
DC
  8
0
  6
CONTINUOUS
 62
     7
 10
225.8923389831
 20
178.1490677966
 30
0.0
 11
185.8923389831
 21
178.1490677966
 31
0.0
  0
ARC
  5
DD
  8
0
  6
CONTINUOUS
 62
     7
 10
225.8923389831
 20
175.1490677966
 30
0.0
 40
3.0
 50
270.0
 51
90.0
  0
ARC
  5
DE
  8
0
  6
CONTINUOUS
 62
     7
 10
173.8923389831
 20
187.1490677966
 30
0.0
 40
3.0
 50
90.0
 51
270.0
  0
LINE
  5
DF
  8
0
  6
CONTINUOUS
 62
     7
 10
173.8923389831
 20
184.1490677966
 30
0.0
 11
237.8923389831
 21
184.1490677966
 31
0.0
  0
LINE
  5
E0
  8
0
  6
CONTINUOUS
 62
     7
 10
237.8923389831
 20
190.1490677966
 30
0.0
 11
173.8923389831
 21
190.1490677966
 31
0.0
  0
ARC
  5
E1
  8
0
  6
CONTINUOUS
 62
     7
 10
237.8923389831
 20
187.1490677966
 30
0.0
 40
3.000000000000028
 50
270.0
 51
90.0
  0
ARC
  5
E2
  8
0
  6
CONTINUOUS
 62
     7
 10
216.3508496781
 20
145.1244666392
 30
0.0
 40
0.4028437949239564
 50
271.9051966258
 51
358.0554383606
  0
ARC
  5
E3
  8
0
  6
CONTINUOUS
 62
     7
 10
216.3756362146
 20
145.4155034637
 30
0.0
 40
0.3779869556187684
 50
358.3240999147
 51
91.9705802836
  0
LINE
  5
E4
  8
0
  6
CONTINUOUS
 62
     7
 10
216.7534614863
 20
145.1107971469
 30
0.0
 11
216.7534614863
 21
145.4044489314
 31
0.0
  0
LINE
  5
E5
  8
0
  6
CONTINUOUS
 62
     7
 10
216.3626386289
 20
145.7932668836
 30
0.0
 11
215.6490260312
 21
145.7932668836
 31
0.0
  0
LINE
  5
E6
  8
0
  6
CONTINUOUS
 62
     7
 10
215.6490260312
 20
145.7932668836
 30
0.0
 11
215.6490260312
 21
144.7218455344
 31
0.0
  0
LINE
  5
E7
  8
0
  6
CONTINUOUS
 62
     7
 10
215.6490260312
 20
144.7218455344
 30
0.0
 11
216.3642425531
 21
144.7218455344
 31
0.0
  0
ARC
  5
E8
  8
0
  6
CONTINUOUS
 62
     7
 10
199.4744170829
 20
145.400861925
 30
0.0
 40
0.3932291331644353
 50
358.3412056547
 51
89.3910018185
  0
LINE
  5
E9
  8
0
  6
CONTINUOUS
 62
     7
 10
199.4785966459
 20
145.7940688457
 30
0.0
 11
199.0869049962
 21
145.7940688457
 31
0.0
  0
ARC
  5
EA
  8
0
  6
CONTINUOUS
 62
     7
 10
199.072834347
 20
145.4194056689
 30
0.0
 40
0.3749272985216202
 50
87.8492412277
 51
179.0992091119
  0
LINE
  5
EB
  8
0
  6
CONTINUOUS
 62
     7
 10
198.6979533837
 20
145.4252999457
 30
0.0
 11
198.6979533837
 21
144.4447676331
 31
0.0
  0
LINE
  5
EC
  8
0
  6
CONTINUOUS
 62
     7
 10
198.6979533837
 20
144.4447676331
 30
0.0
 11
199.8674814282
 21
144.4447676331
 31
0.0
  0
LINE
  5
ED
  8
0
  6
CONTINUOUS
 62
     7
 10
199.8674814282
 20
144.4447676331
 30
0.0
 11
199.8674814282
 21
145.3894789724
 31
0.0
  0
LINE
  5
EE
  8
0
  6
CONTINUOUS
 62
     7
 10
195.8786556644
 20
145.7970094434
 30
0.0
 11
195.124811302
 21
145.7970094434
 31
0.0
  0
LINE
  5
EF
  8
0
  6
CONTINUOUS
 62
     7
 10
195.124811302
 20
145.7970094434
 30
0.0
 11
195.124811302
 21
143.5096798389
 31
0.0
  0
LINE
  5
F0
  8
0
  6
CONTINUOUS
 62
     7
 10
195.124811302
 20
143.5096798389
 30
0.0
 11
195.8832001162
 21
143.5096798389
 31
0.0
  0
ARC
  5
F1
  8
0
  6
CONTINUOUS
 62
     7
 10
195.882151293
 20
143.9009553497
 30
0.0
 40
0.3912769165481942
 50
270.1535823207
 51
351.9214940897
  0
LINE
  5
F2
  8
0
  6
CONTINUOUS
 62
     7
 10
196.269545352
 20
143.8459692743
 30
0.0
 11
196.269545352
 21
145.4080578308
 31
0.0
  0
ARC
  5
F3
  8
0
  6
CONTINUOUS
 62
     7
 10
195.8646859295
 20
145.3920755837
 30
0.0
 40
0.4051747575980684
 50
2.2606367312
 51
88.0241476008
  0
ARC
  5
F4
  8
0
  6
CONTINUOUS
 62
     7
 10
175.3923389831
 20
124.6490677966
 30
0.0
 40
3.0
 50
180.0
 51
0.0
  0
ARC
  5
F5
  8
0
  6
CONTINUOUS
 62
     7
 10
175.3923389831
 20
164.6490677966
 30
0.0
 40
3.0
 50
0.0
 51
180.0
  0
ARC
  5
F6
  8
0
  6
CONTINUOUS
 62
     7
 10
163.3923389831
 20
112.6490677966
 30
0.0
 40
3.0
 50
180.0
 51
0.0
  0
LINE
  5
F7
  8
0
  6
CONTINUOUS
 62
     7
 10
166.3923389831
 20
112.6490677966
 30
0.0
 11
166.3923389831
 21
176.6490677966
 31
0.0
  0
LINE
  5
F8
  8
0
  6
CONTINUOUS
 62
     7
 10
160.3923389831
 20
176.6490677966
 30
0.0
 11
160.3923389831
 21
112.6490677966
 31
0.0
  0
LINE
  5
F9
  8
0
  6
CONTINUOUS
 62
     7
 10
197.8923389831
 20
123.1490677966
 30
0.0
 11
213.8923389831
 21
123.1490677966
 31
0.0
  0
ARC
  5
FA
  8
0
  6
CONTINUOUS
 62
     7
 10
197.8923389831
 20
126.1490677966
 30
0.0
 40
3.0
 50
90.0
 51
270.0
  0
ARC
  5
FB
  8
0
  6
CONTINUOUS
 62
     7
 10
225.8923389831
 20
114.1490677966
 30
0.0
 40
3.000000000000014
 50
270.0
 51
90.0
  0
LINE
  5
FC
  8
0
  6
CONTINUOUS
 62
     7
 10
225.8923389831
 20
117.1490677966
 30
0.0
 11
185.8923389831
 21
117.1490677966
 31
0.0
  0
ARC
  5
FD
  8
0
  6
CONTINUOUS
 62
     7
 10
224.3923389831
 20
136.6490677966
 30
0.0
 40
3.0
 50
180.0
 51
0.0
  0
ARC
  5
FE
  8
0
  6
CONTINUOUS
 62
     7
 10
236.3923389831
 20
164.6490677966
 30
0.0
 40
3.0
 50
0.0
 51
180.0
  0
LINE
  5
FF
  8
0
  6
CONTINUOUS
 62
     7
 10
239.3923389831
 20
124.6490677966
 30
0.0
 11
239.3923389831
 21
164.6490677966
 31
0.0
  0
ARC
  5
100
  8
0
  6
CONTINUOUS
 62
     7
 10
236.3923389831
 20
124.6490677966
 30
0.0
 40
3.000000000000028
 50
180.0
 51
0.0
  0
ARC
  5
101
  8
0
  6
CONTINUOUS
 62
     7
 10
248.3923389831
 20
176.6490677966
 30
0.0
 40
3.0
 50
0.0
 51
180.0
  0
LINE
  5
102
  8
0
  6
CONTINUOUS
 62
     7
 10
213.8923389831
 20
129.1490677966
 30
0.0
 11
197.8923389831
 21
129.1490677966
 31
0.0
  0
ARC
  5
103
  8
0
  6
CONTINUOUS
 62
     7
 10
187.3923389831
 20
136.6490677966
 30
0.0
 40
3.0
 50
180.0
 51
0.0
  0
LINE
  5
104
  8
0
  6
CONTINUOUS
 62
     7
 10
190.3923389831
 20
136.6490677966
 30
0.0
 11
190.3923389831
 21
152.6490677966
 31
0.0
  0
LINE
  5
105
  8
0
  6
CONTINUOUS
 62
     7
 10
184.3923389831
 20
152.6490677966
 30
0.0
 11
184.3923389831
 21
136.6490677966
 31
0.0
  0
ARC
  5
106
  8
0
  6
CONTINUOUS
 62
     7
 10
187.3923389831
 20
152.6490677966
 30
0.0
 40
3.0
 50
0.0
 51
180.0
  0
LINE
  5
107
  8
0
  6
CONTINUOUS
 62
     7
 10
178.3923389831
 20
124.6490677966
 30
0.0
 11
178.3923389831
 21
164.6490677966
 31
0.0
  0
LINE
  5
108
  8
0
  6
CONTINUOUS
 62
     7
 10
172.3923389831
 20
164.6490677966
 30
0.0
 11
172.3923389831
 21
124.6490677966
 31
0.0
  0
ARC
  5
109
  8
0
  6
CONTINUOUS
 62
     7
 10
173.8923389831
 20
102.1490677966
 30
0.0
 40
3.000000000000028
 50
90.0
 51
270.0
  0
ARC
  5
10A
  8
0
  6
CONTINUOUS
 62
     7
 10
224.3923389831
 20
152.6490677966
 30
0.0
 40
3.000000000000028
 50
0.0
 51
180.0
  0
LINE
  5
10B
  8
0
  6
CONTINUOUS
 62
     7
 10
227.3923389831
 20
136.6490677966
 30
0.0
 11
227.3923389831
 21
152.6490677966
 31
0.0
  0
ARC
  5
10C
  8
0
  6
CONTINUOUS
 62
     7
 10
213.8923389831
 20
126.1490677966
 30
0.0
 40
3.0
 50
270.0
 51
90.0
  0
LINE
  5
10D
  8
0
  6
CONTINUOUS
 62
     7
 10
237.8923389831
 20
105.1490677966
 30
0.0
 11
173.8923389831
 21
105.1490677966
 31
0.0
  0
ARC
  5
10E
  8
0
  6
CONTINUOUS
 62
     7
 10
185.8923389831
 20
114.1490677966
 30
0.0
 40
3.000000000000014
 50
90.0
 51
270.0
  0
ARC
  5
10F
  8
0
  6
CONTINUOUS
 62
     7
 10
237.8923389831
 20
102.1490677966
 30
0.0
 40
3.0
 50
270.0
 51
90.0
  0
LINE
  5
110
  8
0
  6
CONTINUOUS
 62
     7
 10
173.8923389831
 20
99.1490677966
 30
0.0
 11
237.8923389831
 21
99.1490677966
 31
0.0
  0
LINE
  5
111
  8
0
  6
CONTINUOUS
 62
     7
 10
245.3923389831
 20
176.6490677966
 30
0.0
 11
245.3923389831
 21
112.6490677966
 31
0.0
  0
LINE
  5
112
  8
0
  6
CONTINUOUS
 62
     7
 10
251.3923389831
 20
112.6490677966
 30
0.0
 11
251.3923389831
 21
176.6490677966
 31
0.0
  0
ARC
  5
113
  8
0
  6
CONTINUOUS
 62
     7
 10
248.3923389831
 20
112.6490677966
 30
0.0
 40
3.000000000000057
 50
180.0
 51
0.0
  0
CIRCLE
  5
114
  8
0
  6
CONTINUOUS
 62
     7
 10
253.3923389831
 20
97.1490677966
 30
0.0
 40
5.374999999999972
  0
CIRCLE
  5
115
  8
0
  6
CONTINUOUS
 62
     7
 10
158.3923389831
 20
192.1490677966
 30
0.0
 40
5.375
  0
DIMENSION
  5
116
  8
BEMAßUNG
  2
_D
 10
263.3923389831
 20
212.1490677966
 30
0.0
 11
203.0683220339
 21
212.1490677966
 31
0.0
 70
   160
  1
{\fGDT;o}<>
  3
SLDDIMSTYLE0
 13
148.3923389831
 23
199.8990677966
 33
0.0
 14
263.3923389831
 24
199.8990677966
 34
0.0
 50
0.0
  0
ENDSEC
  0
EOF
