  0
SECTION
  2
HEADER
  9
$ACADVER
  1
AC1009
  9
$INSBASE
 10
0.0
 20
0.0
 30
0.0
  9
$EXTMIN
 10
0.0
 20
0.0
 30
0.0
  9
$EXTMAX
 10
840.0
 20
594.0
 30
0.0
  9
$LIMMIN
 10
0.0
 20
0.0
  9
$LIMMAX
 10
840.0
 20
594.0
  9
$ORTHOMODE
 70
     0
  9
$REGENMODE
 70
     1
  9
$FILLMODE
 70
     1
  9
$QTEXTMODE
 70
     0
  9
$MIRRTEXT
 70
     1
  9
$DRAGMODE
 70
     2
  9
$LTSCALE
 40
2.0
  9
$OSMODE
 70
     0
  9
$ATTMODE
 70
     1
  9
$TEXTSIZE
 40
0.2
  9
$TRACEWID
 40
0.05
  9
$TEXTSTYLE
  7
STANDARD
  9
$CLAYER
  8
0
  9
$CELTYPE
  6
BYLAYER
  9
$CECOLOR
 62
     7
  9
$DIMSCALE
 40
2.0
  9
$DIMASZ
 40
3.5
  9
$DIMEXO
 40
0.0625
  9
$DIMDLI
 40
0.38
  9
$DIMRND
 40
0.0
  9
$DIMDLE
 40
0.0
  9
$DIMEXE
 40
0.18
  9
$DIMTP
 40
0.0
  9
$DIMTM
 40
0.0
  9
$DIMTXT
 40
3.5
  9
$DIMCEN
 40
0.09
  9
$DIMTSZ
 40
0.0
  9
$DIMTOL
 70
     0
  9
$DIMLIM
 70
     0
  9
$DIMTIH
 70
     1
  9
$DIMTOH
 70
     1
  9
$DIMSE1
 70
     0
  9
$DIMSE2
 70
     0
  9
$DIMTAD
 70
     1
  9
$DIMZIN
 70
     0
  9
$DIMBLK
  1

  9
$DIMASO
 70
     1
  9
$DIMSHO
 70
     1
  9
$DIMPOST
  1

  9
$DIMAPOST
  1

  9
$DIMALT
 70
     0
  9
$DIMALTD
 70
     2
  9
$DIMALTF
 40
25.4
  9
$DIMLFAC
 40
1.0
  9
$DIMTOFL
 70
     0
  9
$DIMTVP
 40
0.0
  9
$DIMTIX
 70
     0
  9
$DIMSOXD
 70
     0
  9
$DIMSAH
 70
     0
  9
$DIMBLK1
  1

  9
$DIMBLK2
  1

  9
$DIMSTYLE
  2
STANDARD
  9
$DIMCLRD
 70
     0
  9
$DIMCLRE
 70
     0
  9
$DIMCLRT
 70
     0
  9
$DIMTFAC
 40
1.0
  9
$DIMGAP
 40
0.09
  9
$LUNITS
 70
     2
  9
$LUPREC
 70
     2
  9
$AXISMODE
 70
     0
  9
$AXISUNIT
 10
0.0
 20
0.0
  9
$SKETCHINC
 40
0.1
  9
$FILLETRAD
 40
0.0
  9
$AUNITS
 70
     0
  9
$AUPREC
 70
     0
  9
$MENU
  1
acad
  9
$ELEVATION
 40
0.0
  9
$PELEVATION
 40
0.0
  9
$THICKNESS
 40
0.0
  9
$LIMCHECK
 70
     0
  9
$BLIPMODE
 70
     1
  9
$CHAMFERA
 40
0.0
  9
$CHAMFERB
 40
0.0
  9
$SKPOLY
 70
     0
  9
$TDCREATE
 40
0.000000000
  9
$TDUPDATE
 40
0.000000000
  9
$TDINDWG
 40
0.0000000000
  9
$TDUSRTIMER
 40
0.0000000000
  9
$USRTIMER
 70
     1
  9
$ANGBASE
 50
0.0
  9
$ANGDIR
 70
     0
  9
$PDMODE
 70
     0
  9
$PDSIZE
 40
0.0
  9
$PLINEWID
 40
0.0
  9
$COORDS
 70
     0
  9
$SPLFRAME
 70
     0
  9
$SPLINETYPE
 70
     6
  9
$SPLINESEGS
 70
     8
  9
$ATTDIA
 70
     0
  9
$ATTREQ
 70
     1
  9
$HANDLING
 70
     1
  9
$HANDSEED
  5
272
  9
$SURFTAB1
 70
     6
  9
$SURFTAB2
 70
     6
  9
$SURFTYPE
 70
     6
  9
$SURFU
 70
     6
  9
$SURFV
 70
     6
  9
$UCSNAME
  2

  9
$UCSORG
 10
0.0
 20
0.0
 30
0.0
  9
$UCSXDIR
 10
1.0
 20
0.0
 30
0.0
  9
$UCSYDIR
 10
0.0
 20
1.0
 30
0.0
  9
$PUCSNAME
  2

  9
$PUCSORG
 10
0.0
 20
0.0
 30
0.0
  9
$PUCSXDIR
 10
1.0
 20
0.0
 30
0.0
  9
$PUCSYDIR
 10
0.0
 20
1.0
 30
0.0
  9
$USERI1
 70
     0
  9
$USERI2
 70
     0
  9
$USERI3
 70
     0
  9
$USERI4
 70
     0
  9
$USERI5
 70
     0
  9
$USERR1
 40
0.0
  9
$USERR2
 40
0.0
  9
$USERR3
 40
0.0
  9
$USERR4
 40
0.0
  9
$USERR5
 40
0.0
  9
$WORLDVIEW
 70
     1
  9
$SHADEDGE
 70
     3
  9
$SHADEDIF
 70
    70
  9
$TILEMODE
 70
     1
  9
$MAXACTVP
 70
    16
  9
$PINSBASE
 10
0.0
 20
0.0
 30
0.0
  9
$PLIMCHECK
 70
     0
  9
$PEXTMIN
 10
1.000000E+20
 20
1.000000E+20
 30
1.000000E+20
  9
$PEXTMAX
 10
-1.000000E+20
 20
-1.000000E+20
 30
-1.000000E+20
  9
$PLIMMIN
 10
0.0
 20
0.0
  9
$PLIMMAX
 10
840.0
 20
594.0
  9
$UNITMODE
 70
     0
  9
$VISRETAIN
 70
     0
  9
$PLINEGEN
 70
     1
  9
$PSLTSCALE
 70
     0
  9
$TREEDEPTH
 70
  3020
  9
$DWGCODEPAGE
  3
dos850
  0
ENDSEC
  0
SECTION
  2
TABLES
  0
TABLE
  2
VPORT
 70
     1
  0
VPORT
  2
*ACTIVE
 70
     0
 10
0.0
 20
0.0
 11
1.0
 21
1.0
 12
420.0
 22
297.0
 13
0.0
 23
0.0
 14
1.0
 24
1.0
 15
0.0
 25
0.0
 16
0.0
 26
0.0
 36
1.0
 17
0.0
 27
0.0
 37
0.0
 40
594.0
 41
1.604229
 42
50.0
 43
0.0
 44
0.0
 50
0.0
 51
0.0
 71
     0
 72
   100
 73
     1
 74
     1
 75
     0
 76
     0
 77
     0
 78
     0
  0
ENDTAB
  0
TABLE
  2
LTYPE
 70
     2
  0
LTYPE
  2
CONTINUOUS
 70
    64
  3
Solid line
 72
    65
 73
     0
 40
0.0
  0
LTYPE
  2
DASHDOT
 70
    64
  3
__ . __ . __ . __ . __
 72
    65
 73
     4
 40
7.5
 49
5.0
 49
-1.25
 49
0.0
 49
-1.25
  0
ENDTAB
  0
TABLE
  2
LAYER
 70
    12
  0
LAYER
  2
0
 70
     0
 62
     7
  6
CONTINUOUS
  0
LAYER
  2
LC-INFO-1-2-MM-A3-0
 70
     1
 62
    -1
  6
CONTINUOUS
  0
LAYER
  2
LC-003-005-----0
 70
     0
 62
     2
  6
CONTINUOUS
  0
LAYER
  2
LC-005-003-MTH-0
 70
     0
 62
     2
  6
CONTINUOUS
  0
LAYER
  2
LC-006-003-MTG-0
 70
     0
 62
     2
  6
CONTINUOUS
  0
LAYER
  2
LC-004-003-----0
 70
     0
 62
     2
  6
CONTINUOUS
  0
LAYER
  2
LC-007-000-----0
 70
     0
 62
     7
  6
CONTINUOUS
  0
LAYER
  2
LC-009-000-----0
 70
     0
 62
     7
  6
CONTINUOUS
  0
LAYER
  2
LC-001-002-----0
 70
     0
 62
     2
  6
DASHDOT
  0
LAYER
  2
LC-002-001-----0
 70
     0
 62
     1
  6
CONTINUOUS
  0
LAYER
  2
LC-008-002-RND-0
 70
     0
 62
     1
  6
CONTINUOUS
  0
LAYER
  2
LC-000
 70
     0
 62
     7
  6
CONTINUOUS
  0
ENDTAB
  0
TABLE
  2
STYLE
 70
     4
  0
STYLE
  2
STANDARD
 70
     0
 40
0.0
 41
1.0
 50
0.0
 71
     0
 42
0.0
  3
txt
  4

  0
STYLE
  2
LC-STANDARD
 70
    64
 40
0.0
 41
1.0
 50
0.0
 71
     0
 42
3.5
  3
MONOTXT
  4

  0
STYLE
  2
LC-TXTSTYLE-150-400-0-0-A2
 70
    64
 40
0.0
 41
1.0
 50
15.0
 71
     0
 42
3.5
  3
MONOTXT
  4

  0
STYLE
  2
LC-TXTSTYLE-150-400-0-0-D3
 70
    64
 40
0.0
 41
1.0
 50
15.0
 71
     0
 42
3.5
  3
LC-STANDARD
  4

  0
ENDTAB
  0
TABLE
  2
VIEW
 70
     0
  0
ENDTAB
  0
TABLE
  2
UCS
 70
     0
  0
ENDTAB
  0
TABLE
  2
APPID
 70
     1
  0
APPID
  2
ACAD
 70
     0
  0
ENDTAB
  0
TABLE
  2
DIMSTYLE
 70
     3
  0
DIMSTYLE
  2
STANDARD
 70
     0
  3

  4

  5

  6

  7

 40
1.0
 41
0.18
 42
0.0625
 43
0.38
 44
0.18
 45
0.0
 46
0.0
 47
0.0
 48
0.0
 71
     0
 72
     0
 73
     1
 74
     1
 75
     0
 76
     0
 77
     0
 78
     0
140
0.18
141
0.09
142
0.0
143
25.4
144
1.0
145
0.0
146
1.0
147
0.09
170
     0
171
     2
172
     0
173
     0
174
     0
175
     0
176
     0
177
     0
178
     0
  0
DIMSTYLE
  2
LC-STANDARD
 70
     0
  3

  4

  5

  6

  7

 40
1.0
 41
3.5
 42
0.0
 43
7.5
 44
1.8
 45
0.0
 46
0.0
 47
0.0
 48
0.0
 71
     0
 72
     0
 73
     0
 74
     0
 75
     0
 76
     0
 77
     1
 78
     8
140
3.5
141
0.0
142
0.0
143
25.4
144
1.0
145
0.0
146
0.71
147
1.5
170
     0
171
     2
172
     1
173
     0
174
     0
175
     0
176
     0
177
     0
178
     3
  0
DIMSTYLE
  2
LC-DIM-L-0140-02-02
 70
     0
  3

  4

  5

  6

  7

 40
2.0
 41
3.5
 42
0.0
 43
7.5
 44
1.8
 45
0.0
 46
0.0
 47
0.0
 48
0.0
 71
     0
 72
     0
 73
     0
 74
     0
 75
     0
 76
     0
 77
     1
 78
     8
140
14.0
141
0.0
142
0.0
143
25.4
144
1.0
145
0.0
146
0.71
147
1.5
170
     0
171
     2
172
     0
173
     0
174
     0
175
     0
176
     2
177
     2
178
     8
  0
ENDTAB
  0
ENDSEC
  0
SECTION
  2
BLOCKS
  0
BLOCK
  8
0
  5
23
  2
*X0
 70
    65
 10
197.619753
 20
211.152462
 30
0.0
  3
*X0
  0
LINE
  8
LC-003-005-----0
  6
CONTINUOUS
  5
25
 10
223.119809
 20
302.967636
 30
0.0
 11
222.434777
 21
303.652668
 31
0.0
  0
LINE
  8
LC-003-005-----0
  6
CONTINUOUS
  5
26
 10
223.119807
 20
300.139211
 30
0.0
 11
219.61981
 21
303.639208
 31
0.0
  0
LINE
  8
LC-003-005-----0
  6
CONTINUOUS
  5
27
 10
224.619805
 20
295.810786
 30
0.0
 11
219.619808
 21
300.810783
 31
0.0
  0
LINE
  8
LC-003-005-----0
  6
CONTINUOUS
  5
28
 10
224.619803
 20
292.982361
 30
0.0
 11
219.619806
 21
297.982358
 31
0.0
  0
LINE
  8
LC-003-005-----0
  6
CONTINUOUS
  5
29
 10
224.619801
 20
290.153936
 30
0.0
 11
221.619803
 21
293.153934
 31
0.0
  0
LINE
  8
LC-003-005-----0
  6
CONTINUOUS
  5
2A
 10
220.121067
 20
294.65267
 30
0.0
 11
219.619804
 21
295.153932
 31
0.0
  0
LINE
  8
LC-003-005-----0
  6
CONTINUOUS
  5
2B
 10
224.619799
 20
287.32551
 30
0.0
 11
221.619801
 21
290.325509
 31
0.0
  0
LINE
  8
LC-003-005-----0
  6
CONTINUOUS
  5
2C
 10
223.464215
 20
285.652667
 30
0.0
 11
220.464213
 21
288.652669
 31
0.0
  0
LINE
  8
LC-003-005-----0
  6
CONTINUOUS
  5
2D
 10
220.635786
 20
285.652669
 30
0.0
 11
217.635784
 21
288.652671
 31
0.0
  0
LINE
  8
LC-003-005-----0
  6
CONTINUOUS
  5
2E
 10
217.807357
 20
285.652671
 30
0.0
 11
214.807355
 21
288.652673
 31
0.0
  0
LINE
  8
LC-003-005-----0
  6
CONTINUOUS
  5
2F
 10
214.978928
 20
285.652673
 30
0.0
 11
211.978926
 21
288.652675
 31
0.0
  0
LINE
  8
LC-003-005-----0
  6
CONTINUOUS
  5
30
 10
212.150499
 20
285.652675
 30
0.0
 11
209.150497
 21
288.652677
 31
0.0
  0
LINE
  8
LC-003-005-----0
  6
CONTINUOUS
  5
31
 10
209.32207
 20
285.652677
 30
0.0
 11
206.3971
 21
288.577647
 31
0.0
  0
LINE
  8
LC-003-005-----0
  6
CONTINUOUS
  5
32
 10
206.572439
 20
285.573881
 30
0.0
 11
204.124418
 21
288.021901
 31
0.0
  0
LINE
  8
LC-003-005-----0
  6
CONTINUOUS
  5
33
 10
204.432796
 20
284.885097
 30
0.0
 11
202.237336
 21
287.080557
 31
0.0
  0
LINE
  8
LC-003-005-----0
  6
CONTINUOUS
  5
34
 10
202.779732
 20
283.709733
 30
0.0
 11
200.658055
 21
285.83141
 31
0.0
  0
LINE
  8
LC-003-005-----0
  6
CONTINUOUS
  5
35
 10
201.539655
 20
282.121383
 30
0.0
 11
199.364609
 21
284.296429
 31
0.0
  0
LINE
  8
LC-003-005-----0
  6
CONTINUOUS
  5
36
 10
200.764409
 20
280.068202
 30
0.0
 11
198.372844
 21
282.459767
 31
0.0
  0
LINE
  8
LC-003-005-----0
  6
CONTINUOUS
  5
37
 10
200.619793
 20
277.384391
 30
0.0
 11
197.749026
 21
280.255158
 31
0.0
  0
LINE
  8
LC-003-005-----0
  6
CONTINUOUS
  5
38
 10
200.619791
 20
274.555966
 30
0.0
 11
197.619793
 21
277.555964
 31
0.0
  0
LINE
  8
LC-003-005-----0
  6
CONTINUOUS
  5
39
 10
200.619789
 20
271.727541
 30
0.0
 11
197.619791
 21
274.727539
 31
0.0
  0
LINE
  8
LC-003-005-----0
  6
CONTINUOUS
  5
3A
 10
200.619787
 20
268.899116
 30
0.0
 11
197.619789
 21
271.899114
 31
0.0
  0
LINE
  8
LC-003-005-----0
  6
CONTINUOUS
  5
3B
 10
200.619785
 20
266.07069
 30
0.0
 11
197.619787
 21
269.070688
 31
0.0
  0
LINE
  8
LC-003-005-----0
  6
CONTINUOUS
  5
3C
 10
200.619783
 20
263.242265
 30
0.0
 11
197.619785
 21
266.242263
 31
0.0
  0
LINE
  8
LC-003-005-----0
  6
CONTINUOUS
  5
3D
 10
200.619782
 20
260.41384
 30
0.0
 11
197.619783
 21
263.413838
 31
0.0
  0
LINE
  8
LC-003-005-----0
  6
CONTINUOUS
  5
3E
 10
200.61978
 20
257.585415
 30
0.0
 11
197.619782
 21
260.585413
 31
0.0
  0
LINE
  8
LC-003-005-----0
  6
CONTINUOUS
  5
3F
 10
200.619778
 20
254.756989
 30
0.0
 11
197.61978
 21
257.756987
 31
0.0
  0
LINE
  8
LC-003-005-----0
  6
CONTINUOUS
  5
40
 10
200.619776
 20
251.928564
 30
0.0
 11
197.619778
 21
254.928562
 31
0.0
  0
LINE
  8
LC-003-005-----0
  6
CONTINUOUS
  5
41
 10
200.619774
 20
249.100139
 30
0.0
 11
197.619776
 21
252.100137
 31
0.0
  0
LINE
  8
LC-003-005-----0
  6
CONTINUOUS
  5
42
 10
200.619772
 20
246.271713
 30
0.0
 11
197.619774
 21
249.271711
 31
0.0
  0
LINE
  8
LC-003-005-----0
  6
CONTINUOUS
  5
43
 10
200.61977
 20
243.443288
 30
0.0
 11
197.619772
 21
246.443286
 31
0.0
  0
LINE
  8
LC-003-005-----0
  6
CONTINUOUS
  5
44
 10
200.619769
 20
240.614863
 30
0.0
 11
197.619771
 21
243.614861
 31
0.0
  0
LINE
  8
LC-003-005-----0
  6
CONTINUOUS
  5
45
 10
200.619767
 20
237.786438
 30
0.0
 11
197.619769
 21
240.786436
 31
0.0
  0
LINE
  8
LC-003-005-----0
  6
CONTINUOUS
  5
46
 10
200.619765
 20
234.958012
 30
0.0
 11
197.619767
 21
237.95801
 31
0.0
  0
LINE
  8
LC-003-005-----0
  6
CONTINUOUS
  5
47
 10
200.619763
 20
232.129587
 30
0.0
 11
197.619765
 21
235.129585
 31
0.0
  0
LINE
  8
LC-003-005-----0
  6
CONTINUOUS
  5
48
 10
200.619761
 20
229.301162
 30
0.0
 11
197.619763
 21
232.30116
 31
0.0
  0
LINE
  8
LC-003-005-----0
  6
CONTINUOUS
  5
49
 10
200.619759
 20
226.472737
 30
0.0
 11
197.619761
 21
229.472735
 31
0.0
  0
LINE
  8
LC-003-005-----0
  6
CONTINUOUS
  5
4A
 10
200.619757
 20
223.644311
 30
0.0
 11
197.619759
 21
226.644309
 31
0.0
  0
LINE
  8
LC-003-005-----0
  6
CONTINUOUS
  5
4B
 10
200.619756
 20
220.815886
 30
0.0
 11
197.619758
 21
223.815884
 31
0.0
  0
LINE
  8
LC-003-005-----0
  6
CONTINUOUS
  5
4C
 10
200.619754
 20
217.987461
 30
0.0
 11
197.619756
 21
220.987459
 31
0.0
  0
LINE
  8
LC-003-005-----0
  6
CONTINUOUS
  5
4D
 10
200.619752
 20
215.159035
 30
0.0
 11
197.619754
 21
218.159033
 31
0.0
  0
LINE
  8
LC-003-005-----0
  6
CONTINUOUS
  5
4E
 10
200.61975
 20
212.33061
 30
0.0
 11
197.920572
 21
215.029788
 31
0.0
  0
LINE
  8
LC-003-005-----0
  6
CONTINUOUS
  5
4F
 10
198.969471
 20
211.152462
 30
0.0
 11
198.955848
 21
211.166085
 31
0.0
  0
ENDBLK
  8
0
  5
50
  0
BLOCK
  8
0
  5
52
  2
*X1
 70
    65
 10
314.619327
 20
211.152462
 30
0.0
  3
*X1
  0
LINE
  8
LC-003-005-----0
  6
CONTINUOUS
  5
53
 10
341.366406
 20
280.887562
 30
0.0
 11
333.854224
 21
288.399744
 31
0.0
  0
LINE
  8
LC-003-005-----0
  6
CONTINUOUS
  5
54
 10
319.619324
 20
302.634643
 30
0.0
 11
318.601298
 21
303.652669
 31
0.0
  0
LINE
  8
LC-003-005-----0
  6
CONTINUOUS
  5
55
 10
341.61934
 20
277.8062
 30
0.0
 11
338.081109
 21
281.344431
 31
0.0
  0
LINE
  8
LC-003-005-----0
  6
CONTINUOUS
  5
56
 10
334.311093
 20
285.114447
 30
0.0
 11
330.772863
 21
288.652677
 31
0.0
  0
LINE
  8
LC-003-005-----0
  6
CONTINUOUS
  5
57
 10
319.619326
 20
299.806214
 30
0.0
 11
316.119324
 21
303.306217
 31
0.0
  0
LINE
  8
LC-003-005-----0
  6
CONTINUOUS
  5
58
 10
341.619342
 20
274.977771
 30
0.0
 11
338.61934
 21
277.977773
 31
0.0
  0
LINE
  8
LC-003-005-----0
  6
CONTINUOUS
  5
59
 10
330.944436
 20
285.652677
 30
0.0
 11
327.944438
 21
288.652675
 31
0.0
  0
LINE
  8
LC-003-005-----0
  6
CONTINUOUS
  5
5A
 10
319.619328
 20
296.977785
 30
0.0
 11
316.119326
 21
300.477788
 31
0.0
  0
LINE
  8
LC-003-005-----0
  6
CONTINUOUS
  5
5B
 10
341.619344
 20
272.149342
 30
0.0
 11
338.619342
 21
275.149344
 31
0.0
  0
LINE
  8
LC-003-005-----0
  6
CONTINUOUS
  5
5C
 10
328.116011
 20
285.652675
 30
0.0
 11
325.116013
 21
288.652673
 31
0.0
  0
LINE
  8
LC-003-005-----0
  6
CONTINUOUS
  5
5D
 10
319.116017
 20
294.65267
 30
0.0
 11
316.116019
 21
297.652668
 31
0.0
  0
LINE
  8
LC-003-005-----0
  6
CONTINUOUS
  5
5E
 10
341.619346
 20
269.320913
 30
0.0
 11
338.619344
 21
272.320915
 31
0.0
  0
LINE
  8
LC-003-005-----0
  6
CONTINUOUS
  5
5F
 10
325.287585
 20
285.652674
 30
0.0
 11
322.287587
 21
288.652672
 31
0.0
  0
LINE
  8
LC-003-005-----0
  6
CONTINUOUS
  5
60
 10
317.61933
 20
293.320929
 30
0.0
 11
314.619328
 21
296.320931
 31
0.0
  0
LINE
  8
LC-003-005-----0
  6
CONTINUOUS
  5
61
 10
341.619348
 20
266.492484
 30
0.0
 11
338.619346
 21
269.492486
 31
0.0
  0
LINE
  8
LC-003-005-----0
  6
CONTINUOUS
  5
62
 10
322.45916
 20
285.652672
 30
0.0
 11
319.459162
 21
288.65267
 31
0.0
  0
LINE
  8
LC-003-005-----0
  6
CONTINUOUS
  5
63
 10
317.619332
 20
290.4925
 30
0.0
 11
314.61933
 21
293.492502
 31
0.0
  0
LINE
  8
LC-003-005-----0
  6
CONTINUOUS
  5
64
 10
341.61935
 20
263.664055
 30
0.0
 11
338.619348
 21
266.664057
 31
0.0
  0
LINE
  8
LC-003-005-----0
  6
CONTINUOUS
  5
65
 10
319.630735
 20
285.65267
 30
0.0
 11
314.619332
 21
290.664073
 31
0.0
  0
LINE
  8
LC-003-005-----0
  6
CONTINUOUS
  5
66
 10
341.619351
 20
260.835626
 30
0.0
 11
338.619349
 21
263.835628
 31
0.0
  0
LINE
  8
LC-003-005-----0
  6
CONTINUOUS
  5
67
 10
316.80231
 20
285.652668
 30
0.0
 11
314.619334
 21
287.835644
 31
0.0
  0
LINE
  8
LC-003-005-----0
  6
CONTINUOUS
  5
68
 10
341.619353
 20
258.007197
 30
0.0
 11
338.619351
 21
261.007199
 31
0.0
  0
LINE
  8
LC-003-005-----0
  6
CONTINUOUS
  5
69
 10
341.619355
 20
255.178768
 30
0.0
 11
338.619353
 21
258.17877
 31
0.0
  0
LINE
  8
LC-003-005-----0
  6
CONTINUOUS
  5
6A
 10
341.619357
 20
252.350339
 30
0.0
 11
338.619355
 21
255.350341
 31
0.0
  0
LINE
  8
LC-003-005-----0
  6
CONTINUOUS
  5
6B
 10
341.619359
 20
249.52191
 30
0.0
 11
338.619357
 21
252.521912
 31
0.0
  0
LINE
  8
LC-003-005-----0
  6
CONTINUOUS
  5
6C
 10
341.619361
 20
246.693481
 30
0.0
 11
338.619359
 21
249.693483
 31
0.0
  0
LINE
  8
LC-003-005-----0
  6
CONTINUOUS
  5
6D
 10
341.619363
 20
243.865052
 30
0.0
 11
338.619361
 21
246.865054
 31
0.0
  0
LINE
  8
LC-003-005-----0
  6
CONTINUOUS
  5
6E
 10
341.619364
 20
241.036623
 30
0.0
 11
338.619362
 21
244.036625
 31
0.0
  0
LINE
  8
LC-003-005-----0
  6
CONTINUOUS
  5
6F
 10
341.619366
 20
238.208194
 30
0.0
 11
338.619364
 21
241.208196
 31
0.0
  0
LINE
  8
LC-003-005-----0
  6
CONTINUOUS
  5
70
 10
341.619368
 20
235.379765
 30
0.0
 11
338.619366
 21
238.379767
 31
0.0
  0
LINE
  8
LC-003-005-----0
  6
CONTINUOUS
  5
71
 10
341.61937
 20
232.551336
 30
0.0
 11
338.619368
 21
235.551338
 31
0.0
  0
LINE
  8
LC-003-005-----0
  6
CONTINUOUS
  5
72
 10
341.619372
 20
229.722907
 30
0.0
 11
338.61937
 21
232.722909
 31
0.0
  0
LINE
  8
LC-003-005-----0
  6
CONTINUOUS
  5
73
 10
341.619374
 20
226.894478
 30
0.0
 11
338.619372
 21
229.89448
 31
0.0
  0
LINE
  8
LC-003-005-----0
  6
CONTINUOUS
  5
74
 10
341.619375
 20
224.066049
 30
0.0
 11
338.619374
 21
227.066051
 31
0.0
  0
LINE
  8
LC-003-005-----0
  6
CONTINUOUS
  5
75
 10
341.619377
 20
221.237621
 30
0.0
 11
338.619375
 21
224.237622
 31
0.0
  0
LINE
  8
LC-003-005-----0
  6
CONTINUOUS
  5
76
 10
341.619379
 20
218.409192
 30
0.0
 11
338.619377
 21
221.409193
 31
0.0
  0
LINE
  8
LC-003-005-----0
  6
CONTINUOUS
  5
77
 10
341.498566
 20
215.701577
 30
0.0
 11
338.619379
 21
218.580765
 31
0.0
  0
LINE
  8
LC-003-005-----0
  6
CONTINUOUS
  5
78
 10
340.900849
 20
213.470867
 30
0.0
 11
338.619381
 21
215.752336
 31
0.0
  0
LINE
  8
LC-003-005-----0
  6
CONTINUOUS
  5
79
 10
340.303132
 20
211.240157
 30
0.0
 11
338.619383
 21
212.923907
 31
0.0
  0
ENDBLK
  8
0
  5
7A
  0
BLOCK
  8
0
  5
7C
  2
*D2
 70
    65
 10
0.0
 20
0.0
 30
0.0
  3
*D2
  0
LINE
  8
LC-005-003-MTH-0
  6
CONTINUOUS
  5
7E
 10
197.619753
 20
216.152462
 30
0.0
 11
197.619753
 21
140.0
 31
0.0
  0
LINE
  8
LC-005-003-MTH-0
  6
CONTINUOUS
  5
7F
 10
341.619381
 20
216.152462
 30
0.0
 11
341.619381
 21
140.0
 31
0.0
  0
LINE
  8
LC-006-003-MTG-0
  6
CONTINUOUS
  5
81
 10
197.619753
 20
156.8
 30
0.0
 11
341.619381
 21
156.8
 31
0.0
  0
LINE
  8
LC-004-003-----0
  6
CONTINUOUS
  5
83
 10
225.380209
 20
160.454733
 30
0.0
 11
197.619753
 21
156.8
 31
0.0
  0
LINE
  8
LC-004-003-----0
  6
CONTINUOUS
  5
84
 10
197.619753
 20
156.8
 30
0.0
 11
225.380209
 21
153.145267
 31
0.0
  0
LINE
  8
LC-004-003-----0
  6
CONTINUOUS
  5
85
 10
225.380209
 20
153.145267
 30
0.0
 11
225.380209
 21
160.454733
 31
0.0
  0
LINE
  8
LC-004-003-----0
  6
CONTINUOUS
  5
86
 10
225.44249
 20
159.504503
 30
0.0
 11
204.899753
 21
156.8
 31
0.0
  0
LINE
  8
LC-004-003-----0
  6
CONTINUOUS
  5
87
 10
204.899753
 20
156.8
 30
0.0
 11
225.44249
 21
154.095497
 31
0.0
  0
LINE
  8
LC-004-003-----0
  6
CONTINUOUS
  5
88
 10
225.504772
 20
158.554272
 30
0.0
 11
212.179753
 21
156.8
 31
0.0
  0
LINE
  8
LC-004-003-----0
  6
CONTINUOUS
  5
89
 10
212.179753
 20
156.8
 30
0.0
 11
225.504772
 21
155.045728
 31
0.0
  0
LINE
  8
LC-004-003-----0
  6
CONTINUOUS
  5
8A
 10
225.567053
 20
157.604041
 30
0.0
 11
219.459753
 21
156.8
 31
0.0
  0
LINE
  8
LC-004-003-----0
  6
CONTINUOUS
  5
8B
 10
219.459753
 20
156.8
 30
0.0
 11
225.567053
 21
155.995959
 31
0.0
  0
LINE
  8
LC-004-003-----0
  6
CONTINUOUS
  5
8C
 10
313.858925
 20
153.145267
 30
0.0
 11
341.619381
 21
156.8
 31
0.0
  0
LINE
  8
LC-004-003-----0
  6
CONTINUOUS
  5
8D
 10
341.619381
 20
156.8
 30
0.0
 11
313.858925
 21
160.454733
 31
0.0
  0
LINE
  8
LC-004-003-----0
  6
CONTINUOUS
  5
8E
 10
313.858925
 20
160.454733
 30
0.0
 11
313.858925
 21
153.145267
 31
0.0
  0
LINE
  8
LC-004-003-----0
  6
CONTINUOUS
  5
8F
 10
313.796643
 20
154.095497
 30
0.0
 11
334.339381
 21
156.8
 31
0.0
  0
LINE
  8
LC-004-003-----0
  6
CONTINUOUS
  5
90
 10
334.339381
 20
156.8
 30
0.0
 11
313.796643
 21
159.504503
 31
0.0
  0
LINE
  8
LC-004-003-----0
  6
CONTINUOUS
  5
91
 10
313.734362
 20
155.045728
 30
0.0
 11
327.059381
 21
156.8
 31
0.0
  0
LINE
  8
LC-004-003-----0
  6
CONTINUOUS
  5
92
 10
327.059381
 20
156.8
 30
0.0
 11
313.734362
 21
158.554272
 31
0.0
  0
LINE
  8
LC-004-003-----0
  6
CONTINUOUS
  5
93
 10
313.67208
 20
155.995959
 30
0.0
 11
319.779381
 21
156.8
 31
0.0
  0
LINE
  8
LC-004-003-----0
  6
CONTINUOUS
  5
94
 10
319.779381
 20
156.8
 30
0.0
 11
313.67208
 21
157.604041
 31
0.0
  0
TEXT
  8
LC-004-003-----0
  6
CONTINUOUS
 62
     8
  5
96
 10
235.870089
 20
164.627554
 30
0.0
 40
28.0
  1
Ø145
 41
0.9
 51
15.0
  7
LC-TXTSTYLE-150-400-0-0-D0
 72
     1
 11
273.967727
 21
164.627554
 31
0.0
  0
ENDBLK
  8
0
  5
97
  0
BLOCK
  8
0
  5
99
  2
*D3
 70
    65
 10
0.0
 20
0.0
 30
0.0
  3
*D3
  0
LINE
  8
LC-005-003-MTH-0
  6
CONTINUOUS
  5
9A
 10
219.619567
 20
294.652462
 30
0.0
 11
163.2
 21
294.652462
 31
0.0
  0
LINE
  8
LC-005-003-MTH-0
  6
CONTINUOUS
  5
9B
 10
219.619567
 20
303.652462
 30
0.0
 11
163.2
 21
303.652462
 31
0.0
  0
LINE
  8
LC-004-003-----0
  6
CONTINUOUS
  5
9C
 10
183.654733
 20
266.892006
 30
0.0
 11
180.0
 21
294.652462
 31
0.0
  0
LINE
  8
LC-004-003-----0
  6
CONTINUOUS
  5
9D
 10
180.0
 20
294.652462
 30
0.0
 11
176.345267
 21
266.892006
 31
0.0
  0
LINE
  8
LC-004-003-----0
  6
CONTINUOUS
  5
9E
 10
176.345267
 20
266.892006
 30
0.0
 11
183.654733
 21
266.892006
 31
0.0
  0
LINE
  8
LC-004-003-----0
  6
CONTINUOUS
  5
9F
 10
182.704503
 20
266.829724
 30
0.0
 11
180.0
 21
287.372462
 31
0.0
  0
LINE
  8
LC-004-003-----0
  6
CONTINUOUS
  5
A0
 10
180.0
 20
287.372462
 30
0.0
 11
177.295497
 21
266.829724
 31
0.0
  0
LINE
  8
LC-004-003-----0
  6
CONTINUOUS
  5
A1
 10
181.754272
 20
266.767443
 30
0.0
 11
180.0
 21
280.092462
 31
0.0
  0
LINE
  8
LC-004-003-----0
  6
CONTINUOUS
  5
A2
 10
180.0
 20
280.092462
 30
0.0
 11
178.245728
 21
266.767443
 31
0.0
  0
LINE
  8
LC-004-003-----0
  6
CONTINUOUS
  5
A3
 10
180.804041
 20
266.705161
 30
0.0
 11
180.0
 21
272.812462
 31
0.0
  0
LINE
  8
LC-004-003-----0
  6
CONTINUOUS
  5
A4
 10
180.0
 20
272.812462
 30
0.0
 11
179.195959
 21
266.705161
 31
0.0
  0
LINE
  8
LC-004-003-----0
  6
CONTINUOUS
  5
A5
 10
176.345267
 20
331.412918
 30
0.0
 11
180.0
 21
303.652462
 31
0.0
  0
LINE
  8
LC-004-003-----0
  6
CONTINUOUS
  5
A6
 10
180.0
 20
303.652462
 30
0.0
 11
183.654733
 21
331.412918
 31
0.0
  0
LINE
  8
LC-004-003-----0
  6
CONTINUOUS
  5
A7
 10
183.654733
 20
331.412918
 30
0.0
 11
176.345267
 21
331.412918
 31
0.0
  0
LINE
  8
LC-004-003-----0
  6
CONTINUOUS
  5
A8
 10
177.295497
 20
331.475199
 30
0.0
 11
180.0
 21
310.932462
 31
0.0
  0
LINE
  8
LC-004-003-----0
  6
CONTINUOUS
  5
A9
 10
180.0
 20
310.932462
 30
0.0
 11
182.704503
 21
331.475199
 31
0.0
  0
LINE
  8
LC-004-003-----0
  6
CONTINUOUS
  5
AA
 10
178.245728
 20
331.537481
 30
0.0
 11
180.0
 21
318.212462
 31
0.0
  0
LINE
  8
LC-004-003-----0
  6
CONTINUOUS
  5
AB
 10
180.0
 20
318.212462
 30
0.0
 11
181.754272
 21
331.537481
 31
0.0
  0
LINE
  8
LC-004-003-----0
  6
CONTINUOUS
  5
AC
 10
179.195959
 20
331.599762
 30
0.0
 11
180.0
 21
325.492462
 31
0.0
  0
LINE
  8
LC-004-003-----0
  6
CONTINUOUS
  5
AD
 10
180.0
 20
325.492462
 30
0.0
 11
180.804041
 21
331.599762
 31
0.0
  0
LINE
  8
LC-006-003-MTG-0
  6
CONTINUOUS
  5
AE
 10
180.0
 20
255.452462
 30
0.0
 11
180.0
 21
369.414662
 31
0.0
  0
TEXT
  8
LC-004-003-----0
  6
CONTINUOUS
 62
     8
  5
AF
 10
172.172446
 20
346.080622
 30
0.0
 40
28.0
  1
9
 50
90.0
 51
15.0
  7
LC-TXTSTYLE-150-400-0-0-D0
  0
ENDBLK
  8
0
  5
B0
  0
BLOCK
  8
0
  5
B2
  2
*X4
 70
    65
 10
269.619567
 20
297.652462
 30
0.0
  3
*X4
  0
LINE
  8
LC-003-005-----0
  6
CONTINUOUS
  5
B3
 10
269.619567
 20
303.136926
 30
0.0
 11
270.104031
 21
302.652462
 31
0.0
  0
LINE
  8
LC-003-005-----0
  6
CONTINUOUS
  5
B4
 10
273.346672
 20
303.652462
 30
0.0
 11
274.346672
 21
302.652462
 31
0.0
  0
LINE
  8
LC-003-005-----0
  6
CONTINUOUS
  5
B5
 10
277.619567
 20
299.379567
 30
0.0
 11
278.346672
 21
298.652462
 31
0.0
  0
LINE
  8
LC-003-005-----0
  6
CONTINUOUS
  5
B6
 10
284.619567
 20
300.864848
 30
0.0
 11
285.619567
 21
299.864848
 31
0.0
  0
LINE
  8
LC-003-005-----0
  6
CONTINUOUS
  5
B7
 10
286.134346
 20
303.592709
 30
0.0
 11
287.074594
 21
302.652462
 31
0.0
  0
LINE
  8
LC-003-005-----0
  6
CONTINUOUS
  5
B8
 10
289.619567
 20
300.107489
 30
0.0
 11
290.619567
 21
299.107489
 31
0.0
  0
LINE
  8
LC-003-005-----0
  6
CONTINUOUS
  5
B9
 10
296.619567
 20
301.59277
 30
0.0
 11
297.619567
 21
300.59277
 31
0.0
  0
LINE
  8
LC-003-005-----0
  6
CONTINUOUS
  5
BA
 10
298.802516
 20
303.652462
 30
0.0
 11
299.802516
 21
302.652462
 31
0.0
  0
LINE
  8
LC-003-005-----0
  6
CONTINUOUS
  5
BB
 10
301.619567
 20
300.835411
 30
0.0
 11
302.619567
 21
299.835411
 31
0.0
  0
LINE
  8
LC-003-005-----0
  6
CONTINUOUS
  5
BC
 10
308.706045
 20
302.234214
 30
0.0
 11
309.619567
 21
301.320692
 31
0.0
  0
LINE
  8
LC-003-005-----0
  6
CONTINUOUS
  5
BD
 10
311.530438
 20
303.652462
 30
0.0
 11
312.530438
 21
302.652462
 31
0.0
  0
LINE
  8
LC-003-005-----0
  6
CONTINUOUS
  5
BE
 10
313.619567
 20
301.563333
 30
0.0
 11
314.619567
 21
300.563333
 31
0.0
  0
ENDBLK
  8
0
  5
BF
  0
BLOCK
  8
0
  5
C1
  2
BLK1
 70
    64
 10
0.0
 20
0.0
 30
0.0
  3
BLK1
  0
ENDBLK
  8
0
  5
C2
  0
BLOCK
  8
0
  5
C4
  2
*X6
 70
    65
 10
224.619806
 20
297.652666
 30
0.0
  3
*X6
  0
LINE
  8
LC-003-005-----0
  6
CONTINUOUS
  5
C5
 10
224.619808
 20
301.467637
 30
0.0
 11
225.619808
 21
300.467638
 31
0.0
  0
LINE
  8
LC-003-005-----0
  6
CONTINUOUS
  5
C6
 10
226.677421
 20
303.652665
 30
0.0
 11
227.677421
 21
302.652665
 31
0.0
  0
LINE
  8
LC-003-005-----0
  6
CONTINUOUS
  5
C7
 10
229.619808
 20
300.710278
 30
0.0
 11
230.619807
 21
299.710279
 31
0.0
  0
LINE
  8
LC-003-005-----0
  6
CONTINUOUS
  5
C8
 10
236.679147
 20
302.13622
 30
0.0
 11
237.619808
 21
301.195559
 31
0.0
  0
LINE
  8
LC-003-005-----0
  6
CONTINUOUS
  5
C9
 10
239.405351
 20
303.652657
 30
0.0
 11
240.405352
 21
302.652656
 31
0.0
  0
LINE
  8
LC-003-005-----0
  6
CONTINUOUS
  5
CA
 10
241.619808
 20
301.4382
 30
0.0
 11
242.619808
 21
300.4382
 31
0.0
  0
LINE
  8
LC-003-005-----0
  6
CONTINUOUS
  5
CB
 10
248.619807
 20
298.680842
 30
0.0
 11
248.647998
 21
298.652651
 31
0.0
  0
LINE
  8
LC-003-005-----0
  6
CONTINUOUS
  5
CC
 10
248.888813
 20
302.654476
 30
0.0
 11
249.649354
 21
301.893935
 31
0.0
  0
LINE
  8
LC-003-005-----0
  6
CONTINUOUS
  5
CD
 10
252.133281
 20
303.652649
 30
0.0
 11
254.619808
 21
301.166122
 31
0.0
  0
LINE
  8
LC-003-005-----0
  6
CONTINUOUS
  5
CE
 10
260.619807
 20
299.408764
 30
0.0
 11
261.375928
 21
298.652643
 31
0.0
  0
LINE
  8
LC-003-005-----0
  6
CONTINUOUS
  5
CF
 10
261.204976
 20
303.066236
 30
0.0
 11
261.912083
 21
302.359129
 31
0.0
  0
LINE
  8
LC-003-005-----0
  6
CONTINUOUS
  5
D0
 10
264.861212
 20
303.65264
 30
0.0
 11
265.861212
 21
302.65264
 31
0.0
  0
LINE
  8
LC-003-005-----0
  6
CONTINUOUS
  5
D1
 10
269.103855
 20
303.652638
 30
0.0
 11
269.619809
 21
303.136683
 31
0.0
  0
ENDBLK
  8
0
  5
D2
  0
BLOCK
  8
0
  5
D4
  2
*D7
 70
    65
 10
0.0
 20
0.0
 30
0.0
  3
*D7
  0
LINE
  8
LC-005-003-MTH-0
  6
CONTINUOUS
  5
D5
 10
219.61981
 20
303.65267
 30
0.0
 11
219.61981
 21
330.4
 31
0.0
  0
LINE
  8
LC-005-003-MTH-0
  6
CONTINUOUS
  5
D6
 10
319.619567
 20
303.652462
 30
0.0
 11
319.619567
 21
330.4
 31
0.0
  0
LINE
  8
LC-006-003-MTG-0
  6
CONTINUOUS
  5
D7
 10
219.61981
 20
313.6
 30
0.0
 11
319.619567
 21
313.6
 31
0.0
  0
LINE
  8
LC-004-003-----0
  6
CONTINUOUS
  5
D8
 10
247.380266
 20
317.254733
 30
0.0
 11
219.61981
 21
313.6
 31
0.0
  0
LINE
  8
LC-004-003-----0
  6
CONTINUOUS
  5
D9
 10
219.61981
 20
313.6
 30
0.0
 11
247.380266
 21
309.945267
 31
0.0
  0
LINE
  8
LC-004-003-----0
  6
CONTINUOUS
  5
DA
 10
247.380266
 20
309.945267
 30
0.0
 11
247.380266
 21
317.254733
 31
0.0
  0
LINE
  8
LC-004-003-----0
  6
CONTINUOUS
  5
DB
 10
247.442547
 20
316.304503
 30
0.0
 11
226.89981
 21
313.6
 31
0.0
  0
LINE
  8
LC-004-003-----0
  6
CONTINUOUS
  5
DC
 10
226.89981
 20
313.6
 30
0.0
 11
247.442547
 21
310.895497
 31
0.0
  0
LINE
  8
LC-004-003-----0
  6
CONTINUOUS
  5
DD
 10
247.504829
 20
315.354272
 30
0.0
 11
234.17981
 21
313.6
 31
0.0
  0
LINE
  8
LC-004-003-----0
  6
CONTINUOUS
  5
DE
 10
234.17981
 20
313.6
 30
0.0
 11
247.504829
 21
311.845728
 31
0.0
  0
LINE
  8
LC-004-003-----0
  6
CONTINUOUS
  5
DF
 10
247.56711
 20
314.404041
 30
0.0
 11
241.45981
 21
313.6
 31
0.0
  0
LINE
  8
LC-004-003-----0
  6
CONTINUOUS
  5
E0
 10
241.45981
 20
313.6
 30
0.0
 11
247.56711
 21
312.795959
 31
0.0
  0
LINE
  8
LC-004-003-----0
  6
CONTINUOUS
  5
E1
 10
291.85911
 20
309.945267
 30
0.0
 11
319.619567
 21
313.6
 31
0.0
  0
LINE
  8
LC-004-003-----0
  6
CONTINUOUS
  5
E2
 10
319.619567
 20
313.6
 30
0.0
 11
291.85911
 21
317.254733
 31
0.0
  0
LINE
  8
LC-004-003-----0
  6
CONTINUOUS
  5
E3
 10
291.85911
 20
317.254733
 30
0.0
 11
291.85911
 21
309.945267
 31
0.0
  0
LINE
  8
LC-004-003-----0
  6
CONTINUOUS
  5
E4
 10
291.796829
 20
310.895497
 30
0.0
 11
312.339567
 21
313.6
 31
0.0
  0
LINE
  8
LC-004-003-----0
  6
CONTINUOUS
  5
E5
 10
312.339567
 20
313.6
 30
0.0
 11
291.796829
 21
316.304503
 31
0.0
  0
LINE
  8
LC-004-003-----0
  6
CONTINUOUS
  5
E6
 10
291.734548
 20
311.845728
 30
0.0
 11
305.059567
 21
313.6
 31
0.0
  0
LINE
  8
LC-004-003-----0
  6
CONTINUOUS
  5
E7
 10
305.059567
 20
313.6
 30
0.0
 11
291.734548
 21
315.354272
 31
0.0
  0
LINE
  8
LC-004-003-----0
  6
CONTINUOUS
  5
E8
 10
291.672266
 20
312.795959
 30
0.0
 11
297.779567
 21
313.6
 31
0.0
  0
LINE
  8
LC-004-003-----0
  6
CONTINUOUS
  5
E9
 10
297.779567
 20
313.6
 30
0.0
 11
291.672266
 21
314.404041
 31
0.0
  0
TEXT
  8
LC-004-003-----0
  6
CONTINUOUS
 62
     8
  5
EA
 10
244.204069
 20
321.427554
 30
0.0
 40
28.0
  1
100
 51
15.0
  7
LC-TXTSTYLE-150-400-0-0-D0
 72
     1
 11
273.967848
 21
321.427554
 31
0.0
  0
ENDBLK
  8
0
  5
EB
  0
BLOCK
  8
0
  5
ED
  2
BLK2
 70
    64
 10
0.0
 20
0.0
 30
0.0
  3
BLK2
  0
ENDBLK
  8
0
  5
EE
  0
BLOCK
  8
0
  5
F0
  2
BLK3
 70
    64
 10
0.0
 20
0.0
 30
0.0
  3
BLK3
  0
ENDBLK
  8
0
  5
F1
  0
BLOCK
  8
0
  5
F3
  2
BLK4
 70
    64
 10
0.0
 20
0.0
 30
0.0
  3
BLK4
  0
ENDBLK
  8
0
  5
F4
  0
BLOCK
  8
0
  5
F6
  2
BLK5
 70
    64
 10
0.0
 20
0.0
 30
0.0
  3
BLK5
  0
ENDBLK
  8
0
  5
F7
  0
BLOCK
  8
0
  5
F9
  2
BLK6
 70
    64
 10
0.0
 20
0.0
 30
0.0
  3
BLK6
  0
ENDBLK
  8
0
  5
FA
  0
BLOCK
  8
0
  5
FC
  2
BLK7
 70
    64
 10
0.0
 20
0.0
 30
0.0
  3
BLK7
  0
ENDBLK
  8
0
  5
FD
  0
BLOCK
  8
0
  5
FF
  2
BLK8
 70
    64
 10
0.0
 20
0.0
 30
0.0
  3
BLK8
  0
ENDBLK
  8
0
  5
100
  0
BLOCK
  8
0
  5
102
  2
BLK9
 70
    64
 10
0.0
 20
0.0
 30
0.0
  3
BLK9
  0
ENDBLK
  8
0
  5
103
  0
BLOCK
  8
0
  5
105
  2
*X16
 70
    65
 10
200.619749
 20
211.152462
 30
0.0
  3
*X16
  0
LINE
  8
LC-003-005-----0
  6
CONTINUOUS
  5
106
 10
267.721004
 20
211.152462
 30
0.0
 11
269.619567
 21
213.051024
 31
0.0
  0
LINE
  8
LC-003-005-----0
  6
CONTINUOUS
  5
107
 10
262.06415
 20
211.152462
 30
0.0
 11
269.619567
 21
218.707878
 31
0.0
  0
LINE
  8
LC-003-005-----0
  6
CONTINUOUS
  5
108
 10
256.407296
 20
211.152462
 30
0.0
 11
269.619567
 21
224.364733
 31
0.0
  0
LINE
  8
LC-003-005-----0
  6
CONTINUOUS
  5
109
 10
250.750442
 20
211.152462
 30
0.0
 11
269.619567
 21
230.021587
 31
0.0
  0
LINE
  8
LC-003-005-----0
  6
CONTINUOUS
  5
10A
 10
245.093587
 20
211.152462
 30
0.0
 11
268.093587
 21
234.152462
 31
0.0
  0
LINE
  8
LC-003-005-----0
  6
CONTINUOUS
  5
10B
 10
239.436733
 20
211.152462
 30
0.0
 11
262.436733
 21
234.152462
 31
0.0
  0
LINE
  8
LC-003-005-----0
  6
CONTINUOUS
  5
10C
 10
233.779879
 20
211.152462
 30
0.0
 11
256.779879
 21
234.152462
 31
0.0
  0
LINE
  8
LC-003-005-----0
  6
CONTINUOUS
  5
10D
 10
228.123025
 20
211.152462
 30
0.0
 11
251.123025
 21
234.152462
 31
0.0
  0
LINE
  8
LC-003-005-----0
  6
CONTINUOUS
  5
10E
 10
222.46617
 20
211.152462
 30
0.0
 11
245.46617
 21
234.152462
 31
0.0
  0
LINE
  8
LC-003-005-----0
  6
CONTINUOUS
  5
10F
 10
216.809316
 20
211.152462
 30
0.0
 11
239.809316
 21
234.152462
 31
0.0
  0
LINE
  8
LC-003-005-----0
  6
CONTINUOUS
  5
110
 10
211.152462
 20
211.152462
 30
0.0
 11
234.152462
 21
234.152462
 31
0.0
  0
LINE
  8
LC-003-005-----0
  6
CONTINUOUS
  5
111
 10
205.495608
 20
211.152462
 30
0.0
 11
228.495608
 21
234.152462
 31
0.0
  0
LINE
  8
LC-003-005-----0
  6
CONTINUOUS
  5
112
 10
200.61975
 20
211.933458
 30
0.0
 11
222.838753
 21
234.152462
 31
0.0
  0
LINE
  8
LC-003-005-----0
  6
CONTINUOUS
  5
113
 10
200.619754
 20
217.590316
 30
0.0
 11
217.181899
 21
234.152462
 31
0.0
  0
LINE
  8
LC-003-005-----0
  6
CONTINUOUS
  5
114
 10
200.619757
 20
223.247174
 30
0.0
 11
211.525045
 21
234.152462
 31
0.0
  0
LINE
  8
LC-003-005-----0
  6
CONTINUOUS
  5
115
 10
200.619761
 20
228.904032
 30
0.0
 11
205.868191
 21
234.152462
 31
0.0
  0
LINE
  8
LC-003-005-----0
  6
CONTINUOUS
  5
116
 10
269.619567
 20
233.840462
 30
0.0
 11
269.307566
 21
234.152462
 31
0.0
  0
LINE
  8
LC-003-005-----0
  6
CONTINUOUS
  5
117
 10
269.619567
 20
228.183607
 30
0.0
 11
263.650712
 21
234.152462
 31
0.0
  0
LINE
  8
LC-003-005-----0
  6
CONTINUOUS
  5
118
 10
269.619567
 20
222.526753
 30
0.0
 11
257.993858
 21
234.152462
 31
0.0
  0
LINE
  8
LC-003-005-----0
  6
CONTINUOUS
  5
119
 10
269.619567
 20
216.869899
 30
0.0
 11
252.337004
 21
234.152462
 31
0.0
  0
LINE
  8
LC-003-005-----0
  6
CONTINUOUS
  5
11A
 10
269.619567
 20
211.213045
 30
0.0
 11
246.680149
 21
234.152462
 31
0.0
  0
LINE
  8
LC-003-005-----0
  6
CONTINUOUS
  5
11B
 10
264.023295
 20
211.152462
 30
0.0
 11
241.023295
 21
234.152462
 31
0.0
  0
LINE
  8
LC-003-005-----0
  6
CONTINUOUS
  5
11C
 10
258.366441
 20
211.152462
 30
0.0
 11
235.366441
 21
234.152462
 31
0.0
  0
LINE
  8
LC-003-005-----0
  6
CONTINUOUS
  5
11D
 10
252.709587
 20
211.152462
 30
0.0
 11
229.709587
 21
234.152462
 31
0.0
  0
LINE
  8
LC-003-005-----0
  6
CONTINUOUS
  5
11E
 10
247.052732
 20
211.152462
 30
0.0
 11
224.052732
 21
234.152462
 31
0.0
  0
LINE
  8
LC-003-005-----0
  6
CONTINUOUS
  5
11F
 10
241.395878
 20
211.152462
 30
0.0
 11
218.395878
 21
234.152462
 31
0.0
  0
LINE
  8
LC-003-005-----0
  6
CONTINUOUS
  5
120
 10
235.739024
 20
211.152462
 30
0.0
 11
212.739024
 21
234.152462
 31
0.0
  0
LINE
  8
LC-003-005-----0
  6
CONTINUOUS
  5
121
 10
230.08217
 20
211.152462
 30
0.0
 11
207.08217
 21
234.152462
 31
0.0
  0
LINE
  8
LC-003-005-----0
  6
CONTINUOUS
  5
122
 10
224.425315
 20
211.152462
 30
0.0
 11
201.425315
 21
234.152462
 31
0.0
  0
LINE
  8
LC-003-005-----0
  6
CONTINUOUS
  5
123
 10
218.768461
 20
211.152462
 30
0.0
 11
200.619761
 21
229.301162
 31
0.0
  0
LINE
  8
LC-003-005-----0
  6
CONTINUOUS
  5
124
 10
213.111607
 20
211.152462
 30
0.0
 11
200.619757
 21
223.644311
 31
0.0
  0
LINE
  8
LC-003-005-----0
  6
CONTINUOUS
  5
125
 10
207.454753
 20
211.152462
 30
0.0
 11
200.619754
 21
217.987461
 31
0.0
  0
LINE
  8
LC-003-005-----0
  6
CONTINUOUS
  5
126
 10
201.797898
 20
211.152462
 30
0.0
 11
200.61975
 21
212.33061
 31
0.0
  0
ENDBLK
  8
0
  5
127
  0
BLOCK
  8
0
  5
129
  2
*X17
 70
    65
 10
269.619567
 20
211.152462
 30
0.0
  3
*X17
  0
LINE
  8
LC-003-005-----0
  6
CONTINUOUS
  5
12A
 10
335.603255
 20
211.152462
 30
0.0
 11
338.619567
 21
214.168773
 31
0.0
  0
LINE
  8
LC-003-005-----0
  6
CONTINUOUS
  5
12B
 10
329.946401
 20
211.152462
 30
0.0
 11
338.619567
 21
219.825627
 31
0.0
  0
LINE
  8
LC-003-005-----0
  6
CONTINUOUS
  5
12C
 10
324.289547
 20
211.152462
 30
0.0
 11
338.619567
 21
225.482482
 31
0.0
  0
LINE
  8
LC-003-005-----0
  6
CONTINUOUS
  5
12D
 10
318.632693
 20
211.152462
 30
0.0
 11
338.619567
 21
231.139336
 31
0.0
  0
LINE
  8
LC-003-005-----0
  6
CONTINUOUS
  5
12E
 10
312.975838
 20
211.152462
 30
0.0
 11
335.975838
 21
234.152462
 31
0.0
  0
LINE
  8
LC-003-005-----0
  6
CONTINUOUS
  5
12F
 10
307.318984
 20
211.152462
 30
0.0
 11
330.318984
 21
234.152462
 31
0.0
  0
LINE
  8
LC-003-005-----0
  6
CONTINUOUS
  5
130
 10
301.66213
 20
211.152462
 30
0.0
 11
324.66213
 21
234.152462
 31
0.0
  0
LINE
  8
LC-003-005-----0
  6
CONTINUOUS
  5
131
 10
296.005276
 20
211.152462
 30
0.0
 11
319.005276
 21
234.152462
 31
0.0
  0
LINE
  8
LC-003-005-----0
  6
CONTINUOUS
  5
132
 10
290.348421
 20
211.152462
 30
0.0
 11
313.348421
 21
234.152462
 31
0.0
  0
LINE
  8
LC-003-005-----0
  6
CONTINUOUS
  5
133
 10
284.691567
 20
211.152462
 30
0.0
 11
307.691567
 21
234.152462
 31
0.0
  0
LINE
  8
LC-003-005-----0
  6
CONTINUOUS
  5
134
 10
279.034713
 20
211.152462
 30
0.0
 11
302.034713
 21
234.152462
 31
0.0
  0
LINE
  8
LC-003-005-----0
  6
CONTINUOUS
  5
135
 10
273.377859
 20
211.152462
 30
0.0
 11
296.377859
 21
234.152462
 31
0.0
  0
LINE
  8
LC-003-005-----0
  6
CONTINUOUS
  5
136
 10
269.619567
 20
213.051024
 30
0.0
 11
290.721004
 21
234.152462
 31
0.0
  0
LINE
  8
LC-003-005-----0
  6
CONTINUOUS
  5
137
 10
269.619567
 20
218.707878
 30
0.0
 11
285.06415
 21
234.152462
 31
0.0
  0
LINE
  8
LC-003-005-----0
  6
CONTINUOUS
  5
138
 10
269.619567
 20
224.364733
 30
0.0
 11
279.407296
 21
234.152462
 31
0.0
  0
LINE
  8
LC-003-005-----0
  6
CONTINUOUS
  5
139
 10
269.619567
 20
230.021587
 30
0.0
 11
273.750442
 21
234.152462
 31
0.0
  0
LINE
  8
LC-003-005-----0
  6
CONTINUOUS
  5
13A
 10
338.619567
 20
232.722713
 30
0.0
 11
337.189817
 21
234.152462
 31
0.0
  0
LINE
  8
LC-003-005-----0
  6
CONTINUOUS
  5
13B
 10
338.619567
 20
227.065858
 30
0.0
 11
331.532963
 21
234.152462
 31
0.0
  0
LINE
  8
LC-003-005-----0
  6
CONTINUOUS
  5
13C
 10
338.619567
 20
221.409004
 30
0.0
 11
325.876109
 21
234.152462
 31
0.0
  0
LINE
  8
LC-003-005-----0
  6
CONTINUOUS
  5
13D
 10
338.619567
 20
215.75215
 30
0.0
 11
320.219255
 21
234.152462
 31
0.0
  0
LINE
  8
LC-003-005-----0
  6
CONTINUOUS
  5
13E
 10
337.5624
 20
211.152462
 30
0.0
 11
314.5624
 21
234.152462
 31
0.0
  0
LINE
  8
LC-003-005-----0
  6
CONTINUOUS
  5
13F
 10
331.905546
 20
211.152462
 30
0.0
 11
308.905546
 21
234.152462
 31
0.0
  0
LINE
  8
LC-003-005-----0
  6
CONTINUOUS
  5
140
 10
326.248692
 20
211.152462
 30
0.0
 11
303.248692
 21
234.152462
 31
0.0
  0
LINE
  8
LC-003-005-----0
  6
CONTINUOUS
  5
141
 10
320.591838
 20
211.152462
 30
0.0
 11
297.591838
 21
234.152462
 31
0.0
  0
LINE
  8
LC-003-005-----0
  6
CONTINUOUS
  5
142
 10
314.934983
 20
211.152462
 30
0.0
 11
291.934983
 21
234.152462
 31
0.0
  0
LINE
  8
LC-003-005-----0
  6
CONTINUOUS
  5
143
 10
309.278129
 20
211.152462
 30
0.0
 11
286.278129
 21
234.152462
 31
0.0
  0
LINE
  8
LC-003-005-----0
  6
CONTINUOUS
  5
144
 10
303.621275
 20
211.152462
 30
0.0
 11
280.621275
 21
234.152462
 31
0.0
  0
LINE
  8
LC-003-005-----0
  6
CONTINUOUS
  5
145
 10
297.964421
 20
211.152462
 30
0.0
 11
274.964421
 21
234.152462
 31
0.0
  0
LINE
  8
LC-003-005-----0
  6
CONTINUOUS
  5
146
 10
292.307566
 20
211.152462
 30
0.0
 11
269.619567
 21
233.840462
 31
0.0
  0
LINE
  8
LC-003-005-----0
  6
CONTINUOUS
  5
147
 10
286.650712
 20
211.152462
 30
0.0
 11
269.619567
 21
228.183607
 31
0.0
  0
LINE
  8
LC-003-005-----0
  6
CONTINUOUS
  5
148
 10
280.993858
 20
211.152462
 30
0.0
 11
269.619567
 21
222.526753
 31
0.0
  0
LINE
  8
LC-003-005-----0
  6
CONTINUOUS
  5
149
 10
275.337004
 20
211.152462
 30
0.0
 11
269.619567
 21
216.869899
 31
0.0
  0
LINE
  8
LC-003-005-----0
  6
CONTINUOUS
  5
14A
 10
269.680149
 20
211.152462
 30
0.0
 11
269.619567
 21
211.213045
 31
0.0
  0
ENDBLK
  8
0
  5
14B
  0
BLOCK
  8
0
  5
14D
  2
*D18
 70
    65
 10
0.0
 20
0.0
 30
0.0
  3
*D18
  0
LINE
  8
LC-005-003-MTH-0
  6
CONTINUOUS
  5
14E
 10
340.279635
 20
211.152462
 30
0.0
 11
408.8
 21
211.152462
 31
0.0
  0
LINE
  8
LC-005-003-MTH-0
  6
CONTINUOUS
  5
14F
 10
338.619369
 20
234.152462
 30
0.0
 11
408.8
 21
234.152462
 31
0.0
  0
LINE
  8
LC-004-003-----0
  6
CONTINUOUS
  5
150
 10
395.654733
 20
183.392006
 30
0.0
 11
392.0
 21
211.152462
 31
0.0
  0
LINE
  8
LC-004-003-----0
  6
CONTINUOUS
  5
151
 10
392.0
 20
211.152462
 30
0.0
 11
388.345267
 21
183.392006
 31
0.0
  0
LINE
  8
LC-004-003-----0
  6
CONTINUOUS
  5
152
 10
388.345267
 20
183.392006
 30
0.0
 11
395.654733
 21
183.392006
 31
0.0
  0
LINE
  8
LC-004-003-----0
  6
CONTINUOUS
  5
153
 10
394.704503
 20
183.329724
 30
0.0
 11
392.0
 21
203.872462
 31
0.0
  0
LINE
  8
LC-004-003-----0
  6
CONTINUOUS
  5
154
 10
392.0
 20
203.872462
 30
0.0
 11
389.295497
 21
183.329724
 31
0.0
  0
LINE
  8
LC-004-003-----0
  6
CONTINUOUS
  5
155
 10
393.754272
 20
183.267443
 30
0.0
 11
392.0
 21
196.592462
 31
0.0
  0
LINE
  8
LC-004-003-----0
  6
CONTINUOUS
  5
156
 10
392.0
 20
196.592462
 30
0.0
 11
390.245728
 21
183.267443
 31
0.0
  0
LINE
  8
LC-004-003-----0
  6
CONTINUOUS
  5
157
 10
392.804041
 20
183.205161
 30
0.0
 11
392.0
 21
189.312462
 31
0.0
  0
LINE
  8
LC-004-003-----0
  6
CONTINUOUS
  5
158
 10
392.0
 20
189.312462
 30
0.0
 11
391.195959
 21
183.205161
 31
0.0
  0
LINE
  8
LC-004-003-----0
  6
CONTINUOUS
  5
159
 10
388.345267
 20
261.912918
 30
0.0
 11
392.0
 21
234.152462
 31
0.0
  0
LINE
  8
LC-004-003-----0
  6
CONTINUOUS
  5
15A
 10
392.0
 20
234.152462
 30
0.0
 11
395.654733
 21
261.912918
 31
0.0
  0
LINE
  8
LC-004-003-----0
  6
CONTINUOUS
  5
15B
 10
395.654733
 20
261.912918
 30
0.0
 11
388.345267
 21
261.912918
 31
0.0
  0
LINE
  8
LC-004-003-----0
  6
CONTINUOUS
  5
15C
 10
389.295497
 20
261.975199
 30
0.0
 11
392.0
 21
241.432462
 31
0.0
  0
LINE
  8
LC-004-003-----0
  6
CONTINUOUS
  5
15D
 10
392.0
 20
241.432462
 30
0.0
 11
394.704503
 21
261.975199
 31
0.0
  0
LINE
  8
LC-004-003-----0
  6
CONTINUOUS
  5
15E
 10
390.245728
 20
262.037481
 30
0.0
 11
392.0
 21
248.712462
 31
0.0
  0
LINE
  8
LC-004-003-----0
  6
CONTINUOUS
  5
15F
 10
392.0
 20
248.712462
 30
0.0
 11
393.754272
 21
262.037481
 31
0.0
  0
LINE
  8
LC-004-003-----0
  6
CONTINUOUS
  5
160
 10
391.195959
 20
262.099762
 30
0.0
 11
392.0
 21
255.992462
 31
0.0
  0
LINE
  8
LC-004-003-----0
  6
CONTINUOUS
  5
161
 10
392.0
 20
255.992462
 30
0.0
 11
392.804041
 21
262.099762
 31
0.0
  0
LINE
  8
LC-006-003-MTG-0
  6
CONTINUOUS
  5
162
 10
392.0
 20
171.952462
 30
0.0
 11
392.0
 21
311.365262
 31
0.0
  0
TEXT
  8
LC-004-003-----0
  6
CONTINUOUS
 62
     8
  5
163
 10
384.172446
 20
275.460622
 30
0.0
 40
28.0
  1
23
 50
90.0
 51
15.0
  7
LC-TXTSTYLE-150-400-0-0-D0
  0
ENDBLK
  8
0
  5
164
  0
BLOCK
  8
0
  5
166
  2
*D19
 70
    65
 10
0.0
 20
0.0
 30
0.0
  3
*D19
  0
LINE
  8
LC-005-003-MTH-0
  6
CONTINUOUS
  5
167
 10
338.619567
 20
234.152462
 30
0.0
 11
448.0
 21
234.152462
 31
0.0
  0
LINE
  8
LC-005-003-MTH-0
  6
CONTINUOUS
  5
168
 10
319.619567
 20
303.652462
 30
0.0
 11
448.0
 21
303.652462
 31
0.0
  0
LINE
  8
LC-006-003-MTG-0
  6
CONTINUOUS
  5
169
 10
431.2
 20
234.152462
 30
0.0
 11
431.2
 21
303.652462
 31
0.0
  0
LINE
  8
LC-004-003-----0
  6
CONTINUOUS
  5
16A
 10
427.545267
 20
261.912918
 30
0.0
 11
431.2
 21
234.152462
 31
0.0
  0
LINE
  8
LC-004-003-----0
  6
CONTINUOUS
  5
16B
 10
431.2
 20
234.152462
 30
0.0
 11
434.854733
 21
261.912918
 31
0.0
  0
LINE
  8
LC-004-003-----0
  6
CONTINUOUS
  5
16C
 10
434.854733
 20
261.912918
 30
0.0
 11
427.545267
 21
261.912918
 31
0.0
  0
LINE
  8
LC-004-003-----0
  6
CONTINUOUS
  5
16D
 10
428.495497
 20
261.975199
 30
0.0
 11
431.2
 21
241.432462
 31
0.0
  0
LINE
  8
LC-004-003-----0
  6
CONTINUOUS
  5
16E
 10
431.2
 20
241.432462
 30
0.0
 11
433.904503
 21
261.975199
 31
0.0
  0
LINE
  8
LC-004-003-----0
  6
CONTINUOUS
  5
16F
 10
429.445728
 20
262.037481
 30
0.0
 11
431.2
 21
248.712462
 31
0.0
  0
LINE
  8
LC-004-003-----0
  6
CONTINUOUS
  5
170
 10
431.2
 20
248.712462
 30
0.0
 11
432.954272
 21
262.037481
 31
0.0
  0
LINE
  8
LC-004-003-----0
  6
CONTINUOUS
  5
171
 10
430.395959
 20
262.099762
 30
0.0
 11
431.2
 21
255.992462
 31
0.0
  0
LINE
  8
LC-004-003-----0
  6
CONTINUOUS
  5
172
 10
431.2
 20
255.992462
 30
0.0
 11
432.004041
 21
262.099762
 31
0.0
  0
LINE
  8
LC-004-003-----0
  6
CONTINUOUS
  5
173
 10
434.854733
 20
275.892006
 30
0.0
 11
431.2
 21
303.652462
 31
0.0
  0
LINE
  8
LC-004-003-----0
  6
CONTINUOUS
  5
174
 10
431.2
 20
303.652462
 30
0.0
 11
427.545267
 21
275.892006
 31
0.0
  0
LINE
  8
LC-004-003-----0
  6
CONTINUOUS
  5
175
 10
427.545267
 20
275.892006
 30
0.0
 11
434.854733
 21
275.892006
 31
0.0
  0
LINE
  8
LC-004-003-----0
  6
CONTINUOUS
  5
176
 10
433.904503
 20
275.829724
 30
0.0
 11
431.2
 21
296.372462
 31
0.0
  0
LINE
  8
LC-004-003-----0
  6
CONTINUOUS
  5
177
 10
431.2
 20
296.372462
 30
0.0
 11
428.495497
 21
275.829724
 31
0.0
  0
LINE
  8
LC-004-003-----0
  6
CONTINUOUS
  5
178
 10
432.954272
 20
275.767443
 30
0.0
 11
431.2
 21
289.092462
 31
0.0
  0
LINE
  8
LC-004-003-----0
  6
CONTINUOUS
  5
179
 10
431.2
 20
289.092462
 30
0.0
 11
429.445728
 21
275.767443
 31
0.0
  0
LINE
  8
LC-004-003-----0
  6
CONTINUOUS
  5
17A
 10
432.004041
 20
275.705161
 30
0.0
 11
431.2
 21
281.812462
 31
0.0
  0
LINE
  8
LC-004-003-----0
  6
CONTINUOUS
  5
17B
 10
431.2
 20
281.812462
 30
0.0
 11
430.395959
 21
275.705161
 31
0.0
  0
TEXT
  8
LC-004-003-----0
  6
CONTINUOUS
 62
     8
  5
17C
 10
423.372446
 20
240.301015
 30
0.0
 40
28.0
  1
8-69
 50
90.0
 51
15.0
  7
LC-TXTSTYLE-150-400-0-0-D0
 72
     1
 11
423.372446
 21
273.250622
 31
0.0
  0
ENDBLK
  8
0
  5
17D
  0
ENDSEC
  0
SECTION
  2
ENTITIES
  0
VIEWPORT
  8
LC-000
  5
265
 67
     1
 68
     1
 10
420.0
 20
297.0
 30
0.0
 40
840.0
 41
594.0
 69
     1
1001
ACAD
1000
MVIEW
1002
{
1070
    16
1010
0.0
1020
0.0
1030
0.0
1010
0.0
1020
0.0
1030
1.0
1040
0.0
1040
594.0
1040
420.0
1040
297.0
1040
50.0
1040
0.0
1040
0.0
1070
     0
1070
   100
1070
     1
1070
     1
1070
     0
1070
     0
1070
     0
1070
     0
1040
0.0
1040
0.0
1040
0.0
1040
1.0
1040
1.0
1040
0.0
1040
0.0
1070
     0
1002
{
1002
}
1002
}
  0
VIEWPORT
  8
0
  5
266
 67
     1
 68
     1
 10
0.0
 20
0.0
 30
0.0
 40
0.0
 41
0.0
 69
     1
1001
ACAD
1000
MVIEW
1002
{
1070
    16
1010
0.0
1020
0.0
1030
0.0
1010
0.0
1020
0.0
1030
1.0
1040
0.0
1040
594.0
1040
0.0
1040
0.0
1040
50.0
1040
0.0
1040
0.0
1070
     0
1070
   100
1070
     0
1070
     1
1070
     0
1070
     0
1070
     0
1070
     0
1040
0.0
1040
0.0
1040
0.0
1040
0.5
1040
0.5
1040
0.5
1040
0.5
1070
     0
1002
{
1002
}
1002
}
  0
INSERT
  8
0
  5
17E
  2
*X0
 10
197.619753
 20
211.152462
 30
0.0
  0
INSERT
  8
0
  5
17F
  2
*X1
 10
314.619327
 20
211.152462
 30
0.0
  0
DIMENSION
  8
0
  5
180
  2
*D2
 10
269.619567
 20
156.8
 30
0.0
 11
269.619567
 21
156.8
 31
0.0
  1
%%c145
 13
197.619753
 23
216.152462
 33
0.0
 14
341.619381
 24
216.152462
 34
0.0
  3
LC-DIM-L-0140-02-02
  0
DIMENSION
  8
0
  5
181
  2
*D3
 10
180.0
 20
312.279489
 30
0.0
 11
180.0
 21
312.279489
 31
0.0
 13
219.619567
 23
303.652462
 33
0.0
 14
219.619567
 24
294.652462
 34
0.0
 50
90.0
  3
LC-DIM-L-0140-02-02
  0
INSERT
  8
0
  5
182
  2
*X4
 10
269.619567
 20
297.652462
 30
0.0
  0
INSERT
  8
0
  5
184
  2
BLK1
 10
0.0
 20
0.0
 30
0.0
  0
INSERT
  8
0
  5
185
  2
*X6
 10
224.619806
 20
297.652666
 30
0.0
  0
DIMENSION
  8
0
  5
186
  2
*D7
 10
269.619688
 20
313.6
 30
0.0
 11
269.619688
 21
313.6
 31
0.0
 13
219.61981
 23
303.65267
 33
0.0
 14
319.619567
 24
303.652462
 34
0.0
  3
LC-DIM-L-0140-02-02
  0
INSERT
  8
0
  5
187
  2
BLK2
 10
0.0
 20
0.0
 30
0.0
  0
INSERT
  8
0
  5
188
  2
BLK3
 10
0.0
 20
0.0
 30
0.0
  0
INSERT
  8
0
  5
189
  2
BLK4
 10
0.0
 20
0.0
 30
0.0
  0
INSERT
  8
0
  5
18A
  2
BLK5
 10
0.0
 20
0.0
 30
0.0
  0
INSERT
  8
0
  5
18B
  2
BLK6
 10
0.0
 20
0.0
 30
0.0
  0
INSERT
  8
0
  5
18C
  2
BLK7
 10
0.0
 20
0.0
 30
0.0
  0
INSERT
  8
0
  5
18E
  2
BLK8
 10
0.0
 20
0.0
 30
0.0
  0
INSERT
  8
0
  5
18F
  2
BLK9
 10
0.0
 20
0.0
 30
0.0
  0
INSERT
  8
0
  5
190
  2
*X16
 10
200.619749
 20
211.152462
 30
0.0
  0
INSERT
  8
0
  5
191
  2
*X17
 10
269.619567
 20
211.152462
 30
0.0
  0
DIMENSION
  8
0
  5
192
  2
*D18
 10
392.0
 20
222.652462
 30
0.0
 11
392.0
 21
222.652462
 31
0.0
 13
340.279635
 23
211.152462
 33
0.0
 14
338.619369
 24
234.152462
 34
0.0
 50
90.0
  3
LC-DIM-L-0140-02-02
  0
DIMENSION
  8
0
  5
193
  2
*D19
 10
431.2
 20
268.902462
 30
0.0
 11
431.2
 21
268.902462
 31
0.0
  1
8-69
 13
338.619567
 23
234.152462
 33
0.0
 14
319.619567
 24
303.652462
 34
0.0
 50
90.0
  3
LC-DIM-L-0140-02-02
  0
LINE
  8
LC-001-002-----0
  5
196
 10
269.619567
 20
303.652462
 30
0.0
 11
269.619567
 21
211.152462
 31
0.0
  0
LINE
  8
LC-001-002-----0
  6
CONTINUOUS
 62
     1
  5
197
 10
319.619567
 20
303.652462
 30
0.0
 11
319.619567
 21
294.652462
 31
0.0
  0
LINE
  8
LC-001-002-----0
  6
CONTINUOUS
 62
     1
  5
198
 10
319.619567
 20
294.652462
 30
0.0
 11
317.619567
 21
294.652462
 31
0.0
  0
LINE
  8
LC-001-002-----0
  6
CONTINUOUS
 62
     1
  5
199
 10
317.619567
 20
294.652462
 30
0.0
 11
317.619567
 21
288.652462
 31
0.0
  0
LINE
  8
LC-001-002-----0
  6
CONTINUOUS
 62
     1
  5
19A
 10
316.119567
 20
303.652462
 30
0.0
 11
316.119567
 21
297.652462
 31
0.0
  0
LINE
  8
LC-001-002-----0
  6
CONTINUOUS
 62
     1
  5
19B
 10
316.119567
 20
297.652462
 30
0.0
 11
269.619567
 21
297.652462
 31
0.0
  0
LINE
  8
LC-001-002-----0
  6
CONTINUOUS
 62
     1
  5
19C
 10
314.619567
 20
297.652462
 30
0.0
 11
314.619567
 21
285.652462
 31
0.0
  0
LINE
  8
LC-001-002-----0
  6
CONTINUOUS
 62
     1
  5
19D
 10
341.619381
 20
216.152462
 30
0.0
 11
340.279635
 21
211.152462
 31
0.0
  0
LINE
  8
LC-001-002-----0
  6
CONTINUOUS
 62
     1
  5
19E
 10
317.619567
 20
288.652462
 30
0.0
 11
331.619567
 21
288.652462
 31
0.0
  0
ARC
  8
LC-001-002-----0
  6
CONTINUOUS
 62
     1
  5
19F
 10
331.619567
 20
278.652462
 30
0.0
 40
10.0
 50
0.0
 51
90.0
  0
LINE
  8
LC-001-002-----0
  6
CONTINUOUS
 62
     1
  5
1A0
 10
341.619567
 20
278.652462
 30
0.0
 11
341.619567
 21
216.153156
 31
0.0
  0
LINE
  8
LC-002-001-----0
  6
CONTINUOUS
  5
1A2
 10
269.619567
 20
285.652462
 30
0.0
 11
331.619567
 21
285.652462
 31
0.0
  0
ARC
  8
LC-002-001-----0
  6
CONTINUOUS
  5
1A3
 10
331.619567
 20
278.652462
 30
0.0
 40
7.0
 50
0.0
 51
90.0
  0
LINE
  8
LC-001-002-----0
  6
CONTINUOUS
 62
     1
  5
1A4
 10
338.619567
 20
278.652462
 30
0.0
 11
338.619567
 21
211.152462
 31
0.0
  0
LINE
  8
LC-001-002-----0
  6
CONTINUOUS
 62
     1
  5
1A5
 10
198.959499
 20
211.152462
 30
0.0
 11
340.279635
 21
211.152462
 31
0.0
  0
LINE
  8
LC-001-002-----0
  6
CONTINUOUS
 62
     1
  5
1A6
 10
197.619753
 20
216.152462
 30
0.0
 11
198.959499
 21
211.152462
 31
0.0
  0
LINE
  8
LC-001-002-----0
  6
CONTINUOUS
  5
1A7
 10
245.81379
 20
340.512
 30
0.0
 11
230.81379
 21
340.512
 31
0.0
  0
LINE
  8
LC-001-002-----0
  6
CONTINUOUS
  5
1A8
 10
245.81379
 20
325.512
 30
0.0
 11
245.81379
 21
340.512
 31
0.0
  0
LINE
  8
LC-001-002-----0
  6
CONTINUOUS
 62
     1
  5
1A9
 10
277.619567
 20
298.652462
 30
0.0
 11
284.619567
 21
298.652462
 31
0.0
  0
LINE
  8
LC-001-002-----0
  6
CONTINUOUS
 62
     1
  5
1AA
 10
284.619567
 20
298.652462
 30
0.0
 11
285.619567
 21
298.652462
 31
0.0
  0
LINE
  8
LC-001-002-----0
  6
CONTINUOUS
 62
     1
  5
1AB
 10
289.619567
 20
298.652462
 30
0.0
 11
296.619567
 21
298.652462
 31
0.0
  0
LINE
  8
LC-001-002-----0
  6
CONTINUOUS
 62
     1
  5
1AC
 10
296.619567
 20
298.652462
 30
0.0
 11
297.619567
 21
298.652462
 31
0.0
  0
LINE
  8
LC-001-002-----0
  6
CONTINUOUS
 62
     1
  5
1AD
 10
301.619567
 20
298.652462
 30
0.0
 11
308.619567
 21
298.652462
 31
0.0
  0
LINE
  8
LC-001-002-----0
  6
CONTINUOUS
 62
     1
  5
1AE
 10
308.619567
 20
298.652462
 30
0.0
 11
309.619567
 21
298.652462
 31
0.0
  0
LINE
  8
LC-001-002-----0
  6
CONTINUOUS
 62
     1
  5
1AF
 10
316.119567
 20
303.652462
 30
0.0
 11
319.619567
 21
303.652462
 31
0.0
  0
LINE
  8
LC-001-002-----0
  6
CONTINUOUS
 62
     1
  5
1B0
 10
269.619567
 20
303.652462
 30
0.0
 11
286.619567
 21
303.652462
 31
0.0
  0
ARC
  8
LC-001-002-----0
  6
CONTINUOUS
 62
     1
  5
1B1
 10
276.619567
 20
301.652462
 30
0.0
 40
2.0
 50
0.0
 51
90.0
  0
LINE
  8
LC-001-002-----0
  6
CONTINUOUS
 62
     1
  5
1B2
 10
278.619567
 20
298.652462
 30
0.0
 11
278.619567
 21
301.652462
 31
0.0
  0
ARC
  8
LC-001-002-----0
  6
CONTINUOUS
 62
     1
  5
1B3
 10
286.619567
 20
301.652462
 30
0.0
 40
2.0
 50
90.0
 51
179.999848
  0
LINE
  8
LC-001-002-----0
  6
CONTINUOUS
 62
     1
  5
1B4
 10
284.619567
 20
301.652462
 30
0.0
 11
284.619567
 21
298.652462
 31
0.0
  0
LINE
  8
LC-001-002-----0
  6
CONTINUOUS
 62
     1
  5
1B5
 10
290.619567
 20
298.652462
 30
0.0
 11
290.619567
 21
301.652462
 31
0.0
  0
ARC
  8
LC-001-002-----0
  6
CONTINUOUS
 62
     1
  5
1B6
 10
288.619567
 20
301.652462
 30
0.0
 40
2.0
 50
0.0
 51
89.999981
  0
LINE
  8
LC-001-002-----0
  6
CONTINUOUS
 62
     1
  5
1B7
 10
286.619567
 20
303.652462
 30
0.0
 11
298.619567
 21
303.652462
 31
0.0
  0
ARC
  8
LC-001-002-----0
  6
CONTINUOUS
 62
     1
  5
1B8
 10
298.619567
 20
301.652462
 30
0.0
 40
2.0
 50
90.0
 51
179.999848
  0
LINE
  8
LC-001-002-----0
  6
CONTINUOUS
 62
     1
  5
1B9
 10
296.619567
 20
301.652462
 30
0.0
 11
296.619567
 21
298.652462
 31
0.0
  0
LINE
  8
LC-001-002-----0
  6
CONTINUOUS
 62
     1
  5
1BA
 10
298.619567
 20
303.652462
 30
0.0
 11
310.619567
 21
303.652462
 31
0.0
  0
ARC
  8
LC-001-002-----0
  6
CONTINUOUS
 62
     1
  5
1BB
 10
300.619567
 20
301.652462
 30
0.0
 40
2.0
 50
0.0
 51
90.0
  0
LINE
  8
LC-001-002-----0
  6
CONTINUOUS
 62
     1
  5
1BC
 10
302.619567
 20
298.652462
 30
0.0
 11
302.619567
 21
301.652462
 31
0.0
  0
LINE
  8
LC-001-002-----0
  6
CONTINUOUS
 62
     1
  5
1BD
 10
308.619567
 20
301.652462
 30
0.0
 11
308.619567
 21
298.652462
 31
0.0
  0
ARC
  8
LC-001-002-----0
  6
CONTINUOUS
 62
     1
  5
1BE
 10
310.619567
 20
301.652462
 30
0.0
 40
2.0
 50
89.999981
 51
180.0
  0
LINE
  8
LC-001-002-----0
  6
CONTINUOUS
 62
     1
  5
1BF
 10
310.619567
 20
303.652462
 30
0.0
 11
312.619567
 21
303.652462
 31
0.0
  0
ARC
  8
LC-001-002-----0
  6
CONTINUOUS
 62
     1
  5
1C0
 10
312.619567
 20
301.652462
 30
0.0
 40
2.0
 50
0.0
 51
90.0
  0
LINE
  8
LC-001-002-----0
  6
CONTINUOUS
 62
     1
  5
1C1
 10
314.619567
 20
297.652462
 30
0.0
 11
314.619567
 21
301.652462
 31
0.0
  0
LINE
  8
LC-001-002-----0
  6
CONTINUOUS
 62
     1
  5
1C2
 10
269.619567
 20
302.652462
 30
0.0
 11
276.619567
 21
302.652462
 31
0.0
  0
ARC
  8
LC-001-002-----0
  6
CONTINUOUS
 62
     1
  5
1C3
 10
276.619567
 20
301.652462
 30
0.0
 40
1.0
 50
0.0
 51
90.0
  0
LINE
  8
LC-001-002-----0
  6
CONTINUOUS
 62
     1
  5
1C4
 10
277.619567
 20
301.652462
 30
0.0
 11
277.619567
 21
298.652462
 31
0.0
  0
ARC
  8
LC-001-002-----0
  6
CONTINUOUS
 62
     1
  5
1C5
 10
286.619567
 20
301.652462
 30
0.0
 40
1.0
 50
90.0
 51
179.999848
  0
LINE
  8
LC-001-002-----0
  6
CONTINUOUS
 62
     1
  5
1C6
 10
285.619567
 20
298.652462
 30
0.0
 11
285.619567
 21
301.652462
 31
0.0
  0
LINE
  8
LC-001-002-----0
  6
CONTINUOUS
 62
     1
  5
1C7
 10
289.619567
 20
301.652462
 30
0.0
 11
289.619567
 21
298.652462
 31
0.0
  0
ARC
  8
LC-001-002-----0
  6
CONTINUOUS
 62
     1
  5
1C8
 10
288.619567
 20
301.652462
 30
0.0
 40
1.0
 50
0.0
 51
89.999981
  0
LINE
  8
LC-001-002-----0
  6
CONTINUOUS
 62
     1
  5
1C9
 10
286.619567
 20
302.652462
 30
0.0
 11
288.619567
 21
302.652462
 31
0.0
  0
LINE
  8
LC-001-002-----0
  6
CONTINUOUS
 62
     1
  5
1CA
 10
297.619567
 20
298.652462
 30
0.0
 11
297.619567
 21
301.652462
 31
0.0
  0
ARC
  8
LC-001-002-----0
  6
CONTINUOUS
 62
     1
  5
1CB
 10
298.619567
 20
301.652462
 30
0.0
 40
1.0
 50
89.999981
 51
180.0
  0
LINE
  8
LC-001-002-----0
  6
CONTINUOUS
 62
     1
  5
1CC
 10
298.619567
 20
302.652462
 30
0.0
 11
300.619567
 21
302.652462
 31
0.0
  0
ARC
  8
LC-001-002-----0
  6
CONTINUOUS
 62
     1
  5
1CD
 10
300.619567
 20
301.652462
 30
0.0
 40
1.0
 50
0.0
 51
90.0
  0
LINE
  8
LC-001-002-----0
  6
CONTINUOUS
 62
     1
  5
1CE
 10
301.619567
 20
301.652462
 30
0.0
 11
301.619567
 21
298.652462
 31
0.0
  0
ARC
  8
LC-001-002-----0
  6
CONTINUOUS
 62
     1
  5
1CF
 10
310.619567
 20
301.652462
 30
0.0
 40
1.0
 50
90.0
 51
179.999848
  0
LINE
  8
LC-001-002-----0
  6
CONTINUOUS
 62
     1
  5
1D0
 10
309.619567
 20
298.652462
 30
0.0
 11
309.619567
 21
301.652462
 31
0.0
  0
LINE
  8
LC-001-002-----0
  6
CONTINUOUS
 62
     1
  5
1D1
 10
313.619567
 20
301.652462
 30
0.0
 11
313.619567
 21
297.652462
 31
0.0
  0
ARC
  8
LC-001-002-----0
  6
CONTINUOUS
 62
     1
  5
1D2
 10
312.619567
 20
301.652462
 30
0.0
 40
1.0
 50
0.0
 51
89.999981
  0
LINE
  8
LC-001-002-----0
  6
CONTINUOUS
 62
     1
  5
1D3
 10
310.619567
 20
302.652462
 30
0.0
 11
312.619567
 21
302.652462
 31
0.0
  0
LINE
  8
LC-001-002-----0
  6
CONTINUOUS
 62
     1
  5
1D4
 10
219.61981
 20
303.65267
 30
0.0
 11
219.619804
 21
294.65267
 31
0.0
  0
LINE
  8
LC-001-002-----0
  6
CONTINUOUS
 62
     1
  5
1D5
 10
219.619804
 20
294.65267
 30
0.0
 11
221.619804
 21
294.652669
 31
0.0
  0
LINE
  8
LC-001-002-----0
  6
CONTINUOUS
 62
     1
  5
1D6
 10
221.619804
 20
294.652669
 30
0.0
 11
221.6198
 21
288.652669
 31
0.0
  0
LINE
  8
LC-001-002-----0
  6
CONTINUOUS
 62
     1
  5
1D7
 10
223.11981
 20
303.652668
 30
0.0
 11
223.119806
 21
297.652668
 31
0.0
  0
LINE
  8
LC-001-002-----0
  6
CONTINUOUS
 62
     1
  5
1D8
 10
223.119806
 20
297.652668
 30
0.0
 11
269.619806
 21
297.652637
 31
0.0
  0
LINE
  8
LC-001-002-----0
  6
CONTINUOUS
 62
     1
  5
1D9
 10
224.619806
 20
297.652667
 30
0.0
 11
224.619798
 21
285.652667
 31
0.0
  0
LINE
  8
LC-001-002-----0
  6
CONTINUOUS
 62
     1
  5
1DA
 10
221.6198
 20
288.652669
 30
0.0
 11
207.6198
 21
288.652678
 31
0.0
  0
ARC
  8
LC-001-002-----0
  6
CONTINUOUS
 62
     1
  5
1DB
 10
207.619793
 20
278.652678
 30
0.0
 40
10.0
 50
89.999963
 51
179.999944
  0
LINE
  8
LC-001-002-----0
  6
CONTINUOUS
 62
     1
  5
1DC
 10
197.619793
 20
278.652684
 30
0.0
 11
197.619753
 21
216.152462
 31
0.0
  0
LINE
  8
LC-002-001-----0
  6
CONTINUOUS
  5
1DD
 10
269.619798
 20
285.652637
 30
0.0
 11
207.619798
 21
285.652678
 31
0.0
  0
ARC
  8
LC-002-001-----0
  6
CONTINUOUS
  5
1DE
 10
207.619793
 20
278.652678
 30
0.0
 40
7.0
 50
89.999963
 51
179.999944
  0
LINE
  8
LC-001-002-----0
  6
CONTINUOUS
 62
     1
  5
1DF
 10
200.619793
 20
278.652682
 30
0.0
 11
200.619749
 21
211.152462
 31
0.0
  0
LINE
  8
LC-001-002-----0
  6
CONTINUOUS
 62
     1
  5
1E0
 10
261.619807
 20
298.652642
 30
0.0
 11
254.619807
 21
298.652647
 31
0.0
  0
LINE
  8
LC-001-002-----0
  6
CONTINUOUS
 62
     1
  5
1E1
 10
254.619807
 20
298.652647
 30
0.0
 11
253.619807
 21
298.652648
 31
0.0
  0
LINE
  8
LC-001-002-----0
  6
CONTINUOUS
 62
     1
  5
1E2
 10
249.619807
 20
298.65265
 30
0.0
 11
242.619807
 21
298.652655
 31
0.0
  0
LINE
  8
LC-001-002-----0
  6
CONTINUOUS
 62
     1
  5
1E3
 10
242.619807
 20
298.652655
 30
0.0
 11
241.619807
 21
298.652655
 31
0.0
  0
LINE
  8
LC-001-002-----0
  6
CONTINUOUS
 62
     1
  5
1E4
 10
237.619807
 20
298.652658
 30
0.0
 11
230.619807
 21
298.652663
 31
0.0
  0
LINE
  8
LC-001-002-----0
  6
CONTINUOUS
 62
     1
  5
1E5
 10
230.619807
 20
298.652663
 30
0.0
 11
229.619807
 21
298.652663
 31
0.0
  0
LINE
  8
LC-001-002-----0
  6
CONTINUOUS
 62
     1
  5
1E6
 10
223.11981
 20
303.652668
 30
0.0
 11
219.61981
 21
303.65267
 31
0.0
  0
LINE
  8
LC-001-002-----0
  6
CONTINUOUS
 62
     1
  5
1E7
 10
269.61981
 20
303.652637
 30
0.0
 11
252.61981
 21
303.652648
 31
0.0
  0
ARC
  8
LC-001-002-----0
  6
CONTINUOUS
 62
     1
  5
1E8
 10
262.619808
 20
301.652642
 30
0.0
 40
2.0
 50
89.999963
 51
179.999944
  0
LINE
  8
LC-001-002-----0
  6
CONTINUOUS
 62
     1
  5
1E9
 10
260.619807
 20
298.652643
 30
0.0
 11
260.619808
 21
301.652643
 31
0.0
  0
ARC
  8
LC-001-002-----0
  6
CONTINUOUS
 62
     1
  5
1EA
 10
252.619808
 20
301.652648
 30
0.0
 40
2.0
 50
0.000096
 51
89.999963
  0
LINE
  8
LC-001-002-----0
  6
CONTINUOUS
 62
     1
  5
1EB
 10
254.619808
 20
301.652647
 30
0.0
 11
254.619807
 21
298.652647
 31
0.0
  0
LINE
  8
LC-001-002-----0
  6
CONTINUOUS
 62
     1
  5
1EC
 10
248.619807
 20
298.652651
 30
0.0
 11
248.619808
 21
301.652651
 31
0.0
  0
ARC
  8
LC-001-002-----0
  6
CONTINUOUS
 62
     1
  5
1ED
 10
250.619808
 20
301.65265
 30
0.0
 40
2.0
 50
89.999963
 51
179.999963
  0
LINE
  8
LC-001-002-----0
  6
CONTINUOUS
 62
     1
  5
1EE
 10
252.61981
 20
303.652648
 30
0.0
 11
240.61981
 21
303.652656
 31
0.0
  0
ARC
  8
LC-001-002-----0
  6
CONTINUOUS
 62
     1
  5
1EF
 10
240.619808
 20
301.652656
 30
0.0
 40
2.0
 50
0.000096
 51
89.999963
  0
LINE
  8
LC-001-002-----0
  6
CONTINUOUS
 62
     1
  5
1F0
 10
242.619808
 20
301.652655
 30
0.0
 11
242.619807
 21
298.652655
 31
0.0
  0
LINE
  8
LC-001-002-----0
  6
CONTINUOUS
 62
     1
  5
1F1
 10
240.61981
 20
303.652656
 30
0.0
 11
228.61981
 21
303.652664
 31
0.0
  0
ARC
  8
LC-001-002-----0
  6
CONTINUOUS
 62
     1
  5
1F2
 10
238.619808
 20
301.652657
 30
0.0
 40
2.0
 50
89.999963
 51
179.999944
  0
LINE
  8
LC-001-002-----0
  6
CONTINUOUS
 62
     1
  5
1F3
 10
236.619807
 20
298.652659
 30
0.0
 11
236.619808
 21
301.652659
 31
0.0
  0
LINE
  8
LC-001-002-----0
  6
CONTINUOUS
 62
     1
  5
1F4
 10
230.619808
 20
301.652663
 30
0.0
 11
230.619807
 21
298.652663
 31
0.0
  0
ARC
  8
LC-001-002-----0
  6
CONTINUOUS
 62
     1
  5
1F5
 10
228.619808
 20
301.652664
 30
0.0
 40
2.0
 50
359.999963
 51
89.999888
  0
LINE
  8
LC-001-002-----0
  6
CONTINUOUS
 62
     1
  5
1F6
 10
228.61981
 20
303.652664
 30
0.0
 11
226.61981
 21
303.652665
 31
0.0
  0
ARC
  8
LC-001-002-----0
  6
CONTINUOUS
 62
     1
  5
1F7
 10
226.619808
 20
301.652665
 30
0.0
 40
2.0
 50
89.999963
 51
179.999944
  0
LINE
  8
LC-001-002-----0
  6
CONTINUOUS
 62
     1
  5
1F8
 10
224.619806
 20
297.652667
 30
0.0
 11
224.619808
 21
301.652667
 31
0.0
  0
LINE
  8
LC-001-002-----0
  6
CONTINUOUS
 62
     1
  5
1F9
 10
269.619809
 20
302.652637
 30
0.0
 11
262.619809
 21
302.652642
 31
0.0
  0
ARC
  8
LC-001-002-----0
  6
CONTINUOUS
 62
     1
  5
1FA
 10
262.619808
 20
301.652642
 30
0.0
 40
1.0
 50
89.999963
 51
179.999944
  0
LINE
  8
LC-001-002-----0
  6
CONTINUOUS
 62
     1
  5
1FB
 10
261.619808
 20
301.652642
 30
0.0
 11
261.619807
 21
298.652642
 31
0.0
  0
ARC
  8
LC-001-002-----0
  6
CONTINUOUS
 62
     1
  5
1FC
 10
252.619808
 20
301.652648
 30
0.0
 40
1.0
 50
0.000096
 51
89.999963
  0
LINE
  8
LC-001-002-----0
  6
CONTINUOUS
 62
     1
  5
1FD
 10
253.619807
 20
298.652648
 30
0.0
 11
253.619808
 21
301.652648
 31
0.0
  0
LINE
  8
LC-001-002-----0
  6
CONTINUOUS
 62
     1
  5
1FE
 10
249.619808
 20
301.65265
 30
0.0
 11
249.619807
 21
298.65265
 31
0.0
  0
ARC
  8
LC-001-002-----0
  6
CONTINUOUS
 62
     1
  5
1FF
 10
250.619808
 20
301.65265
 30
0.0
 40
1.0
 50
89.999963
 51
179.999963
  0
LINE
  8
LC-001-002-----0
  6
CONTINUOUS
 62
     1
  5
200
 10
252.619809
 20
302.652648
 30
0.0
 11
250.619809
 21
302.65265
 31
0.0
  0
LINE
  8
LC-001-002-----0
  6
CONTINUOUS
 62
     1
  5
201
 10
241.619807
 20
298.652655
 30
0.0
 11
241.619808
 21
301.652655
 31
0.0
  0
ARC
  8
LC-001-002-----0
  6
CONTINUOUS
 62
     1
  5
202
 10
240.619808
 20
301.652656
 30
0.0
 40
1.0
 50
359.999963
 51
89.999888
  0
LINE
  8
LC-001-002-----0
  6
CONTINUOUS
 62
     1
  5
203
 10
240.619809
 20
302.652656
 30
0.0
 11
238.619809
 21
302.652657
 31
0.0
  0
ARC
  8
LC-001-002-----0
  6
CONTINUOUS
 62
     1
  5
204
 10
238.619808
 20
301.652657
 30
0.0
 40
1.0
 50
89.999963
 51
179.999944
  0
LINE
  8
LC-001-002-----0
  6
CONTINUOUS
 62
     1
  5
205
 10
237.619808
 20
301.652658
 30
0.0
 11
237.619807
 21
298.652658
 31
0.0
  0
ARC
  8
LC-001-002-----0
  6
CONTINUOUS
 62
     1
  5
206
 10
228.619808
 20
301.652664
 30
0.0
 40
1.0
 50
0.000096
 51
89.999963
  0
LINE
  8
LC-001-002-----0
  6
CONTINUOUS
 62
     1
  5
207
 10
229.619807
 20
298.652663
 30
0.0
 11
229.619808
 21
301.652663
 31
0.0
  0
LINE
  8
LC-001-002-----0
  6
CONTINUOUS
 62
     1
  5
208
 10
225.619808
 20
301.652666
 30
0.0
 11
225.619806
 21
297.652666
 31
0.0
  0
ARC
  8
LC-001-002-----0
  6
CONTINUOUS
 62
     1
  5
209
 10
226.619808
 20
301.652665
 30
0.0
 40
1.0
 50
89.999963
 51
179.999963
  0
LINE
  8
LC-001-002-----0
  6
CONTINUOUS
 62
     1
  5
20A
 10
228.619809
 20
302.652664
 30
0.0
 11
226.619809
 21
302.652665
 31
0.0
  0
LINE
  8
LC-001-002-----0
  6
CONTINUOUS
  5
20B
 10
230.81379
 20
325.512
 30
0.0
 11
230.81379
 21
340.512
 31
0.0
  0
LINE
  8
LC-001-002-----0
  6
CONTINUOUS
  5
20C
 10
245.81379
 20
325.512
 30
0.0
 11
230.81379
 21
325.512
 31
0.0
  0
CIRCLE
  8
LC-001-002-----0
  6
CONTINUOUS
 62
     1
  5
20D
 10
514.119567
 20
257.402549
 30
0.0
 40
72.5
  0
LINE
  8
LC-001-002-----0
  6
CONTINUOUS
 62
     1
  5
20E
 10
564.119567
 20
307.402549
 30
0.0
 11
464.119567
 21
307.402549
 31
0.0
  0
LINE
  8
LC-001-002-----0
  6
CONTINUOUS
 62
     1
  5
20F
 10
464.119567
 20
307.402549
 30
0.0
 11
464.119567
 21
207.402549
 31
0.0
  0
LINE
  8
LC-001-002-----0
  6
CONTINUOUS
 62
     1
  5
210
 10
464.119567
 20
207.402549
 30
0.0
 11
564.119567
 21
207.402549
 31
0.0
  0
LINE
  8
LC-001-002-----0
  6
CONTINUOUS
 62
     1
  5
211
 10
564.119567
 20
207.402549
 30
0.0
 11
564.119567
 21
307.402549
 31
0.0
  0
LINE
  8
LC-001-002-----0
  6
CONTINUOUS
 62
     1
  5
212
 10
561.119567
 20
304.402549
 30
0.0
 11
467.119567
 21
304.402549
 31
0.0
  0
LINE
  8
LC-001-002-----0
  6
CONTINUOUS
 62
     1
  5
213
 10
561.119567
 20
210.402549
 30
0.0
 11
561.119567
 21
304.402549
 31
0.0
  0
LINE
  8
LC-001-002-----0
  6
CONTINUOUS
 62
     1
  5
214
 10
467.119567
 20
210.402549
 30
0.0
 11
561.119567
 21
210.402549
 31
0.0
  0
LINE
  8
LC-001-002-----0
  6
CONTINUOUS
 62
     1
  5
215
 10
467.119567
 20
304.402549
 30
0.0
 11
467.119567
 21
210.402549
 31
0.0
  0
ARC
  8
LC-001-002-----0
  6
CONTINUOUS
 62
     1
  5
216
 10
540.119567
 20
293.402549
 30
0.0
 40
3.0
 50
270.000117
 51
90.00004
  0
ARC
  8
LC-001-002-----0
  6
CONTINUOUS
 62
     1
  5
217
 10
529.119567
 20
281.402549
 30
0.0
 40
3.0
 50
270.000117
 51
90.00004
  0
LINE
  8
LC-001-002-----0
  6
CONTINUOUS
 62
     1
  5
218
 10
529.119567
 20
284.402549
 30
0.0
 11
514.119567
 21
284.402549
 31
0.0
  0
LINE
  8
LC-001-002-----0
  6
CONTINUOUS
 62
     1
  5
219
 10
529.119567
 20
278.402549
 30
0.0
 11
514.119567
 21
278.402549
 31
0.0
  0
LINE
  8
LC-001-002-----0
  6
CONTINUOUS
 62
     1
  5
21A
 10
540.119567
 20
296.402549
 30
0.0
 11
514.119567
 21
296.402549
 31
0.0
  0
LINE
  8
LC-001-002-----0
  6
CONTINUOUS
 62
     1
  5
21B
 10
540.119567
 20
290.402549
 30
0.0
 11
514.119567
 21
290.402549
 31
0.0
  0
ARC
  8
LC-001-002-----0
  6
CONTINUOUS
 62
     1
  5
21C
 10
488.119752
 20
293.402876
 30
0.0
 40
3.0
 50
89.999829
 51
269.999846
  0
ARC
  8
LC-001-002-----0
  6
CONTINUOUS
 62
     1
  5
21D
 10
499.119744
 20
281.402868
 30
0.0
 40
3.0
 50
89.999829
 51
269.999846
  0
LINE
  8
LC-001-002-----0
  6
CONTINUOUS
 62
     1
  5
21E
 10
499.119746
 20
284.402868
 30
0.0
 11
514.119746
 21
284.402859
 31
0.0
  0
LINE
  8
LC-001-002-----0
  6
CONTINUOUS
 62
     1
  5
21F
 10
499.119743
 20
278.402868
 30
0.0
 11
514.119743
 21
278.402859
 31
0.0
  0
LINE
  8
LC-001-002-----0
  6
CONTINUOUS
 62
     1
  5
220
 10
488.119754
 20
296.402876
 30
0.0
 11
514.119754
 21
296.402859
 31
0.0
  0
LINE
  8
LC-001-002-----0
  6
CONTINUOUS
 62
     1
  5
221
 10
488.11975
 20
290.402876
 30
0.0
 11
514.11975
 21
290.402859
 31
0.0
  0
ARC
  8
LC-001-002-----0
  6
CONTINUOUS
 62
     1
  5
222
 10
478.119601
 20
283.402597
 30
0.0
 40
3.0
 50
0.000041
 51
179.999905
  0
ARC
  8
LC-001-002-----0
  6
CONTINUOUS
 62
     1
  5
223
 10
490.119587
 20
272.402581
 30
0.0
 40
3.0
 50
0.000041
 51
179.999905
  0
ARC
  8
LC-001-002-----0
  6
CONTINUOUS
 62
     1
  5
224
 10
502.119571
 20
260.902565
 30
0.0
 40
3.0
 50
0.000041
 51
179.999905
  0
LINE
  8
LC-001-002-----0
  6
CONTINUOUS
 62
     1
  5
225
 10
505.119571
 20
260.902561
 30
0.0
 11
505.119567
 21
257.402561
 31
0.0
  0
LINE
  8
LC-001-002-----0
  6
CONTINUOUS
 62
     1
  5
226
 10
499.119571
 20
260.902569
 30
0.0
 11
499.119567
 21
257.402569
 31
0.0
  0
LINE
  8
LC-001-002-----0
  6
CONTINUOUS
 62
     1
  5
227
 10
487.119587
 20
272.402585
 30
0.0
 11
487.119567
 21
257.402585
 31
0.0
  0
LINE
  8
LC-001-002-----0
  6
CONTINUOUS
 62
     1
  5
228
 10
493.119587
 20
272.402577
 30
0.0
 11
493.119567
 21
257.402577
 31
0.0
  0
LINE
  8
LC-001-002-----0
  6
CONTINUOUS
 62
     1
  5
229
 10
475.119601
 20
283.402601
 30
0.0
 11
475.119567
 21
257.402601
 31
0.0
  0
LINE
  8
LC-001-002-----0
  6
CONTINUOUS
 62
     1
  5
22A
 10
481.119601
 20
283.402593
 30
0.0
 11
481.119567
 21
257.402593
 31
0.0
  0
ARC
  8
LC-001-002-----0
  6
CONTINUOUS
 62
     1
  5
22B
 10
478.119206
 20
231.402783
 30
0.0
 40
3.0
 50
179.999964
 51
359.99977
  0
ARC
  8
LC-001-002-----0
  6
CONTINUOUS
 62
     1
  5
22C
 10
490.119228
 20
242.402759
 30
0.0
 40
3.0
 50
179.999964
 51
359.99977
  0
ARC
  8
LC-001-002-----0
  6
CONTINUOUS
 62
     1
  5
22D
 10
502.119251
 20
253.902735
 30
0.0
 40
3.0
 50
179.999964
 51
359.99977
  0
LINE
  8
LC-001-002-----0
  6
CONTINUOUS
 62
     1
  5
22E
 10
505.119251
 20
253.902729
 30
0.0
 11
505.119258
 21
257.402729
 31
0.0
  0
LINE
  8
LC-001-002-----0
  6
CONTINUOUS
 62
     1
  5
22F
 10
499.119251
 20
253.902741
 30
0.0
 11
499.119258
 21
257.402741
 31
0.0
  0
LINE
  8
LC-001-002-----0
  6
CONTINUOUS
 62
     1
  5
230
 10
487.119228
 20
242.402765
 30
0.0
 11
487.119258
 21
257.402765
 31
0.0
  0
LINE
  8
LC-001-002-----0
  6
CONTINUOUS
 62
     1
  5
231
 10
493.119228
 20
242.402753
 30
0.0
 11
493.119258
 21
257.402753
 31
0.0
  0
LINE
  8
LC-001-002-----0
  6
CONTINUOUS
 62
     1
  5
232
 10
475.119206
 20
231.402789
 30
0.0
 11
475.119258
 21
257.402789
 31
0.0
  0
LINE
  8
LC-001-002-----0
  6
CONTINUOUS
 62
     1
  5
233
 10
481.119206
 20
231.402777
 30
0.0
 11
481.119258
 21
257.402777
 31
0.0
  0
ARC
  8
LC-001-002-----0
  6
CONTINUOUS
 62
     1
  5
234
 10
540.119285
 20
221.402154
 30
0.0
 40
3.0
 50
269.999829
 51
89.999694
  0
ARC
  8
LC-001-002-----0
  6
CONTINUOUS
 62
     1
  5
235
 10
529.119325
 20
233.402191
 30
0.0
 40
3.0
 50
269.999829
 51
89.999694
  0
LINE
  8
LC-001-002-----0
  6
CONTINUOUS
 62
     1
  5
236
 10
529.119315
 20
230.402191
 30
0.0
 11
514.119315
 21
230.40224
 31
0.0
  0
LINE
  8
LC-001-002-----0
  6
CONTINUOUS
 62
     1
  5
237
 10
529.119335
 20
236.402191
 30
0.0
 11
514.119335
 21
236.40224
 31
0.0
  0
LINE
  8
LC-001-002-----0
  6
CONTINUOUS
 62
     1
  5
238
 10
540.119275
 20
218.402154
 30
0.0
 11
514.119275
 21
218.40224
 31
0.0
  0
LINE
  8
LC-001-002-----0
  6
CONTINUOUS
 62
     1
  5
239
 10
540.119295
 20
224.402154
 30
0.0
 11
514.119295
 21
224.40224
 31
0.0
  0
ARC
  8
LC-001-002-----0
  6
CONTINUOUS
 62
     1
  5
23A
 10
488.119471
 20
221.402618
 30
0.0
 40
3.0
 50
89.999965
 51
269.999829
  0
ARC
  8
LC-001-002-----0
  6
CONTINUOUS
 62
     1
  5
23B
 10
499.119503
 20
233.402589
 30
0.0
 40
3.0
 50
89.999965
 51
269.999829
  0
LINE
  8
LC-001-002-----0
  6
CONTINUOUS
 62
     1
  5
23C
 10
499.119495
 20
230.402589
 30
0.0
 11
514.119495
 21
230.402549
 31
0.0
  0
LINE
  8
LC-001-002-----0
  6
CONTINUOUS
 62
     1
  5
23D
 10
499.119511
 20
236.402589
 30
0.0
 11
514.119511
 21
236.402549
 31
0.0
  0
LINE
  8
LC-001-002-----0
  6
CONTINUOUS
 62
     1
  5
23E
 10
488.119463
 20
218.402618
 30
0.0
 11
514.119463
 21
218.402549
 31
0.0
  0
LINE
  8
LC-001-002-----0
  6
CONTINUOUS
 62
     1
  5
23F
 10
488.119479
 20
224.402618
 30
0.0
 11
514.119479
 21
224.402549
 31
0.0
  0
ARC
  8
LC-001-002-----0
  6
CONTINUOUS
 62
     1
  5
240
 10
550.119996
 20
283.40222
 30
0.0
 40
3.0
 50
359.999734
 51
179.999618
  0
ARC
  8
LC-001-002-----0
  6
CONTINUOUS
 62
     1
  5
241
 10
538.119945
 20
272.402276
 30
0.0
 40
3.0
 50
359.999734
 51
179.999618
  0
ARC
  8
LC-001-002-----0
  6
CONTINUOUS
 62
     1
  5
242
 10
526.119892
 20
260.902332
 30
0.0
 40
3.0
 50
359.999734
 51
179.999618
  0
LINE
  8
LC-001-002-----0
  6
CONTINUOUS
 62
     1
  5
243
 10
523.119892
 20
260.902346
 30
0.0
 11
523.119876
 21
257.402346
 31
0.0
  0
LINE
  8
LC-001-002-----0
  6
CONTINUOUS
 62
     1
  5
244
 10
529.119892
 20
260.902318
 30
0.0
 11
529.119876
 21
257.402318
 31
0.0
  0
LINE
  8
LC-001-002-----0
  6
CONTINUOUS
 62
     1
  5
245
 10
541.119945
 20
272.402262
 30
0.0
 11
541.119876
 21
257.402262
 31
0.0
  0
LINE
  8
LC-001-002-----0
  6
CONTINUOUS
 62
     1
  5
246
 10
535.119945
 20
272.40229
 30
0.0
 11
535.119876
 21
257.40229
 31
0.0
  0
LINE
  8
LC-001-002-----0
  6
CONTINUOUS
 62
     1
  5
247
 10
553.119996
 20
283.402207
 30
0.0
 11
553.119876
 21
257.402207
 31
0.0
  0
LINE
  8
LC-001-002-----0
  6
CONTINUOUS
 62
     1
  5
248
 10
547.119996
 20
283.402234
 30
0.0
 11
547.119876
 21
257.402234
 31
0.0
  0
LINE
  8
LC-001-002-----0
  6
CONTINUOUS
 62
     1
  5
249
 10
523.119553
 20
253.902514
 30
0.0
 11
523.119567
 21
257.402514
 31
0.0
  0
ARC
  8
LC-001-002-----0
  6
CONTINUOUS
 62
     1
  5
24A
 10
526.119553
 20
253.902502
 30
0.0
 40
3.0
 50
179.999889
 51
359.999734
  0
LINE
  8
LC-001-002-----0
  6
CONTINUOUS
 62
     1
  5
24B
 10
529.119553
 20
253.90249
 30
0.0
 11
529.119567
 21
257.40249
 31
0.0
  0
LINE
  8
LC-001-002-----0
  6
CONTINUOUS
 62
     1
  5
24C
 10
535.119507
 20
242.402466
 30
0.0
 11
535.119567
 21
257.402466
 31
0.0
  0
ARC
  8
LC-001-002-----0
  6
CONTINUOUS
 62
     1
  5
24D
 10
538.119507
 20
242.402454
 30
0.0
 40
3.0
 50
179.999889
 51
359.999734
  0
LINE
  8
LC-001-002-----0
  6
CONTINUOUS
 62
     1
  5
24E
 10
541.119507
 20
242.402442
 30
0.0
 11
541.119567
 21
257.402442
 31
0.0
  0
LINE
  8
LC-001-002-----0
  6
CONTINUOUS
 62
     1
  5
24F
 10
547.119463
 20
231.402418
 30
0.0
 11
547.119567
 21
257.402418
 31
0.0
  0
ARC
  8
LC-001-002-----0
  6
CONTINUOUS
 62
     1
  5
250
 10
550.119463
 20
231.402406
 30
0.0
 40
3.0
 50
179.999889
 51
359.999734
  0
LINE
  8
LC-001-002-----0
  6
CONTINUOUS
 62
     1
  5
251
 10
553.119463
 20
231.402394
 30
0.0
 11
553.119567
 21
257.402394
 31
0.0
  0
LINE
  8
LC-002-001-----0
  6
CONTINUOUS
  5
252
 10
468.119567
 20
303.402549
 30
0.0
 11
468.119567
 21
211.402549
 31
0.0
  0
LINE
  8
LC-002-001-----0
  6
CONTINUOUS
  5
253
 10
560.119567
 20
303.402549
 30
0.0
 11
468.119567
 21
303.402549
 31
0.0
  0
LINE
  8
LC-002-001-----0
  6
CONTINUOUS
  5
254
 10
560.119567
 20
211.402549
 30
0.0
 11
560.119567
 21
303.402549
 31
0.0
  0
LINE
  8
LC-002-001-----0
  6
CONTINUOUS
  5
255
 10
468.119567
 20
211.402549
 30
0.0
 11
560.119567
 21
211.402549
 31
0.0
  0
LINE
  8
LC-001-002-----0
  6
CONTINUOUS
 62
     1
  5
256
 10
299.624258
 20
285.652637
 30
0.0
 11
317.69138
 21
272.652637
 31
0.0
  0
LINE
  8
LC-001-002-----0
  6
CONTINUOUS
 62
     1
  5
257
 10
314.619567
 20
285.652462
 30
0.0
 11
338.619567
 21
272.907539
 31
0.0
  0
LINE
  8
LC-001-002-----0
  6
CONTINUOUS
 62
     1
  5
258
 10
239.614875
 20
285.652637
 30
0.0
 11
221.547753
 21
272.652637
 31
0.0
  0
LINE
  8
LC-001-002-----0
  6
CONTINUOUS
 62
     1
  5
259
 10
219.426432
 20
272.652637
 30
0.0
 11
237.464293
 21
285.652637
 31
0.0
  0
LINE
  8
LC-001-002-----0
  6
CONTINUOUS
 62
     1
  5
25A
 10
221.547753
 20
272.652637
 30
0.0
 11
219.426432
 21
272.652637
 31
0.0
  0
LINE
  8
LC-001-002-----0
  6
CONTINUOUS
 62
     1
  5
25B
 10
219.426432
 20
272.652637
 30
0.0
 11
219.426432
 21
278.652637
 31
0.0
  0
ARC
  8
LC-008-002-RND-0
  6
CONTINUOUS
  5
25D
 10
226.426432
 20
278.652637
 30
0.0
 40
7.0
 50
136.406436
 51
180.0
  0
LINE
  8
LC-001-002-----0
  6
CONTINUOUS
 62
     1
  5
25E
 10
319.812701
 20
272.652637
 30
0.0
 11
301.77484
 21
285.652637
 31
0.0
  0
LINE
  8
LC-001-002-----0
  6
CONTINUOUS
 62
     1
  5
25F
 10
317.69138
 20
272.652637
 30
0.0
 11
319.812701
 21
272.652637
 31
0.0
  0
LINE
  8
LC-001-002-----0
  6
CONTINUOUS
 62
     1
  5
260
 10
319.812701
 20
272.652637
 30
0.0
 11
319.812701
 21
278.652637
 31
0.0
  0
ARC
  8
LC-008-002-RND-0
  6
CONTINUOUS
  5
261
 10
312.812701
 20
278.652637
 30
0.0
 40
7.0
 50
0.0
 51
55.00113
  0
LINE
  8
LC-001-002-----0
  6
CONTINUOUS
 62
     1
  5
262
 10
224.619798
 20
285.652667
 30
0.0
 11
200.61979
 21
272.907653
 31
0.0
  0
LINE
  8
LC-001-002-----0
  6
CONTINUOUS
  5
263
 10
200.619764
 20
234.152462
 30
0.0
 11
338.619567
 21
234.152462
 31
0.0
  0
ENDSEC
  0
EOF
