  0
SECTION
  2
HEADER
  9
$ACADVER
  1
AC1015
  9
$ACADMAINTVER
 70
     6
  9
$DWGCODEPAGE
  3
ANSI_1252
  9
$INSBASE
 10
0.0
 20
0.0
 30
0.0
  9
$EXTMIN
 10
-199.493574
 20
-157.873646
 30
0.0
  9
$EXTMAX
 10
640.506426
 20
436.126354
 30
0.0
  9
$LIMMIN
 10
-199.493574
 20
-157.873646
  9
$LIMMAX
 10
640.506426
 20
436.126354
  9
$ORTHOMODE
 70
     0
  9
$REGENMODE
 70
     1
  9
$FILLMODE
 70
     1
  9
$QTEXTMODE
 70
     0
  9
$MIRRTEXT
 70
     1
  9
$LTSCALE
 40
2.0
  9
$ATTMODE
 70
     1
  9
$TEXTSIZE
 40
2.5
  9
$TRACEWID
 40
1.0
  9
$TEXTSTYLE
  7
Standard
  9
$CLAYER
  8
0
  9
$CELTYPE
  6
ByLayer
  9
$CECOLOR
 62
     7
  9
$CELTSCALE
 40
1.0
  9
$DISPSILH
 70
     0
  9
$DIMSCALE
 40
2.0
  9
$DIMASZ
 40
3.5
  9
$DIMEXO
 40
0.625
  9
$DIMDLI
 40
3.75
  9
$DIMRND
 40
0.0
  9
$DIMDLE
 40
0.0
  9
$DIMEXE
 40
1.25
  9
$DIMTP
 40
0.0
  9
$DIMTM
 40
0.0
  9
$DIMTXT
 40
3.5
  9
$DIMCEN
 40
2.5
  9
$DIMTSZ
 40
0.0
  9
$DIMTOL
 70
     0
  9
$DIMLIM
 70
     0
  9
$DIMTIH
 70
     0
  9
$DIMTOH
 70
     0
  9
$DIMSE1
 70
     0
  9
$DIMSE2
 70
     0
  9
$DIMTAD
 70
     1
  9
$DIMZIN
 70
     8
  9
$DIMBLK
  1

  9
$DIMASO
 70
     1
  9
$DIMSHO
 70
     1
  9
$DIMPOST
  1

  9
$DIMAPOST
  1

  9
$DIMALT
 70
     0
  9
$DIMALTD
 70
     3
  9
$DIMALTF
 40
0.03937
  9
$DIMLFAC
 40
1.0
  9
$DIMTOFL
 70
     1
  9
$DIMTVP
 40
0.0
  9
$DIMTIX
 70
     0
  9
$DIMSOXD
 70
     0
  9
$DIMSAH
 70
     0
  9
$DIMBLK1
  1

  9
$DIMBLK2
  1

  9
$DIMSTYLE
  2
ISO-25
  9
$DIMCLRD
 70
     0
  9
$DIMCLRE
 70
     0
  9
$DIMCLRT
 70
     0
  9
$DIMTFAC
 40
1.0
  9
$DIMGAP
 40
0.625
  9
$DIMJUST
 70
     0
  9
$DIMSD1
 70
     0
  9
$DIMSD2
 70
     0
  9
$DIMTOLJ
 70
     0
  9
$DIMTZIN
 70
     8
  9
$DIMALTZ
 70
     0
  9
$DIMALTTZ
 70
     0
  9
$DIMUPT
 70
     0
  9
$DIMDEC
 70
     2
  9
$DIMTDEC
 70
     2
  9
$DIMALTU
 70
     2
  9
$DIMALTTD
 70
     3
  9
$DIMTXSTY
  7
Standard
  9
$DIMAUNIT
 70
     0
  9
$DIMADEC
 70
     0
  9
$DIMALTRND
 40
0.0
  9
$DIMAZIN
 70
     0
  9
$DIMDSEP
 70
    44
  9
$DIMATFIT
 70
     3
  9
$DIMFRAC
 70
     0
  9
$DIMLDRBLK
  1

  9
$DIMLUNIT
 70
     2
  9
$DIMLWD
 70
    -2
  9
$DIMLWE
 70
    -2
  9
$DIMTMOVE
 70
     0
  9
$LUNITS
 70
     2
  9
$LUPREC
 70
     4
  9
$SKETCHINC
 40
1.0
  9
$FILLETRAD
 40
10.0
  9
$AUNITS
 70
     0
  9
$AUPREC
 70
     0
  9
$MENU
  1
.
  9
$ELEVATION
 40
0.0
  9
$PELEVATION
 40
0.0
  9
$THICKNESS
 40
0.0
  9
$LIMCHECK
 70
     0
  9
$CHAMFERA
 40
10.0
  9
$CHAMFERB
 40
10.0
  9
$CHAMFERC
 40
20.0
  9
$CHAMFERD
 40
0.0
  9
$SKPOLY
 70
     0
  9
$TDCREATE
 40
2456002.246199502
  9
$TDUCREATE
 40
2456002.204532836
  9
$TDUPDATE
 40
2456002.246199514
  9
$TDUUPDATE
 40
2456002.204532847
  9
$TDINDWG
 40
0.0000000116
  9
$TDUSRTIMER
 40
0.0000000116
  9
$USRTIMER
 70
     1
  9
$ANGBASE
 50
0.0
  9
$ANGDIR
 70
     0
  9
$PDMODE
 70
     0
  9
$PDSIZE
 40
0.0
  9
$PLINEWID
 40
0.0
  9
$SPLFRAME
 70
     0
  9
$SPLINETYPE
 70
     6
  9
$SPLINESEGS
 70
     8
  9
$HANDSEED
  5
5B0
  9
$SURFTAB1
 70
     6
  9
$SURFTAB2
 70
     6
  9
$SURFTYPE
 70
     6
  9
$SURFU
 70
     6
  9
$SURFV
 70
     6
  9
$UCSBASE
  2

  9
$UCSNAME
  2

  9
$UCSORG
 10
0.0
 20
0.0
 30
0.0
  9
$UCSXDIR
 10
1.0
 20
0.0
 30
0.0
  9
$UCSYDIR
 10
0.0
 20
1.0
 30
0.0
  9
$UCSORTHOREF
  2

  9
$UCSORTHOVIEW
 70
     0
  9
$UCSORGTOP
 10
0.0
 20
0.0
 30
0.0
  9
$UCSORGBOTTOM
 10
0.0
 20
0.0
 30
0.0
  9
$UCSORGLEFT
 10
0.0
 20
0.0
 30
0.0
  9
$UCSORGRIGHT
 10
0.0
 20
0.0
 30
0.0
  9
$UCSORGFRONT
 10
0.0
 20
0.0
 30
0.0
  9
$UCSORGBACK
 10
0.0
 20
0.0
 30
0.0
  9
$PUCSBASE
  2

  9
$PUCSNAME
  2

  9
$PUCSORG
 10
0.0
 20
0.0
 30
0.0
  9
$PUCSXDIR
 10
1.0
 20
0.0
 30
0.0
  9
$PUCSYDIR
 10
0.0
 20
1.0
 30
0.0
  9
$PUCSORTHOREF
  2

  9
$PUCSORTHOVIEW
 70
     0
  9
$PUCSORGTOP
 10
0.0
 20
0.0
 30
0.0
  9
$PUCSORGBOTTOM
 10
0.0
 20
0.0
 30
0.0
  9
$PUCSORGLEFT
 10
0.0
 20
0.0
 30
0.0
  9
$PUCSORGRIGHT
 10
0.0
 20
0.0
 30
0.0
  9
$PUCSORGFRONT
 10
0.0
 20
0.0
 30
0.0
  9
$PUCSORGBACK
 10
0.0
 20
0.0
 30
0.0
  9
$USERI1
 70
     0
  9
$USERI2
 70
     0
  9
$USERI3
 70
     0
  9
$USERI4
 70
     0
  9
$USERI5
 70
     0
  9
$USERR1
 40
0.0
  9
$USERR2
 40
0.0
  9
$USERR3
 40
0.0
  9
$USERR4
 40
0.0
  9
$USERR5
 40
0.0
  9
$WORLDVIEW
 70
     1
  9
$SHADEDGE
 70
     3
  9
$SHADEDIF
 70
    70
  9
$TILEMODE
 70
     1
  9
$MAXACTVP
 70
    64
  9
$PINSBASE
 10
0.0
 20
0.0
 30
0.0
  9
$PLIMCHECK
 70
     0
  9
$PEXTMIN
 10
-199.493574
 20
-157.873646
 30
0.0
  9
$PEXTMAX
 10
640.506426
 20
436.126354
 30
0.0
  9
$PLIMMIN
 10
-199.493574
 20
-157.873646
  9
$PLIMMAX
 10
640.506426
 20
436.126354
  9
$UNITMODE
 70
     0
  9
$VISRETAIN
 70
     1
  9
$PLINEGEN
 70
     0
  9
$PSLTSCALE
 70
     1
  9
$TREEDEPTH
 70
  3020
  9
$CMLSTYLE
  2
Standard
  9
$CMLJUST
 70
     0
  9
$CMLSCALE
 40
20.0
  9
$PROXYGRAPHICS
 70
     1
  9
$MEASUREMENT
 70
     1
  9
$CELWEIGHT
370
    -1
  9
$ENDCAPS
280
     0
  9
$JOINSTYLE
280
     0
  9
$LWDISPLAY
290
     0
  9
$INSUNITS
 70
     4
  9
$HYPERLINKBASE
  1

  9
$STYLESHEET
  1

  9
$XEDIT
290
     1
  9
$CEPSNTYPE
380
     0
  9
$PSTYLEMODE
290
     1
  9
$FINGERPRINTGUID
  2
{FAEB1C30-E019-11D5-929B-00C0DF256EC4}
  9
$VERSIONGUID
  2
{FAEB1C32-E019-11D5-929B-00C0DF256EC4}
  9
$EXTNAMES
290
     1
  9
$PSVPSCALE
 40
0.0
  9
$OLESTARTUP
290
     0
  0
ENDSEC
  0
SECTION
  2
CLASSES
  0
CLASS
  1
ACDBDICTIONARYWDFLT
  2
AcDbDictionaryWithDefault
  3
ObjectDBX Classes
 90
        0
280
     0
281
     0
  0
CLASS
  1
ACDBPLACEHOLDER
  2
AcDbPlaceHolder
  3
ObjectDBX Classes
 90
        0
280
     0
281
     0
  0
CLASS
  1
LAYOUT
  2
AcDbLayout
  3
ObjectDBX Classes
 90
        0
280
     0
281
     0
  0
ENDSEC
  0
SECTION
  2
TABLES
  0
TABLE
  2
VPORT
  5
8
330
0
100
AcDbSymbolTable
 70
     2
  0
VPORT
  5
29
330
8
100
AcDbSymbolTableRecord
100
AcDbViewportTableRecord
  2
*ACTIVE
 70
     0
 10
0.0
 20
0.0
 11
1.0
 21
1.0
 12
220.506426
 22
139.126354
 13
0.0
 23
0.0
 14
1.0
 24
1.0
 15
0.0
 25
0.0
 16
0.0
 26
0.0
 36
1.0
 17
0.0
 27
0.0
 37
0.0
 40
594.0
 41
1.414141
 42
50.0
 43
0.0
 44
0.0
 50
0.0
 51
0.0
 71
    16
 72
   100
 73
     1
 74
     0
 75
     0
 76
     0
 77
     0
 78
     0
281
     0
 65
     0
110
0.0
120
0.0
130
0.0
111
1.0
121
0.0
131
0.0
112
0.0
122
1.0
132
0.0
 79
     0
146
0.0
  0
ENDTAB
  0
TABLE
  2
LTYPE
  5
5
330
0
100
AcDbSymbolTable
 70
     3
  0
LTYPE
  5
14
330
5
100
AcDbSymbolTableRecord
100
AcDbLinetypeTableRecord
  2
ByBlock
 70
     0
  3

 72
    65
 73
     0
 40
0.0
  0
LTYPE
  5
15
330
5
100
AcDbSymbolTableRecord
100
AcDbLinetypeTableRecord
  2
ByLayer
 70
     0
  3

 72
    65
 73
     0
 40
0.0
  0
LTYPE
  5
16
330
5
100
AcDbSymbolTableRecord
100
AcDbLinetypeTableRecord
  2
Continuous
 70
     0
  3
Solid line
 72
    65
 73
     0
 40
0.0
  0
LTYPE
  5
2A
330
5
100
AcDbSymbolTableRecord
100
AcDbLinetypeTableRecord
  2
DASHED
 70
     0
  3
__ __ __ __ __
 72
    65
 73
     2
 40
6.25
 49
5.0
 74
     4
 75
     0
340
0
 46
1.0
 50
0.0
 44
0.0
 45
0.0
 49
-1.25
 74
     4
 75
     0
340
0
 46
1.0
 50
0.0
 44
0.0
 45
0.0
  0
LTYPE
  5
50B
330
5
100
AcDbSymbolTableRecord
100
AcDbLinetypeTableRecord
  2
DASHDOT
 70
     0
  3
__ . __ . __ . __ . __
 72
    65
 73
     4
 40
7.5
 49
5.0
 74
     4
 75
     0
340
0
 46
1.0
 50
0.0
 44
0.0
 45
0.0
 49
-1.25
 74
     4
 75
     0
340
0
 46
1.0
 50
0.0
 44
0.0
 45
0.0
 49
0.0
 74
     4
 75
     0
340
0
 46
1.0
 50
0.0
 44
0.0
 45
0.0
 49
-1.25
 74
     4
 75
     0
340
0
 46
1.0
 50
0.0
 44
0.0
 45
0.0
  0
ENDTAB
  0
TABLE
  2
LAYER
  5
2
330
0
100
AcDbSymbolTable
 70
     8
  0
LAYER
  5
10
330
2
100
AcDbSymbolTableRecord
100
AcDbLayerTableRecord
  2
0
 70
     0
 62
     7
  6
Continuous
370
    -3
390
F
  0
LAYER
  5
2B
330
2
100
AcDbSymbolTableRecord
100
AcDbLayerTableRecord
  2
LC-INFO-1-2-mm-A3-0
 70
     1
 62
     7
  6
ByBlock
370
    -3
390
F
  0
LAYER
  5
2C
330
2
100
AcDbSymbolTableRecord
100
AcDbLayerTableRecord
  2
LC-CUT-HIDDEN
 70
     0
 62
     7
  6
DASHED
370
    -3
390
F
  0
LAYER
  5
2D
330
2
100
AcDbSymbolTableRecord
100
AcDbLayerTableRecord
  2
LC-VIEWPORT
 70
     0
 62
     7
  6
ByBlock
370
    -3
390
F
  0
LAYER
  5
2E
330
2
100
AcDbSymbolTableRecord
100
AcDbLayerTableRecord
  2
LC-3D-HIDDEN
 70
     0
 62
     9
  6
DASHED
370
    -3
390
F
  0
LAYER
  5
30
330
2
100
AcDbSymbolTableRecord
100
AcDbLayerTableRecord
  2
LC-001-100-D00-0
 70
     0
 62
     1
  6
ByBlock
370
    -3
390
F
  0
LAYER
  5
50F
330
2
100
AcDbSymbolTableRecord
100
AcDbLayerTableRecord
  2
LC-002-003-----0
 70
     0
 62
     2
  6
ByBlock
370
    -3
390
F
  0
LAYER
  5
511
330
2
100
AcDbSymbolTableRecord
100
AcDbLayerTableRecord
  2
Defpoints
 70
     0
 62
     7
  6
Continuous
290
     0
370
    -3
390
F
  0
ENDTAB
  0
TABLE
  2
STYLE
  5
3
330
0
100
AcDbSymbolTable
 70
     3
  0
STYLE
  5
11
330
3
100
AcDbSymbolTableRecord
100
AcDbTextStyleTableRecord
  2
Standard
 70
     0
 40
0.0
 41
1.0
 50
0.0
 71
     0
 42
2.5
  3
txt
  4

  0
STYLE
  5
2F
330
3
100
AcDbSymbolTableRecord
100
AcDbTextStyleTableRecord
  2
LCTX15-400-0-0-Arial
 70
     0
 40
0.0
 41
0.8
 50
0.0
 71
     0
 42
3.5
  3

  4

1001
ACAD
1000
Arial
1071
 16777218
  0
STYLE
  5
50D
330
3
100
AcDbSymbolTableRecord
100
AcDbTextStyleTableRecord
  2
LCTX15-400-0-0pDIN-Schrift
 70
     0
 40
2.5
 41
0.8
 50
15.0
 71
     0
 42
3.5
  3
STANDARD
  4

  0
ENDTAB
  0
TABLE
  2
VIEW
  5
6
330
0
100
AcDbSymbolTable
 70
     0
  0
ENDTAB
  0
TABLE
  2
UCS
  5
7
330
0
100
AcDbSymbolTable
 70
     0
  0
ENDTAB
  0
TABLE
  2
APPID
  5
9
330
0
100
AcDbSymbolTable
 70
     1
  0
APPID
  5
12
330
9
100
AcDbSymbolTableRecord
100
AcDbRegAppTableRecord
  2
ACAD
 70
     0
  0
ENDTAB
  0
TABLE
  2
DIMSTYLE
  5
A
330
0
100
AcDbSymbolTable
 70
     2
100
AcDbDimStyleTable
  0
DIMSTYLE
105
27
330
A
100
AcDbSymbolTableRecord
100
AcDbDimStyleTableRecord
  2
ISO-25
 70
     0
 41
2.5
 42
0.625
 43
3.75
 44
1.25
 73
     0
 74
     0
 77
     1
 78
     8
140
2.5
141
2.5
143
0.03937
147
0.625
171
     3
172
     1
271
     2
272
     2
274
     3
278
    44
283
     0
284
     8
340
11
  0
DIMSTYLE
105
50E
102
{ACAD_REACTORS
330
510
330
51E
330
54E
330
55B
330
568
330
575
330
583
330
590
330
59F
102
}
330
A
100
AcDbSymbolTableRecord
100
AcDbDimStyleTableRecord
  2
LC-DIM-L-0140-02-02
 70
     0
 40
2.0
 41
14.0
 42
0.0
 43
7.5
 44
1.8
 73
     0
 74
     0
 77
     1
 78
     8
 79
     2
140
14.0
141
0.0
146
0.71
147
1.5
176
     2
177
     2
178
     2
179
     2
271
     2
278
    44
289
     1
340
50D
  0
ENDTAB
  0
TABLE
  2
BLOCK_RECORD
  5
1
330
0
100
AcDbSymbolTable
 70
    69
  0
BLOCK_RECORD
  5
1F
330
1
100
AcDbSymbolTableRecord
100
AcDbBlockTableRecord
  2
*Model_Space
340
22
  0
BLOCK_RECORD
  5
1B
330
1
100
AcDbSymbolTableRecord
100
AcDbBlockTableRecord
  2
*Paper_Space
340
1E
  0
BLOCK_RECORD
  5
23
330
1
100
AcDbSymbolTableRecord
100
AcDbBlockTableRecord
  2
*Paper_Space0
340
26
  0
BLOCK_RECORD
  5
47
330
1
100
AcDbSymbolTableRecord
100
AcDbBlockTableRecord
  2
POLY1
340
0
102
{BLKREFS
331
52
102
}
  0
BLOCK_RECORD
  5
54
330
1
100
AcDbSymbolTableRecord
100
AcDbBlockTableRecord
  2
POLY2
340
0
102
{BLKREFS
331
5F
102
}
  0
BLOCK_RECORD
  5
134
330
1
100
AcDbSymbolTableRecord
100
AcDbBlockTableRecord
  2
POLY3
340
0
102
{BLKREFS
331
13F
102
}
  0
BLOCK_RECORD
  5
148
330
1
100
AcDbSymbolTableRecord
100
AcDbBlockTableRecord
  2
POLY4
340
0
102
{BLKREFS
331
153
102
}
  0
BLOCK_RECORD
  5
1D7
330
1
100
AcDbSymbolTableRecord
100
AcDbBlockTableRecord
  2
KLON1
340
0
102
{BLKREFS
331
1DD
102
}
  0
BLOCK_RECORD
  5
1DE
330
1
100
AcDbSymbolTableRecord
100
AcDbBlockTableRecord
  2
KLON2
340
0
102
{BLKREFS
331
1E4
102
}
  0
BLOCK_RECORD
  5
1E6
330
1
100
AcDbSymbolTableRecord
100
AcDbBlockTableRecord
  2
KLON3
340
0
102
{BLKREFS
331
1EC
102
}
  0
BLOCK_RECORD
  5
1ED
330
1
100
AcDbSymbolTableRecord
100
AcDbBlockTableRecord
  2
KLON4
340
0
102
{BLKREFS
331
1F3
102
}
  0
BLOCK_RECORD
  5
1F5
330
1
100
AcDbSymbolTableRecord
100
AcDbBlockTableRecord
  2
KLON5
340
0
102
{BLKREFS
331
1FB
102
}
  0
BLOCK_RECORD
  5
1FC
330
1
100
AcDbSymbolTableRecord
100
AcDbBlockTableRecord
  2
KLON6
340
0
102
{BLKREFS
331
202
102
}
  0
BLOCK_RECORD
  5
204
330
1
100
AcDbSymbolTableRecord
100
AcDbBlockTableRecord
  2
KLON7
340
0
102
{BLKREFS
331
20A
102
}
  0
BLOCK_RECORD
  5
20B
330
1
100
AcDbSymbolTableRecord
100
AcDbBlockTableRecord
  2
KLON8
340
0
102
{BLKREFS
331
211
102
}
  0
BLOCK_RECORD
  5
213
330
1
100
AcDbSymbolTableRecord
100
AcDbBlockTableRecord
  2
KLON9
340
0
102
{BLKREFS
331
219
102
}
  0
BLOCK_RECORD
  5
21A
330
1
100
AcDbSymbolTableRecord
100
AcDbBlockTableRecord
  2
KLON10
340
0
102
{BLKREFS
331
220
102
}
  0
BLOCK_RECORD
  5
225
330
1
100
AcDbSymbolTableRecord
100
AcDbBlockTableRecord
  2
KLON11
340
0
102
{BLKREFS
331
22B
102
}
  0
BLOCK_RECORD
  5
22C
330
1
100
AcDbSymbolTableRecord
100
AcDbBlockTableRecord
  2
KLON12
340
0
102
{BLKREFS
331
232
102
}
  0
BLOCK_RECORD
  5
234
330
1
100
AcDbSymbolTableRecord
100
AcDbBlockTableRecord
  2
KLON13
340
0
102
{BLKREFS
331
23A
102
}
  0
BLOCK_RECORD
  5
23B
330
1
100
AcDbSymbolTableRecord
100
AcDbBlockTableRecord
  2
KLON14
340
0
102
{BLKREFS
331
241
102
}
  0
BLOCK_RECORD
  5
243
330
1
100
AcDbSymbolTableRecord
100
AcDbBlockTableRecord
  2
KLON15
340
0
102
{BLKREFS
331
249
102
}
  0
BLOCK_RECORD
  5
24A
330
1
100
AcDbSymbolTableRecord
100
AcDbBlockTableRecord
  2
KLON16
340
0
102
{BLKREFS
331
250
102
}
  0
BLOCK_RECORD
  5
252
330
1
100
AcDbSymbolTableRecord
100
AcDbBlockTableRecord
  2
KLON17
340
0
102
{BLKREFS
331
258
102
}
  0
BLOCK_RECORD
  5
259
330
1
100
AcDbSymbolTableRecord
100
AcDbBlockTableRecord
  2
KLON18
340
0
102
{BLKREFS
331
25F
102
}
  0
BLOCK_RECORD
  5
261
330
1
100
AcDbSymbolTableRecord
100
AcDbBlockTableRecord
  2
KLON19
340
0
102
{BLKREFS
331
267
102
}
  0
BLOCK_RECORD
  5
268
330
1
100
AcDbSymbolTableRecord
100
AcDbBlockTableRecord
  2
KLON20
340
0
102
{BLKREFS
331
26E
102
}
  0
BLOCK_RECORD
  5
278
330
1
100
AcDbSymbolTableRecord
100
AcDbBlockTableRecord
  2
POLY5
340
0
102
{BLKREFS
331
283
102
}
  0
BLOCK_RECORD
  5
287
330
1
100
AcDbSymbolTableRecord
100
AcDbBlockTableRecord
  2
POLY6
340
0
102
{BLKREFS
331
292
102
}
  0
BLOCK_RECORD
  5
293
330
1
100
AcDbSymbolTableRecord
100
AcDbBlockTableRecord
  2
POLY7
340
0
102
{BLKREFS
331
29E
102
}
  0
BLOCK_RECORD
  5
334
330
1
100
AcDbSymbolTableRecord
100
AcDbBlockTableRecord
  2
POLY8
340
0
102
{BLKREFS
331
33F
102
}
  0
BLOCK_RECORD
  5
341
330
1
100
AcDbSymbolTableRecord
100
AcDbBlockTableRecord
  2
POLY9
340
0
102
{BLKREFS
331
350
102
}
  0
BLOCK_RECORD
  5
366
330
1
100
AcDbSymbolTableRecord
100
AcDbBlockTableRecord
  2
POLY10
340
0
102
{BLKREFS
331
371
102
}
  0
BLOCK_RECORD
  5
3A5
330
1
100
AcDbSymbolTableRecord
100
AcDbBlockTableRecord
  2
POLY11
340
0
102
{BLKREFS
331
3B8
102
}
  0
BLOCK_RECORD
  5
3BD
330
1
100
AcDbSymbolTableRecord
100
AcDbBlockTableRecord
  2
POLY12
340
0
102
{BLKREFS
331
3C6
102
}
  0
BLOCK_RECORD
  5
3C7
330
1
100
AcDbSymbolTableRecord
100
AcDbBlockTableRecord
  2
POLY13
340
0
102
{BLKREFS
331
3D0
102
}
  0
BLOCK_RECORD
  5
3D1
330
1
100
AcDbSymbolTableRecord
100
AcDbBlockTableRecord
  2
POLY14
340
0
102
{BLKREFS
331
3DA
102
}
  0
BLOCK_RECORD
  5
3DB
330
1
100
AcDbSymbolTableRecord
100
AcDbBlockTableRecord
  2
POLY15
340
0
102
{BLKREFS
331
3E4
102
}
  0
BLOCK_RECORD
  5
3E5
330
1
100
AcDbSymbolTableRecord
100
AcDbBlockTableRecord
  2
POLY16
340
0
102
{BLKREFS
331
3EE
102
}
  0
BLOCK_RECORD
  5
3EF
330
1
100
AcDbSymbolTableRecord
100
AcDbBlockTableRecord
  2
POLY17
340
0
102
{BLKREFS
331
3F8
102
}
  0
BLOCK_RECORD
  5
3F9
330
1
100
AcDbSymbolTableRecord
100
AcDbBlockTableRecord
  2
POLY18
340
0
102
{BLKREFS
331
402
102
}
  0
BLOCK_RECORD
  5
403
330
1
100
AcDbSymbolTableRecord
100
AcDbBlockTableRecord
  2
POLY19
340
0
102
{BLKREFS
331
40C
102
}
  0
BLOCK_RECORD
  5
40D
330
1
100
AcDbSymbolTableRecord
100
AcDbBlockTableRecord
  2
POLY20
340
0
102
{BLKREFS
331
416
102
}
  0
BLOCK_RECORD
  5
417
330
1
100
AcDbSymbolTableRecord
100
AcDbBlockTableRecord
  2
POLY21
340
0
102
{BLKREFS
331
420
102
}
  0
BLOCK_RECORD
  5
421
330
1
100
AcDbSymbolTableRecord
100
AcDbBlockTableRecord
  2
POLY22
340
0
102
{BLKREFS
331
42A
102
}
  0
BLOCK_RECORD
  5
42B
330
1
100
AcDbSymbolTableRecord
100
AcDbBlockTableRecord
  2
POLY23
340
0
102
{BLKREFS
331
434
102
}
  0
BLOCK_RECORD
  5
435
330
1
100
AcDbSymbolTableRecord
100
AcDbBlockTableRecord
  2
KLON21
340
0
102
{BLKREFS
331
454
102
}
  0
BLOCK_RECORD
  5
455
330
1
100
AcDbSymbolTableRecord
100
AcDbBlockTableRecord
  2
KLON22
340
0
102
{BLKREFS
331
473
102
}
  0
BLOCK_RECORD
  5
474
330
1
100
AcDbSymbolTableRecord
100
AcDbBlockTableRecord
  2
KLON23
340
0
102
{BLKREFS
331
479
102
}
  0
BLOCK_RECORD
  5
47A
330
1
100
AcDbSymbolTableRecord
100
AcDbBlockTableRecord
  2
KLON24
340
0
102
{BLKREFS
331
481
102
}
  0
BLOCK_RECORD
  5
482
330
1
100
AcDbSymbolTableRecord
100
AcDbBlockTableRecord
  2
KLON25
340
0
102
{BLKREFS
331
489
102
}
  0
BLOCK_RECORD
  5
48A
330
1
100
AcDbSymbolTableRecord
100
AcDbBlockTableRecord
  2
KLON26
340
0
102
{BLKREFS
331
490
102
}
  0
BLOCK_RECORD
  5
491
330
1
100
AcDbSymbolTableRecord
100
AcDbBlockTableRecord
  2
KLON27
340
0
102
{BLKREFS
331
497
102
}
  0
BLOCK_RECORD
  5
498
330
1
100
AcDbSymbolTableRecord
100
AcDbBlockTableRecord
  2
KLON28
340
0
102
{BLKREFS
331
49F
102
}
  0
BLOCK_RECORD
  5
4A0
330
1
100
AcDbSymbolTableRecord
100
AcDbBlockTableRecord
  2
KLON29
340
0
102
{BLKREFS
331
4A7
102
}
  0
BLOCK_RECORD
  5
4A8
330
1
100
AcDbSymbolTableRecord
100
AcDbBlockTableRecord
  2
KLON30
340
0
102
{BLKREFS
331
4AE
102
}
  0
BLOCK_RECORD
  5
4AF
330
1
100
AcDbSymbolTableRecord
100
AcDbBlockTableRecord
  2
KLON31
340
0
102
{BLKREFS
331
4B8
102
}
  0
BLOCK_RECORD
  5
4B9
330
1
100
AcDbSymbolTableRecord
100
AcDbBlockTableRecord
  2
KLON32
340
0
102
{BLKREFS
331
4C4
102
}
  0
BLOCK_RECORD
  5
4C5
330
1
100
AcDbSymbolTableRecord
100
AcDbBlockTableRecord
  2
KLON33
340
0
102
{BLKREFS
331
4E0
102
}
  0
BLOCK_RECORD
  5
4E1
330
1
100
AcDbSymbolTableRecord
100
AcDbBlockTableRecord
  2
KLON34
340
0
102
{BLKREFS
331
4EB
102
}
  0
BLOCK_RECORD
  5
4EC
330
1
100
AcDbSymbolTableRecord
100
AcDbBlockTableRecord
  2
KLON35
340
0
102
{BLKREFS
331
4F7
102
}
  0
BLOCK_RECORD
  5
4F9
330
1
100
AcDbSymbolTableRecord
100
AcDbBlockTableRecord
  2
KLON36
340
0
102
{BLKREFS
331
50A
102
}
  0
BLOCK_RECORD
  5
512
330
1
100
AcDbSymbolTableRecord
100
AcDbBlockTableRecord
  2
*D60
340
0
  0
BLOCK_RECORD
  5
51F
330
1
100
AcDbSymbolTableRecord
100
AcDbBlockTableRecord
  2
*D61
340
0
  0
BLOCK_RECORD
  5
54F
330
1
100
AcDbSymbolTableRecord
100
AcDbBlockTableRecord
  2
*D62
340
0
  0
BLOCK_RECORD
  5
55C
330
1
100
AcDbSymbolTableRecord
100
AcDbBlockTableRecord
  2
*D63
340
0
  0
BLOCK_RECORD
  5
569
330
1
100
AcDbSymbolTableRecord
100
AcDbBlockTableRecord
  2
*D64
340
0
  0
BLOCK_RECORD
  5
576
330
1
100
AcDbSymbolTableRecord
100
AcDbBlockTableRecord
  2
*D65
340
0
  0
BLOCK_RECORD
  5
584
330
1
100
AcDbSymbolTableRecord
100
AcDbBlockTableRecord
  2
*D66
340
0
  0
BLOCK_RECORD
  5
591
330
1
100
AcDbSymbolTableRecord
100
AcDbBlockTableRecord
  2
*D67
340
0
  0
BLOCK_RECORD
  5
5A0
330
1
100
AcDbSymbolTableRecord
100
AcDbBlockTableRecord
  2
*D68
340
0
  0
ENDTAB
  0
ENDSEC
  0
SECTION
  2
BLOCKS
  0
BLOCK
  5
20
330
1F
100
AcDbEntity
  8
0
100
AcDbBlockBegin
  2
*Model_Space
 70
     0
 71
     0
 10
0.0
 20
0.0
 30
0.0
  3
*Model_Space
  1

  0
ENDBLK
  5
21
330
1F
100
AcDbEntity
  8
0
100
AcDbBlockEnd
  0
BLOCK
  5
1C
330
1B
100
AcDbEntity
 67
     1
  8
0
100
AcDbBlockBegin
  2
*Paper_Space
 70
     0
 71
     0
 10
0.0
 20
0.0
 30
0.0
  3
*Paper_Space
  1

  0
ENDBLK
  5
1D
330
1B
100
AcDbEntity
 67
     1
  8
0
100
AcDbBlockEnd
  0
BLOCK
  5
24
330
23
100
AcDbEntity
  8
0
100
AcDbBlockBegin
  2
*Paper_Space0
 70
     0
 71
     0
 10
0.0
 20
0.0
 30
0.0
  3
*Paper_Space0
  1

  0
ENDBLK
  5
25
330
23
100
AcDbEntity
  8
0
100
AcDbBlockEnd
  0
BLOCK
  5
48
330
47
100
AcDbEntity
  8
0
100
AcDbBlockBegin
  2
POLY1
 70
     0
 71
     0
 10
0.0
 20
0.0
 30
0.0
  3
POLY1
  1

  4
POLY1
  0
LINE
  5
4A
330
47
100
AcDbEntity
  8
LC-001-100-D00-0
 62
     7
370
    50
100
AcDbLine
 10
142.080404
 20
192.334415
 30
0.0
 11
142.080404
 21
192.334415
 31
0.0
  0
LINE
  5
4B
330
47
100
AcDbEntity
  8
LC-001-100-D00-0
 62
     7
370
    50
100
AcDbLine
 10
142.080404
 20
192.334415
 30
0.0
 11
142.320303
 21
192.208284
 31
0.0
  0
LINE
  5
4C
330
47
100
AcDbEntity
  8
LC-001-100-D00-0
 62
     7
370
    50
100
AcDbLine
 10
142.320303
 20
192.208284
 30
0.0
 11
142.320303
 21
192.208284
 31
0.0
  0
LINE
  5
4D
330
47
100
AcDbEntity
  8
LC-001-100-D00-0
 62
     7
370
    50
100
AcDbLine
 10
142.320303
 20
192.208284
 30
0.0
 11
142.684151
 21
192.016985
 31
0.0
  0
LINE
  5
4E
330
47
100
AcDbEntity
  8
LC-001-100-D00-0
 62
     7
370
    50
100
AcDbLine
 10
142.684151
 20
192.016985
 30
0.0
 11
142.684151
 21
192.016985
 31
0.0
  0
LINE
  5
4F
330
47
100
AcDbEntity
  8
LC-001-100-D00-0
 62
     7
370
    50
100
AcDbLine
 10
142.684151
 20
192.016985
 30
0.0
 11
143.047168
 21
191.811721
 31
0.0
  0
LINE
  5
50
330
47
100
AcDbEntity
  8
LC-001-100-D00-0
 62
     7
370
    50
100
AcDbLine
 10
143.047168
 20
191.811721
 30
0.0
 11
143.047168
 21
191.811721
 31
0.0
  0
LINE
  5
51
330
47
100
AcDbEntity
  8
LC-001-100-D00-0
 62
     7
370
    50
100
AcDbLine
 10
143.047168
 20
191.811721
 30
0.0
 11
143.170833
 21
191.741796
 31
0.0
  0
ENDBLK
  5
49
330
47
100
AcDbEntity
  8
0
100
AcDbBlockEnd
  0
BLOCK
  5
55
330
54
100
AcDbEntity
  8
0
100
AcDbBlockBegin
  2
POLY2
 70
     0
 71
     0
 10
0.0
 20
0.0
 30
0.0
  3
POLY2
  1

  4
POLY2
  0
LINE
  5
57
330
54
100
AcDbEntity
  8
LC-001-100-D00-0
 62
     7
370
    50
100
AcDbLine
 10
148.245774
 20
191.141577
 30
0.0
 11
148.245774
 21
191.141577
 31
0.0
  0
LINE
  5
58
330
54
100
AcDbEntity
  8
LC-001-100-D00-0
 62
     7
370
    50
100
AcDbLine
 10
148.245774
 20
191.141577
 30
0.0
 11
148.031977
 21
191.258211
 31
0.0
  0
LINE
  5
59
330
54
100
AcDbEntity
  8
LC-001-100-D00-0
 62
     7
370
    50
100
AcDbLine
 10
148.031977
 20
191.258211
 30
0.0
 11
148.031977
 21
191.258211
 31
0.0
  0
LINE
  5
5A
330
54
100
AcDbEntity
  8
LC-001-100-D00-0
 62
     7
370
    50
100
AcDbLine
 10
148.031977
 20
191.258211
 30
0.0
 11
147.668741
 21
191.45637
 31
0.0
  0
LINE
  5
5B
330
54
100
AcDbEntity
  8
LC-001-100-D00-0
 62
     7
370
    50
100
AcDbLine
 10
147.668741
 20
191.45637
 30
0.0
 11
147.668741
 21
191.45637
 31
0.0
  0
LINE
  5
5C
330
54
100
AcDbEntity
  8
LC-001-100-D00-0
 62
     7
370
    50
100
AcDbLine
 10
147.668741
 20
191.45637
 30
0.0
 11
147.315962
 21
191.656782
 31
0.0
  0
LINE
  5
5D
330
54
100
AcDbEntity
  8
LC-001-100-D00-0
 62
     7
370
    50
100
AcDbLine
 10
147.315962
 20
191.656782
 30
0.0
 11
147.315962
 21
191.656782
 31
0.0
  0
LINE
  5
5E
330
54
100
AcDbEntity
  8
LC-001-100-D00-0
 62
     7
370
    50
100
AcDbLine
 10
147.315962
 20
191.656782
 30
0.0
 11
147.170827
 21
191.739233
 31
0.0
  0
ENDBLK
  5
56
330
54
100
AcDbEntity
  8
0
100
AcDbBlockEnd
  0
BLOCK
  5
135
330
134
100
AcDbEntity
  8
0
100
AcDbBlockBegin
  2
POLY3
 70
     0
 71
     0
 10
0.0
 20
0.0
 30
0.0
  3
POLY3
  1

  4
POLY3
  0
LINE
  5
137
330
134
100
AcDbEntity
  8
LC-001-100-D00-0
 62
     7
370
    50
100
AcDbLine
 10
182.809587
 20
253.4941
 30
0.0
 11
182.809587
 21
253.4941
 31
0.0
  0
LINE
  5
138
330
134
100
AcDbEntity
  8
LC-001-100-D00-0
 62
     7
370
    50
100
AcDbLine
 10
182.809587
 20
253.4941
 30
0.0
 11
182.455918
 21
254.046765
 31
0.0
  0
LINE
  5
139
330
134
100
AcDbEntity
  8
LC-001-100-D00-0
 62
     7
370
    50
100
AcDbLine
 10
182.455918
 20
254.046765
 30
0.0
 11
182.455918
 21
254.046765
 31
0.0
  0
LINE
  5
13A
330
134
100
AcDbEntity
  8
LC-001-100-D00-0
 62
     7
370
    50
100
AcDbLine
 10
182.455918
 20
254.046765
 30
0.0
 11
180.280541
 21
257.446139
 31
0.0
  0
LINE
  5
13B
330
134
100
AcDbEntity
  8
LC-001-100-D00-0
 62
     7
370
    50
100
AcDbLine
 10
180.280541
 20
257.446139
 30
0.0
 11
180.280541
 21
257.446139
 31
0.0
  0
LINE
  5
13C
330
134
100
AcDbEntity
  8
LC-001-100-D00-0
 62
     7
370
    50
100
AcDbLine
 10
180.280541
 20
257.446139
 30
0.0
 11
178.106757
 21
260.846532
 31
0.0
  0
LINE
  5
13D
330
134
100
AcDbEntity
  8
LC-001-100-D00-0
 62
     7
370
    50
100
AcDbLine
 10
178.106757
 20
260.846532
 30
0.0
 11
178.106757
 21
260.846532
 31
0.0
  0
LINE
  5
13E
330
134
100
AcDbEntity
  8
LC-001-100-D00-0
 62
     7
370
    50
100
AcDbLine
 10
178.106757
 20
260.846532
 30
0.0
 11
176.286384
 21
263.694094
 31
0.0
  0
ENDBLK
  5
136
330
134
100
AcDbEntity
  8
0
100
AcDbBlockEnd
  0
BLOCK
  5
149
330
148
100
AcDbEntity
  8
0
100
AcDbBlockBegin
  2
POLY4
 70
     0
 71
     0
 10
0.0
 20
0.0
 30
0.0
  3
POLY4
  1

  4
POLY4
  0
LINE
  5
14B
330
148
100
AcDbEntity
  8
LC-001-100-D00-0
 62
     7
370
    50
100
AcDbLine
 10
254.055276
 20
263.694094
 30
0.0
 11
254.055276
 21
263.694094
 31
0.0
  0
LINE
  5
14C
330
148
100
AcDbEntity
  8
LC-001-100-D00-0
 62
     7
370
    50
100
AcDbLine
 10
254.055276
 20
263.694094
 30
0.0
 11
252.234903
 21
260.846532
 31
0.0
  0
LINE
  5
14D
330
148
100
AcDbEntity
  8
LC-001-100-D00-0
 62
     7
370
    50
100
AcDbLine
 10
252.234903
 20
260.846532
 30
0.0
 11
252.234903
 21
260.846532
 31
0.0
  0
LINE
  5
14E
330
148
100
AcDbEntity
  8
LC-001-100-D00-0
 62
     7
370
    50
100
AcDbLine
 10
252.234903
 20
260.846532
 30
0.0
 11
250.061119
 21
257.446139
 31
0.0
  0
LINE
  5
14F
330
148
100
AcDbEntity
  8
LC-001-100-D00-0
 62
     7
370
    50
100
AcDbLine
 10
250.061119
 20
257.446139
 30
0.0
 11
250.061119
 21
257.446139
 31
0.0
  0
LINE
  5
150
330
148
100
AcDbEntity
  8
LC-001-100-D00-0
 62
     7
370
    50
100
AcDbLine
 10
250.061119
 20
257.446139
 30
0.0
 11
247.885743
 21
254.046765
 31
0.0
  0
LINE
  5
151
330
148
100
AcDbEntity
  8
LC-001-100-D00-0
 62
     7
370
    50
100
AcDbLine
 10
247.885743
 20
254.046765
 30
0.0
 11
247.885743
 21
254.046765
 31
0.0
  0
LINE
  5
152
330
148
100
AcDbEntity
  8
LC-001-100-D00-0
 62
     7
370
    50
100
AcDbLine
 10
247.885743
 20
254.046765
 30
0.0
 11
247.532073
 21
253.4941
 31
0.0
  0
ENDBLK
  5
14A
330
148
100
AcDbEntity
  8
0
100
AcDbBlockEnd
  0
BLOCK
  5
1D8
330
1D7
100
AcDbEntity
  8
0
100
AcDbBlockBegin
  2
KLON1
 70
     0
 71
     0
 10
0.0
 20
0.0
 30
0.0
  3
KLON1
  1

  4
KLON1
  0
LINE
  5
1DA
330
1D7
100
AcDbEntity
  8
LC-001-100-D00-0
 62
     7
370
    15
100
AcDbLine
 10
147.170827
 20
191.628949
 30
0.0
 11
147.521928
 21
191.446187
 31
0.0
  0
LINE
  5
1DB
330
1D7
100
AcDbEntity
  8
LC-001-100-D00-0
 62
     7
370
    15
100
AcDbLine
 10
147.521928
 20
191.446187
 30
0.0
 11
147.873021
 21
191.263409
 31
0.0
  0
LINE
  5
1DC
330
1D7
100
AcDbEntity
  8
LC-001-100-D00-0
 62
     7
370
    15
100
AcDbLine
 10
147.873021
 20
191.263409
 30
0.0
 11
148.420833
 21
190.978245
 31
0.0
  0
ENDBLK
  5
1D9
330
1D7
100
AcDbEntity
  8
0
100
AcDbBlockEnd
  0
BLOCK
  5
1DF
330
1DE
100
AcDbEntity
  8
0
100
AcDbBlockBegin
  2
KLON2
 70
     0
 71
     0
 10
0.0
 20
0.0
 30
0.0
  3
KLON2
  1

  4
KLON2
  0
LINE
  5
1E1
330
1DE
100
AcDbEntity
  8
LC-001-100-D00-0
 62
     7
370
    15
100
AcDbLine
 10
148.420833
 20
190.978245
 30
0.0
 11
148.069732
 21
190.795468
 31
0.0
  0
LINE
  5
1E2
330
1DE
100
AcDbEntity
  8
LC-001-100-D00-0
 62
     7
370
    15
100
AcDbLine
 10
148.069732
 20
190.795468
 30
0.0
 11
147.718638
 21
190.612705
 31
0.0
  0
LINE
  5
1E3
330
1DE
100
AcDbEntity
  8
LC-001-100-D00-0
 62
     7
370
    15
100
AcDbLine
 10
147.718638
 20
190.612705
 30
0.0
 11
147.170827
 21
190.327527
 31
0.0
  0
ENDBLK
  5
1E0
330
1DE
100
AcDbEntity
  8
0
100
AcDbBlockEnd
  0
BLOCK
  5
1E7
330
1E6
100
AcDbEntity
  8
0
100
AcDbBlockBegin
  2
KLON3
 70
     0
 71
     0
 10
0.0
 20
0.0
 30
0.0
  3
KLON3
  1

  4
KLON3
  0
LINE
  5
1E9
330
1E6
100
AcDbEntity
  8
LC-001-100-D00-0
 62
     7
370
    15
100
AcDbLine
 10
147.170827
 20
188.628943
 30
0.0
 11
147.521928
 21
188.446181
 31
0.0
  0
LINE
  5
1EA
330
1E6
100
AcDbEntity
  8
LC-001-100-D00-0
 62
     7
370
    15
100
AcDbLine
 10
147.521928
 20
188.446181
 30
0.0
 11
147.873021
 21
188.263418
 31
0.0
  0
LINE
  5
1EB
330
1E6
100
AcDbEntity
  8
LC-001-100-D00-0
 62
     7
370
    15
100
AcDbLine
 10
147.873021
 20
188.263418
 30
0.0
 11
148.420833
 21
187.978239
 31
0.0
  0
ENDBLK
  5
1E8
330
1E6
100
AcDbEntity
  8
0
100
AcDbBlockEnd
  0
BLOCK
  5
1EE
330
1ED
100
AcDbEntity
  8
0
100
AcDbBlockBegin
  2
KLON4
 70
     0
 71
     0
 10
0.0
 20
0.0
 30
0.0
  3
KLON4
  1

  4
KLON4
  0
LINE
  5
1F0
330
1ED
100
AcDbEntity
  8
LC-001-100-D00-0
 62
     7
370
    15
100
AcDbLine
 10
148.420833
 20
187.978239
 30
0.0
 11
148.069732
 21
187.795477
 31
0.0
  0
LINE
  5
1F1
330
1ED
100
AcDbEntity
  8
LC-001-100-D00-0
 62
     7
370
    15
100
AcDbLine
 10
148.069732
 20
187.795477
 30
0.0
 11
147.718638
 21
187.612699
 31
0.0
  0
LINE
  5
1F2
330
1ED
100
AcDbEntity
  8
LC-001-100-D00-0
 62
     7
370
    15
100
AcDbLine
 10
147.718638
 20
187.612699
 30
0.0
 11
147.170827
 21
187.327535
 31
0.0
  0
ENDBLK
  5
1EF
330
1ED
100
AcDbEntity
  8
0
100
AcDbBlockEnd
  0
BLOCK
  5
1F6
330
1F5
100
AcDbEntity
  8
0
100
AcDbBlockBegin
  2
KLON5
 70
     0
 71
     0
 10
0.0
 20
0.0
 30
0.0
  3
KLON5
  1

  4
KLON5
  0
LINE
  5
1F8
330
1F5
100
AcDbEntity
  8
LC-001-100-D00-0
 62
     7
370
    15
100
AcDbLine
 10
147.170827
 20
185.628952
 30
0.0
 11
147.521928
 21
185.446174
 31
0.0
  0
LINE
  5
1F9
330
1F5
100
AcDbEntity
  8
LC-001-100-D00-0
 62
     7
370
    15
100
AcDbLine
 10
147.521928
 20
185.446174
 30
0.0
 11
147.873021
 21
185.263412
 31
0.0
  0
LINE
  5
1FA
330
1F5
100
AcDbEntity
  8
LC-001-100-D00-0
 62
     7
370
    15
100
AcDbLine
 10
147.873021
 20
185.263412
 30
0.0
 11
148.420833
 21
184.978233
 31
0.0
  0
ENDBLK
  5
1F7
330
1F5
100
AcDbEntity
  8
0
100
AcDbBlockEnd
  0
BLOCK
  5
1FD
330
1FC
100
AcDbEntity
  8
0
100
AcDbBlockBegin
  2
KLON6
 70
     0
 71
     0
 10
0.0
 20
0.0
 30
0.0
  3
KLON6
  1

  4
KLON6
  0
LINE
  5
1FF
330
1FC
100
AcDbEntity
  8
LC-001-100-D00-0
 62
     7
370
    15
100
AcDbLine
 10
148.420833
 20
184.978233
 30
0.0
 11
148.069732
 21
184.795471
 31
0.0
  0
LINE
  5
200
330
1FC
100
AcDbEntity
  8
LC-001-100-D00-0
 62
     7
370
    15
100
AcDbLine
 10
148.069732
 20
184.795471
 30
0.0
 11
147.718638
 21
184.612708
 31
0.0
  0
LINE
  5
201
330
1FC
100
AcDbEntity
  8
LC-001-100-D00-0
 62
     7
370
    15
100
AcDbLine
 10
147.718638
 20
184.612708
 30
0.0
 11
147.170827
 21
184.327529
 31
0.0
  0
ENDBLK
  5
1FE
330
1FC
100
AcDbEntity
  8
0
100
AcDbBlockEnd
  0
BLOCK
  5
205
330
204
100
AcDbEntity
  8
0
100
AcDbBlockBegin
  2
KLON7
 70
     0
 71
     0
 10
0.0
 20
0.0
 30
0.0
  3
KLON7
  1

  4
KLON7
  0
LINE
  5
207
330
204
100
AcDbEntity
  8
LC-001-100-D00-0
 62
     7
370
    15
100
AcDbLine
 10
147.170827
 20
182.628946
 30
0.0
 11
147.521928
 21
182.446183
 31
0.0
  0
LINE
  5
208
330
204
100
AcDbEntity
  8
LC-001-100-D00-0
 62
     7
370
    15
100
AcDbLine
 10
147.521928
 20
182.446183
 30
0.0
 11
147.873021
 21
182.263406
 31
0.0
  0
LINE
  5
209
330
204
100
AcDbEntity
  8
LC-001-100-D00-0
 62
     7
370
    15
100
AcDbLine
 10
147.873021
 20
182.263406
 30
0.0
 11
148.420833
 21
181.978242
 31
0.0
  0
ENDBLK
  5
206
330
204
100
AcDbEntity
  8
0
100
AcDbBlockEnd
  0
BLOCK
  5
20C
330
20B
100
AcDbEntity
  8
0
100
AcDbBlockBegin
  2
KLON8
 70
     0
 71
     0
 10
0.0
 20
0.0
 30
0.0
  3
KLON8
  1

  4
KLON8
  0
LINE
  5
20E
330
20B
100
AcDbEntity
  8
LC-001-100-D00-0
 62
     7
370
    15
100
AcDbLine
 10
148.420833
 20
181.978242
 30
0.0
 11
148.069732
 21
181.795464
 31
0.0
  0
LINE
  5
20F
330
20B
100
AcDbEntity
  8
LC-001-100-D00-0
 62
     7
370
    15
100
AcDbLine
 10
148.069732
 20
181.795464
 30
0.0
 11
147.718638
 21
181.612702
 31
0.0
  0
LINE
  5
210
330
20B
100
AcDbEntity
  8
LC-001-100-D00-0
 62
     7
370
    15
100
AcDbLine
 10
147.718638
 20
181.612702
 30
0.0
 11
147.170827
 21
181.327538
 31
0.0
  0
ENDBLK
  5
20D
330
20B
100
AcDbEntity
  8
0
100
AcDbBlockEnd
  0
BLOCK
  5
214
330
213
100
AcDbEntity
  8
0
100
AcDbBlockBegin
  2
KLON9
 70
     0
 71
     0
 10
0.0
 20
0.0
 30
0.0
  3
KLON9
  1

  4
KLON9
  0
LINE
  5
216
330
213
100
AcDbEntity
  8
LC-001-100-D00-0
 62
     7
370
    15
100
AcDbLine
 10
147.170827
 20
179.628955
 30
0.0
 11
147.521928
 21
179.446177
 31
0.0
  0
LINE
  5
217
330
213
100
AcDbEntity
  8
LC-001-100-D00-0
 62
     7
370
    15
100
AcDbLine
 10
147.521928
 20
179.446177
 30
0.0
 11
147.873021
 21
179.263414
 31
0.0
  0
LINE
  5
218
330
213
100
AcDbEntity
  8
LC-001-100-D00-0
 62
     7
370
    15
100
AcDbLine
 10
147.873021
 20
179.263414
 30
0.0
 11
148.420833
 21
178.978236
 31
0.0
  0
ENDBLK
  5
215
330
213
100
AcDbEntity
  8
0
100
AcDbBlockEnd
  0
BLOCK
  5
21B
330
21A
100
AcDbEntity
  8
0
100
AcDbBlockBegin
  2
KLON10
 70
     0
 71
     0
 10
0.0
 20
0.0
 30
0.0
  3
KLON10
  1

  4
KLON10
  0
LINE
  5
21D
330
21A
100
AcDbEntity
  8
LC-001-100-D00-0
 62
     7
370
    15
100
AcDbLine
 10
148.420833
 20
178.978236
 30
0.0
 11
148.069732
 21
178.795473
 31
0.0
  0
LINE
  5
21E
330
21A
100
AcDbEntity
  8
LC-001-100-D00-0
 62
     7
370
    15
100
AcDbLine
 10
148.069732
 20
178.795473
 30
0.0
 11
147.718638
 21
178.612696
 31
0.0
  0
LINE
  5
21F
330
21A
100
AcDbEntity
  8
LC-001-100-D00-0
 62
     7
370
    15
100
AcDbLine
 10
147.718638
 20
178.612696
 30
0.0
 11
147.170827
 21
178.327532
 31
0.0
  0
ENDBLK
  5
21C
330
21A
100
AcDbEntity
  8
0
100
AcDbBlockEnd
  0
BLOCK
  5
226
330
225
100
AcDbEntity
  8
0
100
AcDbBlockBegin
  2
KLON11
 70
     0
 71
     0
 10
0.0
 20
0.0
 30
0.0
  3
KLON11
  1

  4
KLON11
  0
LINE
  5
228
330
225
100
AcDbEntity
  8
LC-001-100-D00-0
 62
     7
370
    15
100
AcDbLine
 10
143.170833
 20
179.827528
 30
0.0
 11
142.819732
 21
180.010305
 31
0.0
  0
LINE
  5
229
330
225
100
AcDbEntity
  8
LC-001-100-D00-0
 62
     7
370
    15
100
AcDbLine
 10
142.819732
 20
180.010305
 30
0.0
 11
142.468638
 21
180.193068
 31
0.0
  0
LINE
  5
22A
330
225
100
AcDbEntity
  8
LC-001-100-D00-0
 62
     7
370
    15
100
AcDbLine
 10
142.468638
 20
180.193068
 30
0.0
 11
141.920827
 21
180.478247
 31
0.0
  0
ENDBLK
  5
227
330
225
100
AcDbEntity
  8
0
100
AcDbBlockEnd
  0
BLOCK
  5
22D
330
22C
100
AcDbEntity
  8
0
100
AcDbBlockBegin
  2
KLON12
 70
     0
 71
     0
 10
0.0
 20
0.0
 30
0.0
  3
KLON12
  1

  4
KLON12
  0
LINE
  5
22F
330
22C
100
AcDbEntity
  8
LC-001-100-D00-0
 62
     7
370
    15
100
AcDbLine
 10
141.920827
 20
180.478247
 30
0.0
 11
142.271928
 21
180.661009
 31
0.0
  0
LINE
  5
230
330
22C
100
AcDbEntity
  8
LC-001-100-D00-0
 62
     7
370
    15
100
AcDbLine
 10
142.271928
 20
180.661009
 30
0.0
 11
142.623022
 21
180.843772
 31
0.0
  0
LINE
  5
231
330
22C
100
AcDbEntity
  8
LC-001-100-D00-0
 62
     7
370
    15
100
AcDbLine
 10
142.623022
 20
180.843772
 30
0.0
 11
143.170833
 21
181.12895
 31
0.0
  0
ENDBLK
  5
22E
330
22C
100
AcDbEntity
  8
0
100
AcDbBlockEnd
  0
BLOCK
  5
235
330
234
100
AcDbEntity
  8
0
100
AcDbBlockBegin
  2
KLON13
 70
     0
 71
     0
 10
0.0
 20
0.0
 30
0.0
  3
KLON13
  1

  4
KLON13
  0
LINE
  5
237
330
234
100
AcDbEntity
  8
LC-001-100-D00-0
 62
     7
370
    15
100
AcDbLine
 10
143.170833
 20
182.827534
 30
0.0
 11
142.819732
 21
183.010297
 31
0.0
  0
LINE
  5
238
330
234
100
AcDbEntity
  8
LC-001-100-D00-0
 62
     7
370
    15
100
AcDbLine
 10
142.819732
 20
183.010297
 30
0.0
 11
142.468638
 21
183.193074
 31
0.0
  0
LINE
  5
239
330
234
100
AcDbEntity
  8
LC-001-100-D00-0
 62
     7
370
    15
100
AcDbLine
 10
142.468638
 20
183.193074
 30
0.0
 11
141.920827
 21
183.478238
 31
0.0
  0
ENDBLK
  5
236
330
234
100
AcDbEntity
  8
0
100
AcDbBlockEnd
  0
BLOCK
  5
23C
330
23B
100
AcDbEntity
  8
0
100
AcDbBlockBegin
  2
KLON14
 70
     0
 71
     0
 10
0.0
 20
0.0
 30
0.0
  3
KLON14
  1

  4
KLON14
  0
LINE
  5
23E
330
23B
100
AcDbEntity
  8
LC-001-100-D00-0
 62
     7
370
    15
100
AcDbLine
 10
141.920827
 20
183.478238
 30
0.0
 11
142.271928
 21
183.661015
 31
0.0
  0
LINE
  5
23F
330
23B
100
AcDbEntity
  8
LC-001-100-D00-0
 62
     7
370
    15
100
AcDbLine
 10
142.271928
 20
183.661015
 30
0.0
 11
142.623022
 21
183.843778
 31
0.0
  0
LINE
  5
240
330
23B
100
AcDbEntity
  8
LC-001-100-D00-0
 62
     7
370
    15
100
AcDbLine
 10
142.623022
 20
183.843778
 30
0.0
 11
143.170833
 21
184.128942
 31
0.0
  0
ENDBLK
  5
23D
330
23B
100
AcDbEntity
  8
0
100
AcDbBlockEnd
  0
BLOCK
  5
244
330
243
100
AcDbEntity
  8
0
100
AcDbBlockBegin
  2
KLON15
 70
     0
 71
     0
 10
0.0
 20
0.0
 30
0.0
  3
KLON15
  1

  4
KLON15
  0
LINE
  5
246
330
243
100
AcDbEntity
  8
LC-001-100-D00-0
 62
     7
370
    15
100
AcDbLine
 10
143.170833
 20
185.827525
 30
0.0
 11
142.819732
 21
186.010303
 31
0.0
  0
LINE
  5
247
330
243
100
AcDbEntity
  8
LC-001-100-D00-0
 62
     7
370
    15
100
AcDbLine
 10
142.819732
 20
186.010303
 30
0.0
 11
142.468638
 21
186.193065
 31
0.0
  0
LINE
  5
248
330
243
100
AcDbEntity
  8
LC-001-100-D00-0
 62
     7
370
    15
100
AcDbLine
 10
142.468638
 20
186.193065
 30
0.0
 11
141.920827
 21
186.478244
 31
0.0
  0
ENDBLK
  5
245
330
243
100
AcDbEntity
  8
0
100
AcDbBlockEnd
  0
BLOCK
  5
24B
330
24A
100
AcDbEntity
  8
0
100
AcDbBlockBegin
  2
KLON16
 70
     0
 71
     0
 10
0.0
 20
0.0
 30
0.0
  3
KLON16
  1

  4
KLON16
  0
LINE
  5
24D
330
24A
100
AcDbEntity
  8
LC-001-100-D00-0
 62
     7
370
    15
100
AcDbLine
 10
141.920827
 20
186.478244
 30
0.0
 11
142.271928
 21
186.661007
 31
0.0
  0
LINE
  5
24E
330
24A
100
AcDbEntity
  8
LC-001-100-D00-0
 62
     7
370
    15
100
AcDbLine
 10
142.271928
 20
186.661007
 30
0.0
 11
142.623022
 21
186.843784
 31
0.0
  0
LINE
  5
24F
330
24A
100
AcDbEntity
  8
LC-001-100-D00-0
 62
     7
370
    15
100
AcDbLine
 10
142.623022
 20
186.843784
 30
0.0
 11
143.170833
 21
187.128948
 31
0.0
  0
ENDBLK
  5
24C
330
24A
100
AcDbEntity
  8
0
100
AcDbBlockEnd
  0
BLOCK
  5
253
330
252
100
AcDbEntity
  8
0
100
AcDbBlockBegin
  2
KLON17
 70
     0
 71
     0
 10
0.0
 20
0.0
 30
0.0
  3
KLON17
  1

  4
KLON17
  0
LINE
  5
255
330
252
100
AcDbEntity
  8
LC-001-100-D00-0
 62
     7
370
    15
100
AcDbLine
 10
143.170833
 20
188.827531
 30
0.0
 11
142.819732
 21
189.010294
 31
0.0
  0
LINE
  5
256
330
252
100
AcDbEntity
  8
LC-001-100-D00-0
 62
     7
370
    15
100
AcDbLine
 10
142.819732
 20
189.010294
 30
0.0
 11
142.468638
 21
189.193071
 31
0.0
  0
LINE
  5
257
330
252
100
AcDbEntity
  8
LC-001-100-D00-0
 62
     7
370
    15
100
AcDbLine
 10
142.468638
 20
189.193071
 30
0.0
 11
141.920827
 21
189.478235
 31
0.0
  0
ENDBLK
  5
254
330
252
100
AcDbEntity
  8
0
100
AcDbBlockEnd
  0
BLOCK
  5
25A
330
259
100
AcDbEntity
  8
0
100
AcDbBlockBegin
  2
KLON18
 70
     0
 71
     0
 10
0.0
 20
0.0
 30
0.0
  3
KLON18
  1

  4
KLON18
  0
LINE
  5
25C
330
259
100
AcDbEntity
  8
LC-001-100-D00-0
 62
     7
370
    15
100
AcDbLine
 10
141.920827
 20
189.478235
 30
0.0
 11
142.271928
 21
189.661013
 31
0.0
  0
LINE
  5
25D
330
259
100
AcDbEntity
  8
LC-001-100-D00-0
 62
     7
370
    15
100
AcDbLine
 10
142.271928
 20
189.661013
 30
0.0
 11
142.623022
 21
189.843775
 31
0.0
  0
LINE
  5
25E
330
259
100
AcDbEntity
  8
LC-001-100-D00-0
 62
     7
370
    15
100
AcDbLine
 10
142.623022
 20
189.843775
 30
0.0
 11
143.170833
 21
190.128954
 31
0.0
  0
ENDBLK
  5
25B
330
259
100
AcDbEntity
  8
0
100
AcDbBlockEnd
  0
BLOCK
  5
262
330
261
100
AcDbEntity
  8
0
100
AcDbBlockBegin
  2
KLON19
 70
     0
 71
     0
 10
0.0
 20
0.0
 30
0.0
  3
KLON19
  1

  4
KLON19
  0
LINE
  5
264
330
261
100
AcDbEntity
  8
LC-001-100-D00-0
 62
     7
370
    15
100
AcDbLine
 10
143.170833
 20
191.827537
 30
0.0
 11
142.819732
 21
192.0103
 31
0.0
  0
LINE
  5
265
330
261
100
AcDbEntity
  8
LC-001-100-D00-0
 62
     7
370
    15
100
AcDbLine
 10
142.819732
 20
192.0103
 30
0.0
 11
142.468638
 21
192.193063
 31
0.0
  0
LINE
  5
266
330
261
100
AcDbEntity
  8
LC-001-100-D00-0
 62
     7
370
    15
100
AcDbLine
 10
142.468638
 20
192.193063
 30
0.0
 11
141.920827
 21
192.478241
 31
0.0
  0
ENDBLK
  5
263
330
261
100
AcDbEntity
  8
0
100
AcDbBlockEnd
  0
BLOCK
  5
269
330
268
100
AcDbEntity
  8
0
100
AcDbBlockBegin
  2
KLON20
 70
     0
 71
     0
 10
0.0
 20
0.0
 30
0.0
  3
KLON20
  1

  4
KLON20
  0
LINE
  5
26B
330
268
100
AcDbEntity
  8
LC-001-100-D00-0
 62
     7
370
    15
100
AcDbLine
 10
141.920827
 20
192.478241
 30
0.0
 11
142.271928
 21
192.661004
 31
0.0
  0
LINE
  5
26C
330
268
100
AcDbEntity
  8
LC-001-100-D00-0
 62
     7
370
    15
100
AcDbLine
 10
142.271928
 20
192.661004
 30
0.0
 11
142.623022
 21
192.843781
 31
0.0
  0
LINE
  5
26D
330
268
100
AcDbEntity
  8
LC-001-100-D00-0
 62
     7
370
    15
100
AcDbLine
 10
142.623022
 20
192.843781
 30
0.0
 11
143.170833
 21
193.128945
 31
0.0
  0
ENDBLK
  5
26A
330
268
100
AcDbEntity
  8
0
100
AcDbBlockEnd
  0
BLOCK
  5
279
330
278
100
AcDbEntity
  8
0
100
AcDbBlockBegin
  2
POLY5
 70
     0
 71
     0
 10
0.0
 20
0.0
 30
0.0
  3
POLY5
  1

  4
POLY5
  0
LINE
  5
27B
330
278
100
AcDbEntity
  8
LC-001-100-D00-0
 62
     7
370
    50
100
AcDbLine
 10
141.920827
 20
192.478241
 30
0.0
 11
141.920827
 21
192.478241
 31
0.0
  0
LINE
  5
27C
330
278
100
AcDbEntity
  8
LC-001-100-D00-0
 62
     7
370
    50
100
AcDbLine
 10
141.920827
 20
192.478241
 30
0.0
 11
141.920833
 21
192.477506
 31
0.0
  0
LINE
  5
27D
330
278
100
AcDbEntity
  8
LC-001-100-D00-0
 62
     7
370
    50
100
AcDbLine
 10
141.920833
 20
192.477506
 30
0.0
 11
141.920833
 21
192.477506
 31
0.0
  0
LINE
  5
27E
330
278
100
AcDbEntity
  8
LC-001-100-D00-0
 62
     7
370
    50
100
AcDbLine
 10
141.920833
 20
192.477506
 30
0.0
 11
141.921218
 21
192.426428
 31
0.0
  0
LINE
  5
27F
330
278
100
AcDbEntity
  8
LC-001-100-D00-0
 62
     7
370
    50
100
AcDbLine
 10
141.921218
 20
192.426428
 30
0.0
 11
141.921218
 21
192.426428
 31
0.0
  0
LINE
  5
280
330
278
100
AcDbEntity
  8
LC-001-100-D00-0
 62
     7
370
    50
100
AcDbLine
 10
141.921218
 20
192.426428
 30
0.0
 11
142.021061
 21
192.379127
 31
0.0
  0
LINE
  5
281
330
278
100
AcDbEntity
  8
LC-001-100-D00-0
 62
     7
370
    50
100
AcDbLine
 10
142.021061
 20
192.379127
 30
0.0
 11
142.021061
 21
192.379127
 31
0.0
  0
LINE
  5
282
330
278
100
AcDbEntity
  8
LC-001-100-D00-0
 62
     7
370
    50
100
AcDbLine
 10
142.021061
 20
192.379127
 30
0.0
 11
142.119467
 21
192.332508
 31
0.0
  0
ENDBLK
  5
27A
330
278
100
AcDbEntity
  8
0
100
AcDbBlockEnd
  0
BLOCK
  5
288
330
287
100
AcDbEntity
  8
0
100
AcDbBlockBegin
  2
POLY6
 70
     0
 71
     0
 10
0.0
 20
0.0
 30
0.0
  3
POLY6
  1

  4
POLY6
  0
LINE
  5
28A
330
287
100
AcDbEntity
  8
LC-001-100-D00-0
 62
     7
370
    50
100
AcDbLine
 10
142.260179
 20
197.133364
 30
0.0
 11
142.260179
 21
197.133364
 31
0.0
  0
LINE
  5
28B
330
287
100
AcDbEntity
  8
LC-001-100-D00-0
 62
     7
370
    50
100
AcDbLine
 10
142.260179
 20
197.133364
 30
0.0
 11
142.23701
 21
197.131375
 31
0.0
  0
LINE
  5
28C
330
287
100
AcDbEntity
  8
LC-001-100-D00-0
 62
     7
370
    50
100
AcDbLine
 10
142.23701
 20
197.131375
 30
0.0
 11
142.23701
 21
197.131375
 31
0.0
  0
LINE
  5
28D
330
287
100
AcDbEntity
  8
LC-001-100-D00-0
 62
     7
370
    50
100
AcDbLine
 10
142.23701
 20
197.131375
 30
0.0
 11
142.205596
 21
197.128679
 31
0.0
  0
LINE
  5
28E
330
287
100
AcDbEntity
  8
LC-001-100-D00-0
 62
     7
370
    50
100
AcDbLine
 10
142.205596
 20
197.128679
 30
0.0
 11
142.205596
 21
197.128679
 31
0.0
  0
LINE
  5
28F
330
287
100
AcDbEntity
  8
LC-001-100-D00-0
 62
     7
370
    50
100
AcDbLine
 10
142.205596
 20
197.128679
 30
0.0
 11
142.177156
 21
197.115747
 31
0.0
  0
LINE
  5
290
330
287
100
AcDbEntity
  8
LC-001-100-D00-0
 62
     7
370
    50
100
AcDbLine
 10
142.177156
 20
197.115747
 30
0.0
 11
142.177156
 21
197.115747
 31
0.0
  0
LINE
  5
291
330
287
100
AcDbEntity
  8
LC-001-100-D00-0
 62
     7
370
    50
100
AcDbLine
 10
142.177156
 20
197.115747
 30
0.0
 11
142.169691
 21
197.112353
 31
0.0
  0
ENDBLK
  5
289
330
287
100
AcDbEntity
  8
0
100
AcDbBlockEnd
  0
BLOCK
  5
294
330
293
100
AcDbEntity
  8
0
100
AcDbBlockBegin
  2
POLY7
 70
     0
 71
     0
 10
0.0
 20
0.0
 30
0.0
  3
POLY7
  1

  4
POLY7
  0
LINE
  5
296
330
293
100
AcDbEntity
  8
LC-001-100-D00-0
 62
     7
370
    50
100
AcDbLine
 10
148.171968
 20
197.112353
 30
0.0
 11
148.171968
 21
197.112353
 31
0.0
  0
LINE
  5
297
330
293
100
AcDbEntity
  8
LC-001-100-D00-0
 62
     7
370
    50
100
AcDbLine
 10
148.171968
 20
197.112353
 30
0.0
 11
148.150295
 21
197.120769
 31
0.0
  0
LINE
  5
298
330
293
100
AcDbEntity
  8
LC-001-100-D00-0
 62
     7
370
    50
100
AcDbLine
 10
148.150295
 20
197.120769
 30
0.0
 11
148.150295
 21
197.120769
 31
0.0
  0
LINE
  5
299
330
293
100
AcDbEntity
  8
LC-001-100-D00-0
 62
     7
370
    50
100
AcDbLine
 10
148.150295
 20
197.120769
 30
0.0
 11
148.120906
 21
197.13218
 31
0.0
  0
LINE
  5
29A
330
293
100
AcDbEntity
  8
LC-001-100-D00-0
 62
     7
370
    50
100
AcDbLine
 10
148.120906
 20
197.13218
 30
0.0
 11
148.120906
 21
197.13218
 31
0.0
  0
LINE
  5
29B
330
293
100
AcDbEntity
  8
LC-001-100-D00-0
 62
     7
370
    50
100
AcDbLine
 10
148.120906
 20
197.13218
 30
0.0
 11
148.089679
 21
197.133118
 31
0.0
  0
LINE
  5
29C
330
293
100
AcDbEntity
  8
LC-001-100-D00-0
 62
     7
370
    50
100
AcDbLine
 10
148.089679
 20
197.133118
 30
0.0
 11
148.089679
 21
197.133118
 31
0.0
  0
LINE
  5
29D
330
293
100
AcDbEntity
  8
LC-001-100-D00-0
 62
     7
370
    50
100
AcDbLine
 10
148.089679
 20
197.133118
 30
0.0
 11
148.081481
 21
197.133364
 31
0.0
  0
ENDBLK
  5
295
330
293
100
AcDbEntity
  8
0
100
AcDbBlockEnd
  0
BLOCK
  5
335
330
334
100
AcDbEntity
  8
0
100
AcDbBlockBegin
  2
POLY8
 70
     0
 71
     0
 10
0.0
 20
0.0
 30
0.0
  3
POLY8
  1

  4
POLY8
  0
LINE
  5
337
330
334
100
AcDbEntity
  8
LC-001-100-D00-0
 62
     7
370
    50
100
AcDbLine
 10
280.43938
 20
190.133358
 30
0.0
 11
280.43938
 21
190.133358
 31
0.0
  0
LINE
  5
338
330
334
100
AcDbEntity
  8
LC-001-100-D00-0
 62
     7
370
    50
100
AcDbLine
 10
280.43938
 20
190.133358
 30
0.0
 11
280.358259
 21
190.284004
 31
0.0
  0
LINE
  5
339
330
334
100
AcDbEntity
  8
LC-001-100-D00-0
 62
     7
370
    50
100
AcDbLine
 10
280.358259
 20
190.284004
 30
0.0
 11
280.358259
 21
190.284004
 31
0.0
  0
LINE
  5
33A
330
334
100
AcDbEntity
  8
LC-001-100-D00-0
 62
     7
370
    50
100
AcDbLine
 10
280.358259
 20
190.284004
 30
0.0
 11
280.291316
 21
190.408619
 31
0.0
  0
LINE
  5
33B
330
334
100
AcDbEntity
  8
LC-001-100-D00-0
 62
     7
370
    50
100
AcDbLine
 10
280.291316
 20
190.408619
 30
0.0
 11
280.291316
 21
190.408619
 31
0.0
  0
LINE
  5
33C
330
334
100
AcDbEntity
  8
LC-001-100-D00-0
 62
     7
370
    50
100
AcDbLine
 10
280.291316
 20
190.408619
 30
0.0
 11
280.196365
 21
190.585516
 31
0.0
  0
LINE
  5
33D
330
334
100
AcDbEntity
  8
LC-001-100-D00-0
 62
     7
370
    50
100
AcDbLine
 10
280.196365
 20
190.585516
 30
0.0
 11
280.196365
 21
190.585516
 31
0.0
  0
LINE
  5
33E
330
334
100
AcDbEntity
  8
LC-001-100-D00-0
 62
     7
370
    50
100
AcDbLine
 10
280.196365
 20
190.585516
 30
0.0
 11
280.17083
 21
190.633171
 31
0.0
  0
ENDBLK
  5
336
330
334
100
AcDbEntity
  8
0
100
AcDbBlockEnd
  0
BLOCK
  5
342
330
341
100
AcDbEntity
  8
0
100
AcDbBlockBegin
  2
POLY9
 70
     0
 71
     0
 10
0.0
 20
0.0
 30
0.0
  3
POLY9
  1

  4
POLY9
  0
LINE
  5
344
330
341
100
AcDbEntity
  8
LC-001-100-D00-0
 62
     7
370
    50
100
AcDbLine
 10
150.17083
 20
190.633171
 30
0.0
 11
150.17083
 21
190.633171
 31
0.0
  0
LINE
  5
345
330
341
100
AcDbEntity
  8
LC-001-100-D00-0
 62
     7
370
    50
100
AcDbLine
 10
150.17083
 20
190.633171
 30
0.0
 11
150.16436
 21
190.621101
 31
0.0
  0
LINE
  5
346
330
341
100
AcDbEntity
  8
LC-001-100-D00-0
 62
     7
370
    50
100
AcDbLine
 10
150.16436
 20
190.621101
 30
0.0
 11
150.16436
 21
190.621101
 31
0.0
  0
LINE
  5
347
330
341
100
AcDbEntity
  8
LC-001-100-D00-0
 62
     7
370
    50
100
AcDbLine
 10
150.16436
 20
190.621101
 30
0.0
 11
150.139639
 21
190.575004
 31
0.0
  0
LINE
  5
348
330
341
100
AcDbEntity
  8
LC-001-100-D00-0
 62
     7
370
    50
100
AcDbLine
 10
150.139639
 20
190.575004
 30
0.0
 11
150.139639
 21
190.575004
 31
0.0
  0
LINE
  5
349
330
341
100
AcDbEntity
  8
LC-001-100-D00-0
 62
     7
370
    50
100
AcDbLine
 10
150.139639
 20
190.575004
 30
0.0
 11
150.121417
 21
190.541031
 31
0.0
  0
LINE
  5
34A
330
341
100
AcDbEntity
  8
LC-001-100-D00-0
 62
     7
370
    50
100
AcDbLine
 10
150.121417
 20
190.541031
 30
0.0
 11
150.121417
 21
190.541031
 31
0.0
  0
LINE
  5
34B
330
341
100
AcDbEntity
  8
LC-001-100-D00-0
 62
     7
370
    50
100
AcDbLine
 10
150.121417
 20
190.541031
 30
0.0
 11
150.050548
 21
190.409
 31
0.0
  0
LINE
  5
34C
330
341
100
AcDbEntity
  8
LC-001-100-D00-0
 62
     7
370
    50
100
AcDbLine
 10
150.050548
 20
190.409
 30
0.0
 11
150.050548
 21
190.409
 31
0.0
  0
LINE
  5
34D
330
341
100
AcDbEntity
  8
LC-001-100-D00-0
 62
     7
370
    50
100
AcDbLine
 10
150.050548
 20
190.409
 30
0.0
 11
149.983182
 21
190.283595
 31
0.0
  0
LINE
  5
34E
330
341
100
AcDbEntity
  8
LC-001-100-D00-0
 62
     7
370
    50
100
AcDbLine
 10
149.983182
 20
190.283595
 30
0.0
 11
149.983182
 21
190.283595
 31
0.0
  0
LINE
  5
34F
330
341
100
AcDbEntity
  8
LC-001-100-D00-0
 62
     7
370
    50
100
AcDbLine
 10
149.983182
 20
190.283595
 30
0.0
 11
149.90228
 21
190.133358
 31
0.0
  0
ENDBLK
  5
343
330
341
100
AcDbEntity
  8
0
100
AcDbBlockEnd
  0
BLOCK
  5
367
330
366
100
AcDbEntity
  8
0
100
AcDbBlockBegin
  2
POLY10
 70
     0
 71
     0
 10
0.0
 20
0.0
 30
0.0
  3
POLY10
  1

  4
POLY10
  0
LINE
  5
369
330
366
100
AcDbEntity
  8
LC-001-100-D00-0
 62
     7
370
    50
100
AcDbLine
 10
140.47953
 20
190.133358
 30
0.0
 11
140.47953
 21
190.133358
 31
0.0
  0
LINE
  5
36A
330
366
100
AcDbEntity
  8
LC-001-100-D00-0
 62
     7
370
    50
100
AcDbLine
 10
140.47953
 20
190.133358
 30
0.0
 11
140.385472
 21
190.285997
 31
0.0
  0
LINE
  5
36B
330
366
100
AcDbEntity
  8
LC-001-100-D00-0
 62
     7
370
    50
100
AcDbLine
 10
140.385472
 20
190.285997
 30
0.0
 11
140.385472
 21
190.285997
 31
0.0
  0
LINE
  5
36C
330
366
100
AcDbEntity
  8
LC-001-100-D00-0
 62
     7
370
    50
100
AcDbLine
 10
140.385472
 20
190.285997
 30
0.0
 11
140.30845
 21
190.410724
 31
0.0
  0
LINE
  5
36D
330
366
100
AcDbEntity
  8
LC-001-100-D00-0
 62
     7
370
    50
100
AcDbLine
 10
140.30845
 20
190.410724
 30
0.0
 11
140.30845
 21
190.410724
 31
0.0
  0
LINE
  5
36E
330
366
100
AcDbEntity
  8
LC-001-100-D00-0
 62
     7
370
    50
100
AcDbLine
 10
140.30845
 20
190.410724
 30
0.0
 11
140.1998
 21
190.586547
 31
0.0
  0
LINE
  5
36F
330
366
100
AcDbEntity
  8
LC-001-100-D00-0
 62
     7
370
    50
100
AcDbLine
 10
140.1998
 20
190.586547
 30
0.0
 11
140.1998
 21
190.586547
 31
0.0
  0
LINE
  5
370
330
366
100
AcDbEntity
  8
LC-001-100-D00-0
 62
     7
370
    50
100
AcDbLine
 10
140.1998
 20
190.586547
 30
0.0
 11
140.17083
 21
190.633358
 31
0.0
  0
ENDBLK
  5
368
330
366
100
AcDbEntity
  8
0
100
AcDbBlockEnd
  0
BLOCK
  5
3A6
330
3A5
100
AcDbEntity
  8
0
100
AcDbBlockBegin
  2
POLY11
 70
     0
 71
     0
 10
0.0
 20
0.0
 30
0.0
  3
POLY11
  1

  4
POLY11
  0
LINE
  5
3A8
330
3A5
100
AcDbEntity
  8
LC-001-100-D00-0
 62
     7
370
    50
100
AcDbLine
 10
290.17083
 20
190.633358
 30
0.0
 11
290.17083
 21
190.633358
 31
0.0
  0
LINE
  5
3A9
330
3A5
100
AcDbEntity
  8
LC-001-100-D00-0
 62
     7
370
    50
100
AcDbLine
 10
290.17083
 20
190.633358
 30
0.0
 11
290.163493
 21
190.621498
 31
0.0
  0
LINE
  5
3AA
330
3A5
100
AcDbEntity
  8
LC-001-100-D00-0
 62
     7
370
    50
100
AcDbLine
 10
290.163493
 20
190.621498
 30
0.0
 11
290.163493
 21
190.621498
 31
0.0
  0
LINE
  5
3AB
330
3A5
100
AcDbEntity
  8
LC-001-100-D00-0
 62
     7
370
    50
100
AcDbLine
 10
290.163493
 20
190.621498
 30
0.0
 11
290.135361
 21
190.576008
 31
0.0
  0
LINE
  5
3AC
330
3A5
100
AcDbEntity
  8
LC-001-100-D00-0
 62
     7
370
    50
100
AcDbLine
 10
290.135361
 20
190.576008
 30
0.0
 11
290.135361
 21
190.576008
 31
0.0
  0
LINE
  5
3AD
330
3A5
100
AcDbEntity
  8
LC-001-100-D00-0
 62
     7
370
    50
100
AcDbLine
 10
290.135361
 20
190.576008
 30
0.0
 11
290.1146
 21
190.542434
 31
0.0
  0
LINE
  5
3AE
330
3A5
100
AcDbEntity
  8
LC-001-100-D00-0
 62
     7
370
    50
100
AcDbLine
 10
290.1146
 20
190.542434
 30
0.0
 11
290.1146
 21
190.542434
 31
0.0
  0
LINE
  5
3AF
330
3A5
100
AcDbEntity
  8
LC-001-100-D00-0
 62
     7
370
    50
100
AcDbLine
 10
290.1146
 20
190.542434
 30
0.0
 11
290.060643
 21
190.455116
 31
0.0
  0
LINE
  5
3B0
330
3A5
100
AcDbEntity
  8
LC-001-100-D00-0
 62
     7
370
    50
100
AcDbLine
 10
290.060643
 20
190.455116
 30
0.0
 11
290.060643
 21
190.455116
 31
0.0
  0
LINE
  5
3B1
330
3A5
100
AcDbEntity
  8
LC-001-100-D00-0
 62
     7
370
    50
100
AcDbLine
 10
290.060643
 20
190.455116
 30
0.0
 11
290.027444
 21
190.401369
 31
0.0
  0
LINE
  5
3B2
330
3A5
100
AcDbEntity
  8
LC-001-100-D00-0
 62
     7
370
    50
100
AcDbLine
 10
290.027444
 20
190.401369
 30
0.0
 11
290.027444
 21
190.401369
 31
0.0
  0
LINE
  5
3B3
330
3A5
100
AcDbEntity
  8
LC-001-100-D00-0
 62
     7
370
    50
100
AcDbLine
 10
290.027444
 20
190.401369
 30
0.0
 11
289.951735
 21
190.278703
 31
0.0
  0
LINE
  5
3B4
330
3A5
100
AcDbEntity
  8
LC-001-100-D00-0
 62
     7
370
    50
100
AcDbLine
 10
289.951735
 20
190.278703
 30
0.0
 11
289.951735
 21
190.278703
 31
0.0
  0
LINE
  5
3B5
330
3A5
100
AcDbEntity
  8
LC-001-100-D00-0
 62
     7
370
    50
100
AcDbLine
 10
289.951735
 20
190.278703
 30
0.0
 11
289.909042
 21
190.209487
 31
0.0
  0
LINE
  5
3B6
330
3A5
100
AcDbEntity
  8
LC-001-100-D00-0
 62
     7
370
    50
100
AcDbLine
 10
289.909042
 20
190.209487
 30
0.0
 11
289.909042
 21
190.209487
 31
0.0
  0
LINE
  5
3B7
330
3A5
100
AcDbEntity
  8
LC-001-100-D00-0
 62
     7
370
    50
100
AcDbLine
 10
289.909042
 20
190.209487
 30
0.0
 11
289.862131
 21
190.133358
 31
0.0
  0
ENDBLK
  5
3A7
330
3A5
100
AcDbEntity
  8
0
100
AcDbBlockEnd
  0
BLOCK
  5
3BE
330
3BD
100
AcDbEntity
  8
0
100
AcDbBlockBegin
  2
POLY12
 70
     0
 71
     0
 10
0.0
 20
0.0
 30
0.0
  3
POLY12
  1

  4
POLY12
  0
LINE
  5
3C0
330
3BD
100
AcDbEntity
  8
LC-001-100-D00-0
 62
     7
370
    50
100
AcDbLine
 10
148.285219
 20
190.633358
 30
0.0
 11
148.285219
 21
190.633358
 31
0.0
  0
LINE
  5
3C1
330
3BD
100
AcDbEntity
  8
LC-001-100-D00-0
 62
     7
370
    50
100
AcDbLine
 10
148.285219
 20
190.633358
 30
0.0
 11
148.193826
 21
190.467972
 31
0.0
  0
LINE
  5
3C2
330
3BD
100
AcDbEntity
  8
LC-001-100-D00-0
 62
     7
370
    50
100
AcDbLine
 10
148.193826
 20
190.467972
 30
0.0
 11
148.193826
 21
190.467972
 31
0.0
  0
LINE
  5
3C3
330
3BD
100
AcDbEntity
  8
LC-001-100-D00-0
 62
     7
370
    50
100
AcDbLine
 10
148.193826
 20
190.467972
 30
0.0
 11
148.101505
 21
190.30126
 31
0.0
  0
LINE
  5
3C4
330
3BD
100
AcDbEntity
  8
LC-001-100-D00-0
 62
     7
370
    50
100
AcDbLine
 10
148.101505
 20
190.30126
 30
0.0
 11
148.101505
 21
190.30126
 31
0.0
  0
LINE
  5
3C5
330
3BD
100
AcDbEntity
  8
LC-001-100-D00-0
 62
     7
370
    50
100
AcDbLine
 10
148.101505
 20
190.30126
 30
0.0
 11
148.008321
 21
190.133358
 31
0.0
  0
ENDBLK
  5
3BF
330
3BD
100
AcDbEntity
  8
0
100
AcDbBlockEnd
  0
BLOCK
  5
3C8
330
3C7
100
AcDbEntity
  8
0
100
AcDbBlockBegin
  2
POLY13
 70
     0
 71
     0
 10
0.0
 20
0.0
 30
0.0
  3
POLY13
  1

  4
POLY13
  0
LINE
  5
3CA
330
3C7
100
AcDbEntity
  8
LC-001-100-D00-0
 62
     7
370
    50
100
AcDbLine
 10
148.560927
 20
190.133358
 30
0.0
 11
148.560927
 21
190.133358
 31
0.0
  0
LINE
  5
3CB
330
3C7
100
AcDbEntity
  8
LC-001-100-D00-0
 62
     7
370
    50
100
AcDbLine
 10
148.560927
 20
190.133358
 30
0.0
 11
148.470161
 21
190.29832
 31
0.0
  0
LINE
  5
3CC
330
3C7
100
AcDbEntity
  8
LC-001-100-D00-0
 62
     7
370
    50
100
AcDbLine
 10
148.470161
 20
190.29832
 30
0.0
 11
148.470161
 21
190.29832
 31
0.0
  0
LINE
  5
3CD
330
3C7
100
AcDbEntity
  8
LC-001-100-D00-0
 62
     7
370
    50
100
AcDbLine
 10
148.470161
 20
190.29832
 30
0.0
 11
148.378224
 21
190.465057
 31
0.0
  0
LINE
  5
3CE
330
3C7
100
AcDbEntity
  8
LC-001-100-D00-0
 62
     7
370
    50
100
AcDbLine
 10
148.378224
 20
190.465057
 30
0.0
 11
148.378224
 21
190.465057
 31
0.0
  0
LINE
  5
3CF
330
3C7
100
AcDbEntity
  8
LC-001-100-D00-0
 62
     7
370
    50
100
AcDbLine
 10
148.378224
 20
190.465057
 30
0.0
 11
148.285219
 21
190.633358
 31
0.0
  0
ENDBLK
  5
3C9
330
3C7
100
AcDbEntity
  8
0
100
AcDbBlockEnd
  0
BLOCK
  5
3D2
330
3D1
100
AcDbEntity
  8
0
100
AcDbBlockBegin
  2
POLY14
 70
     0
 71
     0
 10
0.0
 20
0.0
 30
0.0
  3
POLY14
  1

  4
POLY14
  0
LINE
  5
3D4
330
3D1
100
AcDbEntity
  8
LC-001-100-D00-0
 62
     7
370
    50
100
AcDbLine
 10
282.056441
 20
190.633358
 30
0.0
 11
282.056441
 21
190.633358
 31
0.0
  0
LINE
  5
3D5
330
3D1
100
AcDbEntity
  8
LC-001-100-D00-0
 62
     7
370
    50
100
AcDbLine
 10
282.056441
 20
190.633358
 30
0.0
 11
281.963437
 21
190.465057
 31
0.0
  0
LINE
  5
3D6
330
3D1
100
AcDbEntity
  8
LC-001-100-D00-0
 62
     7
370
    50
100
AcDbLine
 10
281.963437
 20
190.465057
 30
0.0
 11
281.963437
 21
190.465057
 31
0.0
  0
LINE
  5
3D7
330
3D1
100
AcDbEntity
  8
LC-001-100-D00-0
 62
     7
370
    50
100
AcDbLine
 10
281.963437
 20
190.465057
 30
0.0
 11
281.871499
 21
190.29832
 31
0.0
  0
LINE
  5
3D8
330
3D1
100
AcDbEntity
  8
LC-001-100-D00-0
 62
     7
370
    50
100
AcDbLine
 10
281.871499
 20
190.29832
 30
0.0
 11
281.871499
 21
190.29832
 31
0.0
  0
LINE
  5
3D9
330
3D1
100
AcDbEntity
  8
LC-001-100-D00-0
 62
     7
370
    50
100
AcDbLine
 10
281.871499
 20
190.29832
 30
0.0
 11
281.780734
 21
190.133358
 31
0.0
  0
ENDBLK
  5
3D3
330
3D1
100
AcDbEntity
  8
0
100
AcDbBlockEnd
  0
BLOCK
  5
3DC
330
3DB
100
AcDbEntity
  8
0
100
AcDbBlockBegin
  2
POLY15
 70
     0
 71
     0
 10
0.0
 20
0.0
 30
0.0
  3
POLY15
  1

  4
POLY15
  0
LINE
  5
3DE
330
3DB
100
AcDbEntity
  8
LC-001-100-D00-0
 62
     7
370
    50
100
AcDbLine
 10
282.333339
 20
190.133358
 30
0.0
 11
282.333339
 21
190.133358
 31
0.0
  0
LINE
  5
3DF
330
3DB
100
AcDbEntity
  8
LC-001-100-D00-0
 62
     7
370
    50
100
AcDbLine
 10
282.333339
 20
190.133358
 30
0.0
 11
282.240156
 21
190.30126
 31
0.0
  0
LINE
  5
3E0
330
3DB
100
AcDbEntity
  8
LC-001-100-D00-0
 62
     7
370
    50
100
AcDbLine
 10
282.240156
 20
190.30126
 30
0.0
 11
282.240156
 21
190.30126
 31
0.0
  0
LINE
  5
3E1
330
3DB
100
AcDbEntity
  8
LC-001-100-D00-0
 62
     7
370
    50
100
AcDbLine
 10
282.240156
 20
190.30126
 30
0.0
 11
282.147834
 21
190.467972
 31
0.0
  0
LINE
  5
3E2
330
3DB
100
AcDbEntity
  8
LC-001-100-D00-0
 62
     7
370
    50
100
AcDbLine
 10
282.147834
 20
190.467972
 30
0.0
 11
282.147834
 21
190.467972
 31
0.0
  0
LINE
  5
3E3
330
3DB
100
AcDbEntity
  8
LC-001-100-D00-0
 62
     7
370
    50
100
AcDbLine
 10
282.147834
 20
190.467972
 30
0.0
 11
282.056441
 21
190.633358
 31
0.0
  0
ENDBLK
  5
3DD
330
3DB
100
AcDbEntity
  8
0
100
AcDbBlockEnd
  0
BLOCK
  5
3E6
330
3E5
100
AcDbEntity
  8
0
100
AcDbBlockBegin
  2
POLY16
 70
     0
 71
     0
 10
0.0
 20
0.0
 30
0.0
  3
POLY16
  1

  4
POLY16
  0
LINE
  5
3E8
330
3E5
100
AcDbEntity
  8
LC-001-100-D00-0
 62
     7
370
    50
100
AcDbLine
 10
142.285116
 20
190.633358
 30
0.0
 11
142.285116
 21
190.633358
 31
0.0
  0
LINE
  5
3E9
330
3E5
100
AcDbEntity
  8
LC-001-100-D00-0
 62
     7
370
    50
100
AcDbLine
 10
142.285116
 20
190.633358
 30
0.0
 11
142.183646
 21
190.46483
 31
0.0
  0
LINE
  5
3EA
330
3E5
100
AcDbEntity
  8
LC-001-100-D00-0
 62
     7
370
    50
100
AcDbLine
 10
142.183646
 20
190.46483
 30
0.0
 11
142.183646
 21
190.46483
 31
0.0
  0
LINE
  5
3EB
330
3E5
100
AcDbEntity
  8
LC-001-100-D00-0
 62
     7
370
    50
100
AcDbLine
 10
142.183646
 20
190.46483
 30
0.0
 11
142.083054
 21
190.298096
 31
0.0
  0
LINE
  5
3EC
330
3E5
100
AcDbEntity
  8
LC-001-100-D00-0
 62
     7
370
    50
100
AcDbLine
 10
142.083054
 20
190.298096
 30
0.0
 11
142.083054
 21
190.298096
 31
0.0
  0
LINE
  5
3ED
330
3E5
100
AcDbEntity
  8
LC-001-100-D00-0
 62
     7
370
    50
100
AcDbLine
 10
142.083054
 20
190.298096
 30
0.0
 11
141.983474
 21
190.133358
 31
0.0
  0
ENDBLK
  5
3E7
330
3E5
100
AcDbEntity
  8
0
100
AcDbBlockEnd
  0
BLOCK
  5
3F0
330
3EF
100
AcDbEntity
  8
0
100
AcDbBlockBegin
  2
POLY17
 70
     0
 71
     0
 10
0.0
 20
0.0
 30
0.0
  3
POLY17
  1

  4
POLY17
  0
LINE
  5
3F2
330
3EF
100
AcDbEntity
  8
LC-001-100-D00-0
 62
     7
370
    50
100
AcDbLine
 10
142.585567
 20
190.133358
 30
0.0
 11
142.585567
 21
190.133358
 31
0.0
  0
LINE
  5
3F3
330
3EF
100
AcDbEntity
  8
LC-001-100-D00-0
 62
     7
370
    50
100
AcDbLine
 10
142.585567
 20
190.133358
 30
0.0
 11
142.484761
 21
190.301449
 31
0.0
  0
LINE
  5
3F4
330
3EF
100
AcDbEntity
  8
LC-001-100-D00-0
 62
     7
370
    50
100
AcDbLine
 10
142.484761
 20
190.301449
 30
0.0
 11
142.484761
 21
190.301449
 31
0.0
  0
LINE
  5
3F5
330
3EF
100
AcDbEntity
  8
LC-001-100-D00-0
 62
     7
370
    50
100
AcDbLine
 10
142.484761
 20
190.301449
 30
0.0
 11
142.384582
 21
190.468158
 31
0.0
  0
LINE
  5
3F6
330
3EF
100
AcDbEntity
  8
LC-001-100-D00-0
 62
     7
370
    50
100
AcDbLine
 10
142.384582
 20
190.468158
 30
0.0
 11
142.384582
 21
190.468158
 31
0.0
  0
LINE
  5
3F7
330
3EF
100
AcDbEntity
  8
LC-001-100-D00-0
 62
     7
370
    50
100
AcDbLine
 10
142.384582
 20
190.468158
 30
0.0
 11
142.285116
 21
190.633358
 31
0.0
  0
ENDBLK
  5
3F1
330
3EF
100
AcDbEntity
  8
0
100
AcDbBlockEnd
  0
BLOCK
  5
3FA
330
3F9
100
AcDbEntity
  8
0
100
AcDbBlockBegin
  2
POLY18
 70
     0
 71
     0
 10
0.0
 20
0.0
 30
0.0
  3
POLY18
  1

  4
POLY18
  0
LINE
  5
3FC
330
3F9
100
AcDbEntity
  8
LC-001-100-D00-0
 62
     7
370
    50
100
AcDbLine
 10
288.358187
 20
190.133358
 30
0.0
 11
288.358187
 21
190.133358
 31
0.0
  0
LINE
  5
3FD
330
3F9
100
AcDbEntity
  8
LC-001-100-D00-0
 62
     7
370
    50
100
AcDbLine
 10
288.358187
 20
190.133358
 30
0.0
 11
288.258607
 21
190.298096
 31
0.0
  0
LINE
  5
3FE
330
3F9
100
AcDbEntity
  8
LC-001-100-D00-0
 62
     7
370
    50
100
AcDbLine
 10
288.258607
 20
190.298096
 30
0.0
 11
288.258607
 21
190.298096
 31
0.0
  0
LINE
  5
3FF
330
3F9
100
AcDbEntity
  8
LC-001-100-D00-0
 62
     7
370
    50
100
AcDbLine
 10
288.258607
 20
190.298096
 30
0.0
 11
288.158014
 21
190.46483
 31
0.0
  0
LINE
  5
400
330
3F9
100
AcDbEntity
  8
LC-001-100-D00-0
 62
     7
370
    50
100
AcDbLine
 10
288.158014
 20
190.46483
 30
0.0
 11
288.158014
 21
190.46483
 31
0.0
  0
LINE
  5
401
330
3F9
100
AcDbEntity
  8
LC-001-100-D00-0
 62
     7
370
    50
100
AcDbLine
 10
288.158014
 20
190.46483
 30
0.0
 11
288.056544
 21
190.633358
 31
0.0
  0
ENDBLK
  5
3FB
330
3F9
100
AcDbEntity
  8
0
100
AcDbBlockEnd
  0
BLOCK
  5
404
330
403
100
AcDbEntity
  8
0
100
AcDbBlockBegin
  2
POLY19
 70
     0
 71
     0
 10
0.0
 20
0.0
 30
0.0
  3
POLY19
  1

  4
POLY19
  0
LINE
  5
406
330
403
100
AcDbEntity
  8
LC-001-100-D00-0
 62
     7
370
    50
100
AcDbLine
 10
288.056544
 20
190.633358
 30
0.0
 11
288.056544
 21
190.633358
 31
0.0
  0
LINE
  5
407
330
403
100
AcDbEntity
  8
LC-001-100-D00-0
 62
     7
370
    50
100
AcDbLine
 10
288.056544
 20
190.633358
 30
0.0
 11
287.957079
 21
190.468158
 31
0.0
  0
LINE
  5
408
330
403
100
AcDbEntity
  8
LC-001-100-D00-0
 62
     7
370
    50
100
AcDbLine
 10
287.957079
 20
190.468158
 30
0.0
 11
287.957079
 21
190.468158
 31
0.0
  0
LINE
  5
409
330
403
100
AcDbEntity
  8
LC-001-100-D00-0
 62
     7
370
    50
100
AcDbLine
 10
287.957079
 20
190.468158
 30
0.0
 11
287.856899
 21
190.301449
 31
0.0
  0
LINE
  5
40A
330
403
100
AcDbEntity
  8
LC-001-100-D00-0
 62
     7
370
    50
100
AcDbLine
 10
287.856899
 20
190.301449
 30
0.0
 11
287.856899
 21
190.301449
 31
0.0
  0
LINE
  5
40B
330
403
100
AcDbEntity
  8
LC-001-100-D00-0
 62
     7
370
    50
100
AcDbLine
 10
287.856899
 20
190.301449
 30
0.0
 11
287.756093
 21
190.133358
 31
0.0
  0
ENDBLK
  5
405
330
403
100
AcDbEntity
  8
0
100
AcDbBlockEnd
  0
BLOCK
  5
40E
330
40D
100
AcDbEntity
  8
0
100
AcDbBlockBegin
  2
POLY20
 70
     0
 71
     0
 10
0.0
 20
0.0
 30
0.0
  3
POLY20
  1

  4
POLY20
  0
LINE
  5
410
330
40D
100
AcDbEntity
  8
LC-001-100-D00-0
 62
     7
370
    50
100
AcDbLine
 10
284.284548
 20
190.133358
 30
0.0
 11
284.284548
 21
190.133358
 31
0.0
  0
LINE
  5
411
330
40D
100
AcDbEntity
  8
LC-001-100-D00-0
 62
     7
370
    50
100
AcDbLine
 10
284.284548
 20
190.133358
 30
0.0
 11
284.189215
 21
190.300177
 31
0.0
  0
LINE
  5
412
330
40D
100
AcDbEntity
  8
LC-001-100-D00-0
 62
     7
370
    50
100
AcDbLine
 10
284.189215
 20
190.300177
 30
0.0
 11
284.189215
 21
190.300177
 31
0.0
  0
LINE
  5
413
330
40D
100
AcDbEntity
  8
LC-001-100-D00-0
 62
     7
370
    50
100
AcDbLine
 10
284.189215
 20
190.300177
 30
0.0
 11
284.094146
 21
190.466882
 31
0.0
  0
LINE
  5
414
330
40D
100
AcDbEntity
  8
LC-001-100-D00-0
 62
     7
370
    50
100
AcDbLine
 10
284.094146
 20
190.466882
 30
0.0
 11
284.094146
 21
190.466882
 31
0.0
  0
LINE
  5
415
330
40D
100
AcDbEntity
  8
LC-001-100-D00-0
 62
     7
370
    50
100
AcDbLine
 10
284.094146
 20
190.466882
 30
0.0
 11
283.999405
 21
190.633358
 31
0.0
  0
ENDBLK
  5
40F
330
40D
100
AcDbEntity
  8
0
100
AcDbBlockEnd
  0
BLOCK
  5
418
330
417
100
AcDbEntity
  8
0
100
AcDbBlockBegin
  2
POLY21
 70
     0
 71
     0
 10
0.0
 20
0.0
 30
0.0
  3
POLY21
  1

  4
POLY21
  0
LINE
  5
41A
330
417
100
AcDbEntity
  8
LC-001-100-D00-0
 62
     7
370
    50
100
AcDbLine
 10
283.999405
 20
190.633358
 30
0.0
 11
283.999405
 21
190.633358
 31
0.0
  0
LINE
  5
41B
330
417
100
AcDbEntity
  8
LC-001-100-D00-0
 62
     7
370
    50
100
AcDbLine
 10
283.999405
 20
190.633358
 30
0.0
 11
283.904421
 21
190.466458
 31
0.0
  0
LINE
  5
41C
330
417
100
AcDbEntity
  8
LC-001-100-D00-0
 62
     7
370
    50
100
AcDbLine
 10
283.904421
 20
190.466458
 30
0.0
 11
283.904421
 21
190.466458
 31
0.0
  0
LINE
  5
41D
330
417
100
AcDbEntity
  8
LC-001-100-D00-0
 62
     7
370
    50
100
AcDbLine
 10
283.904421
 20
190.466458
 30
0.0
 11
283.809745
 21
190.29975
 31
0.0
  0
LINE
  5
41E
330
417
100
AcDbEntity
  8
LC-001-100-D00-0
 62
     7
370
    50
100
AcDbLine
 10
283.809745
 20
190.29975
 30
0.0
 11
283.809745
 21
190.29975
 31
0.0
  0
LINE
  5
41F
330
417
100
AcDbEntity
  8
LC-001-100-D00-0
 62
     7
370
    50
100
AcDbLine
 10
283.809745
 20
190.29975
 30
0.0
 11
283.715446
 21
190.133358
 31
0.0
  0
ENDBLK
  5
419
330
417
100
AcDbEntity
  8
0
100
AcDbBlockEnd
  0
BLOCK
  5
422
330
421
100
AcDbEntity
  8
0
100
AcDbBlockBegin
  2
POLY22
 70
     0
 71
     0
 10
0.0
 20
0.0
 30
0.0
  3
POLY22
  1

  4
POLY22
  0
LINE
  5
424
330
421
100
AcDbEntity
  8
LC-001-100-D00-0
 62
     7
370
    50
100
AcDbLine
 10
285.999402
 20
190.633358
 30
0.0
 11
285.999402
 21
190.633358
 31
0.0
  0
LINE
  5
425
330
421
100
AcDbEntity
  8
LC-001-100-D00-0
 62
     7
370
    50
100
AcDbLine
 10
285.999402
 20
190.633358
 30
0.0
 11
285.901968
 21
190.466974
 31
0.0
  0
LINE
  5
426
330
421
100
AcDbEntity
  8
LC-001-100-D00-0
 62
     7
370
    50
100
AcDbLine
 10
285.901968
 20
190.466974
 30
0.0
 11
285.901968
 21
190.466974
 31
0.0
  0
LINE
  5
427
330
421
100
AcDbEntity
  8
LC-001-100-D00-0
 62
     7
370
    50
100
AcDbLine
 10
285.901968
 20
190.466974
 30
0.0
 11
285.804542
 21
190.300268
 31
0.0
  0
LINE
  5
428
330
421
100
AcDbEntity
  8
LC-001-100-D00-0
 62
     7
370
    50
100
AcDbLine
 10
285.804542
 20
190.300268
 30
0.0
 11
285.804542
 21
190.300268
 31
0.0
  0
LINE
  5
429
330
421
100
AcDbEntity
  8
LC-001-100-D00-0
 62
     7
370
    50
100
AcDbLine
 10
285.804542
 20
190.300268
 30
0.0
 11
285.707198
 21
190.133358
 31
0.0
  0
ENDBLK
  5
423
330
421
100
AcDbEntity
  8
0
100
AcDbBlockEnd
  0
BLOCK
  5
42C
330
42B
100
AcDbEntity
  8
0
100
AcDbBlockBegin
  2
POLY23
 70
     0
 71
     0
 10
0.0
 20
0.0
 30
0.0
  3
POLY23
  1

  4
POLY23
  0
LINE
  5
42E
330
42B
100
AcDbEntity
  8
LC-001-100-D00-0
 62
     7
370
    50
100
AcDbLine
 10
286.292796
 20
190.133358
 30
0.0
 11
286.292796
 21
190.133358
 31
0.0
  0
LINE
  5
42F
330
42B
100
AcDbEntity
  8
LC-001-100-D00-0
 62
     7
370
    50
100
AcDbLine
 10
286.292796
 20
190.133358
 30
0.0
 11
286.195019
 21
190.299652
 31
0.0
  0
LINE
  5
430
330
42B
100
AcDbEntity
  8
LC-001-100-D00-0
 62
     7
370
    50
100
AcDbLine
 10
286.195019
 20
190.299652
 30
0.0
 11
286.195019
 21
190.299652
 31
0.0
  0
LINE
  5
431
330
42B
100
AcDbEntity
  8
LC-001-100-D00-0
 62
     7
370
    50
100
AcDbLine
 10
286.195019
 20
190.299652
 30
0.0
 11
286.097194
 21
190.466363
 31
0.0
  0
LINE
  5
432
330
42B
100
AcDbEntity
  8
LC-001-100-D00-0
 62
     7
370
    50
100
AcDbLine
 10
286.097194
 20
190.466363
 30
0.0
 11
286.097194
 21
190.466363
 31
0.0
  0
LINE
  5
433
330
42B
100
AcDbEntity
  8
LC-001-100-D00-0
 62
     7
370
    50
100
AcDbLine
 10
286.097194
 20
190.466363
 30
0.0
 11
285.999402
 21
190.633358
 31
0.0
  0
ENDBLK
  5
42D
330
42B
100
AcDbEntity
  8
0
100
AcDbBlockEnd
  0
BLOCK
  5
436
330
435
100
AcDbEntity
  8
0
100
AcDbBlockBegin
  2
KLON21
 70
     0
 71
     0
 10
0.0
 20
0.0
 30
0.0
  3
KLON21
  1

  4
KLON21
  0
LINE
  5
438
330
435
100
AcDbEntity
  8
LC-001-100-D00-0
 62
     7
370
    25
100
AcDbLine
 10
191.036135
 20
46.138994
 30
0.0
 11
193.17083
 21
48.273689
 31
0.0
  0
LINE
  5
439
330
435
100
AcDbEntity
  8
LC-001-100-D00-0
 62
     7
370
    25
100
AcDbLine
 10
190.17083
 20
54.253945
 30
0.0
 11
193.17083
 21
57.253945
 31
0.0
  0
LINE
  5
43A
330
435
100
AcDbEntity
  8
LC-001-100-D00-0
 62
     7
370
    25
100
AcDbLine
 10
190.17083
 20
63.234202
 30
0.0
 11
193.17083
 21
66.234202
 31
0.0
  0
LINE
  5
43B
330
435
100
AcDbEntity
  8
LC-001-100-D00-0
 62
     7
370
    25
100
AcDbLine
 10
190.17083
 20
72.214458
 30
0.0
 11
193.17083
 21
75.214458
 31
0.0
  0
LINE
  5
43C
330
435
100
AcDbEntity
  8
LC-001-100-D00-0
 62
     7
370
    25
100
AcDbLine
 10
190.17083
 20
81.194714
 30
0.0
 11
193.17083
 21
84.194714
 31
0.0
  0
LINE
  5
43D
330
435
100
AcDbEntity
  8
LC-001-100-D00-0
 62
     7
370
    25
100
AcDbLine
 10
190.17083
 20
90.17497
 30
0.0
 11
193.17083
 21
93.17497
 31
0.0
  0
LINE
  5
43E
330
435
100
AcDbEntity
  8
LC-001-100-D00-0
 62
     7
370
    25
100
AcDbLine
 10
190.17083
 20
99.155226
 30
0.0
 11
193.17083
 21
102.155226
 31
0.0
  0
LINE
  5
43F
330
435
100
AcDbEntity
  8
LC-001-100-D00-0
 62
     7
370
    25
100
AcDbLine
 10
185.903702
 20
103.868354
 30
0.0
 11
188.403702
 21
106.368354
 31
0.0
  0
LINE
  5
440
330
435
100
AcDbEntity
  8
LC-001-100-D00-0
 62
     7
370
    25
100
AcDbLine
 10
176.923446
 20
103.868354
 30
0.0
 11
179.423446
 21
106.368354
 31
0.0
  0
LINE
  5
441
330
435
100
AcDbEntity
  8
LC-001-100-D00-0
 62
     7
370
    25
100
AcDbLine
 10
167.943189
 20
103.868354
 30
0.0
 11
170.443189
 21
106.368354
 31
0.0
  0
LINE
  5
442
330
435
100
AcDbEntity
  8
LC-001-100-D00-0
 62
     7
370
    25
100
AcDbLine
 10
163.021275
 20
107.926695
 30
0.0
 11
165.387321
 21
110.292742
 31
0.0
  0
LINE
  5
443
330
435
100
AcDbEntity
  8
LC-001-100-D00-0
 62
     7
370
    25
100
AcDbLine
 10
161.123512
 20
115.009189
 30
0.0
 11
163.489538
 21
117.375214
 31
0.0
  0
LINE
  5
444
330
435
100
AcDbEntity
  8
LC-001-100-D00-0
 62
     7
370
    25
100
AcDbLine
 10
160.17083
 20
123.036763
 30
0.0
 11
163.17083
 21
126.036763
 31
0.0
  0
LINE
  5
445
330
435
100
AcDbEntity
  8
LC-001-100-D00-0
 62
     7
370
    25
100
AcDbLine
 10
160.17083
 20
132.017019
 30
0.0
 11
163.17083
 21
135.017019
 31
0.0
  0
LINE
  5
446
330
435
100
AcDbEntity
  8
LC-001-100-D00-0
 62
     7
370
    25
100
AcDbLine
 10
160.17083
 20
140.997275
 30
0.0
 11
163.17083
 21
143.997275
 31
0.0
  0
LINE
  5
447
330
435
100
AcDbEntity
  8
LC-001-100-D00-0
 62
     7
370
    25
100
AcDbLine
 10
160.17083
 20
149.977531
 30
0.0
 11
163.17083
 21
152.977531
 31
0.0
  0
LINE
  5
448
330
435
100
AcDbEntity
  8
LC-001-100-D00-0
 62
     7
370
    25
100
AcDbLine
 10
160.17083
 20
158.957787
 30
0.0
 11
163.17083
 21
161.957787
 31
0.0
  0
LINE
  5
449
330
435
100
AcDbEntity
  8
LC-001-100-D00-0
 62
     7
370
    25
100
AcDbLine
 10
153.566292
 20
161.333505
 30
0.0
 11
156.10114
 21
163.868354
 31
0.0
  0
LINE
  5
44A
330
435
100
AcDbEntity
  8
LC-001-100-D00-0
 62
     7
370
    25
100
AcDbLine
 10
152.17083
 20
168.918299
 30
0.0
 11
155.17083
 21
171.918299
 31
0.0
  0
LINE
  5
44B
330
435
100
AcDbEntity
  8
LC-001-100-D00-0
 62
     7
370
    25
100
AcDbLine
 10
149.066085
 20
174.793811
 30
0.0
 11
155.17083
 21
180.898556
 31
0.0
  0
LINE
  5
44C
330
435
100
AcDbEntity
  8
LC-001-100-D00-0
 62
     7
370
    25
100
AcDbLine
 10
140.085829
 20
174.793811
 30
0.0
 11
142.798103
 21
177.506085
 31
0.0
  0
LINE
  5
44D
330
435
100
AcDbEntity
  8
LC-001-100-D00-0
 62
     7
370
    25
100
AcDbLine
 10
147.67083
 20
182.378812
 30
0.0
 11
155.17083
 21
189.878812
 31
0.0
  0
LINE
  5
44E
330
435
100
AcDbEntity
  8
LC-001-100-D00-0
 62
     7
370
    25
100
AcDbLine
 10
139.17083
 20
182.859068
 30
0.0
 11
142.67083
 21
186.359068
 31
0.0
  0
LINE
  5
44F
330
435
100
AcDbEntity
  8
LC-001-100-D00-0
 62
     7
370
    25
100
AcDbLine
 10
131.894674
 20
184.563167
 30
0.0
 11
133.964864
 21
186.633358
 31
0.0
  0
LINE
  5
450
330
435
100
AcDbEntity
  8
LC-001-100-D00-0
 62
     7
370
    25
100
AcDbLine
 10
126.076461
 20
187.725211
 30
0.0
 11
128.879429
 21
190.528179
 31
0.0
  0
LINE
  5
451
330
435
100
AcDbEntity
  8
LC-001-100-D00-0
 62
     7
370
    25
100
AcDbLine
 10
119.19889
 20
189.827896
 30
0.0
 11
122.001858
 21
192.630864
 31
0.0
  0
LINE
  5
452
330
435
100
AcDbEntity
  8
LC-001-100-D00-0
 62
     7
370
    25
100
AcDbLine
 10
112.321318
 20
191.93058
 30
0.0
 11
115.124286
 21
194.733548
 31
0.0
  0
LINE
  5
453
330
435
100
AcDbEntity
  8
LC-001-100-D00-0
 62
     7
370
    25
100
AcDbLine
 10
104.339951
 20
192.92947
 30
0.0
 11
107.78107
 21
196.370588
 31
0.0
  0
ENDBLK
  5
437
330
435
100
AcDbEntity
  8
0
100
AcDbBlockEnd
  0
BLOCK
  5
456
330
455
100
AcDbEntity
  8
0
100
AcDbBlockBegin
  2
KLON22
 70
     0
 71
     0
 10
0.0
 20
0.0
 30
0.0
  3
KLON22
  1

  4
KLON22
  0
LINE
  5
458
330
455
100
AcDbEntity
  8
LC-001-100-D00-0
 62
     7
370
    25
100
AcDbLine
 10
237.17083
 20
47.372409
 30
0.0
 11
240.17083
 21
50.372409
 31
0.0
  0
LINE
  5
459
330
455
100
AcDbEntity
  8
LC-001-100-D00-0
 62
     7
370
    25
100
AcDbLine
 10
237.17083
 20
56.352665
 30
0.0
 11
240.17083
 21
59.352665
 31
0.0
  0
LINE
  5
45A
330
455
100
AcDbEntity
  8
LC-001-100-D00-0
 62
     7
370
    25
100
AcDbLine
 10
237.17083
 20
65.332921
 30
0.0
 11
240.17083
 21
68.332921
 31
0.0
  0
LINE
  5
45B
330
455
100
AcDbEntity
  8
LC-001-100-D00-0
 62
     7
370
    25
100
AcDbLine
 10
237.17083
 20
74.313177
 30
0.0
 11
240.17083
 21
77.313177
 31
0.0
  0
LINE
  5
45C
330
455
100
AcDbEntity
  8
LC-001-100-D00-0
 62
     7
370
    25
100
AcDbLine
 10
237.17083
 20
83.293433
 30
0.0
 11
240.17083
 21
86.293433
 31
0.0
  0
LINE
  5
45D
330
455
100
AcDbEntity
  8
LC-001-100-D00-0
 62
     7
370
    25
100
AcDbLine
 10
257.745751
 20
103.868354
 30
0.0
 11
260.245751
 21
106.368354
 31
0.0
  0
LINE
  5
45E
330
455
100
AcDbEntity
  8
LC-001-100-D00-0
 62
     7
370
    25
100
AcDbLine
 10
265.241385
 20
111.363988
 30
0.0
 11
269.339509
 21
115.462112
 31
0.0
  0
LINE
  5
45F
330
455
100
AcDbEntity
  8
LC-001-100-D00-0
 62
     7
370
    25
100
AcDbLine
 10
237.17083
 20
92.273689
 30
0.0
 11
240.17083
 21
95.273689
 31
0.0
  0
LINE
  5
460
330
455
100
AcDbEntity
  8
LC-001-100-D00-0
 62
     7
370
    25
100
AcDbLine
 10
248.765494
 20
103.868354
 30
0.0
 11
251.265494
 21
106.368354
 31
0.0
  0
LINE
  5
461
330
455
100
AcDbEntity
  8
LC-001-100-D00-0
 62
     7
370
    25
100
AcDbLine
 10
267.17083
 20
122.273689
 30
0.0
 11
270.17083
 21
125.273689
 31
0.0
  0
LINE
  5
462
330
455
100
AcDbEntity
  8
LC-001-100-D00-0
 62
     7
370
    25
100
AcDbLine
 10
237.17083
 20
101.253945
 30
0.0
 11
242.285238
 21
106.368354
 31
0.0
  0
LINE
  5
463
330
455
100
AcDbEntity
  8
LC-001-100-D00-0
 62
     7
370
    25
100
AcDbLine
 10
267.17083
 20
131.253945
 30
0.0
 11
270.17083
 21
134.253945
 31
0.0
  0
LINE
  5
464
330
455
100
AcDbEntity
  8
LC-001-100-D00-0
 62
     7
370
    25
100
AcDbLine
 10
328.947867
 20
193.030982
 30
0.0
 11
329.67083
 21
193.753945
 31
0.0
  0
LINE
  5
465
330
455
100
AcDbEntity
  8
LC-001-100-D00-0
 62
     7
370
    25
100
AcDbLine
 10
267.17083
 20
140.234202
 30
0.0
 11
270.17083
 21
143.234202
 31
0.0
  0
LINE
  5
466
330
455
100
AcDbEntity
  8
LC-001-100-D00-0
 62
     7
370
    25
100
AcDbLine
 10
319.240138
 20
192.30351
 30
0.0
 11
323.332812
 21
196.396183
 31
0.0
  0
LINE
  5
467
330
455
100
AcDbEntity
  8
LC-001-100-D00-0
 62
     7
370
    25
100
AcDbLine
 10
267.17083
 20
149.214458
 30
0.0
 11
270.17083
 21
152.214458
 31
0.0
  0
LINE
  5
468
330
455
100
AcDbEntity
  8
LC-001-100-D00-0
 62
     7
370
    25
100
AcDbLine
 10
306.305308
 20
188.348935
 30
0.0
 11
311.576923
 21
193.620551
 31
0.0
  0
LINE
  5
469
330
455
100
AcDbEntity
  8
LC-001-100-D00-0
 62
     7
370
    25
100
AcDbLine
 10
267.17083
 20
158.194714
 30
0.0
 11
272.84447
 21
163.868354
 31
0.0
  0
LINE
  5
46A
330
455
100
AcDbEntity
  8
LC-001-100-D00-0
 62
     7
370
    25
100
AcDbLine
 10
275.17083
 20
166.194714
 30
0.0
 11
278.17083
 21
169.194714
 31
0.0
  0
LINE
  5
46B
330
455
100
AcDbEntity
  8
LC-001-100-D00-0
 62
     7
370
    25
100
AcDbLine
 10
283.234592
 20
174.258475
 30
0.0
 11
286.109475
 21
177.133358
 31
0.0
  0
LINE
  5
46C
330
455
100
AcDbEntity
  8
LC-001-100-D00-0
 62
     7
370
    25
100
AcDbLine
 10
287.67083
 20
178.694714
 30
0.0
 11
291.17083
 21
182.194714
 31
0.0
  0
LINE
  5
46D
330
455
100
AcDbEntity
  8
LC-001-100-D00-0
 62
     7
370
    25
100
AcDbLine
 10
293.269927
 20
184.293811
 30
0.0
 11
295.609475
 21
186.633358
 31
0.0
  0
LINE
  5
46E
330
455
100
AcDbEntity
  8
LC-001-100-D00-0
 62
     7
370
    25
100
AcDbLine
 10
298.17083
 20
189.194714
 30
0.0
 11
299.109475
 21
190.133358
 31
0.0
  0
LINE
  5
46F
330
455
100
AcDbEntity
  8
LC-001-100-D00-0
 62
     7
370
    25
100
AcDbLine
 10
275.17083
 20
175.17497
 30
0.0
 11
282.67083
 21
182.67497
 31
0.0
  0
LINE
  5
470
330
455
100
AcDbEntity
  8
LC-001-100-D00-0
 62
     7
370
    25
100
AcDbLine
 10
287.67083
 20
187.67497
 30
0.0
 11
290.129219
 21
190.133358
 31
0.0
  0
LINE
  5
471
330
455
100
AcDbEntity
  8
LC-001-100-D00-0
 62
     7
370
    25
100
AcDbLine
 10
290.17083
 20
190.17497
 30
0.0
 11
290.338612
 21
190.342752
 31
0.0
  0
LINE
  5
472
330
455
100
AcDbEntity
  8
LC-001-100-D00-0
 62
     7
370
    25
100
AcDbLine
 10
275.17083
 20
184.155226
 30
0.0
 11
281.148962
 21
190.133358
 31
0.0
  0
ENDBLK
  5
457
330
455
100
AcDbEntity
  8
0
100
AcDbBlockEnd
  0
BLOCK
  5
475
330
474
100
AcDbEntity
  8
0
100
AcDbBlockBegin
  2
KLON23
 70
     0
 71
     0
 10
0.0
 20
0.0
 30
0.0
  3
KLON23
  1

  4
KLON23
  0
LINE
  5
477
330
474
100
AcDbEntity
  8
LC-001-100-D00-0
 62
     7
370
    50
100
AcDbLine
 10
148.67083
 20
192.359068
 30
0.0
 11
149.445121
 21
193.133358
 31
0.0
  0
LINE
  5
478
330
474
100
AcDbEntity
  8
LC-001-100-D00-0
 62
     7
370
    50
100
AcDbLine
 10
151.42083
 20
195.109068
 30
0.0
 11
151.67083
 21
195.359068
 31
0.0
  0
ENDBLK
  5
476
330
474
100
AcDbEntity
  8
0
100
AcDbBlockEnd
  0
BLOCK
  5
47B
330
47A
100
AcDbEntity
  8
0
100
AcDbBlockBegin
  2
KLON24
 70
     0
 71
     0
 10
0.0
 20
0.0
 30
0.0
  3
KLON24
  1

  4
KLON24
  0
LINE
  5
47D
330
47A
100
AcDbEntity
  8
LC-001-100-D00-0
 62
     7
370
    25
100
AcDbLine
 10
137.964864
 20
190.633358
 30
0.0
 11
140.464864
 21
193.133358
 31
0.0
  0
LINE
  5
47E
330
47A
100
AcDbEntity
  8
LC-001-100-D00-0
 62
     7
370
    25
100
AcDbLine
 10
129.762982
 20
191.411732
 30
0.0
 11
134.484608
 21
196.133358
 31
0.0
  0
LINE
  5
47F
330
47A
100
AcDbEntity
  8
LC-001-100-D00-0
 62
     7
370
    25
100
AcDbLine
 10
122.070076
 20
192.699082
 30
0.0
 11
125.504352
 21
196.133358
 31
0.0
  0
LINE
  5
480
330
47A
100
AcDbEntity
  8
LC-001-100-D00-0
 62
     7
370
    25
100
AcDbLine
 10
114.963893
 20
194.573155
 30
0.0
 11
116.524096
 21
196.133358
 31
0.0
  0
ENDBLK
  5
47C
330
47A
100
AcDbEntity
  8
0
100
AcDbBlockEnd
  0
BLOCK
  5
483
330
482
100
AcDbEntity
  8
0
100
AcDbBlockBegin
  2
KLON25
 70
     0
 71
     0
 10
0.0
 20
0.0
 30
0.0
  3
KLON25
  1

  4
KLON25
  0
LINE
  5
485
330
482
100
AcDbEntity
  8
LC-001-100-D00-0
 62
     7
370
    25
100
AcDbLine
 10
311.275268
 20
193.318895
 30
0.0
 11
314.089731
 21
196.133358
 31
0.0
  0
LINE
  5
486
330
482
100
AcDbEntity
  8
LC-001-100-D00-0
 62
     7
370
    25
100
AcDbLine
 10
300.349496
 20
191.37338
 30
0.0
 11
305.109475
 21
196.133358
 31
0.0
  0
LINE
  5
487
330
482
100
AcDbEntity
  8
LC-001-100-D00-0
 62
     7
370
    25
100
AcDbLine
 10
290.629219
 20
190.633358
 30
0.0
 11
296.129219
 21
196.133358
 31
0.0
  0
LINE
  5
488
330
482
100
AcDbEntity
  8
LC-001-100-D00-0
 62
     7
370
    25
100
AcDbLine
 10
281.648962
 20
190.633358
 30
0.0
 11
287.148962
 21
196.133358
 31
0.0
  0
ENDBLK
  5
484
330
482
100
AcDbEntity
  8
0
100
AcDbBlockEnd
  0
BLOCK
  5
48B
330
48A
100
AcDbEntity
  8
0
100
AcDbBlockBegin
  2
KLON26
 70
     0
 71
     0
 10
0.0
 20
0.0
 30
0.0
  3
KLON26
  1

  4
KLON26
  0
LINE
  5
48D
330
48A
100
AcDbEntity
  8
LC-001-100-D00-0
 62
     7
370
    50
100
AcDbLine
 10
270.317831
 20
188.282483
 30
0.0
 11
274.168706
 21
192.133358
 31
0.0
  0
LINE
  5
48E
330
48A
100
AcDbEntity
  8
LC-001-100-D00-0
 62
     7
370
    50
100
AcDbLine
 10
274.172954
 20
192.137606
 30
0.0
 11
275.168706
 21
193.133358
 31
0.0
  0
LINE
  5
48F
330
48A
100
AcDbEntity
  8
LC-001-100-D00-0
 62
     7
370
    50
100
AcDbLine
 10
271.17083
 20
198.115738
 30
0.0
 11
275.91074
 21
202.855648
 31
0.0
  0
ENDBLK
  5
48C
330
48A
100
AcDbEntity
  8
0
100
AcDbBlockEnd
  0
BLOCK
  5
492
330
491
100
AcDbEntity
  8
0
100
AcDbBlockBegin
  2
KLON27
 70
     0
 71
     0
 10
0.0
 20
0.0
 30
0.0
  3
KLON27
  1

  4
KLON27
  0
LINE
  5
494
330
491
100
AcDbEntity
  8
LC-001-100-D00-0
 62
     7
370
    25
100
AcDbLine
 10
158.905633
 20
184.633358
 30
0.0
 11
159.17083
 21
184.898556
 31
0.0
  0
LINE
  5
495
330
491
100
AcDbEntity
  8
LC-001-100-D00-0
 62
     7
370
    25
100
AcDbLine
 10
155.17083
 20
189.878812
 30
0.0
 11
159.17083
 21
193.878812
 31
0.0
  0
LINE
  5
496
330
491
100
AcDbEntity
  8
LC-001-100-D00-0
 62
     7
370
    25
100
AcDbLine
 10
154.17083
 20
197.859068
 30
0.0
 11
160.20905
 21
203.897288
 31
0.0
  0
ENDBLK
  5
493
330
491
100
AcDbEntity
  8
0
100
AcDbBlockEnd
  0
BLOCK
  5
499
330
498
100
AcDbEntity
  8
0
100
AcDbBlockBegin
  2
KLON28
 70
     0
 71
     0
 10
0.0
 20
0.0
 30
0.0
  3
KLON28
  1

  4
KLON28
  0
LINE
  5
49B
330
498
100
AcDbEntity
  8
LC-001-100-D00-0
 62
     7
370
    25
100
AcDbLine
 10
143.17083
 20
177.878812
 30
0.0
 11
147.664157
 21
182.372139
 31
0.0
  0
LINE
  5
49C
330
498
100
AcDbEntity
  8
LC-001-100-D00-0
 62
     7
370
    25
100
AcDbLine
 10
142.492441
 20
186.180678
 30
0.0
 11
147.677142
 21
191.36538
 31
0.0
  0
LINE
  5
49D
330
498
100
AcDbEntity
  8
LC-001-100-D00-0
 62
     7
370
    25
100
AcDbLine
 10
149.445121
 20
193.133358
 30
0.0
 11
150.42083
 21
194.109068
 31
0.0
  0
LINE
  5
49E
330
498
100
AcDbEntity
  8
LC-001-100-D00-0
 62
     7
370
    25
100
AcDbLine
 10
140.464864
 20
193.133358
 30
0.0
 11
142.964864
 21
195.633358
 31
0.0
  0
ENDBLK
  5
49A
330
498
100
AcDbEntity
  8
0
100
AcDbBlockEnd
  0
BLOCK
  5
4A1
330
4A0
100
AcDbEntity
  8
0
100
AcDbBlockBegin
  2
KLON29
 70
     0
 71
     0
 10
0.0
 20
0.0
 30
0.0
  3
KLON29
  1

  4
KLON29
  0
LINE
  5
4A3
330
4A0
100
AcDbEntity
  8
LC-001-100-D00-0
 62
     7
370
    25
100
AcDbLine
 10
168.854053
 20
266.423827
 30
0.0
 11
169.87083
 21
267.440605
 31
0.0
  0
LINE
  5
4A4
330
4A0
100
AcDbEntity
  8
LC-001-100-D00-0
 62
     7
370
    25
100
AcDbLine
 10
161.986951
 20
268.536982
 30
0.0
 11
164.167806
 21
270.717836
 31
0.0
  0
LINE
  5
4A5
330
4A0
100
AcDbEntity
  8
LC-001-100-D00-0
 62
     7
370
    25
100
AcDbLine
 10
158.163891
 20
273.694177
 30
0.0
 11
159.938653
 21
275.46894
 31
0.0
  0
LINE
  5
4A6
330
4A0
100
AcDbEntity
  8
LC-001-100-D00-0
 62
     7
370
    25
100
AcDbLine
 10
154.876889
 20
279.387431
 30
0.0
 11
157.42083
 21
281.931373
 31
0.0
  0
ENDBLK
  5
4A2
330
4A0
100
AcDbEntity
  8
0
100
AcDbBlockEnd
  0
BLOCK
  5
4A9
330
4A8
100
AcDbEntity
  8
0
100
AcDbBlockBegin
  2
KLON30
 70
     0
 71
     0
 10
0.0
 20
0.0
 30
0.0
  3
KLON30
  1

  4
KLON30
  0
LINE
  5
4AB
330
4A8
100
AcDbEntity
  8
LC-001-100-D00-0
 62
     7
370
    50
100
AcDbLine
 10
260.47083
 20
268.238043
 30
0.0
 11
263.67083
 21
271.438043
 31
0.0
  0
LINE
  5
4AC
330
4A8
100
AcDbEntity
  8
LC-001-100-D00-0
 62
     7
370
    50
100
AcDbLine
 10
270.67083
 20
278.438043
 30
0.0
 11
271.156614
 21
278.923827
 31
0.0
  0
LINE
  5
4AD
330
4A8
100
AcDbEntity
  8
LC-001-100-D00-0
 62
     7
370
    50
100
AcDbLine
 10
272.92083
 20
280.688043
 30
0.0
 11
276.656614
 21
284.423827
 31
0.0
  0
ENDBLK
  5
4AA
330
4A8
100
AcDbEntity
  8
0
100
AcDbBlockEnd
  0
BLOCK
  5
4B0
330
4AF
100
AcDbEntity
  8
0
100
AcDbBlockBegin
  2
KLON31
 70
     0
 71
     0
 10
0.0
 20
0.0
 30
0.0
  3
KLON31
  1

  4
KLON31
  0
LINE
  5
4B2
330
4AF
100
AcDbEntity
  8
LC-001-100-D00-0
 62
     7
370
    25
100
AcDbLine
 10
256.27083
 20
228.117019
 30
0.0
 11
259.47083
 21
231.317019
 31
0.0
  0
LINE
  5
4B3
330
4AF
100
AcDbEntity
  8
LC-001-100-D00-0
 62
     7
370
    25
100
AcDbLine
 10
256.27083
 20
237.097275
 30
0.0
 11
259.47083
 21
240.297275
 31
0.0
  0
LINE
  5
4B4
330
4AF
100
AcDbEntity
  8
LC-001-100-D00-0
 62
     7
370
    25
100
AcDbLine
 10
256.27083
 20
246.077531
 30
0.0
 11
259.47083
 21
249.277531
 31
0.0
  0
LINE
  5
4B5
330
4AF
100
AcDbEntity
  8
LC-001-100-D00-0
 62
     7
370
    25
100
AcDbLine
 10
256.27083
 20
255.057787
 30
0.0
 11
259.47083
 21
258.257787
 31
0.0
  0
LINE
  5
4B6
330
4AF
100
AcDbEntity
  8
LC-001-100-D00-0
 62
     7
370
    25
100
AcDbLine
 10
256.27083
 20
264.038043
 30
0.0
 11
259.47083
 21
267.238043
 31
0.0
  0
LINE
  5
4B7
330
4AF
100
AcDbEntity
  8
LC-001-100-D00-0
 62
     7
370
    25
100
AcDbLine
 10
257.77083
 20
274.518299
 30
0.0
 11
261.862255
 21
278.609724
 31
0.0
  0
ENDBLK
  5
4B1
330
4AF
100
AcDbEntity
  8
0
100
AcDbBlockEnd
  0
BLOCK
  5
4BA
330
4B9
100
AcDbEntity
  8
0
100
AcDbBlockBegin
  2
KLON32
 70
     0
 71
     0
 10
0.0
 20
0.0
 30
0.0
  3
KLON32
  1

  4
KLON32
  0
LINE
  5
4BC
330
4B9
100
AcDbEntity
  8
LC-001-100-D00-0
 62
     7
370
    25
100
AcDbLine
 10
171.348217
 20
224.016711
 30
0.0
 11
174.07083
 21
226.739324
 31
0.0
  0
LINE
  5
4BD
330
4B9
100
AcDbEntity
  8
LC-001-100-D00-0
 62
     7
370
    25
100
AcDbLine
 10
170.87083
 20
232.51958
 30
0.0
 11
174.07083
 21
235.71958
 31
0.0
  0
LINE
  5
4BE
330
4B9
100
AcDbEntity
  8
LC-001-100-D00-0
 62
     7
370
    25
100
AcDbLine
 10
170.87083
 20
241.499836
 30
0.0
 11
174.07083
 21
244.699836
 31
0.0
  0
LINE
  5
4BF
330
4B9
100
AcDbEntity
  8
LC-001-100-D00-0
 62
     7
370
    25
100
AcDbLine
 10
170.87083
 20
250.480092
 30
0.0
 11
174.07083
 21
253.680092
 31
0.0
  0
LINE
  5
4C0
330
4B9
100
AcDbEntity
  8
LC-001-100-D00-0
 62
     7
370
    25
100
AcDbLine
 10
170.87083
 20
259.460348
 30
0.0
 11
174.07083
 21
262.660348
 31
0.0
  0
LINE
  5
4C1
330
4B9
100
AcDbEntity
  8
LC-001-100-D00-0
 62
     7
370
    25
100
AcDbLine
 10
170.87083
 20
268.440605
 30
0.0
 11
172.57083
 21
270.140605
 31
0.0
  0
LINE
  5
4C2
330
4B9
100
AcDbEntity
  8
LC-001-100-D00-0
 62
     7
370
    25
100
AcDbLine
 10
168.319381
 20
274.869411
 30
0.0
 11
171.523022
 21
278.073053
 31
0.0
  0
LINE
  5
4C3
330
4B9
100
AcDbEntity
  8
LC-001-100-D00-0
 62
     7
370
    25
100
AcDbLine
 10
162.626126
 20
278.156413
 30
0.0
 11
163.888872
 21
279.419159
 31
0.0
  0
ENDBLK
  5
4BB
330
4B9
100
AcDbEntity
  8
0
100
AcDbBlockEnd
  0
BLOCK
  5
4C6
330
4C5
100
AcDbEntity
  8
0
100
AcDbBlockBegin
  2
KLON33
 70
     0
 71
     0
 10
0.0
 20
0.0
 30
0.0
  3
KLON33
  1

  4
KLON33
  0
LINE
  5
4C8
330
4C5
100
AcDbEntity
  8
LC-001-100-D00-0
 62
     7
370
    25
100
AcDbLine
 10
235.608421
 20
189.494098
 30
0.0
 11
237.108421
 21
190.994098
 31
0.0
  0
LINE
  5
4C9
330
4C5
100
AcDbEntity
  8
LC-001-100-D00-0
 62
     7
370
    25
100
AcDbLine
 10
246.17083
 20
200.056507
 30
0.0
 11
247.67083
 21
201.556507
 31
0.0
  0
LINE
  5
4CA
330
4C5
100
AcDbEntity
  8
LC-001-100-D00-0
 62
     7
370
    25
100
AcDbLine
 10
226.628165
 20
189.494098
 30
0.0
 11
228.128165
 21
190.994098
 31
0.0
  0
LINE
  5
4CB
330
4C5
100
AcDbEntity
  8
LC-001-100-D00-0
 62
     7
370
    25
100
AcDbLine
 10
246.17083
 20
209.036763
 30
0.0
 11
247.67083
 21
210.536763
 31
0.0
  0
LINE
  5
4CC
330
4C5
100
AcDbEntity
  8
LC-001-100-D00-0
 62
     7
370
    25
100
AcDbLine
 10
217.647909
 20
189.494098
 30
0.0
 11
219.147909
 21
190.994098
 31
0.0
  0
LINE
  5
4CD
330
4C5
100
AcDbEntity
  8
LC-001-100-D00-0
 62
     7
370
    25
100
AcDbLine
 10
246.17083
 20
218.017019
 30
0.0
 11
247.67083
 21
219.517019
 31
0.0
  0
LINE
  5
4CE
330
4C5
100
AcDbEntity
  8
LC-001-100-D00-0
 62
     7
370
    25
100
AcDbLine
 10
208.667653
 20
189.494098
 30
0.0
 11
210.167653
 21
190.994098
 31
0.0
  0
LINE
  5
4CF
330
4C5
100
AcDbEntity
  8
LC-001-100-D00-0
 62
     7
370
    25
100
AcDbLine
 10
246.17083
 20
226.997275
 30
0.0
 11
247.67083
 21
228.497275
 31
0.0
  0
LINE
  5
4D0
330
4C5
100
AcDbEntity
  8
LC-001-100-D00-0
 62
     7
370
    25
100
AcDbLine
 10
199.687397
 20
189.494098
 30
0.0
 11
201.187397
 21
190.994098
 31
0.0
  0
LINE
  5
4D1
330
4C5
100
AcDbEntity
  8
LC-001-100-D00-0
 62
     7
370
    25
100
AcDbLine
 10
246.17083
 20
235.977531
 30
0.0
 11
247.67083
 21
237.477531
 31
0.0
  0
LINE
  5
4D2
330
4C5
100
AcDbEntity
  8
LC-001-100-D00-0
 62
     7
370
    25
100
AcDbLine
 10
190.87053
 20
189.657487
 30
0.0
 11
192.21915
 21
191.006107
 31
0.0
  0
LINE
  5
4D3
330
4C5
100
AcDbEntity
  8
LC-001-100-D00-0
 62
     7
370
    25
100
AcDbLine
 10
246.17083
 20
244.957787
 30
0.0
 11
247.67083
 21
246.457787
 31
0.0
  0
LINE
  5
4D4
330
4C5
100
AcDbEntity
  8
LC-001-100-D00-0
 62
     7
370
    25
100
AcDbLine
 10
185.143559
 20
192.910772
 30
0.0
 11
186.20701
 21
193.974223
 31
0.0
  0
LINE
  5
4D5
330
4C5
100
AcDbEntity
  8
LC-001-100-D00-0
 62
     7
370
    25
100
AcDbLine
 10
251.08587
 20
258.853083
 30
0.0
 11
255.643894
 21
263.411107
 31
0.0
  0
LINE
  5
4D6
330
4C5
100
AcDbEntity
  8
LC-001-100-D00-0
 62
     7
370
    25
100
AcDbLine
 10
182.671115
 20
199.418585
 30
0.0
 11
184.17083
 21
200.918299
 31
0.0
  0
LINE
  5
4D7
330
4C5
100
AcDbEntity
  8
LC-001-100-D00-0
 62
     7
370
    25
100
AcDbLine
 10
182.67083
 20
208.398556
 30
0.0
 11
184.17083
 21
209.898556
 31
0.0
  0
LINE
  5
4D8
330
4C5
100
AcDbEntity
  8
LC-001-100-D00-0
 62
     7
370
    25
100
AcDbLine
 10
182.67083
 20
217.378812
 30
0.0
 11
184.17083
 21
218.878812
 31
0.0
  0
LINE
  5
4D9
330
4C5
100
AcDbEntity
  8
LC-001-100-D00-0
 62
     7
370
    25
100
AcDbLine
 10
182.67083
 20
226.359068
 30
0.0
 11
184.17083
 21
227.859068
 31
0.0
  0
LINE
  5
4DA
330
4C5
100
AcDbEntity
  8
LC-001-100-D00-0
 62
     7
370
    25
100
AcDbLine
 10
182.67083
 20
235.339324
 30
0.0
 11
184.17083
 21
236.839324
 31
0.0
  0
LINE
  5
4DB
330
4C5
100
AcDbEntity
  8
LC-001-100-D00-0
 62
     7
370
    25
100
AcDbLine
 10
182.67083
 20
244.31958
 30
0.0
 11
184.17083
 21
245.81958
 31
0.0
  0
LINE
  5
4DC
330
4C5
100
AcDbEntity
  8
LC-001-100-D00-0
 62
     7
370
    25
100
AcDbLine
 10
181.66006
 20
252.289066
 30
0.0
 11
182.865092
 21
253.494098
 31
0.0
  0
LINE
  5
4DD
330
4C5
100
AcDbEntity
  8
LC-001-100-D00-0
 62
     7
370
    25
100
AcDbLine
 10
178.164751
 20
257.774013
 30
0.0
 11
179.251132
 21
258.860394
 31
0.0
  0
LINE
  5
4DE
330
4C5
100
AcDbEntity
  8
LC-001-100-D00-0
 62
     7
370
    25
100
AcDbLine
 10
174.720766
 20
263.310284
 30
0.0
 11
176.17083
 21
264.760348
 31
0.0
  0
LINE
  5
4DF
330
4C5
100
AcDbEntity
  8
LC-001-100-D00-0
 62
     7
370
    25
100
AcDbLine
 10
172.67083
 20
270.240605
 30
0.0
 11
172.924324
 21
270.494098
 31
0.0
  0
ENDBLK
  5
4C7
330
4C5
100
AcDbEntity
  8
0
100
AcDbBlockEnd
  0
BLOCK
  5
4E2
330
4E1
100
AcDbEntity
  8
0
100
AcDbBlockBegin
  2
KLON34
 70
     0
 71
     0
 10
0.0
 20
0.0
 30
0.0
  3
KLON34
  1

  4
KLON34
  0
LINE
  5
4E4
330
4E1
100
AcDbEntity
  8
LC-001-100-D00-0
 62
     7
370
    25
100
AcDbLine
 10
235.17083
 20
224.977531
 30
0.0
 11
236.17083
 21
225.977531
 31
0.0
  0
LINE
  5
4E5
330
4E1
100
AcDbEntity
  8
LC-001-100-D00-0
 62
     7
370
    25
100
AcDbLine
 10
235.17083
 20
215.997271
 30
0.0
 11
236.17083
 21
216.997271
 31
0.0
  0
LINE
  5
4E6
330
4E1
100
AcDbEntity
  8
LC-001-100-D00-0
 62
     7
370
    25
100
AcDbLine
 10
235.17083
 20
207.017011
 30
0.0
 11
236.17083
 21
208.017011
 31
0.0
  0
LINE
  5
4E7
330
4E1
100
AcDbEntity
  8
LC-001-100-D00-0
 62
     7
370
    25
100
AcDbLine
 10
235.17083
 20
251.918268
 30
0.0
 11
236.17148
 21
252.918917
 31
0.0
  0
LINE
  5
4E8
330
4E1
100
AcDbEntity
  8
LC-001-100-D00-0
 62
     7
370
    25
100
AcDbLine
 10
248.046011
 20
264.793449
 30
0.0
 11
249.246661
 21
265.994099
 31
0.0
  0
LINE
  5
4E9
330
4E1
100
AcDbEntity
  8
LC-001-100-D00-0
 62
     7
370
    25
100
AcDbLine
 10
251.42083
 20
268.168268
 30
0.0
 11
253.67083
 21
270.418268
 31
0.0
  0
LINE
  5
4EA
330
4E1
100
AcDbEntity
  8
LC-001-100-D00-0
 62
     7
370
    25
100
AcDbLine
 10
253.74666
 20
270.494098
 30
0.0
 11
255.67083
 21
272.418268
 31
0.0
  0
ENDBLK
  5
4E3
330
4E1
100
AcDbEntity
  8
0
100
AcDbBlockEnd
  0
BLOCK
  5
4ED
330
4EC
100
AcDbEntity
  8
0
100
AcDbBlockBegin
  2
KLON35
 70
     0
 71
     0
 10
0.0
 20
0.0
 30
0.0
  3
KLON35
  1

  4
KLON35
  0
LINE
  5
4EF
330
4EC
100
AcDbEntity
  8
LC-001-100-D00-0
 62
     7
370
    25
100
AcDbLine
 10
194.17083
 20
237.859068
 30
0.0
 11
195.17083
 21
238.859068
 31
0.0
  0
LINE
  5
4F0
330
4EC
100
AcDbEntity
  8
LC-001-100-D00-0
 62
     7
370
    25
100
AcDbLine
 10
173.37083
 20
270.940605
 30
0.0
 11
178.564203
 21
276.133977
 31
0.0
  0
LINE
  5
4F1
330
4EC
100
AcDbEntity
  8
LC-001-100-D00-0
 62
     7
370
    25
100
AcDbLine
 10
194.17083
 20
228.878808
 30
0.0
 11
195.17083
 21
229.878808
 31
0.0
  0
LINE
  5
4F2
330
4EC
100
AcDbEntity
  8
LC-001-100-D00-0
 62
     7
370
    25
100
AcDbLine
 10
176.67083
 20
265.260345
 30
0.0
 11
178.92083
 21
267.510345
 31
0.0
  0
LINE
  5
4F3
330
4EC
100
AcDbEntity
  8
LC-001-100-D00-0
 62
     7
370
    25
100
AcDbLine
 10
194.17083
 20
219.898548
 30
0.0
 11
195.17083
 21
220.898548
 31
0.0
  0
LINE
  5
4F4
330
4EC
100
AcDbEntity
  8
LC-001-100-D00-0
 62
     7
370
    25
100
AcDbLine
 10
184.875962
 20
264.485217
 30
0.0
 11
185.852589
 21
265.461843
 31
0.0
  0
LINE
  5
4F5
330
4EC
100
AcDbEntity
  8
LC-001-100-D00-0
 62
     7
370
    25
100
AcDbLine
 10
194.17083
 20
210.918268
 30
0.0
 11
195.17083
 21
211.918268
 31
0.0
  0
LINE
  5
4F6
330
4EC
100
AcDbEntity
  8
LC-001-100-D00-0
 62
     7
370
    25
100
AcDbLine
 10
190.653258
 20
261.282232
 30
0.0
 11
191.459852
 21
262.088826
 31
0.0
  0
ENDBLK
  5
4EE
330
4EC
100
AcDbEntity
  8
0
100
AcDbBlockEnd
  0
BLOCK
  5
4FA
330
4F9
100
AcDbEntity
  8
0
100
AcDbBlockBegin
  2
KLON36
 70
     0
 71
     0
 10
0.0
 20
0.0
 30
0.0
  3
KLON36
  1

  4
KLON36
  0
LINE
  5
4FC
330
4F9
100
AcDbEntity
  8
LC-001-100-D00-0
 62
     7
370
    25
100
AcDbLine
 10
270.953917
 20
282.201383
 30
0.0
 11
272.014582
 21
283.262047
 31
0.0
  0
LINE
  5
4FD
330
4F9
100
AcDbEntity
  8
LC-001-100-D00-0
 62
     7
370
    25
100
AcDbLine
 10
262.196102
 20
282.423823
 30
0.0
 11
263.696102
 21
283.923823
 31
0.0
  0
LINE
  5
4FE
330
4F9
100
AcDbEntity
  8
LC-001-100-D00-0
 62
     7
370
    25
100
AcDbLine
 10
253.215846
 20
282.423823
 30
0.0
 11
254.715846
 21
283.923823
 31
0.0
  0
LINE
  5
4FF
330
4F9
100
AcDbEntity
  8
LC-001-100-D00-0
 62
     7
370
    25
100
AcDbLine
 10
244.23559
 20
282.423823
 30
0.0
 11
245.73559
 21
283.923823
 31
0.0
  0
LINE
  5
500
330
4F9
100
AcDbEntity
  8
LC-001-100-D00-0
 62
     7
370
    25
100
AcDbLine
 10
235.255333
 20
282.423823
 30
0.0
 11
236.755333
 21
283.923823
 31
0.0
  0
LINE
  5
501
330
4F9
100
AcDbEntity
  8
LC-001-100-D00-0
 62
     7
370
    25
100
AcDbLine
 10
226.275077
 20
282.423823
 30
0.0
 11
227.775077
 21
283.923823
 31
0.0
  0
LINE
  5
502
330
4F9
100
AcDbEntity
  8
LC-001-100-D00-0
 62
     7
370
    25
100
AcDbLine
 10
217.294821
 20
282.423823
 30
0.0
 11
218.794821
 21
283.923823
 31
0.0
  0
LINE
  5
503
330
4F9
100
AcDbEntity
  8
LC-001-100-D00-0
 62
     7
370
    25
100
AcDbLine
 10
208.314565
 20
282.423823
 30
0.0
 11
209.714565
 21
283.823823
 31
0.0
  0
LINE
  5
504
330
4F9
100
AcDbEntity
  8
LC-001-100-D00-0
 62
     7
370
    25
100
AcDbLine
 10
209.747941
 20
283.8572
 30
0.0
 11
209.814565
 21
283.923823
 31
0.0
  0
LINE
  5
505
330
4F9
100
AcDbEntity
  8
LC-001-100-D00-0
 62
     7
370
    25
100
AcDbLine
 10
199.334309
 20
282.423823
 30
0.0
 11
200.834309
 21
283.923823
 31
0.0
  0
LINE
  5
506
330
4F9
100
AcDbEntity
  8
LC-001-100-D00-0
 62
     7
370
    25
100
AcDbLine
 10
190.354053
 20
282.423823
 30
0.0
 11
191.854053
 21
283.923823
 31
0.0
  0
LINE
  5
507
330
4F9
100
AcDbEntity
  8
LC-001-100-D00-0
 62
     7
370
    25
100
AcDbLine
 10
181.373797
 20
282.423823
 30
0.0
 11
182.873797
 21
283.923823
 31
0.0
  0
LINE
  5
508
330
4F9
100
AcDbEntity
  8
LC-001-100-D00-0
 62
     7
370
    25
100
AcDbLine
 10
172.393541
 20
282.423823
 30
0.0
 11
173.893541
 21
283.923823
 31
0.0
  0
LINE
  5
509
330
4F9
100
AcDbEntity
  8
LC-001-100-D00-0
 62
     7
370
    25
100
AcDbLine
 10
163.413284
 20
282.423823
 30
0.0
 11
164.913284
 21
283.923823
 31
0.0
  0
ENDBLK
  5
4FB
330
4F9
100
AcDbEntity
  8
0
100
AcDbBlockEnd
  0
BLOCK
  5
51C
330
512
100
AcDbEntity
  8
0
100
AcDbBlockBegin
  2
*D60
 70
     1
 71
     0
 10
0.0
 20
0.0
 30
0.0
  3
*D60
  1

  0
LINE
  5
513
330
512
100
AcDbEntity
  8
LC-002-003-----0
 62
     2
370
    -2
100
AcDbLine
 10
320.330076
 20
196.296664
 30
0.0
 11
360.762205
 21
196.296664
 31
0.0
  0
LINE
  5
514
330
512
100
AcDbEntity
  8
LC-002-003-----0
 62
     2
370
    -2
100
AcDbLine
 10
283.276684
 20
288.923831
 30
0.0
 11
360.762205
 21
288.923831
 31
0.0
  0
LINE
  5
515
330
512
100
AcDbEntity
  8
LC-002-003-----0
 62
     2
370
    -2
100
AcDbLine
 10
357.162205
 20
224.296664
 30
0.0
 11
357.162205
 21
260.923831
 31
0.0
  0
SOLID
  5
516
330
512
100
AcDbEntity
  8
LC-002-003-----0
 62
     2
100
AcDbTrace
 10
352.495538
 20
224.296664
 30
0.0
 11
361.828871
 21
224.296664
 31
0.0
 12
357.162205
 22
196.296664
 32
0.0
 13
357.162205
 23
196.296664
 33
0.0
  0
SOLID
  5
517
330
512
100
AcDbEntity
  8
LC-002-003-----0
 62
     2
100
AcDbTrace
 10
361.828871
 20
260.923831
 30
0.0
 11
352.495538
 21
260.923831
 31
0.0
 12
357.162205
 22
288.923831
 32
0.0
 13
357.162205
 23
288.923831
 33
0.0
  0
MTEXT
  5
518
330
512
100
AcDbEntity
  8
LC-002-003-----0
 62
     2
100
AcDbMText
 10
326.362205
 20
244.858354
 30
0.0
 40
28.0
 41
0.0
 71
     5
 72
     1
  1
\A1;32-92
  7
LCTX15-400-0-0pDIN-Schrift
 11
6.123031769111886E-17
 21
1.0
 31
0.0
 73
     1
 44
1.0
  0
POINT
  5
519
330
512
100
AcDbEntity
  8
Defpoints
 62
     0
100
AcDbPoint
 10
320.330076
 20
196.296664
 30
0.0
  0
POINT
  5
51A
330
512
100
AcDbEntity
  8
Defpoints
 62
     0
100
AcDbPoint
 10
283.276684
 20
288.923831
 30
0.0
  0
POINT
  5
51B
330
512
100
AcDbEntity
  8
Defpoints
 62
     0
100
AcDbPoint
 10
357.162205
 20
288.923831
 30
0.0
  0
ENDBLK
  5
51D
330
512
100
AcDbEntity
  8
0
100
AcDbBlockEnd
  0
BLOCK
  5
529
330
51F
100
AcDbEntity
  8
0
100
AcDbBlockBegin
  2
*D61
 70
     1
 71
     0
 10
0.0
 20
0.0
 30
0.0
  3
*D61
  1

  0
LINE
  5
520
330
51F
100
AcDbEntity
  8
LC-002-003-----0
 62
     2
370
    -2
100
AcDbLine
 10
146.170832
 20
288.923831
 30
0.0
 11
146.170832
 21
313.798354
 31
0.0
  0
LINE
  5
521
330
51F
100
AcDbEntity
  8
LC-002-003-----0
 62
     2
370
    -2
100
AcDbLine
 10
284.170828
 20
288.923831
 30
0.0
 11
284.170828
 21
313.798354
 31
0.0
  0
LINE
  5
522
330
51F
100
AcDbEntity
  8
LC-002-003-----0
 62
     2
370
    -2
100
AcDbLine
 10
174.170832
 20
310.198354
 30
0.0
 11
256.170828
 21
310.198354
 31
0.0
  0
SOLID
  5
523
330
51F
100
AcDbEntity
  8
LC-002-003-----0
 62
     2
100
AcDbTrace
 10
174.170832
 20
314.86502
 30
0.0
 11
174.170832
 21
305.531687
 31
0.0
 12
146.170832
 22
310.198354
 32
0.0
 13
146.170832
 23
310.198354
 33
0.0
  0
SOLID
  5
524
330
51F
100
AcDbEntity
  8
LC-002-003-----0
 62
     2
100
AcDbTrace
 10
256.170828
 20
305.531687
 30
0.0
 11
256.170828
 21
314.86502
 31
0.0
 12
284.170828
 22
310.198354
 32
0.0
 13
284.170828
 23
310.198354
 33
0.0
  0
MTEXT
  5
525
330
51F
100
AcDbEntity
  8
LC-002-003-----0
 62
     2
100
AcDbMText
 10
210.755208
 20
340.998354
 30
0.0
 40
28.0
 41
0.0
 71
     5
 72
     1
  1
\A1;%%c138
  7
LCTX15-400-0-0pDIN-Schrift
 73
     1
 44
1.0
  0
POINT
  5
526
330
51F
100
AcDbEntity
  8
Defpoints
 62
     0
100
AcDbPoint
 10
146.170832
 20
288.923831
 30
0.0
  0
POINT
  5
527
330
51F
100
AcDbEntity
  8
Defpoints
 62
     0
100
AcDbPoint
 10
284.170828
 20
288.923831
 30
0.0
  0
POINT
  5
528
330
51F
100
AcDbEntity
  8
Defpoints
 62
     0
100
AcDbPoint
 10
284.170828
 20
310.198354
 30
0.0
  0
ENDBLK
  5
52A
330
51F
100
AcDbEntity
  8
0
100
AcDbBlockEnd
  0
BLOCK
  5
559
330
54F
100
AcDbEntity
  8
0
100
AcDbBlockBegin
  2
*D62
 70
     1
 71
     0
 10
0.0
 20
0.0
 30
0.0
  3
*D62
  1

  0
LINE
  5
550
330
54F
100
AcDbEntity
  8
LC-002-003-----0
 62
     2
370
    -2
100
AcDbLine
 10
100.670829
 20
193.055899
 30
0.0
 11
100.670829
 21
364.882354
 31
0.0
  0
LINE
  5
551
330
54F
100
AcDbEntity
  8
LC-002-003-----0
 62
     2
370
    -2
100
AcDbLine
 10
329.670831
 20
193.055899
 30
0.0
 11
329.670831
 21
364.882354
 31
0.0
  0
LINE
  5
552
330
54F
100
AcDbEntity
  8
LC-002-003-----0
 62
     2
370
    -2
100
AcDbLine
 10
128.670829
 20
361.282354
 30
0.0
 11
301.670831
 21
361.282354
 31
0.0
  0
SOLID
  5
553
330
54F
100
AcDbEntity
  8
LC-002-003-----0
 62
     2
100
AcDbTrace
 10
128.670829
 20
365.94902
 30
0.0
 11
128.670829
 21
356.615687
 31
0.0
 12
100.670829
 22
361.282354
 32
0.0
 13
100.670829
 23
361.282354
 33
0.0
  0
SOLID
  5
554
330
54F
100
AcDbEntity
  8
LC-002-003-----0
 62
     2
100
AcDbTrace
 10
301.670831
 20
356.615687
 30
0.0
 11
301.670831
 21
365.94902
 31
0.0
 12
329.670831
 22
361.282354
 32
0.0
 13
329.670831
 23
361.282354
 33
0.0
  0
MTEXT
  5
555
330
54F
100
AcDbEntity
  8
LC-002-003-----0
 62
     2
100
AcDbMText
 10
215.18758
 20
392.082354
 30
0.0
 40
28.0
 41
0.0
 71
     5
 72
     1
  1
\A1;%%c230
  7
LCTX15-400-0-0pDIN-Schrift
 73
     1
 44
1.0
  0
POINT
  5
556
330
54F
100
AcDbEntity
  8
Defpoints
 62
     0
100
AcDbPoint
 10
100.670829
 20
193.055899
 30
0.0
  0
POINT
  5
557
330
54F
100
AcDbEntity
  8
Defpoints
 62
     0
100
AcDbPoint
 10
329.670831
 20
193.055899
 30
0.0
  0
POINT
  5
558
330
54F
100
AcDbEntity
  8
Defpoints
 62
     0
100
AcDbPoint
 10
329.670831
 20
361.282354
 30
0.0
  0
ENDBLK
  5
55A
330
54F
100
AcDbEntity
  8
0
100
AcDbBlockEnd
  0
BLOCK
  5
566
330
55C
100
AcDbEntity
  8
0
100
AcDbBlockBegin
  2
*D63
 70
     1
 71
     0
 10
0.0
 20
0.0
 30
0.0
  3
*D63
  1

  0
LINE
  5
55D
330
55C
100
AcDbEntity
  8
LC-002-003-----0
 62
     2
370
    -2
100
AcDbLine
 10
160.170831
 20
118.564622
 30
0.0
 11
160.170831
 21
-42.673646
 31
0.0
  0
LINE
  5
55E
330
55C
100
AcDbEntity
  8
LC-002-003-----0
 62
     2
370
    -2
100
AcDbLine
 10
270.17083
 20
118.564622
 30
0.0
 11
270.17083
 21
-42.673646
 31
0.0
  0
LINE
  5
55F
330
55C
100
AcDbEntity
  8
LC-002-003-----0
 62
     2
370
    -2
100
AcDbLine
 10
188.170831
 20
-39.073646
 30
0.0
 11
242.17083
 21
-39.073646
 31
0.0
  0
SOLID
  5
560
330
55C
100
AcDbEntity
  8
LC-002-003-----0
 62
     2
100
AcDbTrace
 10
188.170831
 20
-34.40698
 30
0.0
 11
188.170831
 21
-43.740313
 31
0.0
 12
160.170831
 22
-39.073646
 32
0.0
 13
160.170831
 23
-39.073646
 33
0.0
  0
SOLID
  5
561
330
55C
100
AcDbEntity
  8
LC-002-003-----0
 62
     2
100
AcDbTrace
 10
242.17083
 20
-43.740313
 30
0.0
 11
242.17083
 21
-34.40698
 31
0.0
 12
270.17083
 22
-39.073646
 32
0.0
 13
270.17083
 23
-39.073646
 33
0.0
  0
MTEXT
  5
562
330
55C
100
AcDbEntity
  8
LC-002-003-----0
 62
     2
100
AcDbMText
 10
216.074054
 20
-8.273646
 30
0.0
 40
28.0
 41
0.0
 71
     5
 72
     1
  1
%%c\A1;110
  7
LCTX15-400-0-0pDIN-Schrift
 73
     1
 44
1.0
  0
POINT
  5
563
330
55C
100
AcDbEntity
  8
Defpoints
 62
     0
100
AcDbPoint
 10
160.170831
 20
118.564622
 30
0.0
  0
POINT
  5
564
330
55C
100
AcDbEntity
  8
Defpoints
 62
     0
100
AcDbPoint
 10
270.17083
 20
118.564622
 30
0.0
  0
POINT
  5
565
330
55C
100
AcDbEntity
  8
Defpoints
 62
     0
100
AcDbPoint
 10
270.17083
 20
-39.073646
 30
0.0
  0
ENDBLK
  5
567
330
55C
100
AcDbEntity
  8
0
100
AcDbBlockEnd
  0
BLOCK
  5
573
330
569
100
AcDbEntity
  8
0
100
AcDbBlockBegin
  2
*D64
 70
     1
 71
     0
 10
0.0
 20
0.0
 30
0.0
  3
*D64
  1

  0
LINE
  5
56A
330
569
100
AcDbEntity
  8
LC-002-003-----0
 62
     2
370
    -2
100
AcDbLine
 10
152.170829
 20
163.868354
 30
0.0
 11
152.170829
 21
-92.569646
 31
0.0
  0
LINE
  5
56B
330
569
100
AcDbEntity
  8
LC-002-003-----0
 62
     2
370
    -2
100
AcDbLine
 10
278.170831
 20
163.868354
 30
0.0
 11
278.170831
 21
-92.569646
 31
0.0
  0
LINE
  5
56C
330
569
100
AcDbEntity
  8
LC-002-003-----0
 62
     2
370
    -2
100
AcDbLine
 10
180.170829
 20
-88.969646
 30
0.0
 11
250.170831
 21
-88.969646
 31
0.0
  0
SOLID
  5
56D
330
569
100
AcDbEntity
  8
LC-002-003-----0
 62
     2
100
AcDbTrace
 10
180.170829
 20
-84.30298
 30
0.0
 11
180.170829
 21
-93.636313
 31
0.0
 12
152.170829
 22
-88.969646
 32
0.0
 13
152.170829
 23
-88.969646
 33
0.0
  0
SOLID
  5
56E
330
569
100
AcDbEntity
  8
LC-002-003-----0
 62
     2
100
AcDbTrace
 10
250.170831
 20
-93.636313
 30
0.0
 11
250.170831
 21
-84.30298
 31
0.0
 12
278.170831
 22
-88.969646
 32
0.0
 13
278.170831
 23
-88.969646
 33
0.0
  0
MTEXT
  5
56F
330
569
100
AcDbEntity
  8
LC-002-003-----0
 62
     2
100
AcDbMText
 10
211.641682
 20
-58.169646
 30
0.0
 40
28.0
 41
0.0
 71
     5
 72
     1
  1
%%c\A1;126
  7
LCTX15-400-0-0pDIN-Schrift
 73
     1
 44
1.0
  0
POINT
  5
570
330
569
100
AcDbEntity
  8
Defpoints
 62
     0
100
AcDbPoint
 10
152.170829
 20
163.868354
 30
0.0
  0
POINT
  5
571
330
569
100
AcDbEntity
  8
Defpoints
 62
     0
100
AcDbPoint
 10
278.170831
 20
163.868354
 30
0.0
  0
POINT
  5
572
330
569
100
AcDbEntity
  8
Defpoints
 62
     0
100
AcDbPoint
 10
278.170831
 20
-88.969646
 30
0.0
  0
ENDBLK
  5
574
330
569
100
AcDbEntity
  8
0
100
AcDbBlockEnd
  0
BLOCK
  5
581
330
576
100
AcDbEntity
  8
0
100
AcDbBlockBegin
  2
*D65
 70
     1
 71
     0
 10
0.0
 20
0.0
 30
0.0
  3
*D65
  1

  0
LINE
  5
577
330
576
100
AcDbEntity
  8
LC-002-003-----0
 62
     2
370
    -2
100
AcDbLine
 10
190.17083
 20
49.368354
 30
0.0
 11
190.17083
 21
27.418354
 31
0.0
  0
LINE
  5
578
330
576
100
AcDbEntity
  8
LC-002-003-----0
 62
     2
370
    -2
100
AcDbLine
 10
240.170831
 20
49.368354
 30
0.0
 11
240.170831
 21
27.418354
 31
0.0
  0
LINE
  5
579
330
576
100
AcDbEntity
  8
LC-002-003-----0
 62
     2
370
    -2
100
AcDbLine
 10
162.17083
 20
31.018354
 30
0.0
 11
134.17083
 21
31.018354
 31
0.0
  0
LINE
  5
57A
330
576
100
AcDbEntity
  8
LC-002-003-----0
 62
     2
370
    -2
100
AcDbLine
 10
268.170831
 20
31.018354
 30
0.0
 11
372.920101
 21
31.018354
 31
0.0
  0
SOLID
  5
57B
330
576
100
AcDbEntity
  8
LC-002-003-----0
 62
     2
100
AcDbTrace
 10
162.17083
 20
26.351687
 30
0.0
 11
162.17083
 21
35.68502
 31
0.0
 12
190.17083
 22
31.018354
 32
0.0
 13
190.17083
 23
31.018354
 33
0.0
  0
SOLID
  5
57C
330
576
100
AcDbEntity
  8
LC-002-003-----0
 62
     2
100
AcDbTrace
 10
268.170831
 20
35.68502
 30
0.0
 11
268.170831
 21
26.351687
 31
0.0
 12
240.170831
 22
31.018354
 32
0.0
 13
240.170831
 23
31.018354
 33
0.0
  0
MTEXT
  5
57D
330
576
100
AcDbEntity
  8
LC-002-003-----0
 62
     2
100
AcDbMText
 10
326.883343
 20
61.818354
 30
0.0
 40
28.0
 41
0.0
 71
     5
 72
     1
  1
\A1;DN50
  7
LCTX15-400-0-0pDIN-Schrift
 73
     1
 44
1.0
  0
POINT
  5
57E
330
576
100
AcDbEntity
  8
Defpoints
 62
     0
100
AcDbPoint
 10
190.17083
 20
49.368354
 30
0.0
  0
POINT
  5
57F
330
576
100
AcDbEntity
  8
Defpoints
 62
     0
100
AcDbPoint
 10
240.170831
 20
49.368354
 30
0.0
  0
POINT
  5
580
330
576
100
AcDbEntity
  8
Defpoints
 62
     0
100
AcDbPoint
 10
240.170831
 20
31.018354
 30
0.0
  0
ENDBLK
  5
582
330
576
100
AcDbEntity
  8
0
100
AcDbBlockEnd
  0
BLOCK
  5
58E
330
584
100
AcDbEntity
  8
0
100
AcDbBlockBegin
  2
*D66
 70
     1
 71
     0
 10
0.0
 20
0.0
 30
0.0
  3
*D66
  1

  0
LINE
  5
585
330
584
100
AcDbEntity
  8
LC-002-003-----0
 62
     2
370
    -2
100
AcDbLine
 10
100.670829
 20
193.055899
 30
0.0
 11
81.275855
 21
193.055899
 31
0.0
  0
LINE
  5
586
330
584
100
AcDbEntity
  8
LC-002-003-----0
 62
     2
370
    -2
100
AcDbLine
 10
167.943189
 20
103.868354
 30
0.0
 11
81.275855
 21
103.868354
 31
0.0
  0
LINE
  5
587
330
584
100
AcDbEntity
  8
LC-002-003-----0
 62
     2
370
    -2
100
AcDbLine
 10
84.875855
 20
165.055899
 30
0.0
 11
84.875855
 21
131.868354
 31
0.0
  0
SOLID
  5
588
330
584
100
AcDbEntity
  8
LC-002-003-----0
 62
     2
100
AcDbTrace
 10
89.542522
 20
165.055899
 30
0.0
 11
80.209189
 21
165.055899
 31
0.0
 12
84.875855
 22
193.055899
 32
0.0
 13
84.875855
 23
193.055899
 33
0.0
  0
SOLID
  5
589
330
584
100
AcDbEntity
  8
LC-002-003-----0
 62
     2
100
AcDbTrace
 10
80.209189
 20
131.868354
 30
0.0
 11
89.542522
 21
131.868354
 31
0.0
 12
84.875855
 22
103.868354
 32
0.0
 13
84.875855
 23
103.868354
 33
0.0
  0
MTEXT
  5
58A
330
584
100
AcDbEntity
  8
LC-002-003-----0
 62
     2
100
AcDbMText
 10
54.075855
 20
146.254354
 30
0.0
 40
28.0
 41
0.0
 71
     5
 72
     1
  1
\A1;90
  7
LCTX15-400-0-0pDIN-Schrift
 11
6.123031769111886E-17
 21
1.0
 31
0.0
 73
     1
 44
1.0
  0
POINT
  5
58B
330
584
100
AcDbEntity
  8
Defpoints
 62
     0
100
AcDbPoint
 10
100.670829
 20
193.055899
 30
0.0
  0
POINT
  5
58C
330
584
100
AcDbEntity
  8
Defpoints
 62
     0
100
AcDbPoint
 10
167.943189
 20
103.868354
 30
0.0
  0
POINT
  5
58D
330
584
100
AcDbEntity
  8
Defpoints
 62
     0
100
AcDbPoint
 10
84.875855
 20
103.868354
 30
0.0
  0
ENDBLK
  5
58F
330
584
100
AcDbEntity
  8
0
100
AcDbBlockEnd
  0
BLOCK
  5
59D
330
591
100
AcDbEntity
  8
0
100
AcDbBlockBegin
  2
*D67
 70
     1
 71
     0
 10
0.0
 20
0.0
 30
0.0
  3
*D67
  1

  0
LINE
  5
592
330
591
100
AcDbEntity
  8
LC-002-003-----0
 62
     2
370
    -2
100
AcDbLine
 10
167.943189
 20
103.868354
 30
0.0
 11
121.1672
 21
103.868354
 31
0.0
  0
LINE
  5
593
330
591
100
AcDbEntity
  8
LC-002-003-----0
 62
     2
370
    -2
100
AcDbLine
 10
193.17083
 20
45.868354
 30
0.0
 11
121.1672
 21
45.868354
 31
0.0
  0
LINE
  5
594
330
591
100
AcDbEntity
  8
LC-002-003-----0
 62
     2
370
    -2
100
AcDbLine
 10
124.7672
 20
131.868354
 30
0.0
 11
124.7672
 21
159.868354
 31
0.0
  0
LINE
  5
595
330
591
100
AcDbEntity
  8
LC-002-003-----0
 62
     2
370
    -2
100
AcDbLine
 10
124.7672
 20
17.868354
 30
0.0
 11
124.7672
 21
-10.131646
 31
0.0
  0
LINE
  5
596
330
591
100
AcDbEntity
  8
LC-002-003-----0
 62
     2
370
    -2
100
AcDbLine
 10
124.7672
 20
103.868354
 30
0.0
 11
124.7672
 21
45.868354
 31
0.0
  0
SOLID
  5
597
330
591
100
AcDbEntity
  8
LC-002-003-----0
 62
     2
100
AcDbTrace
 10
120.100533
 20
131.868354
 30
0.0
 11
129.433866
 21
131.868354
 31
0.0
 12
124.7672
 22
103.868354
 32
0.0
 13
124.7672
 23
103.868354
 33
0.0
  0
SOLID
  5
598
330
591
100
AcDbEntity
  8
LC-002-003-----0
 62
     2
100
AcDbTrace
 10
129.433866
 20
17.868354
 30
0.0
 11
120.100533
 21
17.868354
 31
0.0
 12
124.7672
 22
45.868354
 32
0.0
 13
124.7672
 23
45.868354
 33
0.0
  0
MTEXT
  5
599
330
591
100
AcDbEntity
  8
LC-002-003-----0
 62
     2
100
AcDbMText
 10
93.9672
 20
67.846354
 30
0.0
 40
28.0
 41
0.0
 71
     5
 72
     1
  1
\A1;58
  7
LCTX15-400-0-0pDIN-Schrift
 11
6.123031769111886E-17
 21
1.0
 31
0.0
 73
     1
 44
1.0
  0
POINT
  5
59A
330
591
100
AcDbEntity
  8
Defpoints
 62
     0
100
AcDbPoint
 10
167.943189
 20
103.868354
 30
0.0
  0
POINT
  5
59B
330
591
100
AcDbEntity
  8
Defpoints
 62
     0
100
AcDbPoint
 10
193.17083
 20
45.868354
 30
0.0
  0
POINT
  5
59C
330
591
100
AcDbEntity
  8
Defpoints
 62
     0
100
AcDbPoint
 10
124.7672
 20
45.868354
 30
0.0
  0
ENDBLK
  5
59E
330
591
100
AcDbEntity
  8
0
100
AcDbBlockEnd
  0
BLOCK
  5
5AC
330
5A0
100
AcDbEntity
  8
0
100
AcDbBlockBegin
  2
*D68
 70
     1
 71
     0
 10
0.0
 20
0.0
 30
0.0
  3
*D68
  1

  0
LINE
  5
5A1
330
5A0
100
AcDbEntity
  8
LC-002-003-----0
 62
     2
370
    -2
100
AcDbLine
 10
194.17083
 20
201.994093
 30
0.0
 11
133.16131
 21
201.994093
 31
0.0
  0
LINE
  5
5A2
330
5A0
100
AcDbEntity
  8
LC-002-003-----0
 62
     2
370
    -2
100
AcDbLine
 10
184.170831
 20
253.4941
 30
0.0
 11
133.16131
 21
253.4941
 31
0.0
  0
LINE
  5
5A3
330
5A0
100
AcDbEntity
  8
LC-002-003-----0
 62
     2
370
    -2
100
AcDbLine
 10
136.76131
 20
173.994093
 30
0.0
 11
136.76131
 21
145.994093
 31
0.0
  0
LINE
  5
5A4
330
5A0
100
AcDbEntity
  8
LC-002-003-----0
 62
     2
370
    -2
100
AcDbLine
 10
136.76131
 20
281.4941
 30
0.0
 11
136.76131
 21
309.4941
 31
0.0
  0
LINE
  5
5A5
330
5A0
100
AcDbEntity
  8
LC-002-003-----0
 62
     2
370
    -2
100
AcDbLine
 10
136.76131
 20
201.994093
 30
0.0
 11
136.76131
 21
253.4941
 31
0.0
  0
SOLID
  5
5A6
330
5A0
100
AcDbEntity
  8
LC-002-003-----0
 62
     2
100
AcDbTrace
 10
141.427977
 20
173.994093
 30
0.0
 11
132.094643
 21
173.994093
 31
0.0
 12
136.76131
 22
201.994093
 32
0.0
 13
136.76131
 23
201.994093
 33
0.0
  0
SOLID
  5
5A7
330
5A0
100
AcDbEntity
  8
LC-002-003-----0
 62
     2
100
AcDbTrace
 10
132.094643
 20
281.4941
 30
0.0
 11
141.427977
 21
281.4941
 31
0.0
 12
136.76131
 22
253.4941
 32
0.0
 13
136.76131
 23
253.4941
 33
0.0
  0
MTEXT
  5
5A8
330
5A0
100
AcDbEntity
  8
LC-002-003-----0
 62
     2
100
AcDbMText
 10
105.96131
 20
239.02792
 30
0.0
 40
28.0
 41
0.0
 71
     5
 72
     1
  1
\A1;50
  7
LCTX15-400-0-0pDIN-Schrift
 11
6.123031769111886E-17
 21
1.0
 31
0.0
 73
     1
 44
1.0
  0
POINT
  5
5A9
330
5A0
100
AcDbEntity
  8
Defpoints
 62
     0
100
AcDbPoint
 10
194.17083
 20
201.994093
 30
0.0
  0
POINT
  5
5AA
330
5A0
100
AcDbEntity
  8
Defpoints
 62
     0
100
AcDbPoint
 10
184.170831
 20
253.4941
 30
0.0
  0
POINT
  5
5AB
330
5A0
100
AcDbEntity
  8
Defpoints
 62
     0
100
AcDbPoint
 10
136.76131
 20
253.4941
 30
0.0
  0
ENDBLK
  5
5AD
330
5A0
100
AcDbEntity
  8
0
100
AcDbBlockEnd
  0
ENDSEC
  0
SECTION
  2
ENTITIES
  0
ARC
  5
31
330
1F
100
AcDbEntity
  8
LC-001-100-D00-0
 62
     7
370
    50
100
AcDbCircle
 10
267.2423
 20
281.673823
 30
0.0
 40
0.7500000000001137
100
AcDbArc
 50
90.0
 51
180.0
  0
ARC
  5
32
330
1F
100
AcDbEntity
  8
LC-001-100-D00-0
 62
     7
370
    50
100
AcDbCircle
 10
253.980479
 20
281.673823
 30
0.0
 40
0.7500000000001137
100
AcDbArc
 50
90.0
 51
180.0
  0
ARC
  5
33
330
1F
100
AcDbEntity
  8
LC-001-100-D00-0
 62
     7
370
    50
100
AcDbCircle
 10
240.377032
 20
281.673823
 30
0.0
 40
0.7500000000001137
100
AcDbArc
 50
90.0
 51
180.0
  0
ARC
  5
34
330
1F
100
AcDbEntity
  8
LC-001-100-D00-0
 62
     7
370
    50
100
AcDbCircle
 10
189.964628
 20
281.673823
 30
0.0
 40
0.7500000000001137
100
AcDbArc
 50
0.0
 51
90.0
  0
ARC
  5
35
330
1F
100
AcDbEntity
  8
LC-001-100-D00-0
 62
     7
370
    50
100
AcDbCircle
 10
176.361182
 20
281.673823
 30
0.0
 40
0.7500000000001137
100
AcDbArc
 50
0.0
 51
90.0
  0
ARC
  5
36
330
1F
100
AcDbEntity
  8
LC-001-100-D00-0
 62
     7
370
    50
100
AcDbCircle
 10
163.099361
 20
281.673823
 30
0.0
 40
0.7500000000001137
100
AcDbArc
 50
0.0
 51
90.0
  0
LINE
  5
37
330
1F
100
AcDbEntity
  8
LC-001-100-D00-0
 62
     7
370
    50
100
AcDbLine
 10
253.230478
 20
279.723825
 30
0.0
 11
253.230478
 21
281.67382
 31
0.0
  0
LINE
  5
38
330
1F
100
AcDbEntity
  8
LC-001-100-D00-0
 62
     7
370
    50
100
AcDbLine
 10
239.627031
 20
279.723825
 30
0.0
 11
239.627031
 21
281.67382
 31
0.0
  0
LINE
  5
39
330
1F
100
AcDbEntity
  8
LC-001-100-D00-0
 62
     7
370
    50
100
AcDbLine
 10
266.492299
 20
279.723825
 30
0.0
 11
266.492299
 21
281.67382
 31
0.0
  0
LINE
  5
3A
330
1F
100
AcDbEntity
  8
LC-001-100-D00-0
 62
     7
370
    50
100
AcDbLine
 10
190.714629
 20
281.67382
 30
0.0
 11
190.714629
 21
279.723825
 31
0.0
  0
LINE
  5
3B
330
1F
100
AcDbEntity
  8
LC-001-100-D00-0
 62
     7
370
    50
100
AcDbLine
 10
177.111182
 20
281.67382
 30
0.0
 11
177.111182
 21
279.723825
 31
0.0
  0
LINE
  5
3C
330
1F
100
AcDbEntity
  8
LC-001-100-D00-0
 62
     7
370
    50
100
AcDbLine
 10
163.849361
 20
281.67382
 30
0.0
 11
163.849361
 21
279.723825
 31
0.0
  0
ARC
  5
3D
330
1F
100
AcDbEntity
  8
LC-001-100-D00-0
 62
     7
370
    50
100
AcDbCircle
 10
217.92083
 20
281.673823
 30
0.0
 40
0.7500000000001137
100
AcDbArc
 50
0.0
 51
90.0
  0
ARC
  5
3E
330
1F
100
AcDbEntity
  8
LC-001-100-D00-0
 62
     7
370
    50
100
AcDbCircle
 10
212.42083
 20
281.673823
 30
0.0
 40
0.7500000000001137
100
AcDbArc
 50
90.0
 51
180.0
  0
LINE
  5
3F
330
1F
100
AcDbEntity
  8
LC-001-100-D00-0
 62
     7
370
    50
100
AcDbLine
 10
218.67083
 20
281.67382
 30
0.0
 11
218.67083
 21
279.723825
 31
0.0
  0
LINE
  5
40
330
1F
100
AcDbEntity
  8
LC-001-100-D00-0
 62
     7
370
    50
100
AcDbLine
 10
211.67083
 20
279.723825
 30
0.0
 11
211.67083
 21
281.67382
 31
0.0
  0
LINE
  5
41
330
1F
100
AcDbEntity
  8
LC-001-100-D00-0
 62
     7
370
    50
100
AcDbLine
 10
264.92083
 20
276.372971
 30
0.0
 11
264.62651
 21
276.372971
 31
0.0
  0
LINE
  5
42
330
1F
100
AcDbEntity
  8
LC-001-100-D00-0
 62
     7
370
    50
100
AcDbLine
 10
165.71515
 20
276.372971
 30
0.0
 11
165.42083
 21
276.372971
 31
0.0
  0
LINE
  5
43
330
1F
100
AcDbEntity
  8
LC-001-100-D00-0
 62
     7
370
    50
100
AcDbLine
 10
165.42083
 20
273.872958
 30
0.0
 11
170.045279
 21
273.872958
 31
0.0
  0
LINE
  5
44
330
1F
100
AcDbEntity
  8
LC-001-100-D00-0
 62
     7
370
    50
100
AcDbLine
 10
260.296382
 20
273.872958
 30
0.0
 11
264.92083
 21
273.872958
 31
0.0
  0
LINE
  5
45
330
1F
100
AcDbEntity
  8
LC-001-100-D00-0
 62
     7
370
    50
100
AcDbLine
 10
142.938323
 20
182.872222
 30
0.0
 11
143.170833
 21
182.741793
 31
0.0
  0
LINE
  5
46
330
1F
100
AcDbEntity
  8
LC-001-100-D00-0
 62
     7
370
    50
100
AcDbLine
 10
142.938323
 20
188.87222
 30
0.0
 11
143.170833
 21
188.74179
 31
0.0
  0
INSERT
  5
52
330
1F
100
AcDbEntity
  8
LC-001-100-D00-0
 62
     7
370
    50
100
AcDbBlockReference
  2
POLY1
 10
0.0
 20
0.0
 30
0.0
  0
LINE
  5
53
330
1F
100
AcDbEntity
  8
LC-001-100-D00-0
 62
     7
370
    50
100
AcDbLine
 10
142.938323
 20
185.872214
 30
0.0
 11
143.170833
 21
185.741799
 31
0.0
  0
INSERT
  5
5F
330
1F
100
AcDbEntity
  8
LC-001-100-D00-0
 62
     7
370
    50
100
AcDbBlockReference
  2
POLY2
 10
0.0
 20
0.0
 30
0.0
  0
LINE
  5
60
330
1F
100
AcDbEntity
  8
LC-001-100-D00-0
 62
     7
370
    50
100
AcDbLine
 10
147.483937
 20
188.56235
 30
0.0
 11
147.170827
 21
188.739227
 31
0.0
  0
LINE
  5
61
330
1F
100
AcDbEntity
  8
LC-001-100-D00-0
 62
     7
370
    50
100
AcDbLine
 10
147.483937
 20
182.562353
 30
0.0
 11
147.170827
 21
182.73923
 31
0.0
  0
LINE
  5
62
330
1F
100
AcDbEntity
  8
LC-001-100-D00-0
 62
     7
370
    50
100
AcDbLine
 10
147.483937
 20
179.562347
 30
0.0
 11
147.170827
 21
179.739238
 31
0.0
  0
LINE
  5
63
330
1F
100
AcDbEntity
  8
LC-001-100-D00-0
 62
     7
370
    50
100
AcDbLine
 10
147.483937
 20
185.562344
 30
0.0
 11
147.170827
 21
185.739236
 31
0.0
  0
LINE
  5
64
330
1F
100
AcDbEntity
  8
LC-001-100-D00-0
 62
     7
370
    50
100
AcDbLine
 10
142.938323
 20
179.872216
 30
0.0
 11
143.170833
 21
179.741786
 31
0.0
  0
LINE
  5
65
330
1F
100
AcDbEntity
  8
LC-001-100-D00-0
 62
     7
370
    50
100
AcDbLine
 10
209.747941
 20
283.823819
 30
0.0
 11
209.467941
 21
283.823819
 31
0.0
  0
LINE
  5
66
330
1F
100
AcDbEntity
  8
LC-001-100-D00-0
 62
     7
370
    50
100
AcDbLine
 10
209.747941
 20
283.923821
 30
0.0
 11
209.747941
 21
283.823819
 31
0.0
  0
LINE
  5
67
330
1F
100
AcDbEntity
  8
LC-001-100-D00-0
 62
     7
370
    50
100
AcDbLine
 10
211.847941
 20
283.923821
 30
0.0
 11
211.847941
 21
283.823819
 31
0.0
  0
LINE
  5
68
330
1F
100
AcDbEntity
  8
LC-001-100-D00-0
 62
     7
370
    50
100
AcDbLine
 10
212.127941
 20
283.823819
 30
0.0
 11
211.847941
 21
283.823819
 31
0.0
  0
LINE
  5
69
330
1F
100
AcDbEntity
  8
LC-001-100-D00-0
 62
     7
370
    50
100
AcDbLine
 10
212.127941
 20
283.923821
 30
0.0
 11
212.127941
 21
283.823819
 31
0.0
  0
LINE
  5
6A
330
1F
100
AcDbEntity
  8
LC-001-100-D00-0
 62
     7
370
    50
100
AcDbLine
 10
212.967941
 20
283.923821
 30
0.0
 11
212.127941
 21
283.923821
 31
0.0
  0
LINE
  5
6B
330
1F
100
AcDbEntity
  8
LC-001-100-D00-0
 62
     7
370
    50
100
AcDbLine
 10
212.967941
 20
283.823819
 30
0.0
 11
212.967941
 21
283.923821
 31
0.0
  0
LINE
  5
6C
330
1F
100
AcDbEntity
  8
LC-001-100-D00-0
 62
     7
370
    50
100
AcDbLine
 10
213.247941
 20
283.823819
 30
0.0
 11
212.967941
 21
283.823819
 31
0.0
  0
LINE
  5
6D
330
1F
100
AcDbEntity
  8
LC-001-100-D00-0
 62
     7
370
    50
100
AcDbLine
 10
213.247941
 20
283.923821
 30
0.0
 11
213.247941
 21
283.823819
 31
0.0
  0
LINE
  5
6E
330
1F
100
AcDbEntity
  8
LC-001-100-D00-0
 62
     7
370
    50
100
AcDbLine
 10
215.347941
 20
283.923821
 30
0.0
 11
215.347941
 21
283.823819
 31
0.0
  0
LINE
  5
6F
330
1F
100
AcDbEntity
  8
LC-001-100-D00-0
 62
     7
370
    50
100
AcDbLine
 10
215.627941
 20
283.823819
 30
0.0
 11
215.347941
 21
283.823819
 31
0.0
  0
LINE
  5
70
330
1F
100
AcDbEntity
  8
LC-001-100-D00-0
 62
     7
370
    50
100
AcDbLine
 10
215.627941
 20
283.923821
 30
0.0
 11
215.627941
 21
283.823819
 31
0.0
  0
LINE
  5
71
330
1F
100
AcDbEntity
  8
LC-001-100-D00-0
 62
     7
370
    50
100
AcDbLine
 10
216.467941
 20
283.923821
 30
0.0
 11
215.627941
 21
283.923821
 31
0.0
  0
LINE
  5
72
330
1F
100
AcDbEntity
  8
LC-001-100-D00-0
 62
     7
370
    50
100
AcDbLine
 10
216.467941
 20
283.823819
 30
0.0
 11
216.467941
 21
283.923821
 31
0.0
  0
LINE
  5
73
330
1F
100
AcDbEntity
  8
LC-001-100-D00-0
 62
     7
370
    50
100
AcDbLine
 10
216.747941
 20
283.823819
 30
0.0
 11
216.467941
 21
283.823819
 31
0.0
  0
LINE
  5
74
330
1F
100
AcDbEntity
  8
LC-001-100-D00-0
 62
     7
370
    50
100
AcDbLine
 10
216.747941
 20
283.923821
 30
0.0
 11
216.747941
 21
283.823819
 31
0.0
  0
LINE
  5
75
330
1F
100
AcDbEntity
  8
LC-001-100-D00-0
 62
     7
370
    50
100
AcDbLine
 10
217.797941
 20
283.923821
 30
0.0
 11
216.747941
 21
283.923821
 31
0.0
  0
LINE
  5
76
330
1F
100
AcDbEntity
  8
LC-001-100-D00-0
 62
     7
370
    50
100
AcDbLine
 10
217.797941
 20
283.923821
 30
0.0
 11
217.797941
 21
283.823819
 31
0.0
  0
LINE
  5
77
330
1F
100
AcDbEntity
  8
LC-001-100-D00-0
 62
     7
370
    50
100
AcDbLine
 10
218.077941
 20
283.823819
 30
0.0
 11
217.797941
 21
283.823819
 31
0.0
  0
LINE
  5
78
330
1F
100
AcDbEntity
  8
LC-001-100-D00-0
 62
     7
370
    50
100
AcDbLine
 10
218.077941
 20
283.923821
 30
0.0
 11
218.077941
 21
283.823819
 31
0.0
  0
LINE
  5
79
330
1F
100
AcDbEntity
  8
LC-001-100-D00-0
 62
     7
370
    50
100
AcDbLine
 10
218.917941
 20
283.923821
 30
0.0
 11
218.077941
 21
283.923821
 31
0.0
  0
LINE
  5
7A
330
1F
100
AcDbEntity
  8
LC-001-100-D00-0
 62
     7
370
    50
100
AcDbLine
 10
218.917941
 20
283.823819
 30
0.0
 11
218.917941
 21
283.923821
 31
0.0
  0
LINE
  5
7B
330
1F
100
AcDbEntity
  8
LC-001-100-D00-0
 62
     7
370
    50
100
AcDbLine
 10
219.197941
 20
283.823819
 30
0.0
 11
218.917941
 21
283.823819
 31
0.0
  0
LINE
  5
7C
330
1F
100
AcDbEntity
  8
LC-001-100-D00-0
 62
     7
370
    50
100
AcDbLine
 10
219.197941
 20
283.923821
 30
0.0
 11
219.197941
 21
283.823819
 31
0.0
  0
LINE
  5
7D
330
1F
100
AcDbEntity
  8
LC-001-100-D00-0
 62
     7
370
    50
100
AcDbLine
 10
220.247941
 20
283.923821
 30
0.0
 11
219.197941
 21
283.923821
 31
0.0
  0
LINE
  5
7E
330
1F
100
AcDbEntity
  8
LC-001-100-D00-0
 62
     7
370
    50
100
AcDbLine
 10
220.247941
 20
283.923821
 30
0.0
 11
220.247941
 21
283.823819
 31
0.0
  0
LINE
  5
7F
330
1F
100
AcDbEntity
  8
LC-001-100-D00-0
 62
     7
370
    50
100
AcDbLine
 10
220.527941
 20
283.823819
 30
0.0
 11
220.247941
 21
283.823819
 31
0.0
  0
LINE
  5
80
330
1F
100
AcDbEntity
  8
LC-001-100-D00-0
 62
     7
370
    50
100
AcDbLine
 10
220.527941
 20
283.923821
 30
0.0
 11
220.527941
 21
283.823819
 31
0.0
  0
LINE
  5
81
330
1F
100
AcDbEntity
  8
LC-001-100-D00-0
 62
     7
370
    50
100
AcDbLine
 10
221.367941
 20
283.923821
 30
0.0
 11
220.527941
 21
283.923821
 31
0.0
  0
LINE
  5
82
330
1F
100
AcDbEntity
  8
LC-001-100-D00-0
 62
     7
370
    50
100
AcDbLine
 10
221.367941
 20
283.823819
 30
0.0
 11
221.367941
 21
283.923821
 31
0.0
  0
LINE
  5
83
330
1F
100
AcDbEntity
  8
LC-001-100-D00-0
 62
     7
370
    50
100
AcDbLine
 10
221.647941
 20
283.823819
 30
0.0
 11
221.367941
 21
283.823819
 31
0.0
  0
LINE
  5
84
330
1F
100
AcDbEntity
  8
LC-001-100-D00-0
 62
     7
370
    50
100
AcDbLine
 10
221.647941
 20
283.923821
 30
0.0
 11
221.647941
 21
283.823819
 31
0.0
  0
LINE
  5
85
330
1F
100
AcDbEntity
  8
LC-001-100-D00-0
 62
     7
370
    50
100
AcDbLine
 10
222.347941
 20
283.923821
 30
0.0
 11
222.347941
 21
283.823819
 31
0.0
  0
LINE
  5
86
330
1F
100
AcDbEntity
  8
LC-001-100-D00-0
 62
     7
370
    50
100
AcDbLine
 10
222.627941
 20
283.823819
 30
0.0
 11
222.347941
 21
283.823819
 31
0.0
  0
LINE
  5
87
330
1F
100
AcDbEntity
  8
LC-001-100-D00-0
 62
     7
370
    50
100
AcDbLine
 10
222.627941
 20
283.923821
 30
0.0
 11
222.627941
 21
283.823819
 31
0.0
  0
LINE
  5
88
330
1F
100
AcDbEntity
  8
LC-001-100-D00-0
 62
     7
370
    50
100
AcDbLine
 10
223.467941
 20
283.923821
 30
0.0
 11
222.627941
 21
283.923821
 31
0.0
  0
LINE
  5
89
330
1F
100
AcDbEntity
  8
LC-001-100-D00-0
 62
     7
370
    50
100
AcDbLine
 10
223.467941
 20
283.823819
 30
0.0
 11
223.467941
 21
283.923821
 31
0.0
  0
LINE
  5
8A
330
1F
100
AcDbEntity
  8
LC-001-100-D00-0
 62
     7
370
    50
100
AcDbLine
 10
225.847942
 20
283.823819
 30
0.0
 11
223.467941
 21
283.823819
 31
0.0
  0
LINE
  5
8B
330
1F
100
AcDbEntity
  8
LC-001-100-D00-0
 62
     7
370
    50
100
AcDbLine
 10
225.847942
 20
283.923821
 30
0.0
 11
225.847942
 21
283.823819
 31
0.0
  0
LINE
  5
8C
330
1F
100
AcDbEntity
  8
LC-001-100-D00-0
 62
     7
370
    50
100
AcDbLine
 10
226.547941
 20
283.923821
 30
0.0
 11
226.547941
 21
283.823819
 31
0.0
  0
LINE
  5
8D
330
1F
100
AcDbEntity
  8
LC-001-100-D00-0
 62
     7
370
    50
100
AcDbLine
 10
226.827942
 20
283.823819
 30
0.0
 11
226.547941
 21
283.823819
 31
0.0
  0
LINE
  5
8E
330
1F
100
AcDbEntity
  8
LC-001-100-D00-0
 62
     7
370
    50
100
AcDbLine
 10
226.827942
 20
283.923821
 30
0.0
 11
226.827942
 21
283.823819
 31
0.0
  0
LINE
  5
8F
330
1F
100
AcDbEntity
  8
LC-001-100-D00-0
 62
     7
370
    50
100
AcDbLine
 10
230.014094
 20
283.923821
 30
0.0
 11
226.827942
 21
283.923821
 31
0.0
  0
LINE
  5
90
330
1F
100
AcDbEntity
  8
LC-001-100-D00-0
 62
     7
370
    50
100
AcDbLine
 10
230.014094
 20
283.823819
 30
0.0
 11
230.014094
 21
283.923821
 31
0.0
  0
LINE
  5
91
330
1F
100
AcDbEntity
  8
LC-001-100-D00-0
 62
     7
370
    50
100
AcDbLine
 10
230.496633
 20
283.823819
 30
0.0
 11
230.014094
 21
283.823819
 31
0.0
  0
LINE
  5
92
330
1F
100
AcDbEntity
  8
LC-001-100-D00-0
 62
     7
370
    50
100
AcDbLine
 10
230.496633
 20
283.823819
 30
0.0
 11
230.496633
 21
283.923821
 31
0.0
  0
ARC
  5
93
330
1F
100
AcDbEntity
  8
LC-001-100-D00-0
 62
     7
370
    50
100
AcDbCircle
 10
270.42083
 20
281.673823
 30
0.0
 40
2.250000000000114
100
AcDbArc
 50
0.0
 51
90.0
  0
LINE
  5
94
330
1F
100
AcDbEntity
  8
LC-001-100-D00-0
 62
     7
370
    50
100
AcDbLine
 10
272.670831
 20
281.67382
 30
0.0
 11
272.670831
 21
278.923826
 31
0.0
  0
LINE
  5
95
330
1F
100
AcDbEntity
  8
LC-001-100-D00-0
 62
     7
370
    50
100
AcDbLine
 10
272.670831
 20
284.42383
 30
0.0
 11
271.170832
 21
284.42383
 31
0.0
  0
LINE
  5
96
330
1F
100
AcDbEntity
  8
LC-001-100-D00-0
 62
     7
370
    50
100
AcDbLine
 10
271.170832
 20
281.67382
 30
0.0
 11
271.170832
 21
278.923826
 31
0.0
  0
ARC
  5
97
330
1F
100
AcDbEntity
  8
LC-001-100-D00-0
 62
     7
370
    50
100
AcDbCircle
 10
270.42083
 20
281.673823
 30
0.0
 40
0.7500000000001137
100
AcDbArc
 50
0.0
 51
90.0
  0
LINE
  5
98
330
1F
100
AcDbEntity
  8
LC-001-100-D00-0
 62
     7
370
    50
100
AcDbLine
 10
270.42083
 20
282.423826
 30
0.0
 11
159.92083
 21
282.423826
 31
0.0
  0
ARC
  5
99
330
1F
100
AcDbEntity
  8
LC-001-100-D00-0
 62
     7
370
    50
100
AcDbCircle
 10
159.92083
 20
281.673823
 30
0.0
 40
0.7500000000001137
100
AcDbArc
 50
90.0
 51
180.0
  0
LINE
  5
9A
330
1F
100
AcDbEntity
  8
LC-001-100-D00-0
 62
     7
370
    50
100
AcDbLine
 10
159.170828
 20
278.923826
 30
0.0
 11
159.170828
 21
281.67382
 31
0.0
  0
LINE
  5
9B
330
1F
100
AcDbEntity
  8
LC-001-100-D00-0
 62
     7
370
    50
100
AcDbLine
 10
159.170828
 20
284.42383
 30
0.0
 11
157.670829
 21
284.42383
 31
0.0
  0
LINE
  5
9C
330
1F
100
AcDbEntity
  8
LC-001-100-D00-0
 62
     7
370
    50
100
AcDbLine
 10
157.670829
 20
278.923826
 30
0.0
 11
157.670829
 21
281.67382
 31
0.0
  0
ARC
  5
9D
330
1F
100
AcDbEntity
  8
LC-001-100-D00-0
 62
     7
370
    50
100
AcDbCircle
 10
159.92083
 20
281.673823
 30
0.0
 40
2.250000000000114
100
AcDbArc
 50
90.0
 51
180.0
  0
LINE
  5
9E
330
1F
100
AcDbEntity
  8
LC-001-100-D00-0
 62
     7
370
    50
100
AcDbLine
 10
199.247941
 20
283.923821
 30
0.0
 11
199.247941
 21
283.823819
 31
0.0
  0
LINE
  5
9F
330
1F
100
AcDbEntity
  8
LC-001-100-D00-0
 62
     7
370
    50
100
AcDbLine
 10
199.527941
 20
283.823819
 30
0.0
 11
199.247941
 21
283.823819
 31
0.0
  0
LINE
  5
A0
330
1F
100
AcDbEntity
  8
LC-001-100-D00-0
 62
     7
370
    50
100
AcDbLine
 10
199.527941
 20
283.923821
 30
0.0
 11
199.527941
 21
283.823819
 31
0.0
  0
LINE
  5
A1
330
1F
100
AcDbEntity
  8
LC-001-100-D00-0
 62
     7
370
    50
100
AcDbLine
 10
200.367941
 20
283.923821
 30
0.0
 11
199.527941
 21
283.923821
 31
0.0
  0
LINE
  5
A2
330
1F
100
AcDbEntity
  8
LC-001-100-D00-0
 62
     7
370
    50
100
AcDbLine
 10
200.367941
 20
283.823819
 30
0.0
 11
200.367941
 21
283.923821
 31
0.0
  0
LINE
  5
A3
330
1F
100
AcDbEntity
  8
LC-001-100-D00-0
 62
     7
370
    50
100
AcDbLine
 10
200.647942
 20
283.823819
 30
0.0
 11
200.367941
 21
283.823819
 31
0.0
  0
LINE
  5
A4
330
1F
100
AcDbEntity
  8
LC-001-100-D00-0
 62
     7
370
    50
100
AcDbLine
 10
200.647942
 20
283.923821
 30
0.0
 11
200.647942
 21
283.823819
 31
0.0
  0
LINE
  5
A5
330
1F
100
AcDbEntity
  8
LC-001-100-D00-0
 62
     7
370
    50
100
AcDbLine
 10
201.347941
 20
283.923821
 30
0.0
 11
200.647942
 21
283.923821
 31
0.0
  0
LINE
  5
A6
330
1F
100
AcDbEntity
  8
LC-001-100-D00-0
 62
     7
370
    50
100
AcDbLine
 10
201.347941
 20
283.923821
 30
0.0
 11
201.347941
 21
283.823819
 31
0.0
  0
LINE
  5
A7
330
1F
100
AcDbEntity
  8
LC-001-100-D00-0
 62
     7
370
    50
100
AcDbLine
 10
201.627942
 20
283.823819
 30
0.0
 11
201.347941
 21
283.823819
 31
0.0
  0
LINE
  5
A8
330
1F
100
AcDbEntity
  8
LC-001-100-D00-0
 62
     7
370
    50
100
AcDbLine
 10
201.627942
 20
283.923821
 30
0.0
 11
201.627942
 21
283.823819
 31
0.0
  0
LINE
  5
A9
330
1F
100
AcDbEntity
  8
LC-001-100-D00-0
 62
     7
370
    50
100
AcDbLine
 10
202.467941
 20
283.923821
 30
0.0
 11
201.627942
 21
283.923821
 31
0.0
  0
LINE
  5
AA
330
1F
100
AcDbEntity
  8
LC-001-100-D00-0
 62
     7
370
    50
100
AcDbLine
 10
202.467941
 20
283.823819
 30
0.0
 11
202.467941
 21
283.923821
 31
0.0
  0
LINE
  5
AB
330
1F
100
AcDbEntity
  8
LC-001-100-D00-0
 62
     7
370
    50
100
AcDbLine
 10
202.747942
 20
283.823819
 30
0.0
 11
202.467941
 21
283.823819
 31
0.0
  0
LINE
  5
AC
330
1F
100
AcDbEntity
  8
LC-001-100-D00-0
 62
     7
370
    50
100
AcDbLine
 10
202.747942
 20
283.923821
 30
0.0
 11
202.747942
 21
283.823819
 31
0.0
  0
LINE
  5
AD
330
1F
100
AcDbEntity
  8
LC-001-100-D00-0
 62
     7
370
    50
100
AcDbLine
 10
203.447941
 20
283.923821
 30
0.0
 11
203.447941
 21
283.823819
 31
0.0
  0
LINE
  5
AE
330
1F
100
AcDbEntity
  8
LC-001-100-D00-0
 62
     7
370
    50
100
AcDbLine
 10
203.727941
 20
283.823819
 30
0.0
 11
203.447941
 21
283.823819
 31
0.0
  0
LINE
  5
AF
330
1F
100
AcDbEntity
  8
LC-001-100-D00-0
 62
     7
370
    50
100
AcDbLine
 10
203.727941
 20
283.923821
 30
0.0
 11
203.727941
 21
283.823819
 31
0.0
  0
LINE
  5
B0
330
1F
100
AcDbEntity
  8
LC-001-100-D00-0
 62
     7
370
    50
100
AcDbLine
 10
207.367941
 20
283.923821
 30
0.0
 11
203.727941
 21
283.923821
 31
0.0
  0
LINE
  5
B1
330
1F
100
AcDbEntity
  8
LC-001-100-D00-0
 62
     7
370
    50
100
AcDbLine
 10
207.367941
 20
283.823819
 30
0.0
 11
207.367941
 21
283.923821
 31
0.0
  0
LINE
  5
B2
330
1F
100
AcDbEntity
  8
LC-001-100-D00-0
 62
     7
370
    50
100
AcDbLine
 10
207.647941
 20
283.823819
 30
0.0
 11
207.367941
 21
283.823819
 31
0.0
  0
LINE
  5
B3
330
1F
100
AcDbEntity
  8
LC-001-100-D00-0
 62
     7
370
    50
100
AcDbLine
 10
207.647941
 20
283.923821
 30
0.0
 11
207.647941
 21
283.823819
 31
0.0
  0
LINE
  5
B4
330
1F
100
AcDbEntity
  8
LC-001-100-D00-0
 62
     7
370
    50
100
AcDbLine
 10
208.347941
 20
283.923821
 30
0.0
 11
208.347941
 21
283.823819
 31
0.0
  0
LINE
  5
B5
330
1F
100
AcDbEntity
  8
LC-001-100-D00-0
 62
     7
370
    50
100
AcDbLine
 10
208.627941
 20
283.823819
 30
0.0
 11
208.347941
 21
283.823819
 31
0.0
  0
LINE
  5
B6
330
1F
100
AcDbEntity
  8
LC-001-100-D00-0
 62
     7
370
    50
100
AcDbLine
 10
208.627941
 20
283.923821
 30
0.0
 11
208.627941
 21
283.823819
 31
0.0
  0
LINE
  5
B7
330
1F
100
AcDbEntity
  8
LC-001-100-D00-0
 62
     7
370
    50
100
AcDbLine
 10
209.467941
 20
283.923821
 30
0.0
 11
208.627941
 21
283.923821
 31
0.0
  0
LINE
  5
B8
330
1F
100
AcDbEntity
  8
LC-001-100-D00-0
 62
     7
370
    50
100
AcDbLine
 10
209.467941
 20
283.823819
 30
0.0
 11
209.467941
 21
283.923821
 31
0.0
  0
LINE
  5
B9
330
1F
100
AcDbEntity
  8
LC-001-100-D00-0
 62
     7
370
    50
100
AcDbLine
 10
226.547941
 20
283.923821
 30
0.0
 11
225.847942
 21
283.923821
 31
0.0
  0
LINE
  5
BA
330
1F
100
AcDbEntity
  8
LC-001-100-D00-0
 62
     7
370
    50
100
AcDbLine
 10
222.347941
 20
283.923821
 30
0.0
 11
221.647941
 21
283.923821
 31
0.0
  0
LINE
  5
BB
330
1F
100
AcDbEntity
  8
LC-001-100-D00-0
 62
     7
370
    50
100
AcDbLine
 10
215.347941
 20
283.923821
 30
0.0
 11
213.247941
 21
283.923821
 31
0.0
  0
LINE
  5
BC
330
1F
100
AcDbEntity
  8
LC-001-100-D00-0
 62
     7
370
    50
100
AcDbLine
 10
211.847941
 20
283.923821
 30
0.0
 11
209.747941
 21
283.923821
 31
0.0
  0
LINE
  5
BD
330
1F
100
AcDbEntity
  8
LC-001-100-D00-0
 62
     7
370
    50
100
AcDbLine
 10
208.347941
 20
283.923821
 30
0.0
 11
207.647941
 21
283.923821
 31
0.0
  0
LINE
  5
BE
330
1F
100
AcDbEntity
  8
LC-001-100-D00-0
 62
     7
370
    50
100
AcDbLine
 10
203.447941
 20
283.923821
 30
0.0
 11
202.747942
 21
283.923821
 31
0.0
  0
LINE
  5
BF
330
1F
100
AcDbEntity
  8
LC-001-100-D00-0
 62
     7
370
    50
100
AcDbLine
 10
199.247941
 20
283.923821
 30
0.0
 11
159.92083
 21
283.923821
 31
0.0
  0
LINE
  5
C0
330
1F
100
AcDbEntity
  8
LC-001-100-D00-0
 62
     7
370
    50
100
AcDbLine
 10
270.42083
 20
283.923821
 30
0.0
 11
230.496633
 21
283.923821
 31
0.0
  0
LINE
  5
C1
330
1F
100
AcDbEntity
  8
LC-001-100-D00-0
 62
     7
370
    50
100
AcDbLine
 10
271.170832
 20
284.42383
 30
0.0
 11
159.170828
 21
284.42383
 31
0.0
  0
LINE
  5
C2
330
1F
100
AcDbEntity
  8
LC-001-100-D00-0
 62
     7
370
    50
100
AcDbLine
 10
230.467941
 20
283.823819
 30
0.0
 11
230.467941
 21
283.923821
 31
0.0
  0
LINE
  5
C3
330
1F
100
AcDbEntity
  8
LC-001-100-D00-0
 62
     7
370
    50
100
AcDbLine
 10
230.014094
 20
283.923821
 30
0.0
 11
230.467941
 21
283.923821
 31
0.0
  0
LINE
  5
C4
330
1F
100
AcDbEntity
  8
LC-001-100-D00-0
 62
     7
370
    50
100
AcDbLine
 10
225.567941
 20
283.823819
 30
0.0
 11
225.567941
 21
283.923821
 31
0.0
  0
LINE
  5
C5
330
1F
100
AcDbEntity
  8
LC-001-100-D00-0
 62
     7
370
    50
100
AcDbLine
 10
223.467941
 20
283.923821
 30
0.0
 11
225.567941
 21
283.923821
 31
0.0
  0
LINE
  5
C6
330
1F
100
AcDbEntity
  8
LC-001-100-D00-0
 62
     7
370
    50
100
AcDbLine
 10
225.847942
 20
283.923821
 30
0.0
 11
225.567941
 21
283.923821
 31
0.0
  0
LINE
  5
C7
330
1F
100
AcDbEntity
  8
LC-001-100-D00-0
 62
     7
370
    50
100
AcDbLine
 10
201.627942
 20
283.923821
 30
0.0
 11
201.347951
 21
283.923821
 31
0.0
  0
LINE
  5
C8
330
1F
100
AcDbEntity
  8
LC-001-100-D00-0
 62
     7
370
    50
100
AcDbLine
 10
216.747932
 20
283.923821
 30
0.0
 11
216.467941
 21
283.923821
 31
0.0
  0
LINE
  5
C9
330
1F
100
AcDbEntity
  8
LC-001-100-D00-0
 62
     7
370
    50
100
AcDbLine
 10
218.077941
 20
283.923821
 30
0.0
 11
217.797951
 21
283.923821
 31
0.0
  0
LINE
  5
CA
330
1F
100
AcDbEntity
  8
LC-001-100-D00-0
 62
     7
370
    50
100
AcDbLine
 10
219.197932
 20
283.923821
 30
0.0
 11
218.917941
 21
283.923821
 31
0.0
  0
LINE
  5
CB
330
1F
100
AcDbEntity
  8
LC-001-100-D00-0
 62
     7
370
    50
100
AcDbLine
 10
220.527941
 20
283.923821
 30
0.0
 11
220.247951
 21
283.923821
 31
0.0
  0
LINE
  5
CC
330
1F
100
AcDbEntity
  8
LC-001-100-D00-0
 62
     7
370
    50
100
AcDbLine
 10
200.367941
 20
283.923821
 30
0.0
 11
200.647942
 21
283.923821
 31
0.0
  0
LINE
  5
CD
330
1F
100
AcDbEntity
  8
LC-001-100-D00-0
 62
     7
370
    50
100
AcDbLine
 10
202.747942
 20
283.923821
 30
0.0
 11
202.467941
 21
283.923821
 31
0.0
  0
LINE
  5
CE
330
1F
100
AcDbEntity
  8
LC-001-100-D00-0
 62
     7
370
    50
100
AcDbLine
 10
203.727941
 20
283.923821
 30
0.0
 11
203.447941
 21
283.923821
 31
0.0
  0
LINE
  5
CF
330
1F
100
AcDbEntity
  8
LC-001-100-D00-0
 62
     7
370
    50
100
AcDbLine
 10
207.647941
 20
283.923821
 30
0.0
 11
207.367941
 21
283.923821
 31
0.0
  0
LINE
  5
D0
330
1F
100
AcDbEntity
  8
LC-001-100-D00-0
 62
     7
370
    50
100
AcDbLine
 10
215.627941
 20
283.923821
 30
0.0
 11
215.347941
 21
283.923821
 31
0.0
  0
LINE
  5
D1
330
1F
100
AcDbEntity
  8
LC-001-100-D00-0
 62
     7
370
    50
100
AcDbLine
 10
221.647941
 20
283.923821
 30
0.0
 11
221.367941
 21
283.923821
 31
0.0
  0
LINE
  5
D2
330
1F
100
AcDbEntity
  8
LC-001-100-D00-0
 62
     7
370
    50
100
AcDbLine
 10
226.547941
 20
283.923821
 30
0.0
 11
226.827942
 21
283.923821
 31
0.0
  0
LINE
  5
D3
330
1F
100
AcDbEntity
  8
LC-001-100-D00-0
 62
     7
370
    50
100
AcDbLine
 10
199.247941
 20
283.923821
 30
0.0
 11
199.527941
 21
283.923821
 31
0.0
  0
LINE
  5
D4
330
1F
100
AcDbEntity
  8
LC-001-100-D00-0
 62
     7
370
    50
100
AcDbLine
 10
208.347941
 20
283.923821
 30
0.0
 11
208.627941
 21
283.923821
 31
0.0
  0
LINE
  5
D5
330
1F
100
AcDbEntity
  8
LC-001-100-D00-0
 62
     7
370
    50
100
AcDbLine
 10
209.467941
 20
283.923821
 30
0.0
 11
209.747941
 21
283.923821
 31
0.0
  0
LINE
  5
D6
330
1F
100
AcDbEntity
  8
LC-001-100-D00-0
 62
     7
370
    50
100
AcDbLine
 10
211.847941
 20
283.923821
 30
0.0
 11
212.127941
 21
283.923821
 31
0.0
  0
LINE
  5
D7
330
1F
100
AcDbEntity
  8
LC-001-100-D00-0
 62
     7
370
    50
100
AcDbLine
 10
212.967941
 20
283.923821
 30
0.0
 11
213.247941
 21
283.923821
 31
0.0
  0
LINE
  5
D8
330
1F
100
AcDbEntity
  8
LC-001-100-D00-0
 62
     7
370
    50
100
AcDbLine
 10
222.347941
 20
283.923821
 30
0.0
 11
222.627941
 21
283.923821
 31
0.0
  0
LINE
  5
D9
330
1F
100
AcDbEntity
  8
LC-001-100-D00-0
 62
     7
370
    50
100
AcDbLine
 10
253.230478
 20
279.723825
 30
0.0
 11
244.353134
 21
279.723825
 31
0.0
  0
LINE
  5
DA
330
1F
100
AcDbEntity
  8
LC-001-100-D00-0
 62
     7
370
    50
100
AcDbLine
 10
230.950152
 20
279.723825
 30
0.0
 11
239.627031
 21
279.723825
 31
0.0
  0
LINE
  5
DB
330
1F
100
AcDbEntity
  8
LC-001-100-D00-0
 62
     7
370
    50
100
AcDbLine
 10
266.492299
 20
279.723825
 30
0.0
 11
257.55658
 21
279.723825
 31
0.0
  0
LINE
  5
DC
330
1F
100
AcDbEntity
  8
LC-001-100-D00-0
 62
     7
370
    50
100
AcDbLine
 10
190.714629
 20
279.723825
 30
0.0
 11
199.391508
 21
279.723825
 31
0.0
  0
LINE
  5
DD
330
1F
100
AcDbEntity
  8
LC-001-100-D00-0
 62
     7
370
    50
100
AcDbLine
 10
185.988527
 20
279.723825
 30
0.0
 11
177.111182
 21
279.723825
 31
0.0
  0
LINE
  5
DE
330
1F
100
AcDbEntity
  8
LC-001-100-D00-0
 62
     7
370
    50
100
AcDbLine
 10
172.785081
 20
279.723825
 30
0.0
 11
163.849361
 21
279.723825
 31
0.0
  0
LINE
  5
DF
330
1F
100
AcDbEntity
  8
LC-001-100-D00-0
 62
     7
370
    50
100
AcDbLine
 10
221.496412
 20
279.723825
 30
0.0
 11
230.950152
 21
279.723825
 31
0.0
  0
LINE
  5
E0
330
1F
100
AcDbEntity
  8
LC-001-100-D00-0
 62
     7
370
    50
100
AcDbLine
 10
199.391508
 20
279.723825
 30
0.0
 11
208.845249
 21
279.723825
 31
0.0
  0
LINE
  5
E1
330
1F
100
AcDbEntity
  8
LC-001-100-D00-0
 62
     7
370
    50
100
AcDbLine
 10
244.353134
 20
279.723825
 30
0.0
 11
239.627031
 21
279.723825
 31
0.0
  0
LINE
  5
E2
330
1F
100
AcDbEntity
  8
LC-001-100-D00-0
 62
     7
370
    50
100
AcDbLine
 10
190.714629
 20
279.723825
 30
0.0
 11
185.988527
 21
279.723825
 31
0.0
  0
LINE
  5
E3
330
1F
100
AcDbEntity
  8
LC-001-100-D00-0
 62
     7
370
    50
100
AcDbLine
 10
257.55658
 20
279.723825
 30
0.0
 11
253.230478
 21
279.723825
 31
0.0
  0
LINE
  5
E4
330
1F
100
AcDbEntity
  8
LC-001-100-D00-0
 62
     7
370
    50
100
AcDbLine
 10
177.111182
 20
279.723825
 30
0.0
 11
172.785081
 21
279.723825
 31
0.0
  0
LINE
  5
E5
330
1F
100
AcDbEntity
  8
LC-001-100-D00-0
 62
     7
370
    50
100
AcDbLine
 10
218.67083
 20
279.723825
 30
0.0
 11
221.496412
 21
279.723825
 31
0.0
  0
LINE
  5
E6
330
1F
100
AcDbEntity
  8
LC-001-100-D00-0
 62
     7
370
    50
100
AcDbLine
 10
208.845249
 20
279.723825
 30
0.0
 11
211.67083
 21
279.723825
 31
0.0
  0
CIRCLE
  5
E7
330
1F
100
AcDbEntity
  8
LC-001-100-D00-0
 62
     7
370
    50
100
AcDbCircle
 10
165.42083
 20
275.122964
 30
0.0
 40
1.25
  0
CIRCLE
  5
E8
330
1F
100
AcDbEntity
  8
LC-001-100-D00-0
 62
     7
370
    50
100
AcDbCircle
 10
264.92083
 20
275.122964
 30
0.0
 40
1.25
  0
CIRCLE
  5
E9
330
1F
100
AcDbEntity
  8
LC-001-100-D00-0
 62
     7
370
    50
100
AcDbCircle
 10
175.92083
 20
273.544097
 30
0.0
 40
1.25
  0
CIRCLE
  5
EA
330
1F
100
AcDbEntity
  8
LC-001-100-D00-0
 62
     7
370
    50
100
AcDbCircle
 10
254.42083
 20
273.544097
 30
0.0
 40
1.249999999999943
  0
LINE
  5
EB
330
1F
100
AcDbEntity
  8
LC-001-100-D00-0
 62
     7
370
    50
100
AcDbLine
 10
163.120832
 20
168.868357
 30
0.0
 11
163.135841
 21
168.868357
 31
0.0
  0
LINE
  5
EC
330
1F
100
AcDbEntity
  8
LC-001-100-D00-0
 62
     7
370
    50
100
AcDbLine
 10
267.205819
 20
168.868357
 30
0.0
 11
267.220828
 21
168.868357
 31
0.0
  0
LINE
  5
ED
330
1F
100
AcDbEntity
  8
LC-001-100-D00-0
 62
     7
370
    50
100
AcDbLine
 10
267.220828
 20
163.868354
 30
0.0
 11
274.420831
 21
163.868354
 31
0.0
  0
LINE
  5
EE
330
1F
100
AcDbEntity
  8
LC-001-100-D00-0
 62
     7
370
    50
100
AcDbLine
 10
155.920829
 20
163.868354
 30
0.0
 11
163.120832
 21
163.868354
 31
0.0
  0
LINE
  5
EF
330
1F
100
AcDbEntity
  8
LC-001-100-D00-0
 62
     7
370
    50
100
AcDbLine
 10
169.092387
 20
168.868357
 30
0.0
 11
169.482209
 21
168.868357
 31
0.0
  0
LINE
  5
F0
330
1F
100
AcDbEntity
  8
LC-001-100-D00-0
 62
     7
370
    50
100
AcDbLine
 10
169.482209
 20
168.868357
 30
0.0
 11
170.732207
 21
168.868357
 31
0.0
  0
LINE
  5
F1
330
1F
100
AcDbEntity
  8
LC-001-100-D00-0
 62
     7
370
    50
100
AcDbLine
 10
251.420829
 20
274.994092
 30
0.0
 11
251.420829
 21
266.994105
 31
0.0
  0
LINE
  5
F2
330
1F
100
AcDbEntity
  8
LC-001-100-D00-0
 62
     7
370
    50
100
AcDbLine
 10
178.920831
 20
266.994105
 30
0.0
 11
178.920831
 21
274.994092
 31
0.0
  0
LINE
  5
F3
330
1F
100
AcDbEntity
  8
LC-001-100-D00-0
 62
     7
370
    50
100
AcDbLine
 10
257.670831
 20
274.794103
 30
0.0
 11
257.670831
 21
276.994096
 31
0.0
  0
LINE
  5
F4
330
1F
100
AcDbEntity
  8
LC-001-100-D00-0
 62
     7
370
    50
100
AcDbLine
 10
172.67083
 20
276.994096
 30
0.0
 11
172.67083
 21
274.794103
 31
0.0
  0
LINE
  5
F5
330
1F
100
AcDbEntity
  8
LC-001-100-D00-0
 62
     7
370
    50
100
AcDbLine
 10
256.97083
 20
272.294091
 30
0.0
 11
255.67083
 21
272.294091
 31
0.0
  0
LINE
  5
F6
330
1F
100
AcDbEntity
  8
LC-001-100-D00-0
 62
     7
370
    50
100
AcDbLine
 10
256.97083
 20
270.494105
 30
0.0
 11
256.97083
 21
272.294091
 31
0.0
  0
LINE
  5
F7
330
1F
100
AcDbEntity
  8
LC-001-100-D00-0
 62
     7
370
    50
100
AcDbLine
 10
253.67083
 20
270.494105
 30
0.0
 11
256.97083
 21
270.494105
 31
0.0
  0
LINE
  5
F8
330
1F
100
AcDbEntity
  8
LC-001-100-D00-0
 62
     7
370
    50
100
AcDbLine
 10
253.67083
 20
263.45946
 30
0.0
 11
253.67083
 21
270.494105
 31
0.0
  0
ARC
  5
F9
330
1F
100
AcDbEntity
  8
LC-001-100-D00-0
 62
     7
370
    50
100
AcDbCircle
 10
248.17083
 20
252.794098
 30
0.0
 40
12.0
100
AcDbArc
 50
62.720388
 51
180.0
  0
LINE
  5
FA
330
1F
100
AcDbEntity
  8
LC-001-100-D00-0
 62
     7
370
    50
100
AcDbLine
 10
236.17083
 20
201.994093
 30
0.0
 11
236.17083
 21
252.794103
 31
0.0
  0
LINE
  5
FB
330
1F
100
AcDbEntity
  8
LC-001-100-D00-0
 62
     7
370
    50
100
AcDbLine
 10
235.17083
 20
201.994093
 30
0.0
 11
236.17083
 21
201.994093
 31
0.0
  0
LINE
  5
FC
330
1F
100
AcDbEntity
  8
LC-001-100-D00-0
 62
     7
370
    50
100
AcDbLine
 10
235.17083
 20
252.994092
 30
0.0
 11
235.17083
 21
201.994093
 31
0.0
  0
ARC
  5
FD
330
1F
100
AcDbEntity
  8
LC-001-100-D00-0
 62
     7
370
    50
100
AcDbCircle
 10
248.17083
 20
252.994099
 30
0.0
 40
13.0
100
AcDbArc
 50
90.0
 51
180.0
  0
LINE
  5
FE
330
1F
100
AcDbEntity
  8
LC-001-100-D00-0
 62
     7
370
    50
100
AcDbLine
 10
250.420831
 20
265.994103
 30
0.0
 11
248.17083
 21
265.994103
 31
0.0
  0
ARC
  5
FF
330
1F
100
AcDbEntity
  8
LC-001-100-D00-0
 62
     7
370
    50
100
AcDbCircle
 10
250.42083
 20
266.994099
 30
0.0
 40
1.0
100
AcDbArc
 50
270.0
 51
0.0
  0
ARC
  5
100
330
1F
100
AcDbEntity
  8
LC-001-100-D00-0
 62
     7
370
    50
100
AcDbCircle
 10
253.42083
 20
274.994097
 30
0.0
 40
2.0
100
AcDbArc
 50
90.0
 51
180.0
  0
LINE
  5
101
330
1F
100
AcDbEntity
  8
LC-001-100-D00-0
 62
     7
370
    50
100
AcDbLine
 10
255.67083
 20
274.794103
 30
0.0
 11
257.670831
 21
274.794103
 31
0.0
  0
LINE
  5
102
330
1F
100
AcDbEntity
  8
LC-001-100-D00-0
 62
     7
370
    50
100
AcDbLine
 10
255.67083
 20
272.294091
 30
0.0
 11
255.67083
 21
274.794103
 31
0.0
  0
LINE
  5
103
330
1F
100
AcDbEntity
  8
LC-001-100-D00-0
 62
     7
370
    50
100
AcDbLine
 10
257.670831
 20
276.994096
 30
0.0
 11
253.420829
 21
276.994096
 31
0.0
  0
ARC
  5
104
330
1F
100
AcDbEntity
  8
LC-001-100-D00-0
 62
     7
370
    50
100
AcDbCircle
 10
176.92083
 20
274.994097
 30
0.0
 40
2.0
100
AcDbArc
 50
0.0
 51
90.0
  0
ARC
  5
105
330
1F
100
AcDbEntity
  8
LC-001-100-D00-0
 62
     7
370
    50
100
AcDbCircle
 10
179.92083
 20
266.994099
 30
0.0
 40
1.0
100
AcDbArc
 50
180.0
 51
270.0
  0
LINE
  5
106
330
1F
100
AcDbEntity
  8
LC-001-100-D00-0
 62
     7
370
    50
100
AcDbLine
 10
182.17083
 20
265.994103
 30
0.0
 11
179.92083
 21
265.994103
 31
0.0
  0
ARC
  5
107
330
1F
100
AcDbEntity
  8
LC-001-100-D00-0
 62
     7
370
    50
100
AcDbCircle
 10
182.17083
 20
252.994099
 30
0.0
 40
13.0
100
AcDbArc
 50
0.0
 51
90.0
  0
LINE
  5
108
330
1F
100
AcDbEntity
  8
LC-001-100-D00-0
 62
     7
370
    50
100
AcDbLine
 10
195.170831
 20
201.994093
 30
0.0
 11
195.170831
 21
252.994092
 31
0.0
  0
LINE
  5
109
330
1F
100
AcDbEntity
  8
LC-001-100-D00-0
 62
     7
370
    50
100
AcDbLine
 10
194.17083
 20
201.994093
 30
0.0
 11
195.170831
 21
201.994093
 31
0.0
  0
LINE
  5
10A
330
1F
100
AcDbEntity
  8
LC-001-100-D00-0
 62
     7
370
    50
100
AcDbLine
 10
194.17083
 20
252.794103
 30
0.0
 11
194.17083
 21
201.994093
 31
0.0
  0
ARC
  5
10B
330
1F
100
AcDbEntity
  8
LC-001-100-D00-0
 62
     7
370
    50
100
AcDbCircle
 10
182.17083
 20
252.794098
 30
0.0
 40
12.0
100
AcDbArc
 50
0.0
 51
117.279612
  0
LINE
  5
10C
330
1F
100
AcDbEntity
  8
LC-001-100-D00-0
 62
     7
370
    50
100
AcDbLine
 10
176.67083
 20
270.494105
 30
0.0
 11
176.67083
 21
263.45946
 31
0.0
  0
LINE
  5
10D
330
1F
100
AcDbEntity
  8
LC-001-100-D00-0
 62
     7
370
    50
100
AcDbLine
 10
173.37083
 20
270.494105
 30
0.0
 11
176.67083
 21
270.494105
 31
0.0
  0
LINE
  5
10E
330
1F
100
AcDbEntity
  8
LC-001-100-D00-0
 62
     7
370
    50
100
AcDbLine
 10
173.37083
 20
272.294091
 30
0.0
 11
173.37083
 21
270.494105
 31
0.0
  0
LINE
  5
10F
330
1F
100
AcDbEntity
  8
LC-001-100-D00-0
 62
     7
370
    50
100
AcDbLine
 10
174.67083
 20
272.294091
 30
0.0
 11
173.37083
 21
272.294091
 31
0.0
  0
LINE
  5
110
330
1F
100
AcDbEntity
  8
LC-001-100-D00-0
 62
     7
370
    50
100
AcDbLine
 10
174.67083
 20
274.794103
 30
0.0
 11
174.67083
 21
272.294091
 31
0.0
  0
LINE
  5
111
330
1F
100
AcDbEntity
  8
LC-001-100-D00-0
 62
     7
370
    50
100
AcDbLine
 10
172.67083
 20
274.794103
 30
0.0
 11
174.67083
 21
274.794103
 31
0.0
  0
LINE
  5
112
330
1F
100
AcDbEntity
  8
LC-001-100-D00-0
 62
     7
370
    50
100
AcDbLine
 10
176.920831
 20
276.994096
 30
0.0
 11
172.67083
 21
276.994096
 31
0.0
  0
LINE
  5
113
330
1F
100
AcDbEntity
  8
LC-001-100-D00-0
 62
     7
370
    50
100
AcDbLine
 10
253.420829
 20
276.994096
 30
0.0
 11
176.920831
 21
276.994096
 31
0.0
  0
LINE
  5
114
330
1F
100
AcDbEntity
  8
LC-001-100-D00-0
 62
     7
370
    50
100
AcDbLine
 10
248.17083
 20
265.994103
 30
0.0
 11
182.17083
 21
265.994103
 31
0.0
  0
LINE
  5
115
330
1F
100
AcDbEntity
  8
LC-001-100-D00-0
 62
     7
370
    50
100
AcDbLine
 10
253.67083
 20
263.45946
 30
0.0
 11
242.67083
 21
263.45946
 31
0.0
  0
LINE
  5
116
330
1F
100
AcDbEntity
  8
LC-001-100-D00-0
 62
     7
370
    50
100
AcDbLine
 10
187.67083
 20
263.45946
 30
0.0
 11
176.67083
 21
263.45946
 31
0.0
  0
LINE
  5
117
330
1F
100
AcDbEntity
  8
LC-001-100-D00-0
 62
     7
370
    50
100
AcDbLine
 10
235.17083
 20
201.994093
 30
0.0
 11
195.170831
 21
201.994093
 31
0.0
  0
LINE
  5
118
330
1F
100
AcDbEntity
  8
LC-001-100-D00-0
 62
     7
370
    50
100
AcDbLine
 10
254.170831
 20
270.494105
 30
0.0
 11
257.670831
 21
270.494105
 31
0.0
  0
LINE
  5
119
330
1F
100
AcDbEntity
  8
LC-001-100-D00-0
 62
     7
370
    50
100
AcDbLine
 10
257.670831
 20
270.494105
 30
0.0
 11
257.670831
 21
268.994094
 31
0.0
  0
LINE
  5
11A
330
1F
100
AcDbEntity
  8
LC-001-100-D00-0
 62
     7
370
    50
100
AcDbLine
 10
257.670831
 20
268.994094
 30
0.0
 11
255.67083
 21
268.994094
 31
0.0
  0
LINE
  5
11B
330
1F
100
AcDbEntity
  8
LC-001-100-D00-0
 62
     7
370
    50
100
AcDbLine
 10
255.67083
 20
268.994094
 30
0.0
 11
255.67083
 21
263.694094
 31
0.0
  0
ARC
  5
11C
330
1F
100
AcDbEntity
  8
LC-001-100-D00-0
 62
     7
370
    50
100
AcDbCircle
 10
254.17083
 20
263.694098
 30
0.0
 40
1.499999999999999
100
AcDbArc
 50
327.492476
 51
0.0
  0
LINE
  5
11D
330
1F
100
AcDbEntity
  8
LC-001-100-D00-0
 62
     7
370
    50
100
AcDbLine
 10
255.435813
 20
262.887986
 30
0.0
 11
247.670829
 21
250.702934
 31
0.0
  0
LINE
  5
11E
330
1F
100
AcDbEntity
  8
LC-001-100-D00-0
 62
     7
370
    50
100
AcDbLine
 10
247.670829
 20
250.702934
 30
0.0
 11
247.670829
 21
199.494095
 31
0.0
  0
ARC
  5
11F
330
1F
100
AcDbEntity
  8
LC-001-100-D00-0
 62
     7
370
    50
100
AcDbCircle
 10
237.67083
 20
199.494098
 30
0.0
 40
10.00000000000006
100
AcDbArc
 50
270.0
 51
0.0
  0
LINE
  5
120
330
1F
100
AcDbEntity
  8
LC-001-100-D00-0
 62
     7
370
    50
100
AcDbLine
 10
237.670831
 20
189.494105
 30
0.0
 11
192.670829
 21
189.494105
 31
0.0
  0
ARC
  5
121
330
1F
100
AcDbEntity
  8
LC-001-100-D00-0
 62
     7
370
    50
100
AcDbCircle
 10
192.67083
 20
199.494098
 30
0.0
 40
10.00000000000006
100
AcDbArc
 50
180.0
 51
270.0
  0
LINE
  5
122
330
1F
100
AcDbEntity
  8
LC-001-100-D00-0
 62
     7
370
    50
100
AcDbLine
 10
182.670831
 20
199.494095
 30
0.0
 11
182.670831
 21
250.702934
 31
0.0
  0
LINE
  5
123
330
1F
100
AcDbEntity
  8
LC-001-100-D00-0
 62
     7
370
    50
100
AcDbLine
 10
182.670831
 20
250.702934
 30
0.0
 11
174.905847
 21
262.887986
 31
0.0
  0
ARC
  5
124
330
1F
100
AcDbEntity
  8
LC-001-100-D00-0
 62
     7
370
    50
100
AcDbCircle
 10
176.17083
 20
263.694098
 30
0.0
 40
1.500000000000057
100
AcDbArc
 50
180.0
 51
212.507524
  0
LINE
  5
125
330
1F
100
AcDbEntity
  8
LC-001-100-D00-0
 62
     7
370
    50
100
AcDbLine
 10
174.67083
 20
263.694094
 30
0.0
 11
174.67083
 21
268.994094
 31
0.0
  0
LINE
  5
126
330
1F
100
AcDbEntity
  8
LC-001-100-D00-0
 62
     7
370
    50
100
AcDbLine
 10
174.67083
 20
268.994094
 30
0.0
 11
172.67083
 21
268.994094
 31
0.0
  0
LINE
  5
127
330
1F
100
AcDbEntity
  8
LC-001-100-D00-0
 62
     7
370
    50
100
AcDbLine
 10
172.67083
 20
268.994094
 30
0.0
 11
172.67083
 21
270.494105
 31
0.0
  0
LINE
  5
128
330
1F
100
AcDbEntity
  8
LC-001-100-D00-0
 62
     7
370
    50
100
AcDbLine
 10
172.67083
 20
270.494105
 30
0.0
 11
176.170829
 21
270.494105
 31
0.0
  0
LINE
  5
129
330
1F
100
AcDbEntity
  8
LC-001-100-D00-0
 62
     7
370
    50
100
AcDbLine
 10
176.170829
 20
270.494105
 30
0.0
 11
176.170829
 21
263.694094
 31
0.0
  0
LINE
  5
12A
330
1F
100
AcDbEntity
  8
LC-001-100-D00-0
 62
     7
370
    50
100
AcDbLine
 10
176.170829
 20
263.694094
 30
0.0
 11
182.670831
 21
253.4941
 31
0.0
  0
LINE
  5
12B
330
1F
100
AcDbEntity
  8
LC-001-100-D00-0
 62
     7
370
    50
100
AcDbLine
 10
182.670831
 20
253.4941
 30
0.0
 11
184.170831
 21
253.4941
 31
0.0
  0
LINE
  5
12C
330
1F
100
AcDbEntity
  8
LC-001-100-D00-0
 62
     7
370
    50
100
AcDbLine
 10
184.170831
 20
253.4941
 30
0.0
 11
184.170831
 21
199.494095
 31
0.0
  0
ARC
  5
12D
330
1F
100
AcDbEntity
  8
LC-001-100-D00-0
 62
     7
370
    50
100
AcDbCircle
 10
192.67083
 20
199.494098
 30
0.0
 40
8.5
100
AcDbArc
 50
180.0
 51
270.0
  0
LINE
  5
12E
330
1F
100
AcDbEntity
  8
LC-001-100-D00-0
 62
     7
370
    50
100
AcDbLine
 10
192.670829
 20
190.9941
 30
0.0
 11
237.670831
 21
190.9941
 31
0.0
  0
ARC
  5
12F
330
1F
100
AcDbEntity
  8
LC-001-100-D00-0
 62
     7
370
    50
100
AcDbCircle
 10
237.67083
 20
199.494098
 30
0.0
 40
8.5
100
AcDbArc
 50
270.0
 51
0.0
  0
LINE
  5
130
330
1F
100
AcDbEntity
  8
LC-001-100-D00-0
 62
     7
370
    50
100
AcDbLine
 10
246.17083
 20
199.494095
 30
0.0
 11
246.17083
 21
253.4941
 31
0.0
  0
LINE
  5
131
330
1F
100
AcDbEntity
  8
LC-001-100-D00-0
 62
     7
370
    50
100
AcDbLine
 10
246.17083
 20
253.4941
 30
0.0
 11
247.670829
 21
253.4941
 31
0.0
  0
LINE
  5
132
330
1F
100
AcDbEntity
  8
LC-001-100-D00-0
 62
     7
370
    50
100
AcDbLine
 10
247.670829
 20
253.4941
 30
0.0
 11
254.170831
 21
263.694094
 31
0.0
  0
LINE
  5
133
330
1F
100
AcDbEntity
  8
LC-001-100-D00-0
 62
     7
370
    50
100
AcDbLine
 10
254.170831
 20
263.694094
 30
0.0
 11
254.170831
 21
270.494105
 31
0.0
  0
INSERT
  5
13F
330
1F
100
AcDbEntity
  8
LC-001-100-D00-0
 62
     7
370
    50
100
AcDbBlockReference
  2
POLY3
 10
0.0
 20
0.0
 30
0.0
  0
LINE
  5
140
330
1F
100
AcDbEntity
  8
LC-001-100-D00-0
 62
     7
370
    50
100
AcDbLine
 10
176.170829
 20
263.694094
 30
0.0
 11
176.286384
 21
263.694094
 31
0.0
  0
LINE
  5
141
330
1F
100
AcDbEntity
  8
LC-001-100-D00-0
 62
     7
370
    50
100
AcDbLine
 10
184.170831
 20
253.4941
 30
0.0
 11
194.150395
 21
253.4941
 31
0.0
  0
LINE
  5
142
330
1F
100
AcDbEntity
  8
LC-001-100-D00-0
 62
     7
370
    50
100
AcDbLine
 10
236.191265
 20
253.4941
 30
0.0
 11
246.17083
 21
253.4941
 31
0.0
  0
LINE
  5
143
330
1F
100
AcDbEntity
  8
LC-001-100-D00-0
 62
     7
370
    50
100
AcDbLine
 10
254.055276
 20
263.994099
 30
0.0
 11
254.055276
 21
263.694094
 31
0.0
  0
LINE
  5
144
330
1F
100
AcDbEntity
  8
LC-001-100-D00-0
 62
     7
370
    50
100
AcDbLine
 10
254.055276
 20
263.994099
 30
0.0
 11
253.67083
 21
263.994099
 31
0.0
  0
LINE
  5
145
330
1F
100
AcDbEntity
  8
LC-001-100-D00-0
 62
     7
370
    50
100
AcDbLine
 10
176.67083
 20
263.994099
 30
0.0
 11
176.286384
 21
263.994099
 31
0.0
  0
LINE
  5
146
330
1F
100
AcDbEntity
  8
LC-001-100-D00-0
 62
     7
370
    50
100
AcDbLine
 10
176.286384
 20
263.694094
 30
0.0
 11
176.286384
 21
263.994099
 31
0.0
  0
LINE
  5
147
330
1F
100
AcDbEntity
  8
LC-001-100-D00-0
 62
     7
370
    50
100
AcDbLine
 10
254.055276
 20
263.694094
 30
0.0
 11
254.170831
 21
263.694094
 31
0.0
  0
INSERT
  5
153
330
1F
100
AcDbEntity
  8
LC-001-100-D00-0
 62
     7
370
    50
100
AcDbBlockReference
  2
POLY4
 10
0.0
 20
0.0
 30
0.0
  0
ARC
  5
154
330
1F
100
AcDbEntity
  8
LC-001-100-D00-0
 62
     7
370
    50
100
AcDbCircle
 10
269.772754
 20
279.598388
 30
0.0
 40
0.400000000000091
100
AcDbArc
 50
0.0
 51
99.999959
  0
LINE
  5
155
330
1F
100
AcDbEntity
  8
LC-001-100-D00-0
 62
     7
370
    50
100
AcDbLine
 10
269.703295
 20
279.992314
 30
0.0
 11
266.492299
 21
279.992314
 31
0.0
  0
ARC
  5
156
330
1F
100
AcDbEntity
  8
LC-001-100-D00-0
 62
     7
370
    50
100
AcDbCircle
 10
160.568906
 20
279.598388
 30
0.0
 40
0.4000000000000836
100
AcDbArc
 50
80.000041
 51
180.0
  0
LINE
  5
157
330
1F
100
AcDbEntity
  8
LC-001-100-D00-0
 62
     7
370
    50
100
AcDbLine
 10
270.172756
 20
279.575096
 30
0.0
 11
270.172756
 21
279.598387
 31
0.0
  0
LINE
  5
158
330
1F
100
AcDbEntity
  8
LC-001-100-D00-0
 62
     7
370
    50
100
AcDbLine
 10
160.168905
 20
279.598387
 30
0.0
 11
160.168905
 21
279.575096
 31
0.0
  0
LINE
  5
159
330
1F
100
AcDbEntity
  8
LC-001-100-D00-0
 62
     7
370
    50
100
AcDbLine
 10
259.470831
 20
273.39633
 30
0.0
 11
270.172756
 21
279.575096
 31
0.0
  0
LINE
  5
15A
330
1F
100
AcDbEntity
  8
LC-001-100-D00-0
 62
     7
370
    50
100
AcDbLine
 10
160.168905
 20
279.575096
 30
0.0
 11
170.870829
 21
273.39633
 31
0.0
  0
LINE
  5
15B
330
1F
100
AcDbEntity
  8
LC-001-100-D00-0
 62
     7
370
    50
100
AcDbLine
 10
269.703295
 20
279.992314
 30
0.0
 11
258.184004
 21
277.961151
 31
0.0
  0
LINE
  5
15C
330
1F
100
AcDbEntity
  8
LC-001-100-D00-0
 62
     7
370
    50
100
AcDbLine
 10
258.184004
 20
277.961151
 30
0.0
 11
172.157656
 21
277.961151
 31
0.0
  0
LINE
  5
15D
330
1F
100
AcDbEntity
  8
LC-001-100-D00-0
 62
     7
370
    50
100
AcDbLine
 10
172.157656
 20
277.961151
 30
0.0
 11
160.638366
 21
279.992314
 31
0.0
  0
LINE
  5
15E
330
1F
100
AcDbEntity
  8
LC-001-100-D00-0
 62
     7
370
    50
100
AcDbLine
 10
259.470831
 20
224.494101
 30
0.0
 11
259.470831
 21
273.39633
 31
0.0
  0
LINE
  5
15F
330
1F
100
AcDbEntity
  8
LC-001-100-D00-0
 62
     7
370
    50
100
AcDbLine
 10
170.870829
 20
273.39633
 30
0.0
 11
170.870829
 21
224.494101
 31
0.0
  0
LINE
  5
160
330
1F
100
AcDbEntity
  8
LC-001-100-D00-0
 62
     7
370
    50
100
AcDbLine
 10
258.97083
 20
223.994093
 30
0.0
 11
259.470831
 21
224.494101
 31
0.0
  0
LINE
  5
161
330
1F
100
AcDbEntity
  8
LC-001-100-D00-0
 62
     7
370
    50
100
AcDbLine
 10
170.870829
 20
224.494101
 30
0.0
 11
171.37083
 21
223.994093
 31
0.0
  0
ARC
  5
162
330
1F
100
AcDbEntity
  8
LC-001-100-D00-0
 62
     7
370
    50
100
AcDbCircle
 10
258.27083
 20
277.468746
 30
0.0
 40
0.4999999999999406
100
AcDbArc
 50
100.0
 51
180.0
  0
ARC
  5
163
330
1F
100
AcDbEntity
  8
LC-001-100-D00-0
 62
     7
370
    50
100
AcDbCircle
 10
172.07083
 20
277.468746
 30
0.0
 40
0.5
100
AcDbArc
 50
0.0
 51
80.0
  0
LINE
  5
164
330
1F
100
AcDbEntity
  8
LC-001-100-D00-0
 62
     7
370
    50
100
AcDbLine
 10
257.770829
 20
277.468742
 30
0.0
 11
257.770829
 21
268.994094
 31
0.0
  0
LINE
  5
165
330
1F
100
AcDbEntity
  8
LC-001-100-D00-0
 62
     7
370
    50
100
AcDbLine
 10
172.570832
 20
268.994094
 30
0.0
 11
172.570832
 21
277.468742
 31
0.0
  0
ELLIPSE
  5
166
330
1F
100
AcDbEntity
  8
LC-001-100-D00-0
 62
     7
370
    50
100
AcDbEllipse
 10
215.17083
 20
181.711876
 30
0.0
 11
41.09067701594709
 21
-81.28546118538293
 31
0.0
210
0.0
220
0.0
230
1.0
 40
0.010769
 41
6.25340836876933
 42
6.302074971772587
  0
LINE
  5
167
330
1F
100
AcDbEntity
  8
LC-001-100-D00-0
 62
     7
370
    50
100
AcDbLine
 10
174.07095
 20
262.974472
 30
0.0
 11
174.07095
 21
232.994096
 31
0.0
  0
LINE
  5
168
330
1F
100
AcDbEntity
  8
LC-001-100-D00-0
 62
     7
370
    50
100
AcDbLine
 10
256.270829
 20
268.994094
 30
0.0
 11
256.270829
 21
223.994093
 31
0.0
  0
LINE
  5
169
330
1F
100
AcDbEntity
  8
LC-001-100-D00-0
 62
     7
370
    50
100
AcDbLine
 10
174.070831
 20
223.994093
 30
0.0
 11
174.070831
 21
268.994094
 31
0.0
  0
LINE
  5
16A
330
1F
100
AcDbEntity
  8
LC-001-100-D00-0
 62
     7
370
    50
100
AcDbLine
 10
256.270829
 20
223.994093
 30
0.0
 11
247.670829
 21
223.994093
 31
0.0
  0
LINE
  5
16B
330
1F
100
AcDbEntity
  8
LC-001-100-D00-0
 62
     7
370
    50
100
AcDbLine
 10
182.670831
 20
223.994093
 30
0.0
 11
174.070831
 21
223.994093
 31
0.0
  0
LINE
  5
16C
330
1F
100
AcDbEntity
  8
LC-001-100-D00-0
 62
     7
370
    50
100
AcDbLine
 10
257.770829
 20
268.994094
 30
0.0
 11
256.270829
 21
268.994094
 31
0.0
  0
LINE
  5
16D
330
1F
100
AcDbEntity
  8
LC-001-100-D00-0
 62
     7
370
    50
100
AcDbLine
 10
256.270829
 20
223.994093
 30
0.0
 11
258.97083
 21
223.994093
 31
0.0
  0
LINE
  5
16E
330
1F
100
AcDbEntity
  8
LC-001-100-D00-0
 62
     7
370
    50
100
AcDbLine
 10
174.070831
 20
268.994094
 30
0.0
 11
172.570832
 21
268.994094
 31
0.0
  0
LINE
  5
16F
330
1F
100
AcDbEntity
  8
LC-001-100-D00-0
 62
     7
370
    50
100
AcDbLine
 10
171.37083
 20
223.994093
 30
0.0
 11
174.070831
 21
223.994093
 31
0.0
  0
LINE
  5
170
330
1F
100
AcDbEntity
  8
LC-001-100-D00-0
 62
     7
370
    50
100
AcDbLine
 10
278.372533
 20
284.42383
 30
0.0
 11
270.866982
 21
271.423833
 31
0.0
  0
LINE
  5
171
330
1F
100
AcDbEntity
  8
LC-001-100-D00-0
 62
     7
370
    50
100
AcDbLine
 10
159.474678
 20
271.423833
 30
0.0
 11
151.969127
 21
284.42383
 31
0.0
  0
LINE
  5
172
330
1F
100
AcDbEntity
  8
LC-001-100-D00-0
 62
     7
370
    50
100
AcDbLine
 10
157.420829
 20
284.42383
 30
0.0
 11
157.420829
 21
278.923826
 31
0.0
  0
LINE
  5
173
330
1F
100
AcDbEntity
  8
LC-001-100-D00-0
 62
     7
370
    50
100
AcDbLine
 10
272.920832
 20
278.923826
 30
0.0
 11
272.920832
 21
284.42383
 31
0.0
  0
LINE
  5
174
330
1F
100
AcDbEntity
  8
LC-001-100-D00-0
 62
     7
370
    50
100
AcDbLine
 10
157.420829
 20
284.42383
 30
0.0
 11
157.670829
 21
284.42383
 31
0.0
  0
ARC
  5
175
330
1F
100
AcDbEntity
  8
LC-001-100-D00-0
 62
     7
370
    50
100
AcDbCircle
 10
262.206729
 20
276.423827
 30
0.0
 40
10.0
100
AcDbArc
 50
270.0
 51
330.0
  0
ARC
  5
176
330
1F
100
AcDbEntity
  8
LC-001-100-D00-0
 62
     7
370
    50
100
AcDbCircle
 10
168.134932
 20
276.423827
 30
0.0
 40
10.00000000000003
100
AcDbArc
 50
210.0
 51
270.0
  0
LINE
  5
177
330
1F
100
AcDbEntity
  8
LC-001-100-D00-0
 62
     7
370
    50
100
AcDbLine
 10
159.670829
 20
278.923826
 30
0.0
 11
159.670829
 21
275.623561
 31
0.0
  0
LINE
  5
178
330
1F
100
AcDbEntity
  8
LC-001-100-D00-0
 62
     7
370
    50
100
AcDbLine
 10
270.670831
 20
275.623561
 30
0.0
 11
270.670831
 21
278.923826
 31
0.0
  0
LINE
  5
179
330
1F
100
AcDbEntity
  8
LC-001-100-D00-0
 62
     7
370
    50
100
AcDbLine
 10
159.670829
 20
275.623561
 30
0.0
 11
164.275448
 21
275.623561
 31
0.0
  0
LINE
  5
17A
330
1F
100
AcDbEntity
  8
LC-001-100-D00-0
 62
     7
370
    50
100
AcDbLine
 10
266.066212
 20
275.623561
 30
0.0
 11
270.670831
 21
275.623561
 31
0.0
  0
LINE
  5
17B
330
1F
100
AcDbEntity
  8
LC-001-100-D00-0
 62
     7
370
    50
100
AcDbLine
 10
159.670829
 20
278.923826
 30
0.0
 11
161.296926
 21
278.923826
 31
0.0
  0
LINE
  5
17C
330
1F
100
AcDbEntity
  8
LC-001-100-D00-0
 62
     7
370
    50
100
AcDbLine
 10
269.044734
 20
278.923826
 30
0.0
 11
270.670831
 21
278.923826
 31
0.0
  0
LINE
  5
17D
330
1F
100
AcDbEntity
  8
LC-001-100-D00-0
 62
     7
370
    50
100
AcDbLine
 10
266.67083
 20
273.314165
 30
0.0
 11
270.670831
 21
275.623561
 31
0.0
  0
LINE
  5
17E
330
1F
100
AcDbEntity
  8
LC-001-100-D00-0
 62
     7
370
    50
100
AcDbLine
 10
163.67083
 20
273.314165
 30
0.0
 11
170.870829
 21
273.314165
 31
0.0
  0
LINE
  5
17F
330
1F
100
AcDbEntity
  8
LC-001-100-D00-0
 62
     7
370
    50
100
AcDbLine
 10
259.470831
 20
273.314165
 30
0.0
 11
266.67083
 21
273.314165
 31
0.0
  0
LINE
  5
180
330
1F
100
AcDbEntity
  8
LC-001-100-D00-0
 62
     7
370
    50
100
AcDbLine
 10
159.670829
 20
275.623561
 30
0.0
 11
163.67083
 21
273.314165
 31
0.0
  0
LINE
  5
181
330
1F
100
AcDbEntity
  8
LC-001-100-D00-0
 62
     7
370
    50
100
AcDbLine
 10
263.670832
 20
269.272716
 30
0.0
 11
266.67083
 21
271.004768
 31
0.0
  0
LINE
  5
182
330
1F
100
AcDbEntity
  8
LC-001-100-D00-0
 62
     7
370
    50
100
AcDbLine
 10
163.67083
 20
271.004768
 30
0.0
 11
166.670829
 21
269.272716
 31
0.0
  0
LINE
  5
183
330
1F
100
AcDbEntity
  8
LC-001-100-D00-0
 62
     7
370
    50
100
AcDbLine
 10
163.67083
 20
271.004768
 30
0.0
 11
166.670829
 21
271.004768
 31
0.0
  0
LINE
  5
184
330
1F
100
AcDbEntity
  8
LC-001-100-D00-0
 62
     7
370
    50
100
AcDbLine
 10
263.670832
 20
271.004768
 30
0.0
 11
266.67083
 21
271.004768
 31
0.0
  0
LINE
  5
185
330
1F
100
AcDbEntity
  8
LC-001-100-D00-0
 62
     7
370
    50
100
AcDbLine
 10
163.67083
 20
273.314165
 30
0.0
 11
163.67083
 21
271.004768
 31
0.0
  0
LINE
  5
186
330
1F
100
AcDbEntity
  8
LC-001-100-D00-0
 62
     7
370
    50
100
AcDbLine
 10
266.67083
 20
271.004768
 30
0.0
 11
266.67083
 21
273.314165
 31
0.0
  0
LINE
  5
187
330
1F
100
AcDbEntity
  8
LC-001-100-D00-0
 62
     7
370
    50
100
AcDbLine
 10
260.47083
 20
269.734593
 30
0.0
 11
263.670832
 21
271.582113
 31
0.0
  0
LINE
  5
188
330
1F
100
AcDbEntity
  8
LC-001-100-D00-0
 62
     7
370
    50
100
AcDbLine
 10
169.870831
 20
269.734593
 30
0.0
 11
170.870829
 21
269.734593
 31
0.0
  0
LINE
  5
189
330
1F
100
AcDbEntity
  8
LC-001-100-D00-0
 62
     7
370
    50
100
AcDbLine
 10
259.470831
 20
269.734593
 30
0.0
 11
260.47083
 21
269.734593
 31
0.0
  0
LINE
  5
18A
330
1F
100
AcDbEntity
  8
LC-001-100-D00-0
 62
     7
370
    50
100
AcDbLine
 10
166.670829
 20
271.582113
 30
0.0
 11
169.870831
 21
269.734593
 31
0.0
  0
LINE
  5
18B
330
1F
100
AcDbEntity
  8
LC-001-100-D00-0
 62
     7
370
    50
100
AcDbLine
 10
166.670829
 20
271.582113
 30
0.0
 11
170.870829
 21
271.582113
 31
0.0
  0
LINE
  5
18C
330
1F
100
AcDbEntity
  8
LC-001-100-D00-0
 62
     7
370
    50
100
AcDbLine
 10
259.470831
 20
271.582113
 30
0.0
 11
263.670832
 21
271.582113
 31
0.0
  0
LINE
  5
18D
330
1F
100
AcDbEntity
  8
LC-001-100-D00-0
 62
     7
370
    50
100
AcDbLine
 10
166.670829
 20
269.272716
 30
0.0
 11
166.670829
 21
271.582113
 31
0.0
  0
LINE
  5
18E
330
1F
100
AcDbEntity
  8
LC-001-100-D00-0
 62
     7
370
    50
100
AcDbLine
 10
263.670832
 20
271.582113
 30
0.0
 11
263.670832
 21
269.272716
 31
0.0
  0
LINE
  5
18F
330
1F
100
AcDbEntity
  8
LC-001-100-D00-0
 62
     7
370
    50
100
AcDbLine
 10
169.870831
 20
269.734593
 30
0.0
 11
169.870831
 21
266.423823
 31
0.0
  0
LINE
  5
190
330
1F
100
AcDbEntity
  8
LC-001-100-D00-0
 62
     7
370
    50
100
AcDbLine
 10
260.47083
 20
266.423823
 30
0.0
 11
260.47083
 21
269.734593
 31
0.0
  0
LINE
  5
191
330
1F
100
AcDbEntity
  8
LC-001-100-D00-0
 62
     7
370
    50
100
AcDbLine
 10
169.870831
 20
266.423823
 30
0.0
 11
168.134931
 21
266.423823
 31
0.0
  0
LINE
  5
192
330
1F
100
AcDbEntity
  8
LC-001-100-D00-0
 62
     7
370
    50
100
AcDbLine
 10
157.420829
 20
278.923826
 30
0.0
 11
159.670829
 21
278.923826
 31
0.0
  0
LINE
  5
193
330
1F
100
AcDbEntity
  8
LC-001-100-D00-0
 62
     7
370
    50
100
AcDbLine
 10
151.969127
 20
284.42383
 30
0.0
 11
157.420829
 21
284.42383
 31
0.0
  0
LINE
  5
194
330
1F
100
AcDbEntity
  8
LC-001-100-D00-0
 62
     7
370
    50
100
AcDbLine
 10
262.206729
 20
266.423823
 30
0.0
 11
260.47083
 21
266.423823
 31
0.0
  0
LINE
  5
195
330
1F
100
AcDbEntity
  8
LC-001-100-D00-0
 62
     7
370
    50
100
AcDbLine
 10
270.670831
 20
278.923826
 30
0.0
 11
272.920832
 21
278.923826
 31
0.0
  0
LINE
  5
196
330
1F
100
AcDbEntity
  8
LC-001-100-D00-0
 62
     7
370
    50
100
AcDbLine
 10
272.920832
 20
284.42383
 30
0.0
 11
278.372533
 21
284.42383
 31
0.0
  0
LINE
  5
197
330
1F
100
AcDbEntity
  8
LC-001-100-D00-0
 62
     7
370
    50
100
AcDbLine
 10
260.670829
 20
251.423822
 30
0.0
 11
260.670829
 21
247.427689
 31
0.0
  0
LINE
  5
198
330
1F
100
AcDbEntity
  8
LC-001-100-D00-0
 62
     7
370
    50
100
AcDbLine
 10
260.670829
 20
247.427689
 30
0.0
 11
259.470831
 21
247.427689
 31
0.0
  0
LINE
  5
199
330
1F
100
AcDbEntity
  8
LC-001-100-D00-0
 62
     7
370
    50
100
AcDbLine
 10
170.870829
 20
247.427689
 30
0.0
 11
169.670831
 21
247.427689
 31
0.0
  0
LINE
  5
19A
330
1F
100
AcDbEntity
  8
LC-001-100-D00-0
 62
     7
370
    50
100
AcDbLine
 10
169.670831
 20
247.427689
 30
0.0
 11
169.670831
 21
251.423822
 31
0.0
  0
LINE
  5
19B
330
1F
100
AcDbEntity
  8
LC-001-100-D00-0
 62
     7
370
    50
100
AcDbLine
 10
258.645829
 20
265.023829
 30
0.0
 11
258.645829
 21
251.423822
 31
0.0
  0
LINE
  5
19C
330
1F
100
AcDbEntity
  8
LC-001-100-D00-0
 62
     7
370
    50
100
AcDbLine
 10
171.695832
 20
251.423822
 30
0.0
 11
171.695832
 21
265.023829
 31
0.0
  0
ARC
  5
19D
330
1F
100
AcDbEntity
  8
LC-001-100-D00-0
 62
     7
370
    50
100
AcDbCircle
 10
269.17083
 20
169.868354
 30
0.0
 40
1.000000000000057
100
AcDbArc
 50
270.0
 51
0.0
  0
ARC
  5
19E
330
1F
100
AcDbEntity
  8
LC-001-100-D00-0
 62
     7
370
    50
100
AcDbCircle
 10
161.17083
 20
169.868354
 30
0.0
 40
1.0
100
AcDbArc
 50
180.0
 51
270.0
  0
LINE
  5
19F
330
1F
100
AcDbEntity
  8
LC-001-100-D00-0
 62
     7
370
    50
100
AcDbLine
 10
267.670829
 20
168.868357
 30
0.0
 11
170.732207
 21
168.868357
 31
0.0
  0
LINE
  5
1A0
330
1F
100
AcDbEntity
  8
LC-001-100-D00-0
 62
     7
370
    50
100
AcDbLine
 10
169.092387
 20
168.868357
 30
0.0
 11
162.670832
 21
168.868357
 31
0.0
  0
LINE
  5
1A1
330
1F
100
AcDbEntity
  8
LC-001-100-D00-0
 62
     7
370
    50
100
AcDbLine
 10
162.670832
 20
168.868357
 30
0.0
 11
163.496002
 21
263.423832
 31
0.0
  0
LINE
  5
1A2
330
1F
100
AcDbEntity
  8
LC-001-100-D00-0
 62
     7
370
    50
100
AcDbLine
 10
266.845658
 20
263.423832
 30
0.0
 11
267.670829
 21
168.868357
 31
0.0
  0
LINE
  5
1A3
330
1F
100
AcDbEntity
  8
LC-001-100-D00-0
 62
     7
370
    50
100
AcDbLine
 10
270.17083
 20
169.868352
 30
0.0
 11
270.17083
 21
261.723833
 31
0.0
  0
LINE
  5
1A4
330
1F
100
AcDbEntity
  8
LC-001-100-D00-0
 62
     7
370
    50
100
AcDbLine
 10
160.170831
 20
261.723833
 30
0.0
 11
160.170831
 21
169.868352
 31
0.0
  0
LINE
  5
1A5
330
1F
100
AcDbEntity
  8
LC-001-100-D00-0
 62
     7
370
    50
100
AcDbLine
 10
262.420829
 20
261.923821
 30
0.0
 11
263.920828
 21
263.423832
 31
0.0
  0
LINE
  5
1A6
330
1F
100
AcDbEntity
  8
LC-001-100-D00-0
 62
     7
370
    50
100
AcDbLine
 10
262.420829
 20
248.427691
 30
0.0
 11
262.420829
 21
261.923821
 31
0.0
  0
LINE
  5
1A7
330
1F
100
AcDbEntity
  8
LC-001-100-D00-0
 62
     7
370
    50
100
AcDbLine
 10
261.420831
 20
247.427689
 30
0.0
 11
262.420829
 21
248.427691
 31
0.0
  0
LINE
  5
1A8
330
1F
100
AcDbEntity
  8
LC-001-100-D00-0
 62
     7
370
    50
100
AcDbLine
 10
260.670829
 20
247.427689
 30
0.0
 11
261.420831
 21
247.427689
 31
0.0
  0
LINE
  5
1A9
330
1F
100
AcDbEntity
  8
LC-001-100-D00-0
 62
     7
370
    50
100
AcDbLine
 10
260.04583
 20
266.423823
 30
0.0
 11
258.645829
 21
265.023829
 31
0.0
  0
LINE
  5
1AA
330
1F
100
AcDbEntity
  8
LC-001-100-D00-0
 62
     7
370
    50
100
AcDbLine
 10
267.110873
 20
266.423823
 30
0.0
 11
260.04583
 21
266.423823
 31
0.0
  0
ARC
  5
1AB
330
1F
100
AcDbEntity
  8
LC-001-100-D00-0
 62
     7
370
    50
100
AcDbCircle
 10
267.110874
 20
268.423827
 30
0.0
 40
2.000000000000114
100
AcDbArc
 50
270.0
 51
330.0
  0
LINE
  5
1AC
330
1F
100
AcDbEntity
  8
LC-001-100-D00-0
 62
     7
370
    50
100
AcDbLine
 10
280.245594
 20
287.173824
 30
0.0
 11
268.842924
 21
267.423825
 31
0.0
  0
ARC
  5
1AD
330
1F
100
AcDbEntity
  8
LC-001-100-D00-0
 62
     7
370
    50
100
AcDbCircle
 10
283.276681
 20
285.423827
 30
0.0
 40
3.500000000000227
100
AcDbArc
 50
90.0
 51
150.0
  0
LINE
  5
1AE
330
1F
100
AcDbEntity
  8
LC-001-100-D00-0
 62
     7
370
    50
100
AcDbLine
 10
284.170828
 20
288.923831
 30
0.0
 11
283.276684
 21
288.923831
 31
0.0
  0
LINE
  5
1AF
330
1F
100
AcDbEntity
  8
LC-001-100-D00-0
 62
     7
370
    50
100
AcDbLine
 10
284.170828
 20
285.972537
 30
0.0
 11
284.170828
 21
288.923831
 31
0.0
  0
LINE
  5
1B0
330
1F
100
AcDbEntity
  8
LC-001-100-D00-0
 62
     7
370
    50
100
AcDbLine
 10
270.170825
 20
261.723836
 30
0.0
 11
284.170828
 21
285.972537
 31
0.0
  0
LINE
  5
1B1
330
1F
100
AcDbEntity
  8
LC-001-100-D00-0
 62
     7
370
    50
100
AcDbLine
 10
279.924713
 20
264.723824
 30
0.0
 11
279.924713
 21
278.618054
 31
0.0
  0
ARC
  5
1B2
330
1F
100
AcDbEntity
  8
LC-001-100-D00-0
 62
     7
370
    50
100
AcDbCircle
 10
276.924716
 20
264.723827
 30
0.0
 40
3.000000000000057
100
AcDbArc
 50
270.0
 51
0.0
  0
LINE
  5
1B3
330
1F
100
AcDbEntity
  8
LC-001-100-D00-0
 62
     7
370
    50
100
AcDbLine
 10
270.17083
 20
261.723833
 30
0.0
 11
276.924714
 21
261.723833
 31
0.0
  0
LINE
  5
1B4
330
1F
100
AcDbEntity
  8
LC-001-100-D00-0
 62
     7
370
    50
100
AcDbLine
 10
267.670829
 20
168.868357
 30
0.0
 11
269.170832
 21
168.868357
 31
0.0
  0
LINE
  5
1B5
330
1F
100
AcDbEntity
  8
LC-001-100-D00-0
 62
     7
370
    50
100
AcDbLine
 10
263.920828
 20
263.423832
 30
0.0
 11
266.845658
 21
263.423832
 31
0.0
  0
LINE
  5
1B6
330
1F
100
AcDbEntity
  8
LC-001-100-D00-0
 62
     7
370
    50
100
AcDbLine
 10
258.645829
 20
251.423822
 30
0.0
 11
260.670829
 21
251.423822
 31
0.0
  0
LINE
  5
1B7
330
1F
100
AcDbEntity
  8
LC-001-100-D00-0
 62
     7
370
    50
100
AcDbLine
 10
146.170832
 20
285.972537
 30
0.0
 11
160.170819
 21
261.723826
 31
0.0
  0
LINE
  5
1B8
330
1F
100
AcDbEntity
  8
LC-001-100-D00-0
 62
     7
370
    50
100
AcDbLine
 10
167.920831
 20
261.923821
 30
0.0
 11
167.920831
 21
248.427691
 31
0.0
  0
LINE
  5
1B9
330
1F
100
AcDbEntity
  8
LC-001-100-D00-0
 62
     7
370
    50
100
AcDbLine
 10
167.920831
 20
248.427691
 30
0.0
 11
168.92083
 21
247.427689
 31
0.0
  0
LINE
  5
1BA
330
1F
100
AcDbEntity
  8
LC-001-100-D00-0
 62
     7
370
    50
100
AcDbLine
 10
260.04583
 20
266.423823
 30
0.0
 11
259.470831
 21
266.423823
 31
0.0
  0
LINE
  5
1BB
330
1F
100
AcDbEntity
  8
LC-001-100-D00-0
 62
     7
370
    50
100
AcDbLine
 10
170.870829
 20
266.423823
 30
0.0
 11
170.295831
 21
266.423823
 31
0.0
  0
LINE
  5
1BC
330
1F
100
AcDbEntity
  8
LC-001-100-D00-0
 62
     7
370
    50
100
AcDbLine
 10
171.695832
 20
265.023829
 30
0.0
 11
170.295831
 21
266.423823
 31
0.0
  0
LINE
  5
1BD
330
1F
100
AcDbEntity
  8
LC-001-100-D00-0
 62
     7
370
    50
100
AcDbLine
 10
161.498736
 20
267.423825
 30
0.0
 11
150.096066
 21
287.173824
 31
0.0
  0
LINE
  5
1BE
330
1F
100
AcDbEntity
  8
LC-001-100-D00-0
 62
     7
370
    50
100
AcDbLine
 10
146.170832
 20
288.923831
 30
0.0
 11
146.170832
 21
285.972537
 31
0.0
  0
LINE
  5
1BF
330
1F
100
AcDbEntity
  8
LC-001-100-D00-0
 62
     7
370
    50
100
AcDbLine
 10
147.064976
 20
288.923831
 30
0.0
 11
146.170832
 21
288.923831
 31
0.0
  0
ARC
  5
1C0
330
1F
100
AcDbEntity
  8
LC-001-100-D00-0
 62
     7
370
    50
100
AcDbCircle
 10
147.064979
 20
285.423827
 30
0.0
 40
3.500000000000352
100
AcDbArc
 50
30.0
 51
90.0
  0
ARC
  5
1C1
330
1F
100
AcDbEntity
  8
LC-001-100-D00-0
 62
     7
370
    50
100
AcDbCircle
 10
163.230787
 20
268.423827
 30
0.0
 40
2.000000000000123
100
AcDbArc
 50
210.0
 51
270.0
  0
LINE
  5
1C2
330
1F
100
AcDbEntity
  8
LC-001-100-D00-0
 62
     7
370
    50
100
AcDbLine
 10
166.420832
 20
263.423832
 30
0.0
 11
167.920831
 21
261.923821
 31
0.0
  0
ARC
  5
1C3
330
1F
100
AcDbEntity
  8
LC-001-100-D00-0
 62
     7
370
    50
100
AcDbCircle
 10
153.42083
 20
264.723827
 30
0.0
 40
3.000000000000057
100
AcDbArc
 50
180.0
 51
270.0
  0
LINE
  5
1C4
330
1F
100
AcDbEntity
  8
LC-001-100-D00-0
 62
     7
370
    50
100
AcDbLine
 10
160.170831
 20
261.723833
 30
0.0
 11
153.420832
 21
261.723833
 31
0.0
  0
LINE
  5
1C5
330
1F
100
AcDbEntity
  8
LC-001-100-D00-0
 62
     7
370
    50
100
AcDbLine
 10
150.420829
 20
264.723824
 30
0.0
 11
150.420829
 21
278.611319
 31
0.0
  0
LINE
  5
1C6
330
1F
100
AcDbEntity
  8
LC-001-100-D00-0
 62
     7
370
    50
100
AcDbLine
 10
170.295831
 20
266.423823
 30
0.0
 11
163.230788
 21
266.423823
 31
0.0
  0
LINE
  5
1C7
330
1F
100
AcDbEntity
  8
LC-001-100-D00-0
 62
     7
370
    50
100
AcDbLine
 10
168.92083
 20
247.427689
 30
0.0
 11
169.670831
 21
247.427689
 31
0.0
  0
LINE
  5
1C8
330
1F
100
AcDbEntity
  8
LC-001-100-D00-0
 62
     7
370
    50
100
AcDbLine
 10
161.170829
 20
168.868357
 30
0.0
 11
162.670832
 21
168.868357
 31
0.0
  0
LINE
  5
1C9
330
1F
100
AcDbEntity
  8
LC-001-100-D00-0
 62
     7
370
    50
100
AcDbLine
 10
163.496002
 20
263.423832
 30
0.0
 11
166.420832
 21
263.423832
 31
0.0
  0
LINE
  5
1CA
330
1F
100
AcDbEntity
  8
LC-001-100-D00-0
 62
     7
370
    50
100
AcDbLine
 10
169.670831
 20
251.423822
 30
0.0
 11
171.695832
 21
251.423822
 31
0.0
  0
LINE
  5
1CB
330
1F
100
AcDbEntity
  8
LC-001-100-D00-0
 62
     7
370
    50
100
AcDbLine
 10
283.276684
 20
288.923831
 30
0.0
 11
271.835044
 21
288.923831
 31
0.0
  0
LINE
  5
1CC
330
1F
100
AcDbEntity
  8
LC-001-100-D00-0
 62
     7
370
    50
100
AcDbLine
 10
271.835044
 20
288.923831
 30
0.0
 11
147.064976
 21
288.923831
 31
0.0
  0
ARC
  5
1CD
330
1F
100
AcDbEntity
  8
LC-001-100-D00-0
 62
     7
370
    50
100
AcDbCircle
 10
150.22083
 20
195.933358
 30
0.0
 40
0.1999999999999886
100
AcDbArc
 50
0.0
 51
90.0
  0
ARC
  5
1CE
330
1F
100
AcDbEntity
  8
LC-001-100-D00-0
 62
     7
370
    50
100
AcDbCircle
 10
140.12083
 20
195.933358
 30
0.0
 40
0.1999999999999886
100
AcDbArc
 50
90.0
 51
180.0
  0
LINE
  5
1CF
330
1F
100
AcDbEntity
  8
LC-001-100-D00-0
 62
     7
370
    50
100
AcDbLine
 10
146.944262
 20
195.13336
 30
0.0
 11
146.944262
 21
195.633353
 31
0.0
  0
LINE
  5
1D0
330
1F
100
AcDbEntity
  8
LC-001-100-D00-0
 62
     7
370
    50
100
AcDbLine
 10
148.920834
 20
195.633353
 30
0.0
 11
146.944262
 21
195.633353
 31
0.0
  0
LINE
  5
1D1
330
1F
100
AcDbEntity
  8
LC-001-100-D00-0
 62
     7
370
    50
100
AcDbLine
 10
148.920834
 20
195.633353
 30
0.0
 11
148.920834
 21
196.705119
 31
0.0
  0
ARC
  5
1D2
330
1F
100
AcDbEntity
  8
LC-001-100-D00-0
 62
     7
370
    50
100
AcDbCircle
 10
145.17083
 20
191.008358
 30
0.0
 40
6.82023643285201
100
AcDbArc
 50
48.715289
 51
56.644353
  0
LINE
  5
1D3
330
1F
100
AcDbEntity
  8
LC-001-100-D00-0
 62
     7
370
    50
100
AcDbLine
 10
150.220833
 20
196.133362
 30
0.0
 11
149.670832
 21
196.133362
 31
0.0
  0
LINE
  5
1D4
330
1F
100
AcDbEntity
  8
LC-001-100-D00-0
 62
     7
370
    50
100
AcDbLine
 10
150.420829
 20
193.133356
 30
0.0
 11
150.420829
 21
195.933358
 31
0.0
  0
LINE
  5
1D5
330
1F
100
AcDbEntity
  8
LC-001-100-D00-0
 62
     7
370
    50
100
AcDbLine
 10
147.170827
 20
193.133356
 30
0.0
 11
150.420829
 21
193.133356
 31
0.0
  0
LINE
  5
1D6
330
1F
100
AcDbEntity
  8
LC-001-100-D00-0
 62
     7
370
    50
100
AcDbLine
 10
147.170827
 20
191.628949
 30
0.0
 11
147.170827
 21
193.133356
 31
0.0
  0
INSERT
  5
1DD
330
1F
100
AcDbEntity
  8
LC-001-100-D00-0
 62
     7
370
    50
100
AcDbBlockReference
  2
KLON1
 10
0.0
 20
0.0
 30
0.0
  0
INSERT
  5
1E4
330
1F
100
AcDbEntity
  8
LC-001-100-D00-0
 62
     7
370
    50
100
AcDbBlockReference
  2
KLON2
 10
0.0
 20
0.0
 30
0.0
  0
LINE
  5
1E5
330
1F
100
AcDbEntity
  8
LC-001-100-D00-0
 62
     7
370
    50
100
AcDbLine
 10
147.170827
 20
188.628943
 30
0.0
 11
147.170827
 21
190.327527
 31
0.0
  0
INSERT
  5
1EC
330
1F
100
AcDbEntity
  8
LC-001-100-D00-0
 62
     7
370
    50
100
AcDbBlockReference
  2
KLON3
 10
0.0
 20
0.0
 30
0.0
  0
INSERT
  5
1F3
330
1F
100
AcDbEntity
  8
LC-001-100-D00-0
 62
     7
370
    50
100
AcDbBlockReference
  2
KLON4
 10
0.0
 20
0.0
 30
0.0
  0
LINE
  5
1F4
330
1F
100
AcDbEntity
  8
LC-001-100-D00-0
 62
     7
370
    50
100
AcDbLine
 10
147.170827
 20
185.628952
 30
0.0
 11
147.170827
 21
187.327535
 31
0.0
  0
INSERT
  5
1FB
330
1F
100
AcDbEntity
  8
LC-001-100-D00-0
 62
     7
370
    50
100
AcDbBlockReference
  2
KLON5
 10
0.0
 20
0.0
 30
0.0
  0
INSERT
  5
202
330
1F
100
AcDbEntity
  8
LC-001-100-D00-0
 62
     7
370
    50
100
AcDbBlockReference
  2
KLON6
 10
0.0
 20
0.0
 30
0.0
  0
LINE
  5
203
330
1F
100
AcDbEntity
  8
LC-001-100-D00-0
 62
     7
370
    50
100
AcDbLine
 10
147.170827
 20
182.628946
 30
0.0
 11
147.170827
 21
184.327529
 31
0.0
  0
INSERT
  5
20A
330
1F
100
AcDbEntity
  8
LC-001-100-D00-0
 62
     7
370
    50
100
AcDbBlockReference
  2
KLON7
 10
0.0
 20
0.0
 30
0.0
  0
INSERT
  5
211
330
1F
100
AcDbEntity
  8
LC-001-100-D00-0
 62
     7
370
    50
100
AcDbBlockReference
  2
KLON8
 10
0.0
 20
0.0
 30
0.0
  0
LINE
  5
212
330
1F
100
AcDbEntity
  8
LC-001-100-D00-0
 62
     7
370
    50
100
AcDbLine
 10
147.170827
 20
179.628955
 30
0.0
 11
147.170827
 21
181.327538
 31
0.0
  0
INSERT
  5
219
330
1F
100
AcDbEntity
  8
LC-001-100-D00-0
 62
     7
370
    50
100
AcDbBlockReference
  2
KLON9
 10
0.0
 20
0.0
 30
0.0
  0
INSERT
  5
220
330
1F
100
AcDbEntity
  8
LC-001-100-D00-0
 62
     7
370
    50
100
AcDbBlockReference
  2
KLON10
 10
0.0
 20
0.0
 30
0.0
  0
LINE
  5
221
330
1F
100
AcDbEntity
  8
LC-001-100-D00-0
 62
     7
370
    50
100
AcDbLine
 10
147.170827
 20
177.533777
 30
0.0
 11
147.170827
 21
178.327532
 31
0.0
  0
LINE
  5
222
330
1F
100
AcDbEntity
  8
LC-001-100-D00-0
 62
     7
370
    50
100
AcDbLine
 10
145.17083
 20
176.133351
 30
0.0
 11
147.170827
 21
177.533777
 31
0.0
  0
LINE
  5
223
330
1F
100
AcDbEntity
  8
LC-001-100-D00-0
 62
     7
370
    50
100
AcDbLine
 10
143.170833
 20
177.533777
 30
0.0
 11
145.17083
 21
176.133351
 31
0.0
  0
LINE
  5
224
330
1F
100
AcDbEntity
  8
LC-001-100-D00-0
 62
     7
370
    50
100
AcDbLine
 10
143.170833
 20
179.827528
 30
0.0
 11
143.170833
 21
177.533777
 31
0.0
  0
INSERT
  5
22B
330
1F
100
AcDbEntity
  8
LC-001-100-D00-0
 62
     7
370
    50
100
AcDbBlockReference
  2
KLON11
 10
0.0
 20
0.0
 30
0.0
  0
INSERT
  5
232
330
1F
100
AcDbEntity
  8
LC-001-100-D00-0
 62
     7
370
    50
100
AcDbBlockReference
  2
KLON12
 10
0.0
 20
0.0
 30
0.0
  0
LINE
  5
233
330
1F
100
AcDbEntity
  8
LC-001-100-D00-0
 62
     7
370
    50
100
AcDbLine
 10
143.170833
 20
182.827534
 30
0.0
 11
143.170833
 21
181.12895
 31
0.0
  0
INSERT
  5
23A
330
1F
100
AcDbEntity
  8
LC-001-100-D00-0
 62
     7
370
    50
100
AcDbBlockReference
  2
KLON13
 10
0.0
 20
0.0
 30
0.0
  0
INSERT
  5
241
330
1F
100
AcDbEntity
  8
LC-001-100-D00-0
 62
     7
370
    50
100
AcDbBlockReference
  2
KLON14
 10
0.0
 20
0.0
 30
0.0
  0
LINE
  5
242
330
1F
100
AcDbEntity
  8
LC-001-100-D00-0
 62
     7
370
    50
100
AcDbLine
 10
143.170833
 20
185.827525
 30
0.0
 11
143.170833
 21
184.128942
 31
0.0
  0
INSERT
  5
249
330
1F
100
AcDbEntity
  8
LC-001-100-D00-0
 62
     7
370
    50
100
AcDbBlockReference
  2
KLON15
 10
0.0
 20
0.0
 30
0.0
  0
INSERT
  5
250
330
1F
100
AcDbEntity
  8
LC-001-100-D00-0
 62
     7
370
    50
100
AcDbBlockReference
  2
KLON16
 10
0.0
 20
0.0
 30
0.0
  0
LINE
  5
251
330
1F
100
AcDbEntity
  8
LC-001-100-D00-0
 62
     7
370
    50
100
AcDbLine
 10
143.170833
 20
188.827531
 30
0.0
 11
143.170833
 21
187.128948
 31
0.0
  0
INSERT
  5
258
330
1F
100
AcDbEntity
  8
LC-001-100-D00-0
 62
     7
370
    50
100
AcDbBlockReference
  2
KLON17
 10
0.0
 20
0.0
 30
0.0
  0
INSERT
  5
25F
330
1F
100
AcDbEntity
  8
LC-001-100-D00-0
 62
     7
370
    50
100
AcDbBlockReference
  2
KLON18
 10
0.0
 20
0.0
 30
0.0
  0
LINE
  5
260
330
1F
100
AcDbEntity
  8
LC-001-100-D00-0
 62
     7
370
    50
100
AcDbLine
 10
143.170833
 20
191.827537
 30
0.0
 11
143.170833
 21
190.128954
 31
0.0
  0
INSERT
  5
267
330
1F
100
AcDbEntity
  8
LC-001-100-D00-0
 62
     7
370
    50
100
AcDbBlockReference
  2
KLON19
 10
0.0
 20
0.0
 30
0.0
  0
INSERT
  5
26E
330
1F
100
AcDbEntity
  8
LC-001-100-D00-0
 62
     7
370
    50
100
AcDbBlockReference
  2
KLON20
 10
0.0
 20
0.0
 30
0.0
  0
LINE
  5
26F
330
1F
100
AcDbEntity
  8
LC-001-100-D00-0
 62
     7
370
    50
100
AcDbLine
 10
143.170833
 20
193.133356
 30
0.0
 11
143.170833
 21
193.128945
 31
0.0
  0
LINE
  5
270
330
1F
100
AcDbEntity
  8
LC-001-100-D00-0
 62
     7
370
    50
100
AcDbLine
 10
139.92083
 20
193.133356
 30
0.0
 11
143.170833
 21
193.133356
 31
0.0
  0
LINE
  5
271
330
1F
100
AcDbEntity
  8
LC-001-100-D00-0
 62
     7
370
    50
100
AcDbLine
 10
139.92083
 20
195.933358
 30
0.0
 11
139.92083
 21
193.133356
 31
0.0
  0
LINE
  5
272
330
1F
100
AcDbEntity
  8
LC-001-100-D00-0
 62
     7
370
    50
100
AcDbLine
 10
140.670828
 20
196.133362
 30
0.0
 11
140.120834
 21
196.133362
 31
0.0
  0
ARC
  5
273
330
1F
100
AcDbEntity
  8
LC-001-100-D00-0
 62
     7
370
    50
100
AcDbCircle
 10
145.17083
 20
191.008358
 30
0.0
 40
6.820236432851915
100
AcDbArc
 50
123.355647
 51
131.284711
  0
LINE
  5
274
330
1F
100
AcDbEntity
  8
LC-001-100-D00-0
 62
     7
370
    50
100
AcDbLine
 10
141.420833
 20
196.705119
 30
0.0
 11
141.420833
 21
195.633353
 31
0.0
  0
LINE
  5
275
330
1F
100
AcDbEntity
  8
LC-001-100-D00-0
 62
     7
370
    50
100
AcDbLine
 10
143.397398
 20
195.633353
 30
0.0
 11
141.420833
 21
195.633353
 31
0.0
  0
LINE
  5
276
330
1F
100
AcDbEntity
  8
LC-001-100-D00-0
 62
     7
370
    50
100
AcDbLine
 10
143.397398
 20
195.13336
 30
0.0
 11
143.397398
 21
195.633353
 31
0.0
  0
LINE
  5
277
330
1F
100
AcDbEntity
  8
LC-001-100-D00-0
 62
     7
370
    50
100
AcDbLine
 10
146.944262
 20
195.13336
 30
0.0
 11
143.397398
 21
195.13336
 31
0.0
  0
INSERT
  5
283
330
1F
100
AcDbEntity
  8
LC-001-100-D00-0
 62
     7
370
    50
100
AcDbBlockReference
  2
POLY5
 10
0.0
 20
0.0
 30
0.0
  0
LINE
  5
284
330
1F
100
AcDbEntity
  8
LC-001-100-D00-0
 62
     7
370
    50
100
AcDbLine
 10
148.209251
 20
191.14262
 30
0.0
 11
148.420833
 21
190.978245
 31
0.0
  0
ARC
  5
285
330
1F
100
AcDbEntity
  8
LC-001-100-D00-0
 62
     7
370
    50
100
AcDbCircle
 10
145.17083
 20
191.008358
 30
0.0
 40
6.801883930206491
100
AcDbArc
 50
56.54253
 51
63.818118
  0
ARC
  5
286
330
1F
100
AcDbEntity
  8
LC-001-100-D00-0
 62
     7
370
    50
100
AcDbCircle
 10
145.17083
 20
191.008358
 30
0.0
 40
6.801883930206638
100
AcDbArc
 50
116.181882
 51
123.45747
  0
INSERT
  5
292
330
1F
100
AcDbEntity
  8
LC-001-100-D00-0
 62
     7
370
    50
100
AcDbBlockReference
  2
POLY6
 10
0.0
 20
0.0
 30
0.0
  0
INSERT
  5
29E
330
1F
100
AcDbEntity
  8
LC-001-100-D00-0
 62
     7
370
    50
100
AcDbBlockReference
  2
POLY7
 10
0.0
 20
0.0
 30
0.0
  0
LINE
  5
29F
330
1F
100
AcDbEntity
  8
LC-001-100-D00-0
 62
     7
370
    50
100
AcDbLine
 10
143.397398
 20
197.133364
 30
0.0
 11
142.260179
 21
197.133364
 31
0.0
  0
LINE
  5
2A0
330
1F
100
AcDbEntity
  8
LC-001-100-D00-0
 62
     7
370
    50
100
AcDbLine
 10
143.397398
 20
197.133364
 30
0.0
 11
143.397398
 21
195.633353
 31
0.0
  0
LINE
  5
2A1
330
1F
100
AcDbEntity
  8
LC-001-100-D00-0
 62
     7
370
    50
100
AcDbLine
 10
148.081481
 20
197.133364
 30
0.0
 11
146.944262
 21
197.133364
 31
0.0
  0
LINE
  5
2A2
330
1F
100
AcDbEntity
  8
LC-001-100-D00-0
 62
     7
370
    50
100
AcDbLine
 10
146.944262
 20
197.133364
 30
0.0
 11
146.944262
 21
195.633353
 31
0.0
  0
LINE
  5
2A3
330
1F
100
AcDbEntity
  8
LC-001-100-D00-0
 62
     7
370
    50
100
AcDbLine
 10
144.501283
 20
197.133364
 30
0.0
 11
145.840376
 21
197.133364
 31
0.0
  0
LINE
  5
2A4
330
1F
100
AcDbEntity
  8
LC-001-100-D00-0
 62
     7
370
    50
100
AcDbLine
 10
146.143496
 20
197.133364
 30
0.0
 11
145.840376
 21
197.133364
 31
0.0
  0
LINE
  5
2A5
330
1F
100
AcDbEntity
  8
LC-001-100-D00-0
 62
     7
370
    50
100
AcDbLine
 10
144.198172
 20
197.133364
 30
0.0
 11
144.501283
 21
197.133364
 31
0.0
  0
LINE
  5
2A6
330
1F
100
AcDbEntity
  8
LC-001-100-D00-0
 62
     7
370
    50
100
AcDbLine
 10
146.143496
 20
197.133364
 30
0.0
 11
146.944262
 21
197.133364
 31
0.0
  0
LINE
  5
2A7
330
1F
100
AcDbEntity
  8
LC-001-100-D00-0
 62
     7
370
    50
100
AcDbLine
 10
144.198172
 20
197.133364
 30
0.0
 11
143.397398
 21
197.133364
 31
0.0
  0
ARC
  5
2A8
330
1F
100
AcDbEntity
  8
LC-001-100-D00-0
 62
     7
370
    50
100
AcDbCircle
 10
157.17063
 20
201.633358
 30
0.0
 40
3.000000000000029
100
AcDbArc
 50
89.996183
 51
179.338624
  0
ARC
  5
2A9
330
1F
100
AcDbEntity
  8
LC-001-100-D00-0
 62
     7
370
    50
100
AcDbCircle
 10
273.17103
 20
201.633358
 30
0.0
 40
3.000000000000079
100
AcDbArc
 50
0.661376
 51
90.003817
  0
LINE
  5
2AA
330
1F
100
AcDbEntity
  8
LC-001-100-D00-0
 62
     7
370
    50
100
AcDbLine
 10
154.17083
 20
196.133362
 30
0.0
 11
154.17083
 21
201.667981
 31
0.0
  0
LINE
  5
2AB
330
1F
100
AcDbEntity
  8
LC-001-100-D00-0
 62
     7
370
    50
100
AcDbLine
 10
276.170831
 20
201.667981
 30
0.0
 11
276.170831
 21
196.133362
 31
0.0
  0
LINE
  5
2AC
330
1F
100
AcDbEntity
  8
LC-001-100-D00-0
 62
     7
370
    50
100
AcDbLine
 10
154.17083
 20
185.633363
 30
0.0
 11
154.17083
 21
187.637986
 31
0.0
  0
LINE
  5
2AD
330
1F
100
AcDbEntity
  8
LC-001-100-D00-0
 62
     7
370
    50
100
AcDbLine
 10
276.170831
 20
187.637986
 30
0.0
 11
276.170831
 21
185.633363
 31
0.0
  0
LINE
  5
2AE
330
1F
100
AcDbEntity
  8
LC-001-100-D00-0
 62
     7
370
    50
100
AcDbLine
 10
154.17083
 20
187.637986
 30
0.0
 11
155.170832
 21
188.637988
 31
0.0
  0
LINE
  5
2AF
330
1F
100
AcDbEntity
  8
LC-001-100-D00-0
 62
     7
370
    50
100
AcDbLine
 10
275.170829
 20
188.637988
 30
0.0
 11
276.170831
 21
187.637986
 31
0.0
  0
LINE
  5
2B0
330
1F
100
AcDbEntity
  8
LC-001-100-D00-0
 62
     7
370
    50
100
AcDbLine
 10
276.170831
 20
185.633363
 30
0.0
 11
275.170829
 21
184.633361
 31
0.0
  0
LINE
  5
2B1
330
1F
100
AcDbEntity
  8
LC-001-100-D00-0
 62
     7
370
    50
100
AcDbLine
 10
155.170832
 20
184.633361
 30
0.0
 11
154.17083
 21
185.633363
 31
0.0
  0
LINE
  5
2B2
330
1F
100
AcDbEntity
  8
LC-001-100-D00-0
 62
     7
370
    50
100
AcDbLine
 10
155.170832
 20
188.637988
 30
0.0
 11
155.170832
 21
193.133356
 31
0.0
  0
LINE
  5
2B3
330
1F
100
AcDbEntity
  8
LC-001-100-D00-0
 62
     7
370
    50
100
AcDbLine
 10
275.170829
 20
193.133356
 30
0.0
 11
275.170829
 21
188.637988
 31
0.0
  0
LINE
  5
2B4
330
1F
100
AcDbEntity
  8
LC-001-100-D00-0
 62
     7
370
    50
100
AcDbLine
 10
274.170831
 20
192.133354
 30
0.0
 11
274.670832
 21
193.133356
 31
0.0
  0
LINE
  5
2B5
330
1F
100
AcDbEntity
  8
LC-001-100-D00-0
 62
     7
370
    50
100
AcDbLine
 10
155.670829
 20
193.133356
 30
0.0
 11
156.17083
 21
192.133354
 31
0.0
  0
LINE
  5
2B6
330
1F
100
AcDbEntity
  8
LC-001-100-D00-0
 62
     7
370
    50
100
AcDbLine
 10
155.670829
 20
193.133356
 30
0.0
 11
155.773859
 21
193.133356
 31
0.0
  0
LINE
  5
2B7
330
1F
100
AcDbEntity
  8
LC-001-100-D00-0
 62
     7
370
    50
100
AcDbLine
 10
274.567801
 20
193.133356
 30
0.0
 11
274.670832
 21
193.133356
 31
0.0
  0
LINE
  5
2B8
330
1F
100
AcDbEntity
  8
LC-001-100-D00-0
 62
     7
370
    50
100
AcDbLine
 10
156.670831
 20
192.133354
 30
0.0
 11
156.670831
 21
194.133492
 31
0.0
  0
LINE
  5
2B9
330
1F
100
AcDbEntity
  8
LC-001-100-D00-0
 62
     7
370
    50
100
AcDbLine
 10
273.67083
 20
194.133492
 30
0.0
 11
273.67083
 21
192.133354
 31
0.0
  0
ARC
  5
2BA
330
1F
100
AcDbEntity
  8
LC-001-100-D00-0
 62
     7
370
    50
100
AcDbCircle
 10
157.17083
 20
195.13349
 30
0.0
 40
1.0
100
AcDbArc
 50
270.0
 51
89.070278
  0
ARC
  5
2BB
330
1F
100
AcDbEntity
  8
LC-001-100-D00-0
 62
     7
370
    50
100
AcDbCircle
 10
273.17083
 20
195.13349
 30
0.0
 40
0.9999999999999748
100
AcDbArc
 50
90.929722
 51
270.0
  0
ARC
  5
2BC
330
1F
100
AcDbEntity
  8
LC-001-100-D00-0
 62
     7
370
    50
100
AcDbCircle
 10
157.673921
 20
189.135673
 30
0.0
 40
2.500000000000061
100
AcDbArc
 50
306.781403
 51
53.218597
  0
LINE
  5
2BD
330
1F
100
AcDbEntity
  8
LC-001-100-D00-0
 62
     7
370
    50
100
AcDbLine
 10
159.170828
 20
191.137986
 30
0.0
 11
160.170831
 21
191.137986
 31
0.0
  0
LINE
  5
2BE
330
1F
100
AcDbEntity
  8
LC-001-100-D00-0
 62
     7
370
    50
100
AcDbLine
 10
270.17083
 20
191.137986
 30
0.0
 11
271.170832
 21
191.137986
 31
0.0
  0
ARC
  5
2BF
330
1F
100
AcDbEntity
  8
LC-001-100-D00-0
 62
     7
370
    50
100
AcDbCircle
 10
272.667739
 20
189.135673
 30
0.0
 40
2.500000000000027
100
AcDbArc
 50
126.781403
 51
233.218597
  0
LINE
  5
2C0
330
1F
100
AcDbEntity
  8
LC-001-100-D00-0
 62
     7
370
    50
100
AcDbLine
 10
159.170828
 20
187.133358
 30
0.0
 11
160.170831
 21
187.133358
 31
0.0
  0
LINE
  5
2C1
330
1F
100
AcDbEntity
  8
LC-001-100-D00-0
 62
     7
370
    50
100
AcDbLine
 10
270.17083
 20
187.133358
 30
0.0
 11
271.170832
 21
187.133358
 31
0.0
  0
LINE
  5
2C2
330
1F
100
AcDbEntity
  8
LC-001-100-D00-0
 62
     7
370
    50
100
AcDbLine
 10
159.170828
 20
187.133358
 30
0.0
 11
159.170828
 21
184.633361
 31
0.0
  0
LINE
  5
2C3
330
1F
100
AcDbEntity
  8
LC-001-100-D00-0
 62
     7
370
    50
100
AcDbLine
 10
271.170832
 20
184.633361
 30
0.0
 11
271.170832
 21
187.133358
 31
0.0
  0
LINE
  5
2C4
330
1F
100
AcDbEntity
  8
LC-001-100-D00-0
 62
     7
370
    50
100
AcDbLine
 10
159.170828
 20
184.633361
 30
0.0
 11
160.170831
 21
184.633361
 31
0.0
  0
LINE
  5
2C5
330
1F
100
AcDbEntity
  8
LC-001-100-D00-0
 62
     7
370
    50
100
AcDbLine
 10
270.17083
 20
184.633361
 30
0.0
 11
271.170832
 21
184.633361
 31
0.0
  0
ARC
  5
2C6
330
1F
100
AcDbEntity
  8
LC-001-100-D00-0
 62
     7
370
    50
100
AcDbCircle
 10
159.669676
 20
200.788728
 30
0.0
 40
0.50000000000004
100
AcDbArc
 50
59.847133
 51
176.1055
  0
ARC
  5
2C7
330
1F
100
AcDbEntity
  8
LC-001-100-D00-0
 62
     7
370
    50
100
AcDbCircle
 10
270.671985
 20
200.788728
 30
0.0
 40
0.5000000000000291
100
AcDbArc
 50
3.8945
 51
120.152867
  0
LINE
  5
2C8
330
1F
100
AcDbEntity
  8
LC-001-100-D00-0
 62
     7
370
    50
100
AcDbLine
 10
159.170828
 20
200.822683
 30
0.0
 11
160.170831
 21
200.822683
 31
0.0
  0
LINE
  5
2C9
330
1F
100
AcDbEntity
  8
LC-001-100-D00-0
 62
     7
370
    50
100
AcDbLine
 10
270.17083
 20
200.822683
 30
0.0
 11
271.170832
 21
200.822683
 31
0.0
  0
LINE
  5
2CA
330
1F
100
AcDbEntity
  8
LC-001-100-D00-0
 62
     7
370
    50
100
AcDbLine
 10
159.170828
 20
200.822683
 30
0.0
 11
159.170828
 21
191.137986
 31
0.0
  0
LINE
  5
2CB
330
1F
100
AcDbEntity
  8
LC-001-100-D00-0
 62
     7
370
    50
100
AcDbLine
 10
271.170832
 20
191.137986
 30
0.0
 11
271.170832
 21
200.822683
 31
0.0
  0
ARC
  5
2CC
330
1F
100
AcDbEntity
  8
LC-001-100-D00-0
 62
     7
370
    50
100
AcDbCircle
 10
159.495404
 20
204.133358
 30
0.0
 40
0.5000000000000072
100
AcDbArc
 50
29.999972
 51
90.0
  0
ARC
  5
2CD
330
1F
100
AcDbEntity
  8
LC-001-100-D00-0
 62
     7
370
    50
100
AcDbCircle
 10
270.846256
 20
204.133358
 30
0.0
 40
0.5
100
AcDbArc
 50
90.0
 51
150.000028
  0
LINE
  5
2CE
330
1F
100
AcDbEntity
  8
LC-001-100-D00-0
 62
     7
370
    50
100
AcDbLine
 10
159.495406
 20
204.633357
 30
0.0
 11
160.170831
 21
204.633357
 31
0.0
  0
LINE
  5
2CF
330
1F
100
AcDbEntity
  8
LC-001-100-D00-0
 62
     7
370
    50
100
AcDbLine
 10
270.17083
 20
204.633357
 30
0.0
 11
270.846255
 21
204.633357
 31
0.0
  0
LINE
  5
2D0
330
1F
100
AcDbEntity
  8
LC-001-100-D00-0
 62
     7
370
    50
100
AcDbLine
 10
270.42083
 20
201.221065
 30
0.0
 11
267.670829
 21
199.633361
 31
0.0
  0
LINE
  5
2D1
330
1F
100
AcDbEntity
  8
LC-001-100-D00-0
 62
     7
370
    50
100
AcDbLine
 10
162.670832
 20
199.633361
 30
0.0
 11
159.92083
 21
201.221065
 31
0.0
  0
LINE
  5
2D2
330
1F
100
AcDbEntity
  8
LC-001-100-D00-0
 62
     7
370
    50
100
AcDbLine
 10
267.670829
 20
199.633361
 30
0.0
 11
270.413242
 21
204.38336
 31
0.0
  0
LINE
  5
2D3
330
1F
100
AcDbEntity
  8
LC-001-100-D00-0
 62
     7
370
    50
100
AcDbLine
 10
159.928418
 20
204.38336
 30
0.0
 11
162.670832
 21
199.633361
 31
0.0
  0
LINE
  5
2D4
330
1F
100
AcDbEntity
  8
LC-001-100-D00-0
 62
     7
370
    50
100
AcDbLine
 10
270.846255
 20
204.633357
 30
0.0
 11
273.170829
 21
204.633357
 31
0.0
  0
LINE
  5
2D5
330
1F
100
AcDbEntity
  8
LC-001-100-D00-0
 62
     7
370
    50
100
AcDbLine
 10
273.170829
 20
194.133492
 30
0.0
 11
273.67083
 21
194.133492
 31
0.0
  0
LINE
  5
2D6
330
1F
100
AcDbEntity
  8
LC-001-100-D00-0
 62
     7
370
    50
100
AcDbLine
 10
273.67083
 20
192.133354
 30
0.0
 11
274.170831
 21
192.133354
 31
0.0
  0
LINE
  5
2D7
330
1F
100
AcDbEntity
  8
LC-001-100-D00-0
 62
     7
370
    50
100
AcDbLine
 10
275.170829
 20
184.633361
 30
0.0
 11
271.170832
 21
184.633361
 31
0.0
  0
LINE
  5
2D8
330
1F
100
AcDbEntity
  8
LC-001-100-D00-0
 62
     7
370
    50
100
AcDbLine
 10
274.670832
 20
193.133356
 30
0.0
 11
275.170829
 21
193.133356
 31
0.0
  0
LINE
  5
2D9
330
1F
100
AcDbEntity
  8
LC-001-100-D00-0
 62
     7
370
    50
100
AcDbLine
 10
276.170831
 20
196.133362
 30
0.0
 11
273.154605
 21
196.133362
 31
0.0
  0
LINE
  5
2DA
330
1F
100
AcDbEntity
  8
LC-001-100-D00-0
 62
     7
370
    50
100
AcDbLine
 10
157.170832
 20
204.633357
 30
0.0
 11
159.495406
 21
204.633357
 31
0.0
  0
LINE
  5
2DB
330
1F
100
AcDbEntity
  8
LC-001-100-D00-0
 62
     7
370
    50
100
AcDbLine
 10
156.670831
 20
194.133492
 30
0.0
 11
157.170832
 21
194.133492
 31
0.0
  0
LINE
  5
2DC
330
1F
100
AcDbEntity
  8
LC-001-100-D00-0
 62
     7
370
    50
100
AcDbLine
 10
156.17083
 20
192.133354
 30
0.0
 11
156.670831
 21
192.133354
 31
0.0
  0
LINE
  5
2DD
330
1F
100
AcDbEntity
  8
LC-001-100-D00-0
 62
     7
370
    50
100
AcDbLine
 10
159.170828
 20
184.633361
 30
0.0
 11
155.170832
 21
184.633361
 31
0.0
  0
LINE
  5
2DE
330
1F
100
AcDbEntity
  8
LC-001-100-D00-0
 62
     7
370
    50
100
AcDbLine
 10
155.170832
 20
193.133356
 30
0.0
 11
155.670829
 21
193.133356
 31
0.0
  0
LINE
  5
2DF
330
1F
100
AcDbEntity
  8
LC-001-100-D00-0
 62
     7
370
    50
100
AcDbLine
 10
157.187056
 20
196.133362
 30
0.0
 11
154.17083
 21
196.133362
 31
0.0
  0
ARC
  5
2E0
330
1F
100
AcDbEntity
  8
LC-001-100-D00-0
 62
     7
370
    50
100
AcDbCircle
 10
111.370773
 20
195.879868
 30
0.0
 40
0.2000000000000594
100
AcDbArc
 50
181.366653
 51
258.470429
  0
ARC
  5
2E1
330
1F
100
AcDbEntity
  8
LC-001-100-D00-0
 62
     7
370
    50
100
AcDbCircle
 10
318.970887
 20
195.879868
 30
0.0
 40
0.2000000000001201
100
AcDbArc
 50
281.529571
 51
358.633347
  0
LINE
  5
2E2
330
1F
100
AcDbEntity
  8
LC-001-100-D00-0
 62
     7
370
    50
100
AcDbLine
 10
111.170828
 20
196.133362
 30
0.0
 11
111.170828
 21
195.875095
 31
0.0
  0
LINE
  5
2E3
330
1F
100
AcDbEntity
  8
LC-001-100-D00-0
 62
     7
370
    50
100
AcDbLine
 10
319.170832
 20
195.875095
 30
0.0
 11
319.170832
 21
196.133362
 31
0.0
  0
LINE
  5
2E4
330
1F
100
AcDbEntity
  8
LC-001-100-D00-0
 62
     7
370
    50
100
AcDbLine
 10
310.428604
 20
193.060042
 30
0.0
 11
319.010861
 21
195.683898
 31
0.0
  0
LINE
  5
2E5
330
1F
100
AcDbEntity
  8
LC-001-100-D00-0
 62
     7
370
    50
100
AcDbLine
 10
111.330799
 20
195.683898
 30
0.0
 11
119.913056
 21
193.060042
 31
0.0
  0
LINE
  5
2E6
330
1F
100
AcDbEntity
  8
LC-001-100-D00-0
 62
     7
370
    50
100
AcDbLine
 10
295.927301
 20
190.633358
 30
0.0
 11
310.428604
 21
193.060042
 31
0.0
  0
LINE
  5
2E7
330
1F
100
AcDbEntity
  8
LC-001-100-D00-0
 62
     7
370
    50
100
AcDbLine
 10
119.913056
 20
193.060042
 30
0.0
 11
134.41436
 21
190.633358
 31
0.0
  0
LINE
  5
2E8
330
1F
100
AcDbEntity
  8
LC-001-100-D00-0
 62
     7
370
    50
100
AcDbLine
 10
278.670832
 20
190.633358
 30
0.0
 11
278.670832
 21
196.133362
 31
0.0
  0
LINE
  5
2E9
330
1F
100
AcDbEntity
  8
LC-001-100-D00-0
 62
     7
370
    50
100
AcDbLine
 10
278.670832
 20
190.633358
 30
0.0
 11
295.927301
 21
190.633358
 31
0.0
  0
LINE
  5
2EA
330
1F
100
AcDbEntity
  8
LC-001-100-D00-0
 62
     7
370
    50
100
AcDbLine
 10
319.170832
 20
196.133362
 30
0.0
 11
278.670832
 21
196.133362
 31
0.0
  0
LINE
  5
2EB
330
1F
100
AcDbEntity
  8
LC-001-100-D00-0
 62
     7
370
    50
100
AcDbLine
 10
138.920828
 20
196.133362
 30
0.0
 11
138.920828
 21
193.133356
 31
0.0
  0
LINE
  5
2EC
330
1F
100
AcDbEntity
  8
LC-001-100-D00-0
 62
     7
370
    50
100
AcDbLine
 10
141.67083
 20
193.133356
 30
0.0
 11
138.920828
 21
193.133356
 31
0.0
  0
LINE
  5
2ED
330
1F
100
AcDbEntity
  8
LC-001-100-D00-0
 62
     7
370
    50
100
AcDbLine
 10
141.67083
 20
193.133356
 30
0.0
 11
141.67083
 21
190.633358
 31
0.0
  0
LINE
  5
2EE
330
1F
100
AcDbEntity
  8
LC-001-100-D00-0
 62
     7
370
    50
100
AcDbLine
 10
134.41436
 20
190.633358
 30
0.0
 11
141.67083
 21
190.633358
 31
0.0
  0
LINE
  5
2EF
330
1F
100
AcDbEntity
  8
LC-001-100-D00-0
 62
     7
370
    50
100
AcDbLine
 10
138.920828
 20
196.133362
 30
0.0
 11
111.170828
 21
196.133362
 31
0.0
  0
LINE
  5
2F0
330
1F
100
AcDbEntity
  8
LC-001-100-D00-0
 62
     7
370
    50
100
AcDbLine
 10
151.420831
 20
193.133356
 30
0.0
 11
151.420831
 21
196.133362
 31
0.0
  0
LINE
  5
2F1
330
1F
100
AcDbEntity
  8
LC-001-100-D00-0
 62
     7
370
    50
100
AcDbLine
 10
151.420831
 20
196.133362
 30
0.0
 11
150.220833
 21
196.133362
 31
0.0
  0
LINE
  5
2F2
330
1F
100
AcDbEntity
  8
LC-001-100-D00-0
 62
     7
370
    50
100
AcDbLine
 10
140.120834
 20
196.133362
 30
0.0
 11
138.920828
 21
196.133362
 31
0.0
  0
LINE
  5
2F3
330
1F
100
AcDbEntity
  8
LC-001-100-D00-0
 62
     7
370
    50
100
AcDbLine
 10
148.67083
 20
190.633358
 30
0.0
 11
148.67083
 21
193.133356
 31
0.0
  0
LINE
  5
2F4
330
1F
100
AcDbEntity
  8
LC-001-100-D00-0
 62
     7
370
    50
100
AcDbLine
 10
148.67083
 20
190.633358
 30
0.0
 11
147.793293
 21
190.633358
 31
0.0
  0
LINE
  5
2F5
330
1F
100
AcDbEntity
  8
LC-001-100-D00-0
 62
     7
370
    50
100
AcDbLine
 10
143.170833
 20
190.633358
 30
0.0
 11
141.67083
 21
190.633358
 31
0.0
  0
LINE
  5
2F6
330
1F
100
AcDbEntity
  8
LC-001-100-D00-0
 62
     7
370
    50
100
AcDbLine
 10
151.670828
 20
196.133362
 30
0.0
 11
151.670828
 21
190.633358
 31
0.0
  0
LINE
  5
2F7
330
1F
100
AcDbEntity
  8
LC-001-100-D00-0
 62
     7
370
    50
100
AcDbLine
 10
151.420831
 20
193.133356
 30
0.0
 11
148.67083
 21
193.133356
 31
0.0
  0
LINE
  5
2F8
330
1F
100
AcDbEntity
  8
LC-001-100-D00-0
 62
     7
370
    50
100
AcDbLine
 10
148.67083
 20
190.633358
 30
0.0
 11
151.670828
 21
190.633358
 31
0.0
  0
LINE
  5
2F9
330
1F
100
AcDbEntity
  8
LC-001-100-D00-0
 62
     7
370
    50
100
AcDbLine
 10
151.670828
 20
196.133362
 30
0.0
 11
151.420831
 21
196.133362
 31
0.0
  0
LINE
  5
2FA
330
1F
100
AcDbEntity
  8
LC-001-100-D00-0
 62
     7
370
    50
100
AcDbLine
 10
276.587497
 20
193.133356
 30
0.0
 11
276.587497
 21
191.633435
 31
0.0
  0
LINE
  5
2FB
330
1F
100
AcDbEntity
  8
LC-001-100-D00-0
 62
     7
370
    50
100
AcDbLine
 10
275.170829
 20
193.133356
 30
0.0
 11
276.587497
 21
193.133356
 31
0.0
  0
LINE
  5
2FC
330
1F
100
AcDbEntity
  8
LC-001-100-D00-0
 62
     7
370
    50
100
AcDbLine
 10
278.670832
 20
196.133362
 30
0.0
 11
276.170831
 21
196.133362
 31
0.0
  0
LINE
  5
2FD
330
1F
100
AcDbEntity
  8
LC-001-100-D00-0
 62
     7
370
    50
100
AcDbLine
 10
154.237497
 20
193.133356
 30
0.0
 11
155.170832
 21
193.133356
 31
0.0
  0
LINE
  5
2FE
330
1F
100
AcDbEntity
  8
LC-001-100-D00-0
 62
     7
370
    50
100
AcDbLine
 10
154.17083
 20
196.133362
 30
0.0
 11
151.670828
 21
196.133362
 31
0.0
  0
LINE
  5
2FF
330
1F
100
AcDbEntity
  8
LC-001-100-D00-0
 62
     7
370
    50
100
AcDbLine
 10
155.773859
 20
193.133356
 30
0.0
 11
156.274736
 21
192.133354
 31
0.0
  0
LINE
  5
300
330
1F
100
AcDbEntity
  8
LC-001-100-D00-0
 62
     7
370
    50
100
AcDbLine
 10
274.066925
 20
192.133354
 30
0.0
 11
274.567801
 21
193.133356
 31
0.0
  0
LINE
  5
301
330
1F
100
AcDbEntity
  8
LC-001-100-D00-0
 62
     7
370
    50
100
AcDbLine
 10
275.170829
 20
163.868354
 30
0.0
 11
275.170829
 21
190.633358
 31
0.0
  0
LINE
  5
302
330
1F
100
AcDbEntity
  8
LC-001-100-D00-0
 62
     7
370
    50
100
AcDbLine
 10
275.170829
 20
190.633358
 30
0.0
 11
276.170935
 21
191.633435
 31
0.0
  0
LINE
  5
303
330
1F
100
AcDbEntity
  8
LC-001-100-D00-0
 62
     7
370
    50
100
AcDbLine
 10
279.170833
 20
191.633435
 30
0.0
 11
276.170935
 21
191.633435
 31
0.0
  0
LINE
  5
304
330
1F
100
AcDbEntity
  8
LC-001-100-D00-0
 62
     7
370
    50
100
AcDbLine
 10
279.170833
 20
191.633435
 30
0.0
 11
279.170833
 21
190.133365
 31
0.0
  0
LINE
  5
305
330
1F
100
AcDbEntity
  8
LC-001-100-D00-0
 62
     7
370
    50
100
AcDbLine
 10
279.170833
 20
190.133365
 30
0.0
 11
279.882051
 21
190.133365
 31
0.0
  0
LINE
  5
306
330
1F
100
AcDbEntity
  8
LC-001-100-D00-0
 62
     7
370
    50
100
AcDbLine
 10
279.882051
 20
190.133365
 30
0.0
 11
280.170724
 21
190.633358
 31
0.0
  0
LINE
  5
307
330
1F
100
AcDbEntity
  8
LC-001-100-D00-0
 62
     7
370
    50
100
AcDbLine
 10
280.170724
 20
190.633358
 30
0.0
 11
280.170828
 21
190.633164
 31
0.0
  0
LINE
  5
308
330
1F
100
AcDbEntity
  8
LC-001-100-D00-0
 62
     7
370
    50
100
AcDbLine
 10
280.170828
 20
190.133365
 30
0.0
 11
280.170828
 21
190.633164
 31
0.0
  0
LINE
  5
309
330
1F
100
AcDbEntity
  8
LC-001-100-D00-0
 62
     7
370
    50
100
AcDbLine
 10
280.170828
 20
190.133365
 30
0.0
 11
282.670833
 21
190.133365
 31
0.0
  0
LINE
  5
30A
330
1F
100
AcDbEntity
  8
LC-001-100-D00-0
 62
     7
370
    50
100
AcDbLine
 10
282.670833
 20
190.133365
 30
0.0
 11
282.670833
 21
177.633362
 31
0.0
  0
LINE
  5
30B
330
1F
100
AcDbEntity
  8
LC-001-100-D00-0
 62
     7
370
    50
100
AcDbLine
 10
282.670833
 20
177.633362
 30
0.0
 11
283.170834
 21
177.133353
 31
0.0
  0
LINE
  5
30C
330
1F
100
AcDbEntity
  8
LC-001-100-D00-0
 62
     7
370
    50
100
AcDbLine
 10
287.170827
 20
177.133353
 30
0.0
 11
283.170834
 21
177.133353
 31
0.0
  0
LINE
  5
30D
330
1F
100
AcDbEntity
  8
LC-001-100-D00-0
 62
     7
370
    50
100
AcDbLine
 10
287.170827
 20
177.133353
 30
0.0
 11
287.670828
 21
177.633362
 31
0.0
  0
LINE
  5
30E
330
1F
100
AcDbEntity
  8
LC-001-100-D00-0
 62
     7
370
    25
100
AcDbLine
 10
287.670828
 20
177.633362
 30
0.0
 11
287.670828
 21
190.133365
 31
0.0
  0
LINE
  5
30F
330
1F
100
AcDbEntity
  8
LC-001-100-D00-0
 62
     7
370
    50
100
AcDbLine
 10
287.670828
 20
190.133365
 30
0.0
 11
290.170833
 21
190.133365
 31
0.0
  0
LINE
  5
310
330
1F
100
AcDbEntity
  8
LC-001-100-D00-0
 62
     7
370
    50
100
AcDbLine
 10
290.170833
 20
190.633358
 30
0.0
 11
290.170833
 21
190.133365
 31
0.0
  0
LINE
  5
311
330
1F
100
AcDbEntity
  8
LC-001-100-D00-0
 62
     7
370
    50
100
AcDbLine
 10
290.170833
 20
190.633358
 30
0.0
 11
290.459506
 21
190.133365
 31
0.0
  0
LINE
  5
312
330
1F
100
AcDbEntity
  8
LC-001-100-D00-0
 62
     7
370
    50
100
AcDbLine
 10
290.459506
 20
190.133365
 30
0.0
 11
291.170828
 21
190.133365
 31
0.0
  0
LINE
  5
313
330
1F
100
AcDbEntity
  8
LC-001-100-D00-0
 62
     7
370
    50
100
AcDbLine
 10
291.170828
 20
190.133365
 30
0.0
 11
291.170828
 21
186.633365
 31
0.0
  0
LINE
  5
314
330
1F
100
AcDbEntity
  8
LC-001-100-D00-0
 62
     7
370
    50
100
AcDbLine
 10
291.170828
 20
186.633365
 30
0.0
 11
298.170827
 21
186.633365
 31
0.0
  0
LINE
  5
315
330
1F
100
AcDbEntity
  8
LC-001-100-D00-0
 62
     7
370
    50
100
AcDbLine
 10
298.170827
 20
186.633365
 30
0.0
 11
298.170827
 21
190.133365
 31
0.0
  0
LINE
  5
316
330
1F
100
AcDbEntity
  8
LC-001-100-D00-0
 62
     7
370
    50
100
AcDbLine
 10
298.170827
 20
190.133365
 30
0.0
 11
300.170831
 21
190.133365
 31
0.0
  0
LINE
  5
317
330
1F
100
AcDbEntity
  8
LC-001-100-D00-0
 62
     7
370
    50
100
AcDbLine
 10
300.170831
 20
190.133365
 30
0.0
 11
320.330076
 21
196.296664
 31
0.0
  0
LINE
  5
318
330
1F
100
AcDbEntity
  8
LC-001-100-D00-0
 62
     7
370
    50
100
AcDbLine
 10
320.330076
 20
196.296664
 30
0.0
 11
327.604577
 21
196.537764
 31
0.0
  0
ARC
  5
319
330
1F
100
AcDbEntity
  8
LC-001-100-D00-0
 62
     7
370
    50
100
AcDbCircle
 10
327.67083
 20
194.538868
 30
0.0
 40
2.0
100
AcDbArc
 50
0.0
 51
91.898363
  0
LINE
  5
31A
330
1F
100
AcDbEntity
  8
LC-001-100-D00-0
 62
     7
370
    50
100
AcDbLine
 10
329.670831
 20
194.538863
 30
0.0
 11
329.670831
 21
193.055899
 31
0.0
  0
LINE
  5
31B
330
1F
100
AcDbEntity
  8
LC-001-100-D00-0
 62
     7
370
    50
100
AcDbLine
 10
320.688799
 20
192.746402
 30
0.0
 11
329.670831
 21
193.055899
 31
0.0
  0
LINE
  5
31C
330
1F
100
AcDbEntity
  8
LC-001-100-D00-0
 62
     7
370
    50
100
AcDbLine
 10
300.822101
 20
186.672555
 30
0.0
 11
320.688799
 21
192.746402
 31
0.0
  0
LINE
  5
31D
330
1F
100
AcDbEntity
  8
LC-001-100-D00-0
 62
     7
370
    50
100
AcDbLine
 10
298.143699
 20
184.293808
 30
0.0
 11
300.822101
 21
186.672555
 31
0.0
  0
LINE
  5
31E
330
1F
100
AcDbEntity
  8
LC-001-100-D00-0
 62
     7
370
    50
100
AcDbLine
 10
291.170828
 20
184.293808
 30
0.0
 11
298.143699
 21
184.293808
 31
0.0
  0
LINE
  5
31F
330
1F
100
AcDbEntity
  8
LC-001-100-D00-0
 62
     7
370
    50
100
AcDbLine
 10
291.170828
 20
184.293808
 30
0.0
 11
291.170828
 21
174.793811
 31
0.0
  0
LINE
  5
320
330
1F
100
AcDbEntity
  8
LC-001-100-D00-0
 62
     7
370
    50
100
AcDbLine
 10
288.068779
 20
174.793811
 30
0.0
 11
291.170828
 21
174.793811
 31
0.0
  0
ARC
  5
321
330
1F
100
AcDbEntity
  8
LC-001-100-D00-0
 62
     7
370
    50
100
AcDbCircle
 10
285.17083
 20
178.868354
 30
0.0
 40
4.999999999999972
100
AcDbArc
 50
234.578322
 51
305.421678
  0
LINE
  5
322
330
1F
100
AcDbEntity
  8
LC-001-100-D00-0
 62
     7
370
    50
100
AcDbLine
 10
278.170831
 20
174.793811
 30
0.0
 11
282.272882
 21
174.793811
 31
0.0
  0
LINE
  5
323
330
1F
100
AcDbEntity
  8
LC-001-100-D00-0
 62
     7
370
    50
100
AcDbLine
 10
278.170831
 20
163.868354
 30
0.0
 11
278.170831
 21
174.793811
 31
0.0
  0
ARC
  5
324
330
1F
100
AcDbEntity
  8
LC-001-100-D00-0
 62
     7
370
    50
100
AcDbCircle
 10
275.17083
 20
163.868354
 30
0.0
 40
3.0
100
AcDbArc
 50
270.0
 51
0.0
  0
LINE
  5
325
330
1F
100
AcDbEntity
  8
LC-001-100-D00-0
 62
     7
370
    50
100
AcDbLine
 10
275.170829
 20
160.868356
 30
0.0
 11
270.17083
 21
160.868356
 31
0.0
  0
LINE
  5
326
330
1F
100
AcDbEntity
  8
LC-001-100-D00-0
 62
     7
370
    50
100
AcDbLine
 10
270.17083
 20
160.868356
 30
0.0
 11
270.17083
 21
118.564622
 31
0.0
  0
LINE
  5
327
330
1F
100
AcDbEntity
  8
LC-001-100-D00-0
 62
     7
370
    50
100
AcDbLine
 10
270.17083
 20
118.564622
 30
0.0
 11
266.828745
 21
106.091892
 31
0.0
  0
ARC
  5
328
330
1F
100
AcDbEntity
  8
LC-001-100-D00-0
 62
     7
370
    50
100
AcDbCircle
 10
263.930971
 20
106.868354
 30
0.0
 40
3.0
100
AcDbArc
 50
270.0
 51
344.999892
  0
LINE
  5
329
330
1F
100
AcDbEntity
  8
LC-001-100-D00-0
 62
     7
370
    50
100
AcDbLine
 10
263.930972
 20
103.868352
 30
0.0
 11
240.170831
 21
103.868352
 31
0.0
  0
LINE
  5
32A
330
1F
100
AcDbEntity
  8
LC-001-100-D00-0
 62
     7
370
    50
100
AcDbLine
 10
240.170831
 20
103.868352
 30
0.0
 11
240.170831
 21
49.368354
 31
0.0
  0
LINE
  5
32B
330
1F
100
AcDbEntity
  8
LC-001-100-D00-0
 62
     7
370
    50
100
AcDbLine
 10
239.233007
 20
45.868354
 30
0.0
 11
240.170831
 21
49.368354
 31
0.0
  0
LINE
  5
32C
330
1F
100
AcDbEntity
  8
LC-001-100-D00-0
 62
     7
370
    50
100
AcDbLine
 10
237.17083
 20
45.868354
 30
0.0
 11
239.233007
 21
45.868354
 31
0.0
  0
LINE
  5
32D
330
1F
100
AcDbEntity
  8
LC-001-100-D00-0
 62
     7
370
    50
100
AcDbLine
 10
237.17083
 20
45.868354
 30
0.0
 11
237.17083
 21
106.368353
 31
0.0
  0
LINE
  5
32E
330
1F
100
AcDbEntity
  8
LC-001-100-D00-0
 62
     7
370
    50
100
AcDbLine
 10
261.600811
 20
106.368353
 30
0.0
 11
237.17083
 21
106.368353
 31
0.0
  0
ARC
  5
32F
330
1F
100
AcDbEntity
  8
LC-001-100-D00-0
 62
     7
370
    50
100
AcDbCircle
 10
261.600812
 20
109.368354
 30
0.0
 40
3.0
100
AcDbArc
 50
270.0
 51
344.999691
  0
LINE
  5
330
330
1F
100
AcDbEntity
  8
LC-001-100-D00-0
 62
     7
370
    50
100
AcDbLine
 10
267.119717
 20
118.373865
 30
0.0
 11
264.498584
 21
108.591878
 31
0.0
  0
ARC
  5
331
330
1F
100
AcDbEntity
  8
LC-001-100-D00-0
 62
     7
370
    50
100
AcDbCircle
 10
265.67083
 20
118.762103
 30
0.0
 40
1.49999999999997
100
AcDbArc
 50
344.999691
 51
0.0
  0
LINE
  5
332
330
1F
100
AcDbEntity
  8
LC-001-100-D00-0
 62
     7
370
    50
100
AcDbLine
 10
267.170831
 20
163.868354
 30
0.0
 11
267.170831
 21
118.7621
 31
0.0
  0
LINE
  5
333
330
1F
100
AcDbEntity
  8
LC-001-100-D00-0
 62
     7
370
    50
100
AcDbLine
 10
267.170831
 20
163.868354
 30
0.0
 11
275.170829
 21
163.868354
 31
0.0
  0
INSERT
  5
33F
330
1F
100
AcDbEntity
  8
LC-001-100-D00-0
 62
     7
370
    50
100
AcDbBlockReference
  2
POLY8
 10
0.0
 20
0.0
 30
0.0
  0
LINE
  5
340
330
1F
100
AcDbEntity
  8
LC-001-100-D00-0
 62
     7
370
    50
100
AcDbLine
 10
150.170833
 20
190.633164
 30
0.0
 11
150.170937
 21
190.633358
 31
0.0
  0
INSERT
  5
350
330
1F
100
AcDbEntity
  8
LC-001-100-D00-0
 62
     7
370
    50
100
AcDbBlockReference
  2
POLY9
 10
0.0
 20
0.0
 30
0.0
  0
LINE
  5
351
330
1F
100
AcDbEntity
  8
LC-001-100-D00-0
 62
     7
370
    50
100
AcDbLine
 10
163.170829
 20
118.7621
 30
0.0
 11
163.170829
 21
163.868354
 31
0.0
  0
LINE
  5
352
330
1F
100
AcDbEntity
  8
LC-001-100-D00-0
 62
     7
370
    50
100
AcDbLine
 10
163.170829
 20
163.868354
 30
0.0
 11
267.170831
 21
163.868354
 31
0.0
  0
LINE
  5
353
330
1F
100
AcDbEntity
  8
LC-001-100-D00-0
 62
     7
370
    50
100
AcDbLine
 10
132.170833
 20
190.133365
 30
0.0
 11
132.170833
 21
186.633365
 31
0.0
  0
LINE
  5
354
330
1F
100
AcDbEntity
  8
LC-001-100-D00-0
 62
     7
370
    50
100
AcDbLine
 10
132.170833
 20
190.133365
 30
0.0
 11
139.170833
 21
190.133365
 31
0.0
  0
LINE
  5
355
330
1F
100
AcDbEntity
  8
LC-001-100-D00-0
 62
     7
370
    50
100
AcDbLine
 10
291.170828
 20
190.133365
 30
0.0
 11
298.170827
 21
190.133365
 31
0.0
  0
ARC
  5
356
330
1F
100
AcDbEntity
  8
LC-001-100-D00-0
 62
     7
370
    50
100
AcDbCircle
 10
145.17083
 20
178.868354
 30
0.0
 40
5.000000000000004
100
AcDbArc
 50
234.578322
 51
305.421678
  0
LINE
  5
357
330
1F
100
AcDbEntity
  8
LC-001-100-D00-0
 62
     7
370
    50
100
AcDbLine
 10
139.170833
 20
174.793811
 30
0.0
 11
139.170833
 21
184.293808
 31
0.0
  0
LINE
  5
358
330
1F
100
AcDbEntity
  8
LC-001-100-D00-0
 62
     7
370
    50
100
AcDbLine
 10
163.512915
 20
106.091892
 30
0.0
 11
160.170831
 21
118.564622
 31
0.0
  0
LINE
  5
359
330
1F
100
AcDbEntity
  8
LC-001-100-D00-0
 62
     7
370
    50
100
AcDbLine
 10
154.170725
 20
191.633435
 30
0.0
 11
155.170832
 21
190.633358
 31
0.0
  0
LINE
  5
35A
330
1F
100
AcDbEntity
  8
LC-001-100-D00-0
 62
     7
370
    50
100
AcDbLine
 10
275.170829
 20
191.633435
 30
0.0
 11
276.170935
 21
191.633435
 31
0.0
  0
LINE
  5
35B
330
1F
100
AcDbEntity
  8
LC-001-100-D00-0
 62
     7
370
    50
100
AcDbLine
 10
154.237389
 20
191.633435
 30
0.0
 11
155.170832
 21
191.633435
 31
0.0
  0
LINE
  5
35C
330
1F
100
AcDbEntity
  8
LC-001-100-D00-0
 62
     7
370
    50
100
AcDbLine
 10
110.011585
 20
196.296664
 30
0.0
 11
130.170829
 21
190.133365
 31
0.0
  0
LINE
  5
35D
330
1F
100
AcDbEntity
  8
LC-001-100-D00-0
 62
     7
370
    50
100
AcDbLine
 10
110.011585
 20
196.296664
 30
0.0
 11
140.863917
 21
196.296664
 31
0.0
  0
LINE
  5
35E
330
1F
100
AcDbEntity
  8
LC-001-100-D00-0
 62
     7
370
    50
100
AcDbLine
 10
149.477742
 20
196.296664
 30
0.0
 11
154.17083
 21
196.296664
 31
0.0
  0
LINE
  5
35F
330
1F
100
AcDbEntity
  8
LC-001-100-D00-0
 62
     7
370
    50
100
AcDbLine
 10
276.170831
 20
196.296664
 30
0.0
 11
320.330076
 21
196.296664
 31
0.0
  0
LINE
  5
360
330
1F
100
AcDbEntity
  8
LC-001-100-D00-0
 62
     7
370
    50
100
AcDbLine
 10
165.843077
 20
108.591878
 30
0.0
 11
163.221944
 21
118.373865
 31
0.0
  0
LINE
  5
361
330
1F
100
AcDbEntity
  8
LC-001-100-D00-0
 62
     7
370
    50
100
AcDbLine
 10
152.170829
 20
174.793811
 30
0.0
 11
152.170829
 21
163.868354
 31
0.0
  0
LINE
  5
362
330
1F
100
AcDbEntity
  8
LC-001-100-D00-0
 62
     7
370
    50
100
AcDbLine
 10
282.670833
 20
177.633362
 30
0.0
 11
287.670828
 21
177.633362
 31
0.0
  0
LINE
  5
363
330
1F
100
AcDbEntity
  8
LC-001-100-D00-0
 62
     7
370
    50
100
AcDbLine
 10
287.670828
 20
190.133365
 30
0.0
 11
282.670833
 21
190.133365
 31
0.0
  0
LINE
  5
364
330
1F
100
AcDbEntity
  8
LC-001-100-D00-0
 62
     7
370
    50
100
AcDbLine
 10
155.170832
 20
190.633358
 30
0.0
 11
155.170832
 21
163.868354
 31
0.0
  0
ARC
  5
365
330
1F
100
AcDbEntity
  8
LC-001-100-D00-0
 62
     7
370
    50
100
AcDbCircle
 10
168.740849
 20
109.368354
 30
0.0
 40
3.00000000000001
100
AcDbArc
 50
195.000309
 51
270.0
  0
INSERT
  5
371
330
1F
100
AcDbEntity
  8
LC-001-100-D00-0
 62
     7
370
    50
100
AcDbBlockReference
  2
POLY10
 10
0.0
 20
0.0
 30
0.0
  0
ARC
  5
372
330
1F
100
AcDbEntity
  8
LC-001-100-D00-0
 62
     7
370
    50
100
AcDbCircle
 10
164.67083
 20
118.762103
 30
0.0
 40
1.500000000000057
100
AcDbArc
 50
180.0
 51
195.000309
  0
LINE
  5
373
330
1F
100
AcDbEntity
  8
LC-001-100-D00-0
 62
     7
370
    50
100
AcDbLine
 10
154.237497
 20
194.633426
 30
0.0
 11
154.237497
 21
191.633435
 31
0.0
  0
LINE
  5
374
330
1F
100
AcDbEntity
  8
LC-001-100-D00-0
 62
     7
370
    50
100
AcDbLine
 10
152.170829
 20
191.633435
 30
0.0
 11
152.170829
 21
194.633426
 31
0.0
  0
LINE
  5
375
330
1F
100
AcDbEntity
  8
LC-001-100-D00-0
 62
     7
370
    50
100
AcDbLine
 10
190.17083
 20
49.368354
 30
0.0
 11
190.17083
 21
103.868352
 31
0.0
  0
LINE
  5
376
330
1F
100
AcDbEntity
  8
LC-001-100-D00-0
 62
     7
370
    50
100
AcDbLine
 10
155.170832
 20
163.868354
 30
0.0
 11
163.170829
 21
163.868354
 31
0.0
  0
LINE
  5
377
330
1F
100
AcDbEntity
  8
LC-001-100-D00-0
 62
     7
370
    50
100
AcDbLine
 10
193.17083
 20
106.368353
 30
0.0
 11
168.74085
 21
106.368353
 31
0.0
  0
LINE
  5
378
330
1F
100
AcDbEntity
  8
LC-001-100-D00-0
 62
     7
370
    50
100
AcDbLine
 10
193.17083
 20
106.368353
 30
0.0
 11
193.17083
 21
45.868354
 31
0.0
  0
LINE
  5
379
330
1F
100
AcDbEntity
  8
LC-001-100-D00-0
 62
     7
370
    50
100
AcDbLine
 10
191.108653
 20
45.868354
 30
0.0
 11
193.17083
 21
45.868354
 31
0.0
  0
LINE
  5
37A
330
1F
100
AcDbEntity
  8
LC-001-100-D00-0
 62
     7
370
    50
100
AcDbLine
 10
190.17083
 20
49.368354
 30
0.0
 11
191.108653
 21
45.868354
 31
0.0
  0
LINE
  5
37B
330
1F
100
AcDbEntity
  8
LC-001-100-D00-0
 62
     7
370
    50
100
AcDbLine
 10
190.17083
 20
103.868352
 30
0.0
 11
166.410688
 21
103.868352
 31
0.0
  0
ARC
  5
37C
330
1F
100
AcDbEntity
  8
LC-001-100-D00-0
 62
     7
370
    50
100
AcDbCircle
 10
166.410689
 20
106.868354
 30
0.0
 40
3.000000000000007
100
AcDbArc
 50
195.000108
 51
270.0
  0
LINE
  5
37D
330
1F
100
AcDbEntity
  8
LC-001-100-D00-0
 62
     7
370
    50
100
AcDbLine
 10
160.170831
 20
118.564622
 30
0.0
 11
160.170831
 21
160.868356
 31
0.0
  0
ARC
  5
37E
330
1F
100
AcDbEntity
  8
LC-001-100-D00-0
 62
     7
370
    50
100
AcDbCircle
 10
155.17083
 20
163.868354
 30
0.0
 40
3.000000000000057
100
AcDbArc
 50
180.0
 51
270.0
  0
LINE
  5
37F
330
1F
100
AcDbEntity
  8
LC-001-100-D00-0
 62
     7
370
    50
100
AcDbLine
 10
132.197961
 20
184.293808
 30
0.0
 11
139.170833
 21
184.293808
 31
0.0
  0
LINE
  5
380
330
1F
100
AcDbEntity
  8
LC-001-100-D00-0
 62
     7
370
    50
100
AcDbLine
 10
129.519559
 20
186.672555
 30
0.0
 11
132.197961
 21
184.293808
 31
0.0
  0
LINE
  5
381
330
1F
100
AcDbEntity
  8
LC-001-100-D00-0
 62
     7
370
    50
100
AcDbLine
 10
109.652862
 20
192.746402
 30
0.0
 11
129.519559
 21
186.672555
 31
0.0
  0
LINE
  5
382
330
1F
100
AcDbEntity
  8
LC-001-100-D00-0
 62
     7
370
    50
100
AcDbLine
 10
100.670829
 20
193.055899
 30
0.0
 11
109.652862
 21
192.746402
 31
0.0
  0
LINE
  5
383
330
1F
100
AcDbEntity
  8
LC-001-100-D00-0
 62
     7
370
    50
100
AcDbLine
 10
100.670829
 20
193.055899
 30
0.0
 11
100.670829
 21
194.538863
 31
0.0
  0
ARC
  5
384
330
1F
100
AcDbEntity
  8
LC-001-100-D00-0
 62
     7
370
    50
100
AcDbCircle
 10
102.67083
 20
194.538868
 30
0.0
 40
1.999999999999988
100
AcDbArc
 50
88.101637
 51
180.0
  0
LINE
  5
385
330
1F
100
AcDbEntity
  8
LC-001-100-D00-0
 62
     7
370
    50
100
AcDbLine
 10
102.737084
 20
196.537764
 30
0.0
 11
110.011585
 21
196.296664
 31
0.0
  0
LINE
  5
386
330
1F
100
AcDbEntity
  8
LC-001-100-D00-0
 62
     7
370
    50
100
AcDbLine
 10
132.170833
 20
186.633365
 30
0.0
 11
139.170833
 21
186.633365
 31
0.0
  0
LINE
  5
387
330
1F
100
AcDbEntity
  8
LC-001-100-D00-0
 62
     7
370
    50
100
AcDbLine
 10
139.170833
 20
186.633365
 30
0.0
 11
139.170833
 21
190.133365
 31
0.0
  0
LINE
  5
388
330
1F
100
AcDbEntity
  8
LC-001-100-D00-0
 62
     7
370
    50
100
AcDbLine
 10
139.170833
 20
190.133365
 30
0.0
 11
139.882154
 21
190.133365
 31
0.0
  0
LINE
  5
389
330
1F
100
AcDbEntity
  8
LC-001-100-D00-0
 62
     7
370
    50
100
AcDbLine
 10
139.882154
 20
190.133365
 30
0.0
 11
140.170827
 21
190.633358
 31
0.0
  0
LINE
  5
38A
330
1F
100
AcDbEntity
  8
LC-001-100-D00-0
 62
     7
370
    50
100
AcDbLine
 10
140.170827
 20
190.133365
 30
0.0
 11
140.170827
 21
190.633358
 31
0.0
  0
LINE
  5
38B
330
1F
100
AcDbEntity
  8
LC-001-100-D00-0
 62
     7
370
    50
100
AcDbLine
 10
142.670832
 20
190.133365
 30
0.0
 11
142.670832
 21
177.633362
 31
0.0
  0
LINE
  5
38C
330
1F
100
AcDbEntity
  8
LC-001-100-D00-0
 62
     7
370
    50
100
AcDbLine
 10
142.670832
 20
177.633362
 30
0.0
 11
143.170833
 21
177.133353
 31
0.0
  0
LINE
  5
38D
330
1F
100
AcDbEntity
  8
LC-001-100-D00-0
 62
     7
370
    50
100
AcDbLine
 10
147.170827
 20
177.133353
 30
0.0
 11
143.170833
 21
177.133353
 31
0.0
  0
LINE
  5
38E
330
1F
100
AcDbEntity
  8
LC-001-100-D00-0
 62
     7
370
    50
100
AcDbLine
 10
147.170827
 20
177.133353
 30
0.0
 11
147.670828
 21
177.633362
 31
0.0
  0
LINE
  5
38F
330
1F
100
AcDbEntity
  8
LC-001-100-D00-0
 62
     7
370
    50
100
AcDbLine
 10
147.670828
 20
177.633362
 30
0.0
 11
147.670828
 21
190.133365
 31
0.0
  0
LINE
  5
390
330
1F
100
AcDbEntity
  8
LC-001-100-D00-0
 62
     7
370
    50
100
AcDbLine
 10
150.170833
 20
190.633164
 30
0.0
 11
150.170833
 21
190.133365
 31
0.0
  0
LINE
  5
391
330
1F
100
AcDbEntity
  8
LC-001-100-D00-0
 62
     7
370
    50
100
AcDbLine
 10
150.170937
 20
190.633358
 30
0.0
 11
150.45961
 21
190.133365
 31
0.0
  0
LINE
  5
392
330
1F
100
AcDbEntity
  8
LC-001-100-D00-0
 62
     7
370
    50
100
AcDbLine
 10
150.45961
 20
190.133365
 30
0.0
 11
151.170827
 21
190.133365
 31
0.0
  0
LINE
  5
393
330
1F
100
AcDbEntity
  8
LC-001-100-D00-0
 62
     7
370
    50
100
AcDbLine
 10
151.170827
 20
190.133365
 30
0.0
 11
151.170827
 21
191.633435
 31
0.0
  0
LINE
  5
394
330
1F
100
AcDbEntity
  8
LC-001-100-D00-0
 62
     7
370
    50
100
AcDbLine
 10
154.17083
 20
194.633426
 30
0.0
 11
152.170829
 21
194.633426
 31
0.0
  0
LINE
  5
395
330
1F
100
AcDbEntity
  8
LC-001-100-D00-0
 62
     7
370
    50
100
AcDbLine
 10
154.17083
 20
194.633426
 30
0.0
 11
154.17083
 21
191.633435
 31
0.0
  0
LINE
  5
396
330
1F
100
AcDbEntity
  8
LC-001-100-D00-0
 62
     7
370
    50
100
AcDbLine
 10
154.17083
 20
191.633435
 30
0.0
 11
154.170725
 21
191.633435
 31
0.0
  0
LINE
  5
397
330
1F
100
AcDbEntity
  8
LC-001-100-D00-0
 62
     7
370
    50
100
AcDbLine
 10
147.670828
 20
190.133365
 30
0.0
 11
150.170833
 21
190.133365
 31
0.0
  0
LINE
  5
398
330
1F
100
AcDbEntity
  8
LC-001-100-D00-0
 62
     7
370
    50
100
AcDbLine
 10
140.170827
 20
190.133365
 30
0.0
 11
142.670832
 21
190.133365
 31
0.0
  0
LINE
  5
399
330
1F
100
AcDbEntity
  8
LC-001-100-D00-0
 62
     7
370
    50
100
AcDbLine
 10
160.170831
 20
160.868356
 30
0.0
 11
155.170832
 21
160.868356
 31
0.0
  0
LINE
  5
39A
330
1F
100
AcDbEntity
  8
LC-001-100-D00-0
 62
     7
370
    50
100
AcDbLine
 10
152.170829
 20
191.633435
 30
0.0
 11
151.170827
 21
191.633435
 31
0.0
  0
LINE
  5
39B
330
1F
100
AcDbEntity
  8
LC-001-100-D00-0
 62
     7
370
    50
100
AcDbLine
 10
130.170829
 20
190.133365
 30
0.0
 11
132.170833
 21
190.133365
 31
0.0
  0
LINE
  5
39C
330
1F
100
AcDbEntity
  8
LC-001-100-D00-0
 62
     7
370
    50
100
AcDbLine
 10
148.068778
 20
174.793811
 30
0.0
 11
152.170829
 21
174.793811
 31
0.0
  0
LINE
  5
39D
330
1F
100
AcDbEntity
  8
LC-001-100-D00-0
 62
     7
370
    50
100
AcDbLine
 10
139.170833
 20
174.793811
 30
0.0
 11
142.272882
 21
174.793811
 31
0.0
  0
LINE
  5
39E
330
1F
100
AcDbEntity
  8
LC-001-100-D00-0
 62
     7
370
    50
100
AcDbLine
 10
102.737084
 20
196.537764
 30
0.0
 11
141.178183
 21
196.537764
 31
0.0
  0
LINE
  5
39F
330
1F
100
AcDbEntity
  8
LC-001-100-D00-0
 62
     7
370
    50
100
AcDbLine
 10
149.163477
 20
196.537764
 30
0.0
 11
154.17083
 21
196.537764
 31
0.0
  0
LINE
  5
3A0
330
1F
100
AcDbEntity
  8
LC-001-100-D00-0
 62
     7
370
    50
100
AcDbLine
 10
276.170831
 20
196.537764
 30
0.0
 11
327.604577
 21
196.537764
 31
0.0
  0
LINE
  5
3A1
330
1F
100
AcDbEntity
  8
LC-001-100-D00-0
 62
     7
370
    50
100
AcDbLine
 10
193.17083
 20
106.368353
 30
0.0
 11
237.17083
 21
106.368353
 31
0.0
  0
LINE
  5
3A2
330
1F
100
AcDbEntity
  8
LC-001-100-D00-0
 62
     7
370
    50
100
AcDbLine
 10
193.17083
 20
45.868354
 30
0.0
 11
237.17083
 21
45.868354
 31
0.0
  0
LINE
  5
3A3
330
1F
100
AcDbEntity
  8
LC-001-100-D00-0
 62
     7
370
    50
100
AcDbLine
 10
154.17083
 20
194.633426
 30
0.0
 11
154.237497
 21
194.633426
 31
0.0
  0
LINE
  5
3A4
330
1F
100
AcDbEntity
  8
LC-001-100-D00-0
 62
     7
370
    50
100
AcDbLine
 10
154.17083
 20
191.633435
 30
0.0
 11
154.237497
 21
191.633435
 31
0.0
  0
INSERT
  5
3B8
330
1F
100
AcDbEntity
  8
LC-001-100-D00-0
 62
     7
370
    50
100
AcDbBlockReference
  2
POLY11
 10
0.0
 20
0.0
 30
0.0
  0
LINE
  5
3B9
330
1F
100
AcDbEntity
  8
LC-001-100-D00-0
 62
     7
370
    50
100
AcDbLine
 10
142.670832
 20
177.633362
 30
0.0
 11
143.170833
 21
177.633362
 31
0.0
  0
LINE
  5
3BA
330
1F
100
AcDbEntity
  8
LC-001-100-D00-0
 62
     7
370
    50
100
AcDbLine
 10
147.170827
 20
177.633362
 30
0.0
 11
147.670828
 21
177.633362
 31
0.0
  0
LINE
  5
3BB
330
1F
100
AcDbEntity
  8
LC-001-100-D00-0
 62
     7
370
    50
100
AcDbLine
 10
147.670828
 20
190.133365
 30
0.0
 11
147.170827
 21
190.133365
 31
0.0
  0
LINE
  5
3BC
330
1F
100
AcDbEntity
  8
LC-001-100-D00-0
 62
     7
370
    50
100
AcDbLine
 10
143.170833
 20
190.133365
 30
0.0
 11
142.670832
 21
190.133365
 31
0.0
  0
INSERT
  5
3C6
330
1F
100
AcDbEntity
  8
LC-001-100-D00-0
 62
     7
370
    50
100
AcDbBlockReference
  2
POLY12
 10
0.0
 20
0.0
 30
0.0
  0
INSERT
  5
3D0
330
1F
100
AcDbEntity
  8
LC-001-100-D00-0
 62
     7
370
    50
100
AcDbBlockReference
  2
POLY13
 10
0.0
 20
0.0
 30
0.0
  0
INSERT
  5
3DA
330
1F
100
AcDbEntity
  8
LC-001-100-D00-0
 62
     7
370
    50
100
AcDbBlockReference
  2
POLY14
 10
0.0
 20
0.0
 30
0.0
  0
INSERT
  5
3E4
330
1F
100
AcDbEntity
  8
LC-001-100-D00-0
 62
     7
370
    50
100
AcDbBlockReference
  2
POLY15
 10
0.0
 20
0.0
 30
0.0
  0
INSERT
  5
3EE
330
1F
100
AcDbEntity
  8
LC-001-100-D00-0
 62
     7
370
    50
100
AcDbBlockReference
  2
POLY16
 10
0.0
 20
0.0
 30
0.0
  0
INSERT
  5
3F8
330
1F
100
AcDbEntity
  8
LC-001-100-D00-0
 62
     7
370
    50
100
AcDbBlockReference
  2
POLY17
 10
0.0
 20
0.0
 30
0.0
  0
INSERT
  5
402
330
1F
100
AcDbEntity
  8
LC-001-100-D00-0
 62
     7
370
    50
100
AcDbBlockReference
  2
POLY18
 10
0.0
 20
0.0
 30
0.0
  0
INSERT
  5
40C
330
1F
100
AcDbEntity
  8
LC-001-100-D00-0
 62
     7
370
    50
100
AcDbBlockReference
  2
POLY19
 10
0.0
 20
0.0
 30
0.0
  0
INSERT
  5
416
330
1F
100
AcDbEntity
  8
LC-001-100-D00-0
 62
     7
370
    50
100
AcDbBlockReference
  2
POLY20
 10
0.0
 20
0.0
 30
0.0
  0
INSERT
  5
420
330
1F
100
AcDbEntity
  8
LC-001-100-D00-0
 62
     7
370
    50
100
AcDbBlockReference
  2
POLY21
 10
0.0
 20
0.0
 30
0.0
  0
INSERT
  5
42A
330
1F
100
AcDbEntity
  8
LC-001-100-D00-0
 62
     7
370
    50
100
AcDbBlockReference
  2
POLY22
 10
0.0
 20
0.0
 30
0.0
  0
INSERT
  5
434
330
1F
100
AcDbEntity
  8
LC-001-100-D00-0
 62
     7
370
    50
100
AcDbBlockReference
  2
POLY23
 10
0.0
 20
0.0
 30
0.0
  0
INSERT
  5
454
330
1F
100
AcDbEntity
  8
LC-001-100-D00-0
 62
     7
370
    25
100
AcDbBlockReference
  2
KLON21
 10
0.0
 20
0.0
 30
0.0
  0
INSERT
  5
473
330
1F
100
AcDbEntity
  8
LC-001-100-D00-0
 62
     7
370
    25
100
AcDbBlockReference
  2
KLON22
 10
0.0
 20
0.0
 30
0.0
  0
INSERT
  5
479
330
1F
100
AcDbEntity
  8
LC-001-100-D00-0
 62
     7
370
    50
100
AcDbBlockReference
  2
KLON23
 10
0.0
 20
0.0
 30
0.0
  0
INSERT
  5
481
330
1F
100
AcDbEntity
  8
LC-001-100-D00-0
 62
     7
370
    25
100
AcDbBlockReference
  2
KLON24
 10
0.0
 20
0.0
 30
0.0
  0
INSERT
  5
489
330
1F
100
AcDbEntity
  8
LC-001-100-D00-0
 62
     7
370
    25
100
AcDbBlockReference
  2
KLON25
 10
0.0
 20
0.0
 30
0.0
  0
INSERT
  5
490
330
1F
100
AcDbEntity
  8
LC-001-100-D00-0
 62
     7
370
    50
100
AcDbBlockReference
  2
KLON26
 10
0.0
 20
0.0
 30
0.0
  0
INSERT
  5
497
330
1F
100
AcDbEntity
  8
LC-001-100-D00-0
 62
     7
370
    25
100
AcDbBlockReference
  2
KLON27
 10
0.0
 20
0.0
 30
0.0
  0
INSERT
  5
49F
330
1F
100
AcDbEntity
  8
LC-001-100-D00-0
 62
     7
370
    25
100
AcDbBlockReference
  2
KLON28
 10
0.0
 20
0.0
 30
0.0
  0
INSERT
  5
4A7
330
1F
100
AcDbEntity
  8
LC-001-100-D00-0
 62
     7
370
    25
100
AcDbBlockReference
  2
KLON29
 10
0.0
 20
0.0
 30
0.0
  0
INSERT
  5
4AE
330
1F
100
AcDbEntity
  8
LC-001-100-D00-0
 62
     7
370
    50
100
AcDbBlockReference
  2
KLON30
 10
0.0
 20
0.0
 30
0.0
  0
INSERT
  5
4B8
330
1F
100
AcDbEntity
  8
LC-001-100-D00-0
 62
     7
370
    25
100
AcDbBlockReference
  2
KLON31
 10
0.0
 20
0.0
 30
0.0
  0
INSERT
  5
4C4
330
1F
100
AcDbEntity
  8
LC-001-100-D00-0
 62
     7
370
    25
100
AcDbBlockReference
  2
KLON32
 10
0.0
 20
0.0
 30
0.0
  0
INSERT
  5
4E0
330
1F
100
AcDbEntity
  8
LC-001-100-D00-0
 62
     7
370
    25
100
AcDbBlockReference
  2
KLON33
 10
0.0
 20
0.0
 30
0.0
  0
INSERT
  5
4EB
330
1F
100
AcDbEntity
  8
LC-001-100-D00-0
 62
     7
370
    25
100
AcDbBlockReference
  2
KLON34
 10
0.0
 20
0.0
 30
0.0
  0
INSERT
  5
4F7
330
1F
100
AcDbEntity
  8
LC-001-100-D00-0
 62
     7
370
    25
100
AcDbBlockReference
  2
KLON35
 10
0.0
 20
0.0
 30
0.0
  0
LINE
  5
4F8
330
1F
100
AcDbEntity
  8
LC-001-100-D00-0
 62
     7
370
    50
100
AcDbLine
 10
175.064098
 20
272.633872
 30
0.0
 11
176.831055
 21
274.40083
 31
0.0
  0
INSERT
  5
50A
330
1F
100
AcDbEntity
  8
LC-001-100-D00-0
 62
     7
370
    25
100
AcDbBlockReference
  2
KLON36
 10
0.0
 20
0.0
 30
0.0
  0
LINE
  5
50C
330
1F
100
AcDbEntity
  8
LC-001-100-D00-0
  6
DASHDOT
 62
     7
370
    25
100
AcDbLine
 10
215.17083
 20
288.923831
 30
0.0
 11
215.17083
 21
45.868354
 31
0.0
  0
DIMENSION
  5
510
330
1F
100
AcDbEntity
  8
LC-002-003-----0
 62
     7
370
    25
100
AcDbDimension
  2
*D60
 10
357.162205
 20
288.923831
 30
0.0
 11
326.362205
 21
244.858354
 31
0.0
 70
   160
  1
32-92
 71
     5
 42
92.627168
 53
90.0
  3
LC-DIM-L-0140-02-02
100
AcDbAlignedDimension
 13
320.330076
 23
196.296664
 33
0.0
 14
283.276684
 24
288.923831
 34
0.0
 50
90.0
100
AcDbRotatedDimension
  0
DIMENSION
  5
51E
330
1F
100
AcDbEntity
  8
LC-002-003-----0
 62
     7
370
    25
100
AcDbDimension
  2
*D61
 10
284.170828
 20
310.198354
 30
0.0
 11
210.755208
 21
340.998354
 31
0.0
 70
   160
  1
%%c138
 71
     5
 42
137.999997
  3
LC-DIM-L-0140-02-02
100
AcDbAlignedDimension
 13
146.170832
 23
288.923831
 33
0.0
 14
284.170828
 24
288.923831
 34
0.0
100
AcDbRotatedDimension
  0
LINE
  5
52B
330
1F
100
AcDbEntity
  8
LC-001-100-D00-0
 62
     7
370
    50
100
AcDbLine
 10
163.849361
 20
279.992314
 30
0.0
 11
160.638366
 21
279.992314
 31
0.0
  0
LINE
  5
52C
102
{ACAD_REACTORS
330
5AF
102
}
330
1F
100
AcDbEntity
  8
LC-001-100-D00-0
 62
     7
370
    25
100
AcDbLine
 10
161.103415
 20
168.870629
 30
0.0
 11
162.684649
 21
170.451862
 31
0.0
  0
LINE
  5
52D
102
{ACAD_REACTORS
330
5AF
102
}
330
1F
100
AcDbEntity
  8
LC-001-100-D00-0
 62
     7
370
    25
100
AcDbLine
 10
160.17083
 20
176.918299
 30
0.0
 11
162.763709
 21
179.511178
 31
0.0
  0
LINE
  5
52E
102
{ACAD_REACTORS
330
5AF
102
}
330
1F
100
AcDbEntity
  8
LC-001-100-D00-0
 62
     7
370
    25
100
AcDbLine
 10
160.17083
 20
185.898556
 30
0.0
 11
162.842768
 21
188.570494
 31
0.0
  0
LINE
  5
52F
102
{ACAD_REACTORS
330
5AF
102
}
330
1F
100
AcDbEntity
  8
LC-001-100-D00-0
 62
     7
370
    25
100
AcDbLine
 10
160.17083
 20
194.878812
 30
0.0
 11
162.921828
 21
197.629809
 31
0.0
  0
LINE
  5
530
102
{ACAD_REACTORS
330
5AF
102
}
330
1F
100
AcDbEntity
  8
LC-001-100-D00-0
 62
     7
370
    25
100
AcDbLine
 10
160.17083
 20
203.859068
 30
0.0
 11
163.000887
 21
206.689125
 31
0.0
  0
LINE
  5
531
102
{ACAD_REACTORS
330
5AF
102
}
330
1F
100
AcDbEntity
  8
LC-001-100-D00-0
 62
     7
370
    25
100
AcDbLine
 10
160.17083
 20
212.839324
 30
0.0
 11
163.079947
 21
215.74844
 31
0.0
  0
LINE
  5
532
102
{ACAD_REACTORS
330
5AF
102
}
330
1F
100
AcDbEntity
  8
LC-001-100-D00-0
 62
     7
370
    25
100
AcDbLine
 10
160.17083
 20
221.81958
 30
0.0
 11
163.159006
 21
224.807756
 31
0.0
  0
LINE
  5
533
102
{ACAD_REACTORS
330
5AF
102
}
330
1F
100
AcDbEntity
  8
LC-001-100-D00-0
 62
     7
370
    25
100
AcDbLine
 10
160.17083
 20
230.799836
 30
0.0
 11
163.238065
 21
233.867071
 31
0.0
  0
LINE
  5
534
102
{ACAD_REACTORS
330
5AF
102
}
330
1F
100
AcDbEntity
  8
LC-001-100-D00-0
 62
     7
370
    25
100
AcDbLine
 10
160.17083
 20
239.780092
 30
0.0
 11
163.317125
 21
242.926387
 31
0.0
  0
LINE
  5
535
102
{ACAD_REACTORS
330
5AF
102
}
330
1F
100
AcDbEntity
  8
LC-001-100-D00-0
 62
     7
370
    25
100
AcDbLine
 10
168.369626
 20
247.978888
 30
0.0
 11
169.67083
 21
249.280092
 31
0.0
  0
LINE
  5
536
102
{ACAD_REACTORS
330
5AF
102
}
330
1F
100
AcDbEntity
  8
LC-001-100-D00-0
 62
     7
370
    25
100
AcDbLine
 10
160.17083
 20
248.760348
 30
0.0
 11
163.396184
 21
251.985703
 31
0.0
  0
LINE
  5
537
102
{ACAD_REACTORS
330
5AF
102
}
330
1F
100
AcDbEntity
  8
LC-001-100-D00-0
 62
     7
370
    25
100
AcDbLine
 10
167.92083
 20
256.510348
 30
0.0
 11
171.69583
 21
260.285348
 31
0.0
  0
LINE
  5
538
102
{ACAD_REACTORS
330
5AF
102
}
330
1F
100
AcDbEntity
  8
LC-001-100-D00-0
 62
     7
370
    25
100
AcDbLine
 10
160.17083
 20
257.740605
 30
0.0
 11
163.475244
 21
261.045018
 31
0.0
  0
LINE
  5
539
102
{ACAD_REACTORS
330
5AF
102
}
330
1F
100
AcDbEntity
  8
LC-001-100-D00-0
 62
     7
370
    25
100
AcDbLine
 10
165.854053
 20
263.423827
 30
0.0
 11
168.854053
 21
266.423827
 31
0.0
  0
LINE
  5
53A
102
{ACAD_REACTORS
330
5AF
102
}
330
1F
100
AcDbEntity
  8
LC-001-100-D00-0
 62
     7
370
    25
100
AcDbLine
 10
158.341782
 20
264.891813
 30
0.0
 11
161.269992
 21
267.820023
 31
0.0
  0
LINE
  5
53B
102
{ACAD_REACTORS
330
5AF
102
}
330
1F
100
AcDbEntity
  8
LC-001-100-D00-0
 62
     7
370
    25
100
AcDbLine
 10
155.054782
 20
270.585069
 30
0.0
 11
157.98299
 21
273.513277
 31
0.0
  0
LINE
  5
53C
102
{ACAD_REACTORS
330
5AF
102
}
330
1F
100
AcDbEntity
  8
LC-001-100-D00-0
 62
     7
370
    25
100
AcDbLine
 10
151.767783
 20
276.278325
 30
0.0
 11
154.695988
 21
279.206531
 31
0.0
  0
LINE
  5
53D
102
{ACAD_REACTORS
330
5AF
102
}
330
1F
100
AcDbEntity
  8
LC-001-100-D00-0
 62
     7
370
    25
100
AcDbLine
 10
148.480783
 20
281.971582
 30
0.0
 11
151.408987
 21
284.899785
 31
0.0
  0
LINE
  5
53E
102
{ACAD_REACTORS
330
5AF
102
}
330
1F
100
AcDbEntity
  8
LC-001-100-D00-0
 62
     7
370
    25
100
AcDbLine
 10
146.17083
 20
288.641885
 30
0.0
 11
146.452772
 21
288.923827
 31
0.0
  0
LINE
  5
53F
102
{ACAD_REACTORS
330
5AE
102
}
330
1F
100
AcDbEntity
  8
LC-001-100-D00-0
 62
     7
370
    25
100
AcDbLine
 10
268.864214
 20
168.868354
 30
0.0
 11
270.17083
 21
170.17497
 31
0.0
  0
LINE
  5
540
102
{ACAD_REACTORS
330
5AE
102
}
330
1F
100
AcDbEntity
  8
LC-001-100-D00-0
 62
     7
370
    25
100
AcDbLine
 10
267.603463
 20
176.587859
 30
0.0
 11
270.17083
 21
179.155226
 31
0.0
  0
LINE
  5
541
102
{ACAD_REACTORS
330
5AE
102
}
330
1F
100
AcDbEntity
  8
LC-001-100-D00-0
 62
     7
370
    25
100
AcDbLine
 10
267.525772
 20
185.490424
 30
0.0
 11
270.17083
 21
188.135482
 31
0.0
  0
LINE
  5
542
102
{ACAD_REACTORS
330
5AE
102
}
330
1F
100
AcDbEntity
  8
LC-001-100-D00-0
 62
     7
370
    25
100
AcDbLine
 10
267.44808
 20
194.392988
 30
0.0
 11
270.17083
 21
197.115738
 31
0.0
  0
LINE
  5
543
102
{ACAD_REACTORS
330
5AE
102
}
330
1F
100
AcDbEntity
  8
LC-001-100-D00-0
 62
     7
370
    25
100
AcDbLine
 10
267.370389
 20
203.295553
 30
0.0
 11
270.17083
 21
206.095994
 31
0.0
  0
LINE
  5
544
102
{ACAD_REACTORS
330
5AE
102
}
330
1F
100
AcDbEntity
  8
LC-001-100-D00-0
 62
     7
370
    25
100
AcDbLine
 10
267.292697
 20
212.198117
 30
0.0
 11
270.17083
 21
215.076251
 31
0.0
  0
LINE
  5
545
102
{ACAD_REACTORS
330
5AE
102
}
330
1F
100
AcDbEntity
  8
LC-001-100-D00-0
 62
     7
370
    25
100
AcDbLine
 10
267.215006
 20
221.100682
 30
0.0
 11
270.17083
 21
224.056507
 31
0.0
  0
LINE
  5
546
102
{ACAD_REACTORS
330
5AE
102
}
330
1F
100
AcDbEntity
  8
LC-001-100-D00-0
 62
     7
370
    25
100
AcDbLine
 10
267.137314
 20
230.003247
 30
0.0
 11
270.17083
 21
233.036763
 31
0.0
  0
LINE
  5
547
102
{ACAD_REACTORS
330
5AE
102
}
330
1F
100
AcDbEntity
  8
LC-001-100-D00-0
 62
     7
370
    25
100
AcDbLine
 10
267.059623
 20
238.905811
 30
0.0
 11
270.17083
 21
242.017019
 31
0.0
  0
LINE
  5
548
102
{ACAD_REACTORS
330
5AE
102
}
330
1F
100
AcDbEntity
  8
LC-001-100-D00-0
 62
     7
370
    25
100
AcDbLine
 10
266.981931
 20
247.808376
 30
0.0
 11
270.17083
 21
250.997275
 31
0.0
  0
LINE
  5
549
102
{ACAD_REACTORS
330
5AE
102
}
330
1F
100
AcDbEntity
  8
LC-001-100-D00-0
 62
     7
370
    25
100
AcDbLine
 10
260.67083
 20
250.477531
 30
0.0
 11
262.42083
 21
252.227531
 31
0.0
  0
LINE
  5
54A
102
{ACAD_REACTORS
330
5AE
102
}
330
1F
100
AcDbEntity
  8
LC-001-100-D00-0
 62
     7
370
    25
100
AcDbLine
 10
266.90424
 20
256.71094
 30
0.0
 11
270.17083
 21
259.977531
 31
0.0
  0
LINE
  5
54B
102
{ACAD_REACTORS
330
5AE
102
}
330
1F
100
AcDbEntity
  8
LC-001-100-D00-0
 62
     7
370
    25
100
AcDbLine
 10
258.64583
 20
257.432787
 30
0.0
 11
262.42083
 21
261.207787
 31
0.0
  0
LINE
  5
54C
102
{ACAD_REACTORS
330
5AE
102
}
330
1F
100
AcDbEntity
  8
LC-001-100-D00-0
 62
     7
370
    25
100
AcDbLine
 10
264.63687
 20
263.423827
 30
0.0
 11
267.737605
 21
266.524562
 31
0.0
  0
LINE
  5
54D
102
{ACAD_REACTORS
330
5AE
102
}
330
1F
100
AcDbEntity
  8
LC-001-100-D00-0
 62
     7
370
    25
100
AcDbLine
 10
269.1244
 20
267.911357
 30
0.0
 11
280.052603
 21
278.839561
 31
0.0
  0
DIMENSION
  5
54E
330
1F
100
AcDbEntity
  8
LC-002-003-----0
 62
     7
370
    25
100
AcDbDimension
  2
*D62
 10
329.670831
 20
361.282354
 30
0.0
 11
215.18758
 21
392.082354
 31
0.0
 70
   160
  1
%%c230
 71
     5
 42
229.000002
  3
LC-DIM-L-0140-02-02
100
AcDbAlignedDimension
 13
100.670829
 23
193.055899
 33
0.0
 14
329.670831
 24
193.055899
 34
0.0
100
AcDbRotatedDimension
  0
DIMENSION
  5
55B
330
1F
100
AcDbEntity
  8
LC-002-003-----0
 62
     7
370
    25
100
AcDbDimension
  2
*D63
 10
270.17083
 20
-39.073646
 30
0.0
 11
216.074054
 21
-8.273646
 31
0.0
 70
   160
  1
%%c<>
 71
     5
 42
109.999999
  3
LC-DIM-L-0140-02-02
100
AcDbAlignedDimension
 13
160.170831
 23
118.564622
 33
0.0
 14
270.17083
 24
118.564622
 34
0.0
100
AcDbRotatedDimension
  0
DIMENSION
  5
568
330
1F
100
AcDbEntity
  8
LC-002-003-----0
 62
     7
370
    25
100
AcDbDimension
  2
*D64
 10
278.170831
 20
-88.969646
 30
0.0
 11
211.641682
 21
-58.169646
 31
0.0
 70
   160
  1
%%c<>
 71
     5
 42
126.000002
  3
LC-DIM-L-0140-02-02
100
AcDbAlignedDimension
 13
152.170829
 23
163.868354
 33
0.0
 14
278.170831
 24
163.868354
 34
0.0
100
AcDbRotatedDimension
  0
DIMENSION
  5
575
330
1F
100
AcDbEntity
  8
LC-002-003-----0
 62
     7
370
    25
100
AcDbDimension
  2
*D65
 10
240.170831
 20
31.018354
 30
0.0
 11
326.883343
 21
61.818354
 31
0.0
 70
   160
  1
DN50
 71
     5
 42
50.000001
  3
LC-DIM-L-0140-02-02
100
AcDbAlignedDimension
 13
190.17083
 23
49.368354
 33
0.0
 14
240.170831
 24
49.368354
 34
0.0
100
AcDbRotatedDimension
  0
DIMENSION
  5
583
330
1F
100
AcDbEntity
  8
LC-002-003-----0
 62
     7
370
    25
100
AcDbDimension
  2
*D66
 10
84.875855
 20
103.868354
 30
0.0
 11
54.075855
 21
146.254354
 31
0.0
 70
   160
  1
90
 71
     5
 42
89.187546
 53
90.0
  3
LC-DIM-L-0140-02-02
100
AcDbAlignedDimension
 13
100.670829
 23
193.055899
 33
0.0
 14
167.943189
 24
103.868354
 34
0.0
 50
90.0
100
AcDbRotatedDimension
  0
DIMENSION
  5
590
330
1F
100
AcDbEntity
  8
LC-002-003-----0
 62
     7
370
    25
100
AcDbDimension
  2
*D67
 10
124.7672
 20
45.868354
 30
0.0
 11
93.9672
 21
67.846354
 31
0.0
 70
   160
 71
     5
 42
58.0
 53
90.0
  3
LC-DIM-L-0140-02-02
100
AcDbAlignedDimension
 13
167.943189
 23
103.868354
 33
0.0
 14
193.17083
 24
45.868354
 34
0.0
 50
90.0
100
AcDbRotatedDimension
  0
DIMENSION
  5
59F
330
1F
100
AcDbEntity
  8
LC-002-003-----0
 62
     7
370
    25
100
AcDbDimension
  2
*D68
 10
136.76131
 20
253.4941
 30
0.0
 11
105.96131
 21
239.02792
 31
0.0
 70
   160
  1
50
 71
     5
 42
51.500008
 53
90.0
  3
LC-DIM-L-0140-02-02
100
AcDbAlignedDimension
 13
194.17083
 23
201.994093
 33
0.0
 14
184.170831
 24
253.4941
 34
0.0
 50
90.0
100
AcDbRotatedDimension
  0
ENDSEC
  0
SECTION
  2
OBJECTS
  0
DICTIONARY
  5
C
330
0
100
AcDbDictionary
281
     1
  3
ACAD_GROUP
350
D
  3
ACAD_LAYOUT
350
1A
  3
ACAD_MLINESTYLE
350
17
  3
ACAD_PLOTSETTINGS
350
19
  3
ACAD_PLOTSTYLENAME
350
E
  0
DICTIONARY
  5
D
102
{ACAD_REACTORS
330
C
102
}
330
C
100
AcDbDictionary
281
     1
  3
LCGROUP51
350
5AF
  3
LCGROUP52
350
5AE
  0
DICTIONARY
  5
1A
102
{ACAD_REACTORS
330
C
102
}
330
C
100
AcDbDictionary
281
     1
  3
Layout1
350
1E
  3
Layout2
350
26
  3
Model
350
22
  0
DICTIONARY
  5
17
102
{ACAD_REACTORS
330
C
102
}
330
C
100
AcDbDictionary
281
     1
  3
Standard
350
18
  0
DICTIONARY
  5
19
102
{ACAD_REACTORS
330
C
102
}
330
C
100
AcDbDictionary
281
     1
  0
ACDBDICTIONARYWDFLT
  5
E
102
{ACAD_REACTORS
330
C
102
}
330
C
100
AcDbDictionary
281
     1
  3
Normal
350
F
100
AcDbDictionaryWithDefault
340
F
  0
GROUP
  5
5AF
102
{ACAD_REACTORS
330
D
102
}
330
D
100
AcDbGroup
300
GRP51
 70
     1
 71
     1
340
52C
340
52D
340
52E
340
52F
340
530
340
531
340
532
340
533
340
534
340
535
340
536
340
537
340
538
340
539
340
53A
340
53B
340
53C
340
53D
340
53E
  0
GROUP
  5
5AE
102
{ACAD_REACTORS
330
D
102
}
330
D
100
AcDbGroup
300
GRP52
 70
     1
 71
     1
340
53F
340
540
340
541
340
542
340
543
340
544
340
545
340
546
340
547
340
548
340
549
340
54A
340
54B
340
54C
340
54D
  0
LAYOUT
  5
1E
102
{ACAD_REACTORS
330
1A
102
}
330
1A
100
AcDbPlotSettings
  1

  2

  4

  6

 40
0.0
 41
0.0
 42
0.0
 43
0.0
 44
0.0
 45
0.0
 46
0.0
 47
0.0
 48
0.0
 49
0.0
140
0.0
141
0.0
142
1.0
143
1.0
 70
   688
 72
     0
 73
     0
 74
     5
  7

 75
    16
147
1.0
148
0.0
149
0.0
100
AcDbLayout
  1
Layout1
 70
     1
 71
     1
 10
-199.493574
 20
-157.873646
 11
640.506426
 21
436.126354
 12
0.0
 22
0.0
 32
0.0
 14
-199.493574
 24
-157.873646
 34
0.0
 15
640.506426
 25
436.126354
 35
0.0
146
0.0
 13
0.0
 23
0.0
 33
0.0
 16
1.0
 26
0.0
 36
0.0
 17
0.0
 27
1.0
 37
0.0
 76
     0
330
1B
  0
LAYOUT
  5
26
102
{ACAD_REACTORS
330
1A
102
}
330
1A
100
AcDbPlotSettings
  1

  2

  4

  6

 40
0.0
 41
0.0
 42
0.0
 43
0.0
 44
0.0
 45
0.0
 46
0.0
 47
0.0
 48
0.0
 49
0.0
140
0.0
141
0.0
142
1.0
143
1.0
 70
   688
 72
     0
 73
     0
 74
     5
  7

 75
    16
147
1.0
148
0.0
149
0.0
100
AcDbLayout
  1
Layout2
 70
     1
 71
     2
 10
0.0
 20
0.0
 11
0.0
 21
0.0
 12
0.0
 22
0.0
 32
0.0
 14
0.0
 24
0.0
 34
0.0
 15
0.0
 25
0.0
 35
0.0
146
0.0
 13
0.0
 23
0.0
 33
0.0
 16
1.0
 26
0.0
 36
0.0
 17
0.0
 27
1.0
 37
0.0
 76
     0
330
23
  0
LAYOUT
  5
22
102
{ACAD_REACTORS
330
1A
102
}
330
1A
100
AcDbPlotSettings
  1

  2

  4

  6

 40
0.0
 41
0.0
 42
0.0
 43
0.0
 44
0.0
 45
0.0
 46
0.0
 47
0.0
 48
0.0
 49
0.0
140
0.0
141
0.0
142
1.0
143
1.0
 70
  1776
 72
     0
 73
     0
 74
     0
  7

 75
     0
147
1.0
148
0.0
149
0.0
100
AcDbLayout
  1
Model
 70
     1
 71
     0
 10
-199.493574
 20
-157.873646
 11
640.506426
 21
436.126354
 12
0.0
 22
0.0
 32
0.0
 14
-199.493574
 24
-157.873646
 34
0.0
 15
640.506426
 25
436.126354
 35
0.0
146
0.0
 13
0.0
 23
0.0
 33
0.0
 16
1.0
 26
0.0
 36
0.0
 17
0.0
 27
1.0
 37
0.0
 76
     0
330
1F
  0
MLINESTYLE
  5
18
102
{ACAD_REACTORS
330
17
102
}
330
17
100
AcDbMlineStyle
  2
Standard
 70
     0
  3

 62
   256
 51
90.0
 52
90.0
 71
     2
 49
0.5
 62
   256
  6
BYLAYER
 49
-0.5
 62
   256
  6
BYLAYER
  0
ACDBPLACEHOLDER
  5
F
102
{ACAD_REACTORS
330
E
102
}
330
E
  0
ENDSEC
  0
EOF
