  0
SECTION
  2
HEADER
  9
$ACADVER
  1
AC1015
  9
$ACADMAINTVER
 70
     6
  9
$DWGCODEPAGE
  3
ANSI_1252
  9
$INSBASE
 10
0.0
 20
0.0
 30
0.0
  9
$EXTMIN
 10
-271.75
 20
-87.335738
 30
0.0
  9
$EXTMAX
 10
568.25
 20
506.664262
 30
0.0
  9
$LIMMIN
 10
-271.75
 20
-87.335738
  9
$LIMMAX
 10
568.25
 20
506.664262
  9
$ORTHOMODE
 70
     0
  9
$REGENMODE
 70
     1
  9
$FILLMODE
 70
     1
  9
$QTEXTMODE
 70
     0
  9
$MIRRTEXT
 70
     1
  9
$LTSCALE
 40
2.0
  9
$ATTMODE
 70
     1
  9
$TEXTSIZE
 40
2.5
  9
$TRACEWID
 40
1.0
  9
$TEXTSTYLE
  7
Standard
  9
$CLAYER
  8
0
  9
$CELTYPE
  6
ByLayer
  9
$CECOLOR
 62
     7
  9
$CELTSCALE
 40
1.0
  9
$DISPSILH
 70
     0
  9
$DIMSCALE
 40
2.0
  9
$DIMASZ
 40
3.5
  9
$DIMEXO
 40
0.625
  9
$DIMDLI
 40
3.75
  9
$DIMRND
 40
0.0
  9
$DIMDLE
 40
0.0
  9
$DIMEXE
 40
1.25
  9
$DIMTP
 40
0.0
  9
$DIMTM
 40
0.0
  9
$DIMTXT
 40
3.5
  9
$DIMCEN
 40
2.5
  9
$DIMTSZ
 40
0.0
  9
$DIMTOL
 70
     0
  9
$DIMLIM
 70
     0
  9
$DIMTIH
 70
     0
  9
$DIMTOH
 70
     0
  9
$DIMSE1
 70
     0
  9
$DIMSE2
 70
     0
  9
$DIMTAD
 70
     1
  9
$DIMZIN
 70
     8
  9
$DIMBLK
  1

  9
$DIMASO
 70
     1
  9
$DIMSHO
 70
     1
  9
$DIMPOST
  1

  9
$DIMAPOST
  1

  9
$DIMALT
 70
     0
  9
$DIMALTD
 70
     3
  9
$DIMALTF
 40
0.03937
  9
$DIMLFAC
 40
1.0
  9
$DIMTOFL
 70
     1
  9
$DIMTVP
 40
0.0
  9
$DIMTIX
 70
     0
  9
$DIMSOXD
 70
     0
  9
$DIMSAH
 70
     0
  9
$DIMBLK1
  1

  9
$DIMBLK2
  1

  9
$DIMSTYLE
  2
ISO-25
  9
$DIMCLRD
 70
     0
  9
$DIMCLRE
 70
     0
  9
$DIMCLRT
 70
     0
  9
$DIMTFAC
 40
1.0
  9
$DIMGAP
 40
0.625
  9
$DIMJUST
 70
     0
  9
$DIMSD1
 70
     0
  9
$DIMSD2
 70
     0
  9
$DIMTOLJ
 70
     0
  9
$DIMTZIN
 70
     8
  9
$DIMALTZ
 70
     0
  9
$DIMALTTZ
 70
     0
  9
$DIMUPT
 70
     0
  9
$DIMDEC
 70
     2
  9
$DIMTDEC
 70
     2
  9
$DIMALTU
 70
     2
  9
$DIMALTTD
 70
     3
  9
$DIMTXSTY
  7
Standard
  9
$DIMAUNIT
 70
     0
  9
$DIMADEC
 70
     0
  9
$DIMALTRND
 40
0.0
  9
$DIMAZIN
 70
     0
  9
$DIMDSEP
 70
    44
  9
$DIMATFIT
 70
     3
  9
$DIMFRAC
 70
     0
  9
$DIMLDRBLK
  1

  9
$DIMLUNIT
 70
     2
  9
$DIMLWD
 70
    -2
  9
$DIMLWE
 70
    -2
  9
$DIMTMOVE
 70
     0
  9
$LUNITS
 70
     2
  9
$LUPREC
 70
     4
  9
$SKETCHINC
 40
1.0
  9
$FILLETRAD
 40
10.0
  9
$AUNITS
 70
     0
  9
$AUPREC
 70
     0
  9
$MENU
  1
.
  9
$ELEVATION
 40
0.0
  9
$PELEVATION
 40
0.0
  9
$THICKNESS
 40
0.0
  9
$LIMCHECK
 70
     0
  9
$CHAMFERA
 40
10.0
  9
$CHAMFERB
 40
10.0
  9
$CHAMFERC
 40
20.0
  9
$CHAMFERD
 40
0.0
  9
$SKPOLY
 70
     0
  9
$TDCREATE
 40
2455380.252877963
  9
$TDUCREATE
 40
2455380.16954463
  9
$TDUPDATE
 40
2455380.252877974
  9
$TDUUPDATE
 40
2455380.169544641
  9
$TDINDWG
 40
0.0000000116
  9
$TDUSRTIMER
 40
0.0000000116
  9
$USRTIMER
 70
     1
  9
$ANGBASE
 50
0.0
  9
$ANGDIR
 70
     0
  9
$PDMODE
 70
     0
  9
$PDSIZE
 40
0.0
  9
$PLINEWID
 40
0.0
  9
$SPLFRAME
 70
     0
  9
$SPLINETYPE
 70
     6
  9
$SPLINESEGS
 70
     8
  9
$HANDSEED
  5
11E
  9
$SURFTAB1
 70
     6
  9
$SURFTAB2
 70
     6
  9
$SURFTYPE
 70
     6
  9
$SURFU
 70
     6
  9
$SURFV
 70
     6
  9
$UCSBASE
  2

  9
$UCSNAME
  2

  9
$UCSORG
 10
0.0
 20
0.0
 30
0.0
  9
$UCSXDIR
 10
1.0
 20
0.0
 30
0.0
  9
$UCSYDIR
 10
0.0
 20
1.0
 30
0.0
  9
$UCSORTHOREF
  2

  9
$UCSORTHOVIEW
 70
     0
  9
$UCSORGTOP
 10
0.0
 20
0.0
 30
0.0
  9
$UCSORGBOTTOM
 10
0.0
 20
0.0
 30
0.0
  9
$UCSORGLEFT
 10
0.0
 20
0.0
 30
0.0
  9
$UCSORGRIGHT
 10
0.0
 20
0.0
 30
0.0
  9
$UCSORGFRONT
 10
0.0
 20
0.0
 30
0.0
  9
$UCSORGBACK
 10
0.0
 20
0.0
 30
0.0
  9
$PUCSBASE
  2

  9
$PUCSNAME
  2

  9
$PUCSORG
 10
0.0
 20
0.0
 30
0.0
  9
$PUCSXDIR
 10
1.0
 20
0.0
 30
0.0
  9
$PUCSYDIR
 10
0.0
 20
1.0
 30
0.0
  9
$PUCSORTHOREF
  2

  9
$PUCSORTHOVIEW
 70
     0
  9
$PUCSORGTOP
 10
0.0
 20
0.0
 30
0.0
  9
$PUCSORGBOTTOM
 10
0.0
 20
0.0
 30
0.0
  9
$PUCSORGLEFT
 10
0.0
 20
0.0
 30
0.0
  9
$PUCSORGRIGHT
 10
0.0
 20
0.0
 30
0.0
  9
$PUCSORGFRONT
 10
0.0
 20
0.0
 30
0.0
  9
$PUCSORGBACK
 10
0.0
 20
0.0
 30
0.0
  9
$USERI1
 70
     0
  9
$USERI2
 70
     0
  9
$USERI3
 70
     0
  9
$USERI4
 70
     0
  9
$USERI5
 70
     0
  9
$USERR1
 40
0.0
  9
$USERR2
 40
0.0
  9
$USERR3
 40
0.0
  9
$USERR4
 40
0.0
  9
$USERR5
 40
0.0
  9
$WORLDVIEW
 70
     1
  9
$SHADEDGE
 70
     3
  9
$SHADEDIF
 70
    70
  9
$TILEMODE
 70
     1
  9
$MAXACTVP
 70
    64
  9
$PINSBASE
 10
0.0
 20
0.0
 30
0.0
  9
$PLIMCHECK
 70
     0
  9
$PEXTMIN
 10
-271.75
 20
-87.335738
 30
0.0
  9
$PEXTMAX
 10
568.25
 20
506.664262
 30
0.0
  9
$PLIMMIN
 10
-271.75
 20
-87.335738
  9
$PLIMMAX
 10
568.25
 20
506.664262
  9
$UNITMODE
 70
     0
  9
$VISRETAIN
 70
     1
  9
$PLINEGEN
 70
     0
  9
$PSLTSCALE
 70
     1
  9
$TREEDEPTH
 70
  3020
  9
$CMLSTYLE
  2
Standard
  9
$CMLJUST
 70
     0
  9
$CMLSCALE
 40
20.0
  9
$PROXYGRAPHICS
 70
     1
  9
$MEASUREMENT
 70
     1
  9
$CELWEIGHT
370
    -1
  9
$ENDCAPS
280
     0
  9
$JOINSTYLE
280
     0
  9
$LWDISPLAY
290
     0
  9
$INSUNITS
 70
     4
  9
$HYPERLINKBASE
  1

  9
$STYLESHEET
  1

  9
$XEDIT
290
     1
  9
$CEPSNTYPE
380
     0
  9
$PSTYLEMODE
290
     1
  9
$FINGERPRINTGUID
  2
{FAEB1C30-E019-11D5-929B-00C0DF256EC4}
  9
$VERSIONGUID
  2
{FAEB1C32-E019-11D5-929B-00C0DF256EC4}
  9
$EXTNAMES
290
     1
  9
$PSVPSCALE
 40
0.0
  9
$OLESTARTUP
290
     0
  0
ENDSEC
  0
SECTION
  2
CLASSES
  0
CLASS
  1
ACDBDICTIONARYWDFLT
  2
AcDbDictionaryWithDefault
  3
ObjectDBX Classes
 90
        0
280
     0
281
     0
  0
CLASS
  1
ACDBPLACEHOLDER
  2
AcDbPlaceHolder
  3
ObjectDBX Classes
 90
        0
280
     0
281
     0
  0
CLASS
  1
LAYOUT
  2
AcDbLayout
  3
ObjectDBX Classes
 90
        0
280
     0
281
     0
  0
ENDSEC
  0
SECTION
  2
TABLES
  0
TABLE
  2
VPORT
  5
8
330
0
100
AcDbSymbolTable
 70
     2
  0
VPORT
  5
29
330
8
100
AcDbSymbolTableRecord
100
AcDbViewportTableRecord
  2
*ACTIVE
 70
     0
 10
0.0
 20
0.0
 11
1.0
 21
1.0
 12
148.25
 22
209.664262
 13
0.0
 23
0.0
 14
1.0
 24
1.0
 15
0.0
 25
0.0
 16
0.0
 26
0.0
 36
1.0
 17
0.0
 27
0.0
 37
0.0
 40
594.0
 41
1.414141
 42
50.0
 43
0.0
 44
0.0
 50
0.0
 51
0.0
 71
    16
 72
   100
 73
     1
 74
     0
 75
     0
 76
     0
 77
     0
 78
     0
281
     0
 65
     0
110
0.0
120
0.0
130
0.0
111
1.0
121
0.0
131
0.0
112
0.0
122
1.0
132
0.0
 79
     0
146
0.0
  0
ENDTAB
  0
TABLE
  2
LTYPE
  5
5
330
0
100
AcDbSymbolTable
 70
     3
  0
LTYPE
  5
14
330
5
100
AcDbSymbolTableRecord
100
AcDbLinetypeTableRecord
  2
ByBlock
 70
     0
  3

 72
    65
 73
     0
 40
0.0
  0
LTYPE
  5
15
330
5
100
AcDbSymbolTableRecord
100
AcDbLinetypeTableRecord
  2
ByLayer
 70
     0
  3

 72
    65
 73
     0
 40
0.0
  0
LTYPE
  5
16
330
5
100
AcDbSymbolTableRecord
100
AcDbLinetypeTableRecord
  2
Continuous
 70
     0
  3
Solid line
 72
    65
 73
     0
 40
0.0
  0
LTYPE
  5
2A
330
5
100
AcDbSymbolTableRecord
100
AcDbLinetypeTableRecord
  2
DASHED
 70
     0
  3
__ __ __ __ __
 72
    65
 73
     2
 40
6.25
 49
5.0
 74
     4
 75
     0
340
0
 46
1.0
 50
0.0
 44
0.0
 45
0.0
 49
-1.25
 74
     4
 75
     0
340
0
 46
1.0
 50
0.0
 44
0.0
 45
0.0
  0
LTYPE
  5
10A
330
5
100
AcDbSymbolTableRecord
100
AcDbLinetypeTableRecord
  2
DASHDOT
 70
     0
  3
__ . __ . __ . __ . __
 72
    65
 73
     4
 40
7.5
 49
5.0
 74
     4
 75
     0
340
0
 46
1.0
 50
0.0
 44
0.0
 45
0.0
 49
-1.25
 74
     4
 75
     0
340
0
 46
1.0
 50
0.0
 44
0.0
 45
0.0
 49
0.0
 74
     4
 75
     0
340
0
 46
1.0
 50
0.0
 44
0.0
 45
0.0
 49
-1.25
 74
     4
 75
     0
340
0
 46
1.0
 50
0.0
 44
0.0
 45
0.0
  0
ENDTAB
  0
TABLE
  2
LAYER
  5
2
330
0
100
AcDbSymbolTable
 70
     9
  0
LAYER
  5
10
330
2
100
AcDbSymbolTableRecord
100
AcDbLayerTableRecord
  2
0
 70
     0
 62
     7
  6
Continuous
370
    -3
390
F
  0
LAYER
  5
2B
330
2
100
AcDbSymbolTableRecord
100
AcDbLayerTableRecord
  2
LC-INFO-1-2-mm-A3-0
 70
     1
 62
     7
  6
ByBlock
370
    -3
390
F
  0
LAYER
  5
2C
330
2
100
AcDbSymbolTableRecord
100
AcDbLayerTableRecord
  2
LC-CUT-HIDDEN
 70
     0
 62
     7
  6
DASHED
370
    -3
390
F
  0
LAYER
  5
2D
330
2
100
AcDbSymbolTableRecord
100
AcDbLayerTableRecord
  2
LC-VIEWPORT
 70
     0
 62
     7
  6
ByBlock
370
    -3
390
F
  0
LAYER
  5
2E
330
2
100
AcDbSymbolTableRecord
100
AcDbLayerTableRecord
  2
LC-3D-HIDDEN
 70
     0
 62
     9
  6
DASHED
370
    -3
390
F
  0
LAYER
  5
31
330
2
100
AcDbSymbolTableRecord
100
AcDbLayerTableRecord
  2
LC-001-100-D00-0
 70
     0
 62
    44
  6
ByBlock
370
    -3
390
F
  0
LAYER
  5
10B
330
2
100
AcDbSymbolTableRecord
100
AcDbLayerTableRecord
  2
LC-002-101-D00-0
 70
     0
 62
     7
  6
DASHDOT
370
    -3
390
F
  0
LAYER
  5
10F
330
2
100
AcDbSymbolTableRecord
100
AcDbLayerTableRecord
  2
LC-003-003-----0
 70
     0
 62
     2
  6
ByBlock
370
    -3
390
F
  0
LAYER
  5
111
330
2
100
AcDbSymbolTableRecord
100
AcDbLayerTableRecord
  2
Defpoints
 70
     0
 62
     7
  6
Continuous
290
     0
370
    -3
390
F
  0
ENDTAB
  0
TABLE
  2
STYLE
  5
3
330
0
100
AcDbSymbolTable
 70
     4
  0
STYLE
  5
11
330
3
100
AcDbSymbolTableRecord
100
AcDbTextStyleTableRecord
  2
Standard
 70
     0
 40
0.0
 41
1.0
 50
0.0
 71
     0
 42
2.5
  3
txt
  4

  0
STYLE
  5
2F
330
3
100
AcDbSymbolTableRecord
100
AcDbTextStyleTableRecord
  2
LCTX0-400-0-0pDIN-Schrift
 70
     0
 40
0.0
 41
0.75
 50
0.0
 71
     0
 42
3.5
  3
TXT
  4

  0
STYLE
  5
30
330
3
100
AcDbSymbolTableRecord
100
AcDbTextStyleTableRecord
  2
LCTX15-400-0-0-Arial
 70
     0
 40
0.0
 41
0.8
 50
0.0
 71
     0
 42
3.5
  3

  4

1001
ACAD
1000
Arial
1071
 16777218
  0
STYLE
  5
10D
330
3
100
AcDbSymbolTableRecord
100
AcDbTextStyleTableRecord
  2
LCTX15-400-0-0pDIN-Schrift
 70
     0
 40
2.5
 41
0.8
 50
15.0
 71
     0
 42
3.5
  3
STANDARD
  4

  0
ENDTAB
  0
TABLE
  2
VIEW
  5
6
330
0
100
AcDbSymbolTable
 70
     0
  0
ENDTAB
  0
TABLE
  2
UCS
  5
7
330
0
100
AcDbSymbolTable
 70
     0
  0
ENDTAB
  0
TABLE
  2
APPID
  5
9
330
0
100
AcDbSymbolTable
 70
     1
  0
APPID
  5
12
330
9
100
AcDbSymbolTableRecord
100
AcDbRegAppTableRecord
  2
ACAD
 70
     0
  0
ENDTAB
  0
TABLE
  2
DIMSTYLE
  5
A
330
0
100
AcDbSymbolTable
 70
     2
100
AcDbDimStyleTable
  0
DIMSTYLE
105
27
330
A
100
AcDbSymbolTableRecord
100
AcDbDimStyleTableRecord
  2
ISO-25
 70
     0
 41
2.5
 42
0.625
 43
3.75
 44
1.25
 73
     0
 74
     0
 77
     1
 78
     8
140
2.5
141
2.5
143
0.03937
147
0.625
171
     3
172
     1
271
     2
272
     2
274
     3
278
    44
283
     0
284
     8
340
11
  0
DIMSTYLE
105
10E
102
{ACAD_REACTORS
330
110
102
}
330
A
100
AcDbSymbolTableRecord
100
AcDbDimStyleTableRecord
  2
LC-DIM-L-0140-02-02
 70
     0
 40
2.0
 41
14.0
 42
0.0
 43
7.5
 44
1.8
 73
     0
 74
     0
 77
     1
 78
     8
 79
     2
140
14.0
141
0.0
146
0.71
147
1.5
176
     2
177
     2
178
     2
179
     2
271
     2
278
    44
289
     1
340
10D
  0
ENDTAB
  0
TABLE
  2
BLOCK_RECORD
  5
1
330
0
100
AcDbSymbolTable
 70
    10
  0
BLOCK_RECORD
  5
1F
330
1
100
AcDbSymbolTableRecord
100
AcDbBlockTableRecord
  2
*Model_Space
340
22
  0
BLOCK_RECORD
  5
1B
330
1
100
AcDbSymbolTableRecord
100
AcDbBlockTableRecord
  2
*Paper_Space
340
1E
  0
BLOCK_RECORD
  5
23
330
1
100
AcDbSymbolTableRecord
100
AcDbBlockTableRecord
  2
*Paper_Space0
340
26
  0
BLOCK_RECORD
  5
50
330
1
100
AcDbSymbolTableRecord
100
AcDbBlockTableRecord
  2
POLY1
340
0
102
{BLKREFS
331
5F
102
}
  0
BLOCK_RECORD
  5
62
330
1
100
AcDbSymbolTableRecord
100
AcDbBlockTableRecord
  2
POLY2
340
0
102
{BLKREFS
331
71
102
}
  0
BLOCK_RECORD
  5
74
330
1
100
AcDbSymbolTableRecord
100
AcDbBlockTableRecord
  2
POLY3
340
0
102
{BLKREFS
331
83
102
}
  0
BLOCK_RECORD
  5
85
330
1
100
AcDbSymbolTableRecord
100
AcDbBlockTableRecord
  2
POLY4
340
0
102
{BLKREFS
331
94
102
}
  0
BLOCK_RECORD
  5
9B
330
1
100
AcDbSymbolTableRecord
100
AcDbBlockTableRecord
  2
POLY5
340
0
102
{BLKREFS
331
A6
102
}
  0
BLOCK_RECORD
  5
A8
330
1
100
AcDbSymbolTableRecord
100
AcDbBlockTableRecord
  2
POLY6
340
0
102
{BLKREFS
331
B5
102
}
  0
BLOCK_RECORD
  5
B7
330
1
100
AcDbSymbolTableRecord
100
AcDbBlockTableRecord
  2
POLY7
340
0
102
{BLKREFS
331
C2
102
}
  0
BLOCK_RECORD
  5
E7
330
1
100
AcDbSymbolTableRecord
100
AcDbBlockTableRecord
  2
KLON1
340
0
102
{BLKREFS
331
109
102
}
  0
BLOCK_RECORD
  5
112
330
1
100
AcDbSymbolTableRecord
100
AcDbBlockTableRecord
  2
*D9
340
0
  0
ENDTAB
  0
ENDSEC
  0
SECTION
  2
BLOCKS
  0
BLOCK
  5
20
330
1F
100
AcDbEntity
  8
0
100
AcDbBlockBegin
  2
*Model_Space
 70
     0
 71
     0
 10
0.0
 20
0.0
 30
0.0
  3
*Model_Space
  1

  0
ENDBLK
  5
21
330
1F
100
AcDbEntity
  8
0
100
AcDbBlockEnd
  0
BLOCK
  5
1C
330
1B
100
AcDbEntity
 67
     1
  8
0
100
AcDbBlockBegin
  2
*Paper_Space
 70
     0
 71
     0
 10
0.0
 20
0.0
 30
0.0
  3
*Paper_Space
  1

  0
ENDBLK
  5
1D
330
1B
100
AcDbEntity
 67
     1
  8
0
100
AcDbBlockEnd
  0
BLOCK
  5
24
330
23
100
AcDbEntity
  8
0
100
AcDbBlockBegin
  2
*Paper_Space0
 70
     0
 71
     0
 10
0.0
 20
0.0
 30
0.0
  3
*Paper_Space0
  1

  0
ENDBLK
  5
25
330
23
100
AcDbEntity
  8
0
100
AcDbBlockEnd
  0
BLOCK
  5
51
330
50
100
AcDbEntity
  8
0
100
AcDbBlockBegin
  2
POLY1
 70
     0
 71
     0
 10
0.0
 20
0.0
 30
0.0
  3
POLY1
  1

  4
POLY1
  0
LINE
  5
53
330
50
100
AcDbEntity
  8
LC-001-100-D00-0
 62
     7
370
    15
100
AcDbLine
 10
153.533343
 20
349.460418
 30
0.0
 11
153.533343
 21
349.460418
 31
0.0
  0
LINE
  5
54
330
50
100
AcDbEntity
  8
LC-001-100-D00-0
 62
     7
370
    15
100
AcDbLine
 10
153.533343
 20
349.460418
 30
0.0
 11
153.553737
 21
349.460418
 31
0.0
  0
LINE
  5
55
330
50
100
AcDbEntity
  8
LC-001-100-D00-0
 62
     7
370
    15
100
AcDbLine
 10
153.553737
 20
349.460418
 30
0.0
 11
153.553737
 21
349.460418
 31
0.0
  0
LINE
  5
56
330
50
100
AcDbEntity
  8
LC-001-100-D00-0
 62
     7
370
    15
100
AcDbLine
 10
153.553737
 20
349.460418
 30
0.0
 11
153.594486
 21
349.460418
 31
0.0
  0
LINE
  5
57
330
50
100
AcDbEntity
  8
LC-001-100-D00-0
 62
     7
370
    15
100
AcDbLine
 10
153.594486
 20
349.460418
 30
0.0
 11
153.594486
 21
349.460418
 31
0.0
  0
LINE
  5
58
330
50
100
AcDbEntity
  8
LC-001-100-D00-0
 62
     7
370
    15
100
AcDbLine
 10
153.594486
 20
349.460418
 30
0.0
 11
153.893113
 21
349.460418
 31
0.0
  0
LINE
  5
59
330
50
100
AcDbEntity
  8
LC-001-100-D00-0
 62
     7
370
    15
100
AcDbLine
 10
153.893113
 20
349.460418
 30
0.0
 11
153.893113
 21
349.460418
 31
0.0
  0
LINE
  5
5A
330
50
100
AcDbEntity
  8
LC-001-100-D00-0
 62
     7
370
    15
100
AcDbLine
 10
153.893113
 20
349.460418
 30
0.0
 11
154.273063
 21
349.460418
 31
0.0
  0
LINE
  5
5B
330
50
100
AcDbEntity
  8
LC-001-100-D00-0
 62
     7
370
    15
100
AcDbLine
 10
154.273063
 20
349.460418
 30
0.0
 11
154.273063
 21
349.460418
 31
0.0
  0
LINE
  5
5C
330
50
100
AcDbEntity
  8
LC-001-100-D00-0
 62
     7
370
    15
100
AcDbLine
 10
154.273063
 20
349.460418
 30
0.0
 11
154.540831
 21
349.460418
 31
0.0
  0
LINE
  5
5D
330
50
100
AcDbEntity
  8
LC-001-100-D00-0
 62
     7
370
    15
100
AcDbLine
 10
154.540831
 20
349.460418
 30
0.0
 11
154.540831
 21
349.460418
 31
0.0
  0
LINE
  5
5E
330
50
100
AcDbEntity
  8
LC-001-100-D00-0
 62
     7
370
    15
100
AcDbLine
 10
154.540831
 20
349.460418
 30
0.0
 11
154.674769
 21
349.460418
 31
0.0
  0
ENDBLK
  5
52
330
50
100
AcDbEntity
  8
0
100
AcDbBlockEnd
  0
BLOCK
  5
63
330
62
100
AcDbEntity
  8
0
100
AcDbBlockBegin
  2
POLY2
 70
     0
 71
     0
 10
0.0
 20
0.0
 30
0.0
  3
POLY2
  1

  4
POLY2
  0
LINE
  5
65
330
62
100
AcDbEntity
  8
LC-001-100-D00-0
 62
     7
370
    15
100
AcDbLine
 10
154.674769
 20
349.460418
 30
0.0
 11
154.674769
 21
349.460418
 31
0.0
  0
LINE
  5
66
330
62
100
AcDbEntity
  8
LC-001-100-D00-0
 62
     7
370
    15
100
AcDbLine
 10
154.674769
 20
349.460418
 30
0.0
 11
154.830831
 21
349.460418
 31
0.0
  0
LINE
  5
67
330
62
100
AcDbEntity
  8
LC-001-100-D00-0
 62
     7
370
    15
100
AcDbLine
 10
154.830831
 20
349.460418
 30
0.0
 11
154.830831
 21
349.460418
 31
0.0
  0
LINE
  5
68
330
62
100
AcDbEntity
  8
LC-001-100-D00-0
 62
     7
370
    15
100
AcDbLine
 10
154.830831
 20
349.460418
 30
0.0
 11
155.142643
 21
349.460418
 31
0.0
  0
LINE
  5
69
330
62
100
AcDbEntity
  8
LC-001-100-D00-0
 62
     7
370
    15
100
AcDbLine
 10
155.142643
 20
349.460418
 30
0.0
 11
155.142643
 21
349.460418
 31
0.0
  0
LINE
  5
6A
330
62
100
AcDbEntity
  8
LC-001-100-D00-0
 62
     7
370
    15
100
AcDbLine
 10
155.142643
 20
349.460418
 30
0.0
 11
155.489131
 21
349.460418
 31
0.0
  0
LINE
  5
6B
330
62
100
AcDbEntity
  8
LC-001-100-D00-0
 62
     7
370
    15
100
AcDbLine
 10
155.489131
 20
349.460418
 30
0.0
 11
155.489131
 21
349.460418
 31
0.0
  0
LINE
  5
6C
330
62
100
AcDbEntity
  8
LC-001-100-D00-0
 62
     7
370
    15
100
AcDbLine
 10
155.489131
 20
349.460418
 30
0.0
 11
155.698997
 21
349.460418
 31
0.0
  0
LINE
  5
6D
330
62
100
AcDbEntity
  8
LC-001-100-D00-0
 62
     7
370
    15
100
AcDbLine
 10
155.698997
 20
349.460418
 30
0.0
 11
155.698997
 21
349.460418
 31
0.0
  0
LINE
  5
6E
330
62
100
AcDbEntity
  8
LC-001-100-D00-0
 62
     7
370
    15
100
AcDbLine
 10
155.698997
 20
349.460418
 30
0.0
 11
155.721039
 21
349.460418
 31
0.0
  0
LINE
  5
6F
330
62
100
AcDbEntity
  8
LC-001-100-D00-0
 62
     7
370
    15
100
AcDbLine
 10
155.721039
 20
349.460418
 30
0.0
 11
155.721039
 21
349.460418
 31
0.0
  0
LINE
  5
70
330
62
100
AcDbEntity
  8
LC-001-100-D00-0
 62
     7
370
    15
100
AcDbLine
 10
155.721039
 20
349.460418
 30
0.0
 11
155.732061
 21
349.460418
 31
0.0
  0
ENDBLK
  5
64
330
62
100
AcDbEntity
  8
0
100
AcDbBlockEnd
  0
BLOCK
  5
75
330
74
100
AcDbEntity
  8
0
100
AcDbBlockBegin
  2
POLY3
 70
     0
 71
     0
 10
0.0
 20
0.0
 30
0.0
  3
POLY3
  1

  4
POLY3
  0
LINE
  5
77
330
74
100
AcDbEntity
  8
LC-001-100-D00-0
 62
     7
370
    15
100
AcDbLine
 10
156.225651
 20
349.460418
 30
0.0
 11
156.225651
 21
349.460418
 31
0.0
  0
LINE
  5
78
330
74
100
AcDbEntity
  8
LC-001-100-D00-0
 62
     7
370
    15
100
AcDbLine
 10
156.225651
 20
349.460418
 30
0.0
 11
156.246045
 21
349.460418
 31
0.0
  0
LINE
  5
79
330
74
100
AcDbEntity
  8
LC-001-100-D00-0
 62
     7
370
    15
100
AcDbLine
 10
156.246045
 20
349.460418
 30
0.0
 11
156.246045
 21
349.460418
 31
0.0
  0
LINE
  5
7A
330
74
100
AcDbEntity
  8
LC-001-100-D00-0
 62
     7
370
    15
100
AcDbLine
 10
156.246045
 20
349.460418
 30
0.0
 11
156.286793
 21
349.460418
 31
0.0
  0
LINE
  5
7B
330
74
100
AcDbEntity
  8
LC-001-100-D00-0
 62
     7
370
    15
100
AcDbLine
 10
156.286793
 20
349.460418
 30
0.0
 11
156.286793
 21
349.460418
 31
0.0
  0
LINE
  5
7C
330
74
100
AcDbEntity
  8
LC-001-100-D00-0
 62
     7
370
    15
100
AcDbLine
 10
156.286793
 20
349.460418
 30
0.0
 11
156.58542
 21
349.460418
 31
0.0
  0
LINE
  5
7D
330
74
100
AcDbEntity
  8
LC-001-100-D00-0
 62
     7
370
    15
100
AcDbLine
 10
156.58542
 20
349.460418
 30
0.0
 11
156.58542
 21
349.460418
 31
0.0
  0
LINE
  5
7E
330
74
100
AcDbEntity
  8
LC-001-100-D00-0
 62
     7
370
    15
100
AcDbLine
 10
156.58542
 20
349.460418
 30
0.0
 11
156.965371
 21
349.460418
 31
0.0
  0
LINE
  5
7F
330
74
100
AcDbEntity
  8
LC-001-100-D00-0
 62
     7
370
    15
100
AcDbLine
 10
156.965371
 20
349.460418
 30
0.0
 11
156.965371
 21
349.460418
 31
0.0
  0
LINE
  5
80
330
74
100
AcDbEntity
  8
LC-001-100-D00-0
 62
     7
370
    15
100
AcDbLine
 10
156.965371
 20
349.460418
 30
0.0
 11
157.233139
 21
349.460418
 31
0.0
  0
LINE
  5
81
330
74
100
AcDbEntity
  8
LC-001-100-D00-0
 62
     7
370
    15
100
AcDbLine
 10
157.233139
 20
349.460418
 30
0.0
 11
157.233139
 21
349.460418
 31
0.0
  0
LINE
  5
82
330
74
100
AcDbEntity
  8
LC-001-100-D00-0
 62
     7
370
    15
100
AcDbLine
 10
157.233139
 20
349.460418
 30
0.0
 11
157.367077
 21
349.460418
 31
0.0
  0
ENDBLK
  5
76
330
74
100
AcDbEntity
  8
0
100
AcDbBlockEnd
  0
BLOCK
  5
86
330
85
100
AcDbEntity
  8
0
100
AcDbBlockBegin
  2
POLY4
 70
     0
 71
     0
 10
0.0
 20
0.0
 30
0.0
  3
POLY4
  1

  4
POLY4
  0
LINE
  5
88
330
85
100
AcDbEntity
  8
LC-001-100-D00-0
 62
     7
370
    15
100
AcDbLine
 10
157.367077
 20
349.460418
 30
0.0
 11
157.367077
 21
349.460418
 31
0.0
  0
LINE
  5
89
330
85
100
AcDbEntity
  8
LC-001-100-D00-0
 62
     7
370
    15
100
AcDbLine
 10
157.367077
 20
349.460418
 30
0.0
 11
157.523139
 21
349.460418
 31
0.0
  0
LINE
  5
8A
330
85
100
AcDbEntity
  8
LC-001-100-D00-0
 62
     7
370
    15
100
AcDbLine
 10
157.523139
 20
349.460418
 30
0.0
 11
157.523139
 21
349.460418
 31
0.0
  0
LINE
  5
8B
330
85
100
AcDbEntity
  8
LC-001-100-D00-0
 62
     7
370
    15
100
AcDbLine
 10
157.523139
 20
349.460418
 30
0.0
 11
157.834952
 21
349.460418
 31
0.0
  0
LINE
  5
8C
330
85
100
AcDbEntity
  8
LC-001-100-D00-0
 62
     7
370
    15
100
AcDbLine
 10
157.834952
 20
349.460418
 30
0.0
 11
157.834952
 21
349.460418
 31
0.0
  0
LINE
  5
8D
330
85
100
AcDbEntity
  8
LC-001-100-D00-0
 62
     7
370
    15
100
AcDbLine
 10
157.834952
 20
349.460418
 30
0.0
 11
158.181438
 21
349.460418
 31
0.0
  0
LINE
  5
8E
330
85
100
AcDbEntity
  8
LC-001-100-D00-0
 62
     7
370
    15
100
AcDbLine
 10
158.181438
 20
349.460418
 30
0.0
 11
158.181438
 21
349.460418
 31
0.0
  0
LINE
  5
8F
330
85
100
AcDbEntity
  8
LC-001-100-D00-0
 62
     7
370
    15
100
AcDbLine
 10
158.181438
 20
349.460418
 30
0.0
 11
158.391306
 21
349.460418
 31
0.0
  0
LINE
  5
90
330
85
100
AcDbEntity
  8
LC-001-100-D00-0
 62
     7
370
    15
100
AcDbLine
 10
158.391306
 20
349.460418
 30
0.0
 11
158.391306
 21
349.460418
 31
0.0
  0
LINE
  5
91
330
85
100
AcDbEntity
  8
LC-001-100-D00-0
 62
     7
370
    15
100
AcDbLine
 10
158.391306
 20
349.460418
 30
0.0
 11
158.413346
 21
349.460418
 31
0.0
  0
LINE
  5
92
330
85
100
AcDbEntity
  8
LC-001-100-D00-0
 62
     7
370
    15
100
AcDbLine
 10
158.413346
 20
349.460418
 30
0.0
 11
158.413346
 21
349.460418
 31
0.0
  0
LINE
  5
93
330
85
100
AcDbEntity
  8
LC-001-100-D00-0
 62
     7
370
    15
100
AcDbLine
 10
158.413346
 20
349.460418
 30
0.0
 11
158.424368
 21
349.460418
 31
0.0
  0
ENDBLK
  5
87
330
85
100
AcDbEntity
  8
0
100
AcDbBlockEnd
  0
BLOCK
  5
9C
330
9B
100
AcDbEntity
  8
0
100
AcDbBlockBegin
  2
POLY5
 70
     0
 71
     0
 10
0.0
 20
0.0
 30
0.0
  3
POLY5
  1

  4
POLY5
  0
LINE
  5
9E
330
9B
100
AcDbEntity
  8
LC-001-100-D00-0
 62
     7
370
    15
100
AcDbLine
 10
150.277421
 20
349.460418
 30
0.0
 11
150.277421
 21
349.460418
 31
0.0
  0
LINE
  5
9F
330
9B
100
AcDbEntity
  8
LC-001-100-D00-0
 62
     7
370
    15
100
AcDbLine
 10
150.277421
 20
349.460418
 30
0.0
 11
150.283034
 21
349.460418
 31
0.0
  0
LINE
  5
A0
330
9B
100
AcDbEntity
  8
LC-001-100-D00-0
 62
     7
370
    15
100
AcDbLine
 10
150.283034
 20
349.460418
 30
0.0
 11
150.283034
 21
349.460418
 31
0.0
  0
LINE
  5
A1
330
9B
100
AcDbEntity
  8
LC-001-100-D00-0
 62
     7
370
    15
100
AcDbLine
 10
150.283034
 20
349.460418
 30
0.0
 11
150.350298
 21
349.460418
 31
0.0
  0
LINE
  5
A2
330
9B
100
AcDbEntity
  8
LC-001-100-D00-0
 62
     7
370
    15
100
AcDbLine
 10
150.350298
 20
349.460418
 30
0.0
 11
150.350298
 21
349.460418
 31
0.0
  0
LINE
  5
A3
330
9B
100
AcDbEntity
  8
LC-001-100-D00-0
 62
     7
370
    15
100
AcDbLine
 10
150.350298
 20
349.460418
 30
0.0
 11
150.34881
 21
349.460418
 31
0.0
  0
LINE
  5
A4
330
9B
100
AcDbEntity
  8
LC-001-100-D00-0
 62
     7
370
    15
100
AcDbLine
 10
150.34881
 20
349.460418
 30
0.0
 11
150.34881
 21
349.460418
 31
0.0
  0
LINE
  5
A5
330
9B
100
AcDbEntity
  8
LC-001-100-D00-0
 62
     7
370
    15
100
AcDbLine
 10
150.34881
 20
349.460418
 30
0.0
 11
150.347445
 21
349.460418
 31
0.0
  0
ENDBLK
  5
9D
330
9B
100
AcDbEntity
  8
0
100
AcDbBlockEnd
  0
BLOCK
  5
A9
330
A8
100
AcDbEntity
  8
0
100
AcDbBlockBegin
  2
POLY6
 70
     0
 71
     0
 10
0.0
 20
0.0
 30
0.0
  3
POLY6
  1

  4
POLY6
  0
LINE
  5
AB
330
A8
100
AcDbEntity
  8
LC-001-100-D00-0
 62
     7
370
    15
100
AcDbLine
 10
152.628283
 20
349.460418
 30
0.0
 11
152.628283
 21
349.460418
 31
0.0
  0
LINE
  5
AC
330
A8
100
AcDbEntity
  8
LC-001-100-D00-0
 62
     7
370
    15
100
AcDbLine
 10
152.628283
 20
349.460418
 30
0.0
 11
152.690487
 21
349.460418
 31
0.0
  0
LINE
  5
AD
330
A8
100
AcDbEntity
  8
LC-001-100-D00-0
 62
     7
370
    15
100
AcDbLine
 10
152.690487
 20
349.460418
 30
0.0
 11
152.690487
 21
349.460418
 31
0.0
  0
LINE
  5
AE
330
A8
100
AcDbEntity
  8
LC-001-100-D00-0
 62
     7
370
    15
100
AcDbLine
 10
152.690487
 20
349.460418
 30
0.0
 11
152.852155
 21
349.460418
 31
0.0
  0
LINE
  5
AF
330
A8
100
AcDbEntity
  8
LC-001-100-D00-0
 62
     7
370
    15
100
AcDbLine
 10
152.852155
 20
349.460418
 30
0.0
 11
152.852155
 21
349.460418
 31
0.0
  0
LINE
  5
B0
330
A8
100
AcDbEntity
  8
LC-001-100-D00-0
 62
     7
370
    15
100
AcDbLine
 10
152.852155
 20
349.460418
 30
0.0
 11
153.00682
 21
349.460418
 31
0.0
  0
LINE
  5
B1
330
A8
100
AcDbEntity
  8
LC-001-100-D00-0
 62
     7
370
    15
100
AcDbLine
 10
153.00682
 20
349.460418
 30
0.0
 11
153.00682
 21
349.460418
 31
0.0
  0
LINE
  5
B2
330
A8
100
AcDbEntity
  8
LC-001-100-D00-0
 62
     7
370
    15
100
AcDbLine
 10
153.00682
 20
349.460418
 30
0.0
 11
153.028771
 21
349.460418
 31
0.0
  0
LINE
  5
B3
330
A8
100
AcDbEntity
  8
LC-001-100-D00-0
 62
     7
370
    15
100
AcDbLine
 10
153.028771
 20
349.460418
 30
0.0
 11
153.028771
 21
349.460418
 31
0.0
  0
LINE
  5
B4
330
A8
100
AcDbEntity
  8
LC-001-100-D00-0
 62
     7
370
    15
100
AcDbLine
 10
153.028771
 20
349.460418
 30
0.0
 11
153.039753
 21
349.460418
 31
0.0
  0
ENDBLK
  5
AA
330
A8
100
AcDbEntity
  8
0
100
AcDbBlockEnd
  0
BLOCK
  5
B8
330
B7
100
AcDbEntity
  8
0
100
AcDbBlockBegin
  2
POLY7
 70
     0
 71
     0
 10
0.0
 20
0.0
 30
0.0
  3
POLY7
  1

  4
POLY7
  0
LINE
  5
BA
330
B7
100
AcDbEntity
  8
LC-001-100-D00-0
 62
     7
370
    15
100
AcDbLine
 10
150.885907
 20
349.460418
 30
0.0
 11
150.885907
 21
349.460418
 31
0.0
  0
LINE
  5
BB
330
B7
100
AcDbEntity
  8
LC-001-100-D00-0
 62
     7
370
    15
100
AcDbLine
 10
150.885907
 20
349.460418
 30
0.0
 11
150.920109
 21
349.460418
 31
0.0
  0
LINE
  5
BC
330
B7
100
AcDbEntity
  8
LC-001-100-D00-0
 62
     7
370
    15
100
AcDbLine
 10
150.920109
 20
349.460418
 30
0.0
 11
150.920109
 21
349.460418
 31
0.0
  0
LINE
  5
BD
330
B7
100
AcDbEntity
  8
LC-001-100-D00-0
 62
     7
370
    15
100
AcDbLine
 10
150.920109
 20
349.460418
 30
0.0
 11
150.981374
 21
349.460418
 31
0.0
  0
LINE
  5
BE
330
B7
100
AcDbEntity
  8
LC-001-100-D00-0
 62
     7
370
    15
100
AcDbLine
 10
150.981374
 20
349.460418
 30
0.0
 11
150.981374
 21
349.460418
 31
0.0
  0
LINE
  5
BF
330
B7
100
AcDbEntity
  8
LC-001-100-D00-0
 62
     7
370
    15
100
AcDbLine
 10
150.981374
 20
349.460418
 30
0.0
 11
151.186516
 21
349.460418
 31
0.0
  0
LINE
  5
C0
330
B7
100
AcDbEntity
  8
LC-001-100-D00-0
 62
     7
370
    15
100
AcDbLine
 10
151.186516
 20
349.460418
 30
0.0
 11
151.186516
 21
349.460418
 31
0.0
  0
LINE
  5
C1
330
B7
100
AcDbEntity
  8
LC-001-100-D00-0
 62
     7
370
    15
100
AcDbLine
 10
151.186516
 20
349.460418
 30
0.0
 11
151.277133
 21
349.460418
 31
0.0
  0
ENDBLK
  5
B9
330
B7
100
AcDbEntity
  8
0
100
AcDbBlockEnd
  0
BLOCK
  5
E8
330
E7
100
AcDbEntity
  8
0
100
AcDbBlockBegin
  2
KLON1
 70
     0
 71
     0
 10
0.0
 20
0.0
 30
0.0
  3
KLON1
  1

  4
KLON1
  0
LINE
  5
EA
330
E7
100
AcDbEntity
  8
LC-001-100-D00-0
 62
     7
370
    -2
100
AcDbLine
 10
202.872794
 20
342.066764
 30
0.0
 11
206.019813
 21
345.213783
 31
0.0
  0
LINE
  5
EB
330
E7
100
AcDbEntity
  8
LC-001-100-D00-0
 62
     7
370
    -2
100
AcDbLine
 10
198.790602
 20
342.4747
 30
0.0
 11
208.749834
 21
352.433932
 31
0.0
  0
LINE
  5
EC
330
E7
100
AcDbEntity
  8
LC-001-100-D00-0
 62
     7
370
    -2
100
AcDbLine
 10
185.386191
 20
333.560417
 30
0.0
 11
186.864112
 21
335.038338
 31
0.0
  0
LINE
  5
ED
330
E7
100
AcDbEntity
  8
LC-001-100-D00-0
 62
     7
370
    -2
100
AcDbLine
 10
194.386191
 20
342.560417
 30
0.0
 11
204.541165
 21
352.715391
 31
0.0
  0
LINE
  5
EE
330
E7
100
AcDbEntity
  8
LC-001-100-D00-0
 62
     7
370
    -2
100
AcDbLine
 10
180.896063
 20
333.560417
 30
0.0
 11
186.864112
 21
339.528466
 31
0.0
  0
LINE
  5
EF
330
E7
100
AcDbEntity
  8
LC-001-100-D00-0
 62
     7
370
    -2
100
AcDbLine
 10
189.896063
 20
342.560417
 30
0.0
 11
200.311457
 21
352.975811
 31
0.0
  0
LINE
  5
F0
330
E7
100
AcDbEntity
  8
LC-001-100-D00-0
 62
     7
370
    -2
100
AcDbLine
 10
179.861599
 20
337.016081
 30
0.0
 11
196.060413
 21
353.214895
 31
0.0
  0
LINE
  5
F1
330
E7
100
AcDbEntity
  8
LC-001-100-D00-0
 62
     7
370
    -2
100
AcDbLine
 10
179.500368
 20
341.144978
 30
0.0
 11
191.787726
 21
353.432336
 31
0.0
  0
LINE
  5
F2
330
E7
100
AcDbEntity
  8
LC-001-100-D00-0
 62
     7
370
    -2
100
AcDbLine
 10
179.139136
 20
345.273874
 30
0.0
 11
187.49308
 21
353.627818
 31
0.0
  0
LINE
  5
F3
330
E7
100
AcDbEntity
  8
LC-001-100-D00-0
 62
     7
370
    -2
100
AcDbLine
 10
178.777904
 20
349.402771
 30
0.0
 11
183.176149
 21
353.801016
 31
0.0
  0
LINE
  5
F4
330
E7
100
AcDbEntity
  8
LC-001-100-D00-0
 62
     7
370
    -2
100
AcDbLine
 10
174.445423
 20
349.560417
 30
0.0
 11
178.836598
 21
353.951593
 31
0.0
  0
LINE
  5
F5
330
E7
100
AcDbEntity
  8
LC-001-100-D00-0
 62
     7
370
    -2
100
AcDbLine
 10
169.955295
 20
349.560417
 30
0.0
 11
174.474081
 21
354.079204
 31
0.0
  0
LINE
  5
F6
330
E7
100
AcDbEntity
  8
LC-001-100-D00-0
 62
     7
370
    -2
100
AcDbLine
 10
165.465167
 20
349.560417
 30
0.0
 11
170.08824
 21
354.183491
 31
0.0
  0
LINE
  5
F7
330
E7
100
AcDbEntity
  8
LC-001-100-D00-0
 62
     7
370
    -2
100
AcDbLine
 10
160.975039
 20
349.560417
 30
0.0
 11
165.678707
 21
354.264085
 31
0.0
  0
LINE
  5
F8
330
E7
100
AcDbEntity
  8
LC-001-100-D00-0
 62
     7
370
    -2
100
AcDbLine
 10
156.484911
 20
349.560417
 30
0.0
 11
161.2451
 21
354.320606
 31
0.0
  0
LINE
  5
F9
330
E7
100
AcDbEntity
  8
LC-001-100-D00-0
 62
     7
370
    -2
100
AcDbLine
 10
151.994783
 20
349.560417
 30
0.0
 11
156.787026
 21
354.35266
 31
0.0
  0
LINE
  5
FA
330
E7
100
AcDbEntity
  8
LC-001-100-D00-0
 62
     7
370
    -2
100
AcDbLine
 10
147.504655
 20
349.560417
 30
0.0
 11
152.304079
 21
354.359841
 31
0.0
  0
LINE
  5
FB
330
E7
100
AcDbEntity
  8
LC-001-100-D00-0
 62
     7
370
    -2
100
AcDbLine
 10
143.014527
 20
349.560417
 30
0.0
 11
147.795838
 21
354.341728
 31
0.0
  0
LINE
  5
FC
330
E7
100
AcDbEntity
  8
LC-001-100-D00-0
 62
     7
370
    -2
100
AcDbLine
 10
122.524398
 20
333.560417
 30
0.0
 11
126.73245
 21
337.768469
 31
0.0
  0
LINE
  5
FD
330
E7
100
AcDbEntity
  8
LC-001-100-D00-0
 62
     7
370
    -2
100
AcDbLine
 10
138.524398
 20
349.560417
 30
0.0
 11
143.261868
 21
354.297887
 31
0.0
  0
LINE
  5
FE
330
E7
100
AcDbEntity
  8
LC-001-100-D00-0
 62
     7
370
    -2
100
AcDbLine
 10
119.664112
 20
335.190259
 30
0.0
 11
127.162949
 21
342.689096
 31
0.0
  0
LINE
  5
FF
330
E7
100
AcDbEntity
  8
LC-001-100-D00-0
 62
     7
370
    -2
100
AcDbLine
 10
134.03427
 20
349.560417
 30
0.0
 11
138.70172
 21
354.227867
 31
0.0
  0
LINE
  5
100
330
E7
100
AcDbEntity
  8
LC-001-100-D00-0
 62
     7
370
    -2
100
AcDbLine
 10
119.664112
 20
339.680387
 30
0.0
 11
127.593449
 21
347.609724
 31
0.0
  0
LINE
  5
101
330
E7
100
AcDbEntity
  8
LC-001-100-D00-0
 62
     7
370
    -2
100
AcDbLine
 10
129.544142
 20
349.560417
 30
0.0
 11
134.114927
 21
354.131202
 31
0.0
  0
LINE
  5
102
330
E7
100
AcDbEntity
  8
LC-001-100-D00-0
 62
     7
370
    -2
100
AcDbLine
 10
118.054014
 20
342.560417
 30
0.0
 11
129.501008
 21
354.007411
 31
0.0
  0
LINE
  5
103
330
E7
100
AcDbEntity
  8
LC-001-100-D00-0
 62
     7
370
    -2
100
AcDbLine
 10
113.563886
 20
342.560417
 30
0.0
 11
124.859462
 21
353.855993
 31
0.0
  0
LINE
  5
104
330
E7
100
AcDbEntity
  8
LC-001-100-D00-0
 62
     7
370
    -2
100
AcDbLine
 10
109.047621
 20
342.53428
 30
0.0
 11
120.189771
 21
353.67643
 31
0.0
  0
LINE
  5
105
330
E7
100
AcDbEntity
  8
LC-001-100-D00-0
 62
     7
370
    -2
100
AcDbLine
 10
104.158608
 20
342.135395
 30
0.0
 11
115.491396
 21
353.468183
 31
0.0
  0
LINE
  5
106
330
E7
100
AcDbEntity
  8
LC-001-100-D00-0
 62
     7
370
    -2
100
AcDbLine
 10
101.243038
 20
343.709954
 30
0.0
 11
110.763781
 21
353.230696
 31
0.0
  0
LINE
  5
107
330
E7
100
AcDbEntity
  8
LC-001-100-D00-0
 62
     7
370
    -2
100
AcDbLine
 10
99.769447
 20
346.72649
 30
0.0
 11
106.006344
 21
352.963387
 31
0.0
  0
LINE
  5
108
330
E7
100
AcDbEntity
  8
LC-001-100-D00-0
 62
     7
370
    -2
100
AcDbLine
 10
98.113246
 20
349.560417
 30
0.0
 11
101.218484
 21
352.665655
 31
0.0
  0
ENDBLK
  5
E9
330
E7
100
AcDbEntity
  8
0
100
AcDbBlockEnd
  0
BLOCK
  5
11C
330
112
100
AcDbEntity
  8
0
100
AcDbBlockBegin
  2
*D9
 70
     1
 71
     0
 10
0.0
 20
0.0
 30
0.0
  3
*D9
  1

  0
LINE
  5
113
330
112
100
AcDbEntity
  8
LC-003-003-----0
 62
     2
370
    -2
100
AcDbLine
 10
96.264112
 20
350.929309
 30
0.0
 11
96.264112
 21
382.512764
 31
0.0
  0
LINE
  5
114
330
112
100
AcDbEntity
  8
LC-003-003-----0
 62
     2
370
    -2
100
AcDbLine
 10
210.264112
 20
350.929309
 30
0.0
 11
210.264112
 21
382.512764
 31
0.0
  0
LINE
  5
115
330
112
100
AcDbEntity
  8
LC-003-003-----0
 62
     2
370
    -2
100
AcDbLine
 10
124.264112
 20
378.912764
 30
0.0
 11
182.264112
 21
378.912764
 31
0.0
  0
SOLID
  5
116
330
112
100
AcDbEntity
  8
LC-003-003-----0
 62
     2
100
AcDbTrace
 10
124.264112
 20
383.579431
 30
0.0
 11
124.264112
 21
374.246097
 31
0.0
 12
96.264112
 22
378.912764
 32
0.0
 13
96.264112
 23
378.912764
 33
0.0
  0
SOLID
  5
117
330
112
100
AcDbEntity
  8
LC-003-003-----0
 62
     2
100
AcDbTrace
 10
182.264112
 20
374.246097
 30
0.0
 11
182.264112
 21
383.579431
 31
0.0
 12
210.264112
 22
378.912764
 32
0.0
 13
210.264112
 23
378.912764
 33
0.0
  0
MTEXT
  5
118
330
112
100
AcDbEntity
  8
LC-003-003-----0
 62
     2
100
AcDbMText
 10
152.855602
 20
409.712764
 30
0.0
 40
28.0
 41
0.0
 71
     5
 72
     1
  1
%%c\A1;114
  7
LCTX15-400-0-0pDIN-Schrift
 73
     1
 44
1.0
  0
POINT
  5
119
330
112
100
AcDbEntity
  8
Defpoints
 62
     0
100
AcDbPoint
 10
96.264112
 20
350.929309
 30
0.0
  0
POINT
  5
11A
330
112
100
AcDbEntity
  8
Defpoints
 62
     0
100
AcDbPoint
 10
210.264112
 20
350.929309
 30
0.0
  0
POINT
  5
11B
330
112
100
AcDbEntity
  8
Defpoints
 62
     0
100
AcDbPoint
 10
210.264112
 20
378.912764
 30
0.0
  0
ENDBLK
  5
11D
330
112
100
AcDbEntity
  8
0
100
AcDbBlockEnd
  0
ENDSEC
  0
SECTION
  2
ENTITIES
  0
LINE
  5
32
330
1F
100
AcDbEntity
  8
LC-001-100-D00-0
 62
     7
370
    15
100
AcDbLine
 10
180.16393
 20
333.560417
 30
0.0
 11
178.764111
 21
349.560418
 31
0.0
  0
LINE
  5
33
330
1F
100
AcDbEntity
  8
LC-001-100-D00-0
 62
     7
370
    15
100
AcDbLine
 10
178.764111
 20
349.560418
 30
0.0
 11
127.764112
 21
349.560418
 31
0.0
  0
LINE
  5
34
330
1F
100
AcDbEntity
  8
LC-001-100-D00-0
 62
     7
370
    15
100
AcDbLine
 10
127.764112
 20
349.560418
 30
0.0
 11
126.364294
 21
333.560417
 31
0.0
  0
LINE
  5
35
330
1F
100
AcDbEntity
  8
LC-001-100-D00-0
 62
     7
370
    15
100
AcDbLine
 10
126.364294
 20
333.560417
 30
0.0
 11
120.664111
 21
333.560417
 31
0.0
  0
ARC
  5
36
330
1F
100
AcDbEntity
  8
LC-001-100-D00-0
 62
     7
370
    15
100
AcDbCircle
 10
120.664112
 20
334.560417
 30
0.0
 40
1.0
100
AcDbArc
 50
180.0
 51
270.0
  0
LINE
  5
37
330
1F
100
AcDbEntity
  8
LC-001-100-D00-0
 62
     7
370
    15
100
AcDbLine
 10
119.664111
 20
334.560417
 30
0.0
 11
119.664111
 21
341.560417
 31
0.0
  0
ARC
  5
38
330
1F
100
AcDbEntity
  8
LC-001-100-D00-0
 62
     7
370
    15
100
AcDbCircle
 10
118.664112
 20
341.560417
 30
0.0
 40
1.0
100
AcDbArc
 50
0.0
 51
90.0
  0
LINE
  5
39
330
1F
100
AcDbEntity
  8
LC-001-100-D00-0
 62
     7
370
    15
100
AcDbLine
 10
118.664113
 20
342.560417
 30
0.0
 11
110.664113
 21
342.560417
 31
0.0
  0
ARC
  5
3A
330
1F
100
AcDbEntity
  8
LC-001-100-D00-0
 62
     7
370
    15
100
AcDbCircle
 10
110.664112
 20
292.560417
 30
0.0
 40
49.99999999999994
100
AcDbArc
 50
90.0
 51
99.792097
  0
LINE
  5
3B
330
1F
100
AcDbEntity
  8
LC-001-100-D00-0
 62
     7
370
    15
100
AcDbLine
 10
98.385061
 20
349.560418
 30
0.0
 11
102.160434
 21
341.831986
 31
0.0
  0
LINE
  5
3C
330
1F
100
AcDbEntity
  8
LC-001-100-D00-0
 62
     7
370
    15
100
AcDbLine
 10
98.385061
 20
349.560418
 30
0.0
 11
97.758371
 21
349.560418
 31
0.0
  0
ARC
  5
3D
330
1F
100
AcDbEntity
  8
LC-001-100-D00-0
 62
     7
370
    15
100
AcDbCircle
 10
97.758371
 20
351.060417
 30
0.0
 40
1.499999999999998
100
AcDbArc
 50
185.014348
 51
270.0
  0
ARC
  5
3E
330
1F
100
AcDbEntity
  8
LC-001-100-D00-0
 62
     7
370
    15
100
AcDbCircle
 10
97.764112
 20
350.929309
 30
0.0
 40
1.50000000000004
100
AcDbArc
 50
93.985575
 51
180.0
  0
ARC
  5
3F
330
1F
100
AcDbEntity
  8
LC-001-100-D00-0
 62
     7
370
    15
100
AcDbCircle
 10
153.264112
 20
-445.639583
 30
0.0
 40
800.0000000000001
100
AcDbArc
 50
86.014425
 51
93.985575
  0
ARC
  5
40
330
1F
100
AcDbEntity
  8
LC-001-100-D00-0
 62
     7
370
    15
100
AcDbCircle
 10
208.764112
 20
350.929309
 30
0.0
 40
1.500000000000028
100
AcDbArc
 50
0.0
 51
86.014425
  0
ARC
  5
41
330
1F
100
AcDbEntity
  8
LC-001-100-D00-0
 62
     7
370
    15
100
AcDbCircle
 10
208.769853
 20
351.060417
 30
0.0
 40
1.5
100
AcDbArc
 50
270.0
 51
354.985652
  0
LINE
  5
42
330
1F
100
AcDbEntity
  8
LC-001-100-D00-0
 62
     7
370
    15
100
AcDbLine
 10
208.769853
 20
349.560418
 30
0.0
 11
208.143163
 21
349.560418
 31
0.0
  0
LINE
  5
43
330
1F
100
AcDbEntity
  8
LC-001-100-D00-0
 62
     7
370
    15
100
AcDbLine
 10
204.367789
 20
341.831986
 30
0.0
 11
208.143163
 21
349.560418
 31
0.0
  0
ARC
  5
44
330
1F
100
AcDbEntity
  8
LC-001-100-D00-0
 62
     7
370
    15
100
AcDbCircle
 10
195.864112
 20
292.560417
 30
0.0
 40
49.99999999999999
100
AcDbArc
 50
80.207903
 51
90.0
  0
LINE
  5
45
330
1F
100
AcDbEntity
  8
LC-001-100-D00-0
 62
     7
370
    15
100
AcDbLine
 10
195.86411
 20
342.560417
 30
0.0
 11
187.864113
 21
342.560417
 31
0.0
  0
ARC
  5
46
330
1F
100
AcDbEntity
  8
LC-001-100-D00-0
 62
     7
370
    15
100
AcDbCircle
 10
187.864112
 20
341.560417
 30
0.0
 40
1.0
100
AcDbArc
 50
90.0
 51
180.0
  0
LINE
  5
47
330
1F
100
AcDbEntity
  8
LC-001-100-D00-0
 62
     7
370
    15
100
AcDbLine
 10
186.864111
 20
341.560417
 30
0.0
 11
186.864111
 21
334.560417
 31
0.0
  0
ARC
  5
48
330
1F
100
AcDbEntity
  8
LC-001-100-D00-0
 62
     7
370
    15
100
AcDbCircle
 10
185.864112
 20
334.560417
 30
0.0
 40
1.0
100
AcDbArc
 50
270.0
 51
0.0
  0
LINE
  5
49
330
1F
100
AcDbEntity
  8
LC-001-100-D00-0
 62
     7
370
    15
100
AcDbLine
 10
185.864112
 20
333.560417
 30
0.0
 11
180.16393
 21
333.560417
 31
0.0
  0
LINE
  5
4A
330
1F
100
AcDbEntity
  8
LC-001-100-D00-0
 62
     7
370
    15
100
AcDbLine
 10
152.321804
 20
349.460418
 30
0.0
 11
152.321804
 21
349.560418
 31
0.0
  0
LINE
  5
4B
330
1F
100
AcDbEntity
  8
LC-001-100-D00-0
 62
     7
370
    15
100
AcDbLine
 10
151.277133
 20
349.460418
 30
0.0
 11
152.321804
 21
349.460418
 31
0.0
  0
LINE
  5
4C
330
1F
100
AcDbEntity
  8
LC-001-100-D00-0
 62
     7
370
    15
100
AcDbLine
 10
151.277133
 20
349.460418
 30
0.0
 11
151.277133
 21
349.560418
 31
0.0
  0
LINE
  5
4D
330
1F
100
AcDbEntity
  8
LC-001-100-D00-0
 62
     7
370
    15
100
AcDbLine
 10
152.563692
 20
349.460418
 30
0.0
 11
152.563692
 21
349.560418
 31
0.0
  0
LINE
  5
4E
330
1F
100
AcDbEntity
  8
LC-001-100-D00-0
 62
     7
370
    15
100
AcDbLine
 10
152.321804
 20
349.460418
 30
0.0
 11
152.563692
 21
349.460418
 31
0.0
  0
LINE
  5
4F
330
1F
100
AcDbEntity
  8
LC-001-100-D00-0
 62
     7
370
    15
100
AcDbLine
 10
154.674769
 20
349.460418
 30
0.0
 11
154.674769
 21
349.560418
 31
0.0
  0
INSERT
  5
5F
330
1F
100
AcDbEntity
  8
LC-001-100-D00-0
 62
     7
370
    15
100
AcDbBlockReference
  2
POLY1
 10
0.0
 20
0.0
 30
0.0
  0
LINE
  5
60
330
1F
100
AcDbEntity
  8
LC-001-100-D00-0
 62
     7
370
    15
100
AcDbLine
 10
153.533343
 20
349.460418
 30
0.0
 11
153.533343
 21
349.560418
 31
0.0
  0
LINE
  5
61
330
1F
100
AcDbEntity
  8
LC-001-100-D00-0
 62
     7
370
    15
100
AcDbLine
 10
155.732061
 20
349.460418
 30
0.0
 11
155.732061
 21
349.560418
 31
0.0
  0
INSERT
  5
71
330
1F
100
AcDbEntity
  8
LC-001-100-D00-0
 62
     7
370
    15
100
AcDbBlockReference
  2
POLY2
 10
0.0
 20
0.0
 30
0.0
  0
LINE
  5
72
330
1F
100
AcDbEntity
  8
LC-001-100-D00-0
 62
     7
370
    15
100
AcDbLine
 10
157.367077
 20
349.460418
 30
0.0
 11
157.367077
 21
349.560418
 31
0.0
  0
LINE
  5
73
330
1F
100
AcDbEntity
  8
LC-001-100-D00-0
 62
     7
370
    15
100
AcDbLine
 10
156.225651
 20
349.460418
 30
0.0
 11
156.225651
 21
349.560418
 31
0.0
  0
INSERT
  5
83
330
1F
100
AcDbEntity
  8
LC-001-100-D00-0
 62
     7
370
    15
100
AcDbBlockReference
  2
POLY3
 10
0.0
 20
0.0
 30
0.0
  0
LINE
  5
84
330
1F
100
AcDbEntity
  8
LC-001-100-D00-0
 62
     7
370
    15
100
AcDbLine
 10
158.424368
 20
349.460418
 30
0.0
 11
158.424368
 21
349.560418
 31
0.0
  0
INSERT
  5
94
330
1F
100
AcDbEntity
  8
LC-001-100-D00-0
 62
     7
370
    15
100
AcDbBlockReference
  2
POLY4
 10
0.0
 20
0.0
 30
0.0
  0
LINE
  5
95
330
1F
100
AcDbEntity
  8
LC-001-100-D00-0
 62
     7
370
    15
100
AcDbLine
 10
148.776933
 20
349.460418
 30
0.0
 11
148.776933
 21
349.560418
 31
0.0
  0
LINE
  5
96
330
1F
100
AcDbEntity
  8
LC-001-100-D00-0
 62
     7
370
    15
100
AcDbLine
 10
148.417958
 20
349.460418
 30
0.0
 11
148.417958
 21
349.560418
 31
0.0
  0
LINE
  5
97
330
1F
100
AcDbEntity
  8
LC-001-100-D00-0
 62
     7
370
    15
100
AcDbLine
 10
148.417958
 20
349.460418
 30
0.0
 11
148.776933
 21
349.460418
 31
0.0
  0
LINE
  5
98
330
1F
100
AcDbEntity
  8
LC-001-100-D00-0
 62
     7
370
    15
100
AcDbLine
 10
150.21283
 20
349.460418
 30
0.0
 11
150.21283
 21
349.560418
 31
0.0
  0
LINE
  5
99
330
1F
100
AcDbEntity
  8
LC-001-100-D00-0
 62
     7
370
    15
100
AcDbLine
 10
148.776933
 20
349.460418
 30
0.0
 11
150.21283
 21
349.460418
 31
0.0
  0
LINE
  5
9A
330
1F
100
AcDbEntity
  8
LC-001-100-D00-0
 62
     7
370
    15
100
AcDbLine
 10
150.347445
 20
349.460418
 30
0.0
 11
150.347445
 21
349.560418
 31
0.0
  0
INSERT
  5
A6
330
1F
100
AcDbEntity
  8
LC-001-100-D00-0
 62
     7
370
    15
100
AcDbBlockReference
  2
POLY5
 10
0.0
 20
0.0
 30
0.0
  0
LINE
  5
A7
330
1F
100
AcDbEntity
  8
LC-001-100-D00-0
 62
     7
370
    15
100
AcDbLine
 10
153.039753
 20
349.460418
 30
0.0
 11
153.039753
 21
349.560418
 31
0.0
  0
INSERT
  5
B5
330
1F
100
AcDbEntity
  8
LC-001-100-D00-0
 62
     7
370
    15
100
AcDbBlockReference
  2
POLY6
 10
0.0
 20
0.0
 30
0.0
  0
LINE
  5
B6
330
1F
100
AcDbEntity
  8
LC-001-100-D00-0
 62
     7
370
    15
100
AcDbLine
 10
150.885907
 20
349.460418
 30
0.0
 11
150.885907
 21
349.560418
 31
0.0
  0
INSERT
  5
C2
330
1F
100
AcDbEntity
  8
LC-001-100-D00-0
 62
     7
370
    15
100
AcDbBlockReference
  2
POLY7
 10
0.0
 20
0.0
 30
0.0
  0
LINE
  5
C3
330
1F
100
AcDbEntity
  8
LC-001-100-D00-0
 62
     7
370
    15
100
AcDbLine
 10
153.398728
 20
349.460418
 30
0.0
 11
153.398728
 21
349.560418
 31
0.0
  0
LINE
  5
C4
330
1F
100
AcDbEntity
  8
LC-001-100-D00-0
 62
     7
370
    15
100
AcDbLine
 10
153.398728
 20
349.460418
 30
0.0
 11
153.468762
 21
349.460418
 31
0.0
  0
LINE
  5
C5
330
1F
100
AcDbEntity
  8
LC-001-100-D00-0
 62
     7
370
    15
100
AcDbLine
 10
156.091035
 20
349.460418
 30
0.0
 11
156.091035
 21
349.560418
 31
0.0
  0
LINE
  5
C6
330
1F
100
AcDbEntity
  8
LC-001-100-D00-0
 62
     7
370
    15
100
AcDbLine
 10
156.091035
 20
349.460418
 30
0.0
 11
156.16107
 21
349.460418
 31
0.0
  0
LINE
  5
C7
330
1F
100
AcDbEntity
  8
LC-001-100-D00-0
 62
     7
370
    15
100
AcDbLine
 10
148.373087
 20
349.460418
 30
0.0
 11
148.373087
 21
349.560418
 31
0.0
  0
LINE
  5
C8
330
1F
100
AcDbEntity
  8
LC-001-100-D00-0
 62
     7
370
    15
100
AcDbLine
 10
148.058984
 20
349.460418
 30
0.0
 11
148.058984
 21
349.560418
 31
0.0
  0
LINE
  5
C9
330
1F
100
AcDbEntity
  8
LC-001-100-D00-0
 62
     7
370
    15
100
AcDbLine
 10
148.058984
 20
349.460418
 30
0.0
 11
148.373087
 21
349.460418
 31
0.0
  0
LINE
  5
CA
330
1F
100
AcDbEntity
  8
LC-001-100-D00-0
 62
     7
370
    15
100
AcDbLine
 10
155.776933
 20
349.460418
 30
0.0
 11
155.776933
 21
349.560418
 31
0.0
  0
LINE
  5
CB
330
1F
100
AcDbEntity
  8
LC-001-100-D00-0
 62
     7
370
    15
100
AcDbLine
 10
158.46924
 20
349.460418
 30
0.0
 11
158.46924
 21
349.560418
 31
0.0
  0
LINE
  5
CC
330
1F
100
AcDbEntity
  8
LC-001-100-D00-0
 62
     7
370
    15
100
AcDbLine
 10
133.606672
 20
333.560417
 30
0.0
 11
134.201409
 21
349.560418
 31
0.0
  0
LINE
  5
CD
330
1F
100
AcDbEntity
  8
LC-001-100-D00-0
 62
     7
370
    15
100
AcDbLine
 10
129.576036
 20
333.560417
 30
0.0
 11
133.606672
 21
333.560417
 31
0.0
  0
ELLIPSE
  5
CE
330
1F
100
AcDbEntity
  8
LC-001-100-D00-0
 62
     7
370
    15
100
AcDbEllipse
 10
129.551342
 20
334.560417
 30
0.0
 11
0.04929551961578224
 21
-0.9993937813598565
 31
0.0
210
0.0
220
0.0
230
1.0
 40
0.706247
 41
1.535974497428406
 42
3.106770824223352
  0
LINE
  5
CF
330
1F
100
AcDbEntity
  8
LC-001-100-D00-0
 62
     7
370
    15
100
AcDbLine
 10
128.671386
 20
341.560417
 30
0.0
 11
128.844236
 21
334.560417
 31
0.0
  0
ELLIPSE
  5
D0
330
1F
100
AcDbEntity
  8
LC-001-100-D00-0
 62
     7
370
    15
100
AcDbEllipse
 10
127.96428
 20
341.560417
 30
0.0
 11
0.04929551961695753
 21
-0.9993937813836838
 31
0.0
210
0.0
220
0.0
230
1.0
 40
0.706247
 41
4.677567151018483
 42
6.24836347781323
  0
LINE
  5
D1
330
1F
100
AcDbEntity
  8
LC-001-100-D00-0
 62
     7
370
    15
100
AcDbLine
 10
127.151691
 20
342.560417
 30
0.0
 11
127.939587
 21
342.560417
 31
0.0
  0
ELLIPSE
  5
D2
330
1F
100
AcDbEntity
  8
LC-001-100-D00-0
 62
     7
370
    15
100
AcDbEllipse
 10
123.517368
 20
292.560417
 30
0.0
 11
2.464775980789317
 21
-49.9696890679936
 31
0.0
210
0.0
220
0.0
230
1.0
 40
0.706247
 41
0.051353359218653
 42
0.1360824986014522
  0
LINE
  5
D3
330
1F
100
AcDbEntity
  8
LC-001-100-D00-0
 62
     7
370
    15
100
AcDbLine
 10
116.018106
 20
342.560417
 30
0.0
 11
116.287711
 21
341.831986
 31
0.0
  0
LINE
  5
D4
330
1F
100
AcDbEntity
  8
LC-001-100-D00-0
 62
     7
370
    15
100
AcDbLine
 10
133.606672
 20
333.560417
 30
0.0
 11
134.879464
 21
333.560417
 31
0.0
  0
LINE
  5
D5
330
1F
100
AcDbEntity
  8
LC-001-100-D00-0
 62
     7
370
    15
100
AcDbLine
 10
134.879464
 20
333.560417
 30
0.0
 11
136.264369
 21
349.560418
 31
0.0
  0
LINE
  5
D6
330
1F
100
AcDbEntity
  8
LC-001-100-D00-0
 62
     7
370
    15
100
AcDbLine
 10
171.64876
 20
333.560417
 30
0.0
 11
172.921552
 21
333.560417
 31
0.0
  0
LINE
  5
D7
330
1F
100
AcDbEntity
  8
LC-001-100-D00-0
 62
     7
370
    15
100
AcDbLine
 10
171.64876
 20
333.560417
 30
0.0
 11
170.263856
 21
349.560418
 31
0.0
  0
LINE
  5
D8
330
1F
100
AcDbEntity
  8
LC-001-100-D00-0
 62
     7
370
    15
100
AcDbLine
 10
172.921552
 20
333.560417
 30
0.0
 11
172.326815
 21
349.560418
 31
0.0
  0
LINE
  5
D9
330
1F
100
AcDbEntity
  8
LC-001-100-D00-0
 62
     7
370
    15
100
AcDbLine
 10
179.376534
 20
342.560417
 30
0.0
 11
178.588639
 21
342.560417
 31
0.0
  0
ELLIPSE
  5
DA
330
1F
100
AcDbEntity
  8
LC-001-100-D00-0
 62
     7
370
    15
100
AcDbEllipse
 10
178.563945
 20
341.560417
 30
0.0
 11
-0.04929551961346023
 21
-0.9993937813122017
 31
0.0
210
0.0
220
0.0
230
1.0
 40
0.706247
 41
0.0348218293661131
 42
1.60561815616101
  0
LINE
  5
DB
330
1F
100
AcDbEntity
  8
LC-001-100-D00-0
 62
     7
370
    15
100
AcDbLine
 10
177.856837
 20
341.560417
 30
0.0
 11
177.68399
 21
334.560417
 31
0.0
  0
ELLIPSE
  5
DC
330
1F
100
AcDbEntity
  8
LC-001-100-D00-0
 62
     7
370
    15
100
AcDbEllipse
 10
176.976882
 20
334.560417
 30
0.0
 11
-0.04929551961578236
 21
-0.9993937813598565
 31
0.0
210
0.0
220
0.0
230
1.0
 40
0.706247
 41
3.176414482956118
 42
4.74721080975101
  0
LINE
  5
DD
330
1F
100
AcDbEntity
  8
LC-001-100-D00-0
 62
     7
370
    15
100
AcDbLine
 10
176.95219
 20
333.560417
 30
0.0
 11
172.921552
 21
333.560417
 31
0.0
  0
LINE
  5
DE
330
1F
100
AcDbEntity
  8
LC-001-100-D00-0
 62
     7
370
    15
100
AcDbLine
 10
190.240513
 20
341.831986
 30
0.0
 11
190.510119
 21
342.560417
 31
0.0
  0
ELLIPSE
  5
DF
330
1F
100
AcDbEntity
  8
LC-001-100-D00-0
 62
     7
370
    15
100
AcDbEllipse
 10
183.010856
 20
292.560417
 30
0.0
 11
-2.464775980789311
 21
-49.96968906799404
 31
0.0
210
0.0
220
0.0
230
1.0
 40
0.706247
 41
6.147102808578151
 42
6.231831947958972
  0
LINE
  5
E0
330
1F
100
AcDbEntity
  8
LC-001-100-D00-0
 62
     7
370
    15
100
AcDbLine
 10
152.364112
 20
333.560417
 30
0.0
 11
154.164112
 21
333.560417
 31
0.0
  0
LINE
  5
E1
330
1F
100
AcDbEntity
  8
LC-001-100-D00-0
 62
     7
370
    15
100
AcDbLine
 10
152.364112
 20
333.560417
 30
0.0
 11
151.808872
 21
349.460418
 31
0.0
  0
LINE
  5
E2
330
1F
100
AcDbEntity
  8
LC-001-100-D00-0
 62
     7
370
    15
100
AcDbLine
 10
154.164112
 20
333.560417
 30
0.0
 11
154.719352
 21
349.460418
 31
0.0
  0
LINE
  5
E3
330
1F
100
AcDbEntity
  8
LC-001-100-D00-0
 62
     7
370
    15
100
AcDbLine
 10
116.287711
 20
341.831986
 30
0.0
 11
117.968998
 21
341.831986
 31
0.0
  0
ELLIPSE
  5
E4
330
1F
100
AcDbEntity
  8
LC-001-100-D00-0
 62
     7
370
    15
100
AcDbEllipse
 10
122.765358
 20
292.560417
 30
0.0
 11
-2.464775980789357
 21
-49.96968906799404
 31
0.0
210
0.0
220
0.0
230
1.0
 40
0.706247
 41
0.1629708101130714
 42
0.2057261573340299
  0
LINE
  5
E5
330
1F
100
AcDbEntity
  8
LC-001-100-D00-0
 62
     7
370
    15
100
AcDbLine
 10
188.559226
 20
341.831986
 30
0.0
 11
190.240513
 21
341.831986
 31
0.0
  0
ELLIPSE
  5
E6
330
1F
100
AcDbEntity
  8
LC-001-100-D00-0
 62
     7
370
    15
100
AcDbEllipse
 10
183.762866
 20
292.560417
 30
0.0
 11
2.464775980789276
 21
-49.96968906799345
 31
0.0
210
0.0
220
0.0
230
0.9999999999999999
 40
0.706247
 41
6.077459149845577
 42
6.120214497066377
  0
INSERT
  5
109
330
1F
100
AcDbEntity
  8
LC-001-100-D00-0
 62
     7
370
    -2
100
AcDbBlockReference
  2
KLON1
 10
0.0
 20
0.0
 30
0.0
  0
LINE
  5
10C
330
1F
100
AcDbEntity
  8
LC-002-101-D00-0
 62
     7
370
    -2
100
AcDbLine
 10
153.264112
 20
331.560417
 30
0.0
 11
153.264112
 21
356.010112
 31
0.0
  0
DIMENSION
  5
110
330
1F
100
AcDbEntity
  8
LC-003-003-----0
 62
     7
370
    25
100
AcDbDimension
  2
*D9
 10
210.264112
 20
378.912764
 30
0.0
 11
152.855602
 21
409.712764
 31
0.0
 70
   160
  1
%%c<>
 71
     5
 42
114.0
  3
LC-DIM-L-0140-02-02
100
AcDbAlignedDimension
 13
96.264112
 23
350.929309
 33
0.0
 14
210.264112
 24
350.929309
 34
0.0
100
AcDbRotatedDimension
  0
ENDSEC
  0
SECTION
  2
OBJECTS
  0
DICTIONARY
  5
C
330
0
100
AcDbDictionary
281
     1
  3
ACAD_GROUP
350
D
  3
ACAD_LAYOUT
350
1A
  3
ACAD_MLINESTYLE
350
17
  3
ACAD_PLOTSETTINGS
350
19
  3
ACAD_PLOTSTYLENAME
350
E
  0
DICTIONARY
  5
D
102
{ACAD_REACTORS
330
C
102
}
330
C
100
AcDbDictionary
281
     1
  0
DICTIONARY
  5
1A
102
{ACAD_REACTORS
330
C
102
}
330
C
100
AcDbDictionary
281
     1
  3
Layout1
350
1E
  3
Layout2
350
26
  3
Model
350
22
  0
DICTIONARY
  5
17
102
{ACAD_REACTORS
330
C
102
}
330
C
100
AcDbDictionary
281
     1
  3
Standard
350
18
  0
DICTIONARY
  5
19
102
{ACAD_REACTORS
330
C
102
}
330
C
100
AcDbDictionary
281
     1
  0
ACDBDICTIONARYWDFLT
  5
E
102
{ACAD_REACTORS
330
C
102
}
330
C
100
AcDbDictionary
281
     1
  3
Normal
350
F
100
AcDbDictionaryWithDefault
340
F
  0
LAYOUT
  5
1E
102
{ACAD_REACTORS
330
1A
102
}
330
1A
100
AcDbPlotSettings
  1

  2

  4

  6

 40
0.0
 41
0.0
 42
0.0
 43
0.0
 44
0.0
 45
0.0
 46
0.0
 47
0.0
 48
0.0
 49
0.0
140
0.0
141
0.0
142
1.0
143
1.0
 70
   688
 72
     0
 73
     0
 74
     5
  7

 75
    16
147
1.0
148
0.0
149
0.0
100
AcDbLayout
  1
Layout1
 70
     1
 71
     1
 10
-271.75
 20
-87.335738
 11
568.25
 21
506.664262
 12
0.0
 22
0.0
 32
0.0
 14
-271.75
 24
-87.335738
 34
0.0
 15
568.25
 25
506.664262
 35
0.0
146
0.0
 13
0.0
 23
0.0
 33
0.0
 16
1.0
 26
0.0
 36
0.0
 17
0.0
 27
1.0
 37
0.0
 76
     0
330
1B
  0
LAYOUT
  5
26
102
{ACAD_REACTORS
330
1A
102
}
330
1A
100
AcDbPlotSettings
  1

  2

  4

  6

 40
0.0
 41
0.0
 42
0.0
 43
0.0
 44
0.0
 45
0.0
 46
0.0
 47
0.0
 48
0.0
 49
0.0
140
0.0
141
0.0
142
1.0
143
1.0
 70
   688
 72
     0
 73
     0
 74
     5
  7

 75
    16
147
1.0
148
0.0
149
0.0
100
AcDbLayout
  1
Layout2
 70
     1
 71
     2
 10
0.0
 20
0.0
 11
0.0
 21
0.0
 12
0.0
 22
0.0
 32
0.0
 14
0.0
 24
0.0
 34
0.0
 15
0.0
 25
0.0
 35
0.0
146
0.0
 13
0.0
 23
0.0
 33
0.0
 16
1.0
 26
0.0
 36
0.0
 17
0.0
 27
1.0
 37
0.0
 76
     0
330
23
  0
LAYOUT
  5
22
102
{ACAD_REACTORS
330
1A
102
}
330
1A
100
AcDbPlotSettings
  1

  2

  4

  6

 40
0.0
 41
0.0
 42
0.0
 43
0.0
 44
0.0
 45
0.0
 46
0.0
 47
0.0
 48
0.0
 49
0.0
140
0.0
141
0.0
142
1.0
143
1.0
 70
  1776
 72
     0
 73
     0
 74
     0
  7

 75
     0
147
1.0
148
0.0
149
0.0
100
AcDbLayout
  1
Model
 70
     1
 71
     0
 10
-271.75
 20
-87.335738
 11
568.25
 21
506.664262
 12
0.0
 22
0.0
 32
0.0
 14
-271.75
 24
-87.335738
 34
0.0
 15
568.25
 25
506.664262
 35
0.0
146
0.0
 13
0.0
 23
0.0
 33
0.0
 16
1.0
 26
0.0
 36
0.0
 17
0.0
 27
1.0
 37
0.0
 76
     0
330
1F
  0
MLINESTYLE
  5
18
102
{ACAD_REACTORS
330
17
102
}
330
17
100
AcDbMlineStyle
  2
Standard
 70
     0
  3

 62
   256
 51
90.0
 52
90.0
 71
     2
 49
0.5
 62
   256
  6
BYLAYER
 49
-0.5
 62
   256
  6
BYLAYER
  0
ACDBPLACEHOLDER
  5
F
102
{ACAD_REACTORS
330
E
102
}
330
E
  0
ENDSEC
  0
EOF
