  0
SECTION
  2
HEADER
  9
$ACADVER
  1
AC1009
  9
$INSBASE
 10
0.0
 20
0.0
 30
0.0
  9
$EXTMIN
 10
0.0
 20
0.0
 30
0.0
  9
$EXTMAX
 10
840.0
 20
594.0
 30
0.0
  9
$LIMMIN
 10
0.0
 20
0.0
  9
$LIMMAX
 10
840.0
 20
594.0
  9
$ORTHOMODE
 70
     0
  9
$REGENMODE
 70
     1
  9
$FILLMODE
 70
     1
  9
$QTEXTMODE
 70
     0
  9
$MIRRTEXT
 70
     1
  9
$DRAGMODE
 70
     2
  9
$LTSCALE
 40
2.0
  9
$OSMODE
 70
     0
  9
$ATTMODE
 70
     1
  9
$TEXTSIZE
 40
0.2
  9
$TRACEWID
 40
0.05
  9
$TEXTSTYLE
  7
STANDARD
  9
$CLAYER
  8
0
  9
$CELTYPE
  6
BYLAYER
  9
$CECOLOR
 62
     7
  9
$DIMSCALE
 40
2.0
  9
$DIMASZ
 40
3.5
  9
$DIMEXO
 40
0.0625
  9
$DIMDLI
 40
0.38
  9
$DIMRND
 40
0.0
  9
$DIMDLE
 40
0.0
  9
$DIMEXE
 40
0.18
  9
$DIMTP
 40
0.0
  9
$DIMTM
 40
0.0
  9
$DIMTXT
 40
3.5
  9
$DIMCEN
 40
0.09
  9
$DIMTSZ
 40
0.0
  9
$DIMTOL
 70
     0
  9
$DIMLIM
 70
     0
  9
$DIMTIH
 70
     1
  9
$DIMTOH
 70
     1
  9
$DIMSE1
 70
     0
  9
$DIMSE2
 70
     0
  9
$DIMTAD
 70
     1
  9
$DIMZIN
 70
     0
  9
$DIMBLK
  1

  9
$DIMASO
 70
     1
  9
$DIMSHO
 70
     1
  9
$DIMPOST
  1

  9
$DIMAPOST
  1

  9
$DIMALT
 70
     0
  9
$DIMALTD
 70
     2
  9
$DIMALTF
 40
25.4
  9
$DIMLFAC
 40
1.0
  9
$DIMTOFL
 70
     0
  9
$DIMTVP
 40
0.0
  9
$DIMTIX
 70
     0
  9
$DIMSOXD
 70
     0
  9
$DIMSAH
 70
     0
  9
$DIMBLK1
  1

  9
$DIMBLK2
  1

  9
$DIMSTYLE
  2
STANDARD
  9
$DIMCLRD
 70
     0
  9
$DIMCLRE
 70
     0
  9
$DIMCLRT
 70
     0
  9
$DIMTFAC
 40
1.0
  9
$DIMGAP
 40
0.09
  9
$LUNITS
 70
     2
  9
$LUPREC
 70
     2
  9
$AXISMODE
 70
     0
  9
$AXISUNIT
 10
0.0
 20
0.0
  9
$SKETCHINC
 40
0.1
  9
$FILLETRAD
 40
0.0
  9
$AUNITS
 70
     0
  9
$AUPREC
 70
     0
  9
$MENU
  1
acad
  9
$ELEVATION
 40
0.0
  9
$PELEVATION
 40
0.0
  9
$THICKNESS
 40
0.0
  9
$LIMCHECK
 70
     0
  9
$BLIPMODE
 70
     1
  9
$CHAMFERA
 40
0.0
  9
$CHAMFERB
 40
0.0
  9
$SKPOLY
 70
     0
  9
$TDCREATE
 40
0.000000000
  9
$TDUPDATE
 40
0.000000000
  9
$TDINDWG
 40
0.0000000000
  9
$TDUSRTIMER
 40
0.0000000000
  9
$USRTIMER
 70
     1
  9
$ANGBASE
 50
0.0
  9
$ANGDIR
 70
     0
  9
$PDMODE
 70
     0
  9
$PDSIZE
 40
0.0
  9
$PLINEWID
 40
0.0
  9
$COORDS
 70
     0
  9
$SPLFRAME
 70
     0
  9
$SPLINETYPE
 70
     6
  9
$SPLINESEGS
 70
     8
  9
$ATTDIA
 70
     0
  9
$ATTREQ
 70
     1
  9
$HANDLING
 70
     1
  9
$HANDSEED
  5
402
  9
$SURFTAB1
 70
     6
  9
$SURFTAB2
 70
     6
  9
$SURFTYPE
 70
     6
  9
$SURFU
 70
     6
  9
$SURFV
 70
     6
  9
$UCSNAME
  2

  9
$UCSORG
 10
0.0
 20
0.0
 30
0.0
  9
$UCSXDIR
 10
1.0
 20
0.0
 30
0.0
  9
$UCSYDIR
 10
0.0
 20
1.0
 30
0.0
  9
$PUCSNAME
  2

  9
$PUCSORG
 10
0.0
 20
0.0
 30
0.0
  9
$PUCSXDIR
 10
1.0
 20
0.0
 30
0.0
  9
$PUCSYDIR
 10
0.0
 20
1.0
 30
0.0
  9
$USERI1
 70
     0
  9
$USERI2
 70
     0
  9
$USERI3
 70
     0
  9
$USERI4
 70
     0
  9
$USERI5
 70
     0
  9
$USERR1
 40
0.0
  9
$USERR2
 40
0.0
  9
$USERR3
 40
0.0
  9
$USERR4
 40
0.0
  9
$USERR5
 40
0.0
  9
$WORLDVIEW
 70
     1
  9
$SHADEDGE
 70
     3
  9
$SHADEDIF
 70
    70
  9
$TILEMODE
 70
     1
  9
$MAXACTVP
 70
    16
  9
$PINSBASE
 10
0.0
 20
0.0
 30
0.0
  9
$PLIMCHECK
 70
     0
  9
$PEXTMIN
 10
1.000000E+20
 20
1.000000E+20
 30
1.000000E+20
  9
$PEXTMAX
 10
-1.000000E+20
 20
-1.000000E+20
 30
-1.000000E+20
  9
$PLIMMIN
 10
0.0
 20
0.0
  9
$PLIMMAX
 10
840.0
 20
594.0
  9
$UNITMODE
 70
     0
  9
$VISRETAIN
 70
     0
  9
$PLINEGEN
 70
     1
  9
$PSLTSCALE
 70
     0
  9
$TREEDEPTH
 70
  3020
  9
$DWGCODEPAGE
  3
dos850
  0
ENDSEC
  0
SECTION
  2
TABLES
  0
TABLE
  2
VPORT
 70
     1
  0
VPORT
  2
*ACTIVE
 70
     0
 10
0.0
 20
0.0
 11
1.0
 21
1.0
 12
420.0
 22
297.0
 13
0.0
 23
0.0
 14
1.0
 24
1.0
 15
0.0
 25
0.0
 16
0.0
 26
0.0
 36
1.0
 17
0.0
 27
0.0
 37
0.0
 40
594.0
 41
1.604229
 42
50.0
 43
0.0
 44
0.0
 50
0.0
 51
0.0
 71
     0
 72
   100
 73
     1
 74
     1
 75
     0
 76
     0
 77
     0
 78
     0
  0
ENDTAB
  0
TABLE
  2
LTYPE
 70
     3
  0
LTYPE
  2
CONTINUOUS
 70
    64
  3
Solid line
 72
    65
 73
     0
 40
0.0
  0
LTYPE
  2
DASHDOT
 70
    64
  3
__ . __ . __ . __ . __
 72
    65
 73
     4
 40
7.5
 49
5.0
 49
-1.25
 49
0.0
 49
-1.25
  0
LTYPE
  2
DASHED
 70
    64
  3
__ __ __ __ __
 72
    65
 73
     2
 40
6.25
 49
5.0
 49
-1.25
  0
ENDTAB
  0
TABLE
  2
LAYER
 70
    10
  0
LAYER
  2
0
 70
     0
 62
     7
  6
CONTINUOUS
  0
LAYER
  2
LC-INFO-1-2-MM-A3-0
 70
     1
 62
    -1
  6
CONTINUOUS
  0
LAYER
  2
LC-002-005-----0
 70
     0
 62
     2
  6
CONTINUOUS
  0
LAYER
  2
LC-004-003-MTH-0
 70
     0
 62
     2
  6
CONTINUOUS
  0
LAYER
  2
LC-005-003-MTG-0
 70
     0
 62
     2
  6
CONTINUOUS
  0
LAYER
  2
LC-003-003-----0
 70
     0
 62
     2
  6
CONTINUOUS
  0
LAYER
  2
LC-007-000-----0
 70
     0
 62
     7
  6
CONTINUOUS
  0
LAYER
  2
LC-001-002-----0
 70
     0
 62
     1
  6
CONTINUOUS
  0
LAYER
  2
LC-006-002-RND-0
 70
     0
 62
     1
  6
CONTINUOUS
  0
LAYER
  2
LC-000
 70
     0
 62
     7
  6
CONTINUOUS
  0
ENDTAB
  0
TABLE
  2
STYLE
 70
     4
  0
STYLE
  2
STANDARD
 70
     0
 40
0.0
 41
1.0
 50
0.0
 71
     0
 42
0.0
  3
txt
  4

  0
STYLE
  2
LC-STANDARD
 70
    64
 40
0.0
 41
1.0
 50
0.0
 71
     0
 42
3.5
  3
MONOTXT
  4

  0
STYLE
  2
LC-TXTSTYLE-150-400-0-0-D2
 70
    64
 40
0.0
 41
1.0
 50
15.0
 71
     0
 42
3.5
  3
MONOTXT
  4

  0
STYLE
  2
LC-TXTSTYLE-150-400-0-0-D3
 70
    64
 40
0.0
 41
1.0
 50
15.0
 71
     0
 42
3.5
  3
LC-STANDARD
  4

  0
ENDTAB
  0
TABLE
  2
VIEW
 70
     0
  0
ENDTAB
  0
TABLE
  2
UCS
 70
     0
  0
ENDTAB
  0
TABLE
  2
APPID
 70
     1
  0
APPID
  2
ACAD
 70
     0
  0
ENDTAB
  0
TABLE
  2
DIMSTYLE
 70
     3
  0
DIMSTYLE
  2
STANDARD
 70
     0
  3

  4

  5

  6

  7

 40
1.0
 41
0.18
 42
0.0625
 43
0.38
 44
0.18
 45
0.0
 46
0.0
 47
0.0
 48
0.0
 71
     0
 72
     0
 73
     1
 74
     1
 75
     0
 76
     0
 77
     0
 78
     0
140
0.18
141
0.09
142
0.0
143
25.4
144
1.0
145
0.0
146
1.0
147
0.09
170
     0
171
     2
172
     0
173
     0
174
     0
175
     0
176
     0
177
     0
178
     0
  0
DIMSTYLE
  2
LC-STANDARD
 70
     0
  3

  4

  5

  6

  7

 40
1.0
 41
3.5
 42
0.0
 43
7.5
 44
1.8
 45
0.0
 46
0.0
 47
0.0
 48
0.0
 71
     0
 72
     0
 73
     0
 74
     0
 75
     0
 76
     0
 77
     1
 78
     8
140
3.5
141
0.0
142
0.0
143
25.4
144
1.0
145
0.0
146
0.71
147
1.5
170
     0
171
     2
172
     1
173
     0
174
     0
175
     0
176
     0
177
     0
178
     3
  0
DIMSTYLE
  2
LC-DIM-L-0090-02-02
 70
     0
  3

  4

  5

  6

  7

 40
2.0
 41
3.5
 42
0.0
 43
7.5
 44
1.8
 45
0.0
 46
0.0
 47
0.0
 48
0.0
 71
     0
 72
     0
 73
     0
 74
     0
 75
     0
 76
     0
 77
     1
 78
     8
140
9.0
141
0.0
142
0.0
143
25.4
144
1.0
145
0.0
146
0.71
147
1.5
170
     0
171
     2
172
     0
173
     0
174
     0
175
     0
176
     2
177
     2
178
     6
  0
ENDTAB
  0
ENDSEC
  0
SECTION
  2
BLOCKS
  0
BLOCK
  8
0
  5
23
  2
*X0
 70
    65
 10
246.035659
 20
367.834011
 30
0.0
  3
*X0
  0
LINE
  8
LC-002-005-----0
  6
CONTINUOUS
  5
25
 10
249.035659
 20
378.875163
 30
0.0
 11
248.076811
 21
379.834011
 31
0.0
  0
LINE
  8
LC-002-005-----0
  6
CONTINUOUS
  5
26
 10
249.035659
 20
376.046736
 30
0.0
 11
246.035659
 21
379.046736
 31
0.0
  0
LINE
  8
LC-002-005-----0
  6
CONTINUOUS
  5
27
 10
249.035659
 20
373.218309
 30
0.0
 11
246.035659
 21
376.218309
 31
0.0
  0
LINE
  8
LC-002-005-----0
  6
CONTINUOUS
  5
28
 10
249.035659
 20
370.389882
 30
0.0
 11
246.035659
 21
373.389882
 31
0.0
  0
LINE
  8
LC-002-005-----0
  6
CONTINUOUS
  5
29
 10
248.390783
 20
368.20633
 30
0.0
 11
246.035659
 21
370.561455
 31
0.0
  0
ENDBLK
  8
0
  5
2A
  0
BLOCK
  8
0
  5
2C
  2
*D1
 70
    65
 10
0.0
 20
0.0
 30
0.0
  3
*D1
  0
LINE
  8
LC-004-003-MTH-0
  6
CONTINUOUS
  5
2E
 10
252.035659
 20
388.834011
 30
0.0
 11
252.035659
 21
444.8
 31
0.0
  0
LINE
  8
LC-004-003-MTH-0
  6
CONTINUOUS
  5
2F
 10
315.968396
 20
383.084017
 30
0.0
 11
315.968396
 21
444.8
 31
0.0
  0
LINE
  8
LC-005-003-MTG-0
  6
CONTINUOUS
  5
31
 10
252.035659
 20
434.0
 30
0.0
 11
315.968396
 21
434.0
 31
0.0
  0
LINE
  8
LC-003-003-----0
  6
CONTINUOUS
  5
33
 10
269.881666
 20
436.349471
 30
0.0
 11
252.035659
 21
434.0
 31
0.0
  0
LINE
  8
LC-003-003-----0
  6
CONTINUOUS
  5
34
 10
252.035659
 20
434.0
 30
0.0
 11
269.881666
 21
431.650529
 31
0.0
  0
LINE
  8
LC-003-003-----0
  6
CONTINUOUS
  5
35
 10
269.881666
 20
431.650529
 30
0.0
 11
269.881666
 21
436.349471
 31
0.0
  0
LINE
  8
LC-003-003-----0
  6
CONTINUOUS
  5
36
 10
269.921704
 20
435.738609
 30
0.0
 11
256.715659
 21
434.0
 31
0.0
  0
LINE
  8
LC-003-003-----0
  6
CONTINUOUS
  5
37
 10
256.715659
 20
434.0
 30
0.0
 11
269.921704
 21
432.261391
 31
0.0
  0
LINE
  8
LC-003-003-----0
  6
CONTINUOUS
  5
38
 10
269.961742
 20
435.127746
 30
0.0
 11
261.395659
 21
434.0
 31
0.0
  0
LINE
  8
LC-003-003-----0
  6
CONTINUOUS
  5
39
 10
261.395659
 20
434.0
 30
0.0
 11
269.961742
 21
432.872254
 31
0.0
  0
LINE
  8
LC-003-003-----0
  6
CONTINUOUS
  5
3A
 10
270.00178
 20
434.516884
 30
0.0
 11
266.075659
 21
434.0
 31
0.0
  0
LINE
  8
LC-003-003-----0
  6
CONTINUOUS
  5
3B
 10
266.075659
 20
434.0
 30
0.0
 11
270.00178
 21
433.483116
 31
0.0
  0
LINE
  8
LC-003-003-----0
  6
CONTINUOUS
  5
3C
 10
298.122389
 20
431.650529
 30
0.0
 11
315.968396
 21
434.0
 31
0.0
  0
LINE
  8
LC-003-003-----0
  6
CONTINUOUS
  5
3D
 10
315.968396
 20
434.0
 30
0.0
 11
298.122389
 21
436.349471
 31
0.0
  0
LINE
  8
LC-003-003-----0
  6
CONTINUOUS
  5
3E
 10
298.122389
 20
436.349471
 30
0.0
 11
298.122389
 21
431.650529
 31
0.0
  0
LINE
  8
LC-003-003-----0
  6
CONTINUOUS
  5
3F
 10
298.082351
 20
432.261391
 30
0.0
 11
311.288396
 21
434.0
 31
0.0
  0
LINE
  8
LC-003-003-----0
  6
CONTINUOUS
  5
40
 10
311.288396
 20
434.0
 30
0.0
 11
298.082351
 21
435.738609
 31
0.0
  0
LINE
  8
LC-003-003-----0
  6
CONTINUOUS
  5
41
 10
298.042313
 20
432.872254
 30
0.0
 11
306.608396
 21
434.0
 31
0.0
  0
LINE
  8
LC-003-003-----0
  6
CONTINUOUS
  5
42
 10
306.608396
 20
434.0
 30
0.0
 11
298.042313
 21
435.127746
 31
0.0
  0
LINE
  8
LC-003-003-----0
  6
CONTINUOUS
  5
43
 10
298.002275
 20
433.483116
 30
0.0
 11
301.928396
 21
434.0
 31
0.0
  0
LINE
  8
LC-003-003-----0
  6
CONTINUOUS
  5
44
 10
301.928396
 20
434.0
 30
0.0
 11
298.002275
 21
434.516884
 31
0.0
  0
TEXT
  8
LC-003-003-----0
  6
CONTINUOUS
 62
     6
  5
46
 10
274.934281
 20
444.431999
 30
0.0
 40
18.0
  1
64
 41
0.9
 51
15.0
  7
LC-TXTSTYLE-150-400-0-0-D0
 72
     1
 11
286.797273
 21
444.431999
 31
0.0
  0
ENDBLK
  8
0
  5
47
  0
BLOCK
  8
0
  5
49
  2
*D2
 70
    65
 10
0.0
 20
0.0
 30
0.0
  3
*D2
  0
LINE
  8
LC-004-003-MTH-0
  6
CONTINUOUS
  5
4A
 10
315.968396
 20
235.391092
 30
0.0
 11
374.8
 21
235.391092
 31
0.0
  0
LINE
  8
LC-004-003-MTH-0
  6
CONTINUOUS
  5
4B
 10
315.968396
 20
381.383501
 30
0.0
 11
374.8
 21
381.383501
 31
0.0
  0
LINE
  8
LC-005-003-MTG-0
  6
CONTINUOUS
  5
4C
 10
364.0
 20
235.391092
 30
0.0
 11
364.0
 21
381.383501
 31
0.0
  0
LINE
  8
LC-003-003-----0
  6
CONTINUOUS
  5
4D
 10
361.650529
 20
253.2371
 30
0.0
 11
364.0
 21
235.391092
 31
0.0
  0
LINE
  8
LC-003-003-----0
  6
CONTINUOUS
  5
4E
 10
364.0
 20
235.391092
 30
0.0
 11
366.349471
 21
253.2371
 31
0.0
  0
LINE
  8
LC-003-003-----0
  6
CONTINUOUS
  5
4F
 10
366.349471
 20
253.2371
 30
0.0
 11
361.650529
 21
253.2371
 31
0.0
  0
LINE
  8
LC-003-003-----0
  6
CONTINUOUS
  5
50
 10
362.261391
 20
253.277138
 30
0.0
 11
364.0
 21
240.071092
 31
0.0
  0
LINE
  8
LC-003-003-----0
  6
CONTINUOUS
  5
51
 10
364.0
 20
240.071092
 30
0.0
 11
365.738609
 21
253.277138
 31
0.0
  0
LINE
  8
LC-003-003-----0
  6
CONTINUOUS
  5
52
 10
362.872254
 20
253.317176
 30
0.0
 11
364.0
 21
244.751092
 31
0.0
  0
LINE
  8
LC-003-003-----0
  6
CONTINUOUS
  5
53
 10
364.0
 20
244.751092
 30
0.0
 11
365.127746
 21
253.317176
 31
0.0
  0
LINE
  8
LC-003-003-----0
  6
CONTINUOUS
  5
54
 10
363.483116
 20
253.357214
 30
0.0
 11
364.0
 21
249.431092
 31
0.0
  0
LINE
  8
LC-003-003-----0
  6
CONTINUOUS
  5
55
 10
364.0
 20
249.431092
 30
0.0
 11
364.516884
 21
253.357214
 31
0.0
  0
LINE
  8
LC-003-003-----0
  6
CONTINUOUS
  5
56
 10
366.349471
 20
363.537494
 30
0.0
 11
364.0
 21
381.383501
 31
0.0
  0
LINE
  8
LC-003-003-----0
  6
CONTINUOUS
  5
57
 10
364.0
 20
381.383501
 30
0.0
 11
361.650529
 21
363.537494
 31
0.0
  0
LINE
  8
LC-003-003-----0
  6
CONTINUOUS
  5
58
 10
361.650529
 20
363.537494
 30
0.0
 11
366.349471
 21
363.537494
 31
0.0
  0
LINE
  8
LC-003-003-----0
  6
CONTINUOUS
  5
59
 10
365.738609
 20
363.497456
 30
0.0
 11
364.0
 21
376.703501
 31
0.0
  0
LINE
  8
LC-003-003-----0
  6
CONTINUOUS
  5
5A
 10
364.0
 20
376.703501
 30
0.0
 11
362.261391
 21
363.497456
 31
0.0
  0
LINE
  8
LC-003-003-----0
  6
CONTINUOUS
  5
5B
 10
365.127746
 20
363.457417
 30
0.0
 11
364.0
 21
372.023501
 31
0.0
  0
LINE
  8
LC-003-003-----0
  6
CONTINUOUS
  5
5C
 10
364.0
 20
372.023501
 30
0.0
 11
362.872254
 21
363.457417
 31
0.0
  0
LINE
  8
LC-003-003-----0
  6
CONTINUOUS
  5
5D
 10
364.516884
 20
363.417379
 30
0.0
 11
364.0
 21
367.343501
 31
0.0
  0
LINE
  8
LC-003-003-----0
  6
CONTINUOUS
  5
5E
 10
364.0
 20
367.343501
 30
0.0
 11
363.483116
 21
363.417379
 31
0.0
  0
TEXT
  8
LC-003-003-----0
  6
CONTINUOUS
 62
     6
  5
5F
 10
358.968001
 20
294.174668
 30
0.0
 40
18.0
  1
146
 50
90.0
 51
15.0
  7
LC-TXTSTYLE-150-400-0-0-D0
 72
     1
 11
358.968001
 21
311.182542
 31
0.0
  0
ENDBLK
  8
0
  5
60
  0
BLOCK
  8
0
  5
62
  2
*X3
 70
    65
 10
217.035659
 20
374.38591
 30
0.0
  3
*X3
  0
LINE
  8
LC-002-005-----0
  6
CONTINUOUS
  5
63
 10
268.603551
 20
376.083782
 30
0.0
 11
272.405679
 21
379.88591
 31
0.0
  0
LINE
  8
LC-002-005-----0
  6
CONTINUOUS
  5
64
 10
265.77513
 20
376.083788
 30
0.0
 11
271.052857
 21
381.361514
 31
0.0
  0
LINE
  8
LC-002-005-----0
  6
CONTINUOUS
  5
65
 10
262.946708
 20
376.083793
 30
0.0
 11
265.446703
 21
378.583788
 31
0.0
  0
LINE
  8
LC-002-005-----0
  6
CONTINUOUS
  5
66
 10
260.118286
 20
376.083798
 30
0.0
 11
262.618282
 21
378.583794
 31
0.0
  0
LINE
  8
LC-002-005-----0
  6
CONTINUOUS
  5
67
 10
257.289865
 20
376.083804
 30
0.0
 11
259.78986
 21
378.583799
 31
0.0
  0
LINE
  8
LC-002-005-----0
  6
CONTINUOUS
  5
68
 10
254.461443
 20
376.083809
 30
0.0
 11
256.961438
 21
378.583805
 31
0.0
  0
LINE
  8
LC-002-005-----0
  6
CONTINUOUS
  5
69
 10
251.633021
 20
376.083815
 30
0.0
 11
254.133016
 21
378.58381
 31
0.0
  0
LINE
  8
LC-002-005-----0
  6
CONTINUOUS
  5
6A
 10
249.035659
 20
376.314879
 30
0.0
 11
252.035659
 21
379.314879
 31
0.0
  0
LINE
  8
LC-002-005-----0
  6
CONTINUOUS
  5
6B
 10
249.035659
 20
379.143306
 30
0.0
 11
252.035659
 21
382.143306
 31
0.0
  0
LINE
  8
LC-002-005-----0
  6
CONTINUOUS
  5
6C
 10
249.035659
 20
381.971733
 30
0.0
 11
252.035659
 21
384.971733
 31
0.0
  0
LINE
  8
LC-002-005-----0
  6
CONTINUOUS
  5
6D
 10
249.035659
 20
384.800161
 30
0.0
 11
252.035659
 21
387.800161
 31
0.0
  0
LINE
  8
LC-002-005-----0
  6
CONTINUOUS
  5
6E
 10
249.035659
 20
387.628588
 30
0.0
 11
250.241082
 21
388.834011
 31
0.0
  0
LINE
  8
LC-002-005-----0
  6
CONTINUOUS
  5
6F
 10
246.412655
 20
387.834011
 30
0.0
 11
247.412655
 21
388.834011
 31
0.0
  0
LINE
  8
LC-002-005-----0
  6
CONTINUOUS
  5
70
 10
243.584228
 20
387.834011
 30
0.0
 11
244.584228
 21
388.834011
 31
0.0
  0
LINE
  8
LC-002-005-----0
  6
CONTINUOUS
  5
71
 10
240.755801
 20
387.834011
 30
0.0
 11
241.755801
 21
388.834011
 31
0.0
  0
LINE
  8
LC-002-005-----0
  6
CONTINUOUS
  5
72
 10
237.927373
 20
387.834011
 30
0.0
 11
238.927373
 21
388.834011
 31
0.0
  0
LINE
  8
LC-002-005-----0
  6
CONTINUOUS
  5
73
 10
235.098946
 20
387.834011
 30
0.0
 11
236.098946
 21
388.834011
 31
0.0
  0
LINE
  8
LC-002-005-----0
  6
CONTINUOUS
  5
74
 10
232.270519
 20
387.834011
 30
0.0
 11
233.270519
 21
388.834011
 31
0.0
  0
LINE
  8
LC-002-005-----0
  6
CONTINUOUS
  5
75
 10
229.442092
 20
387.834011
 30
0.0
 11
230.442092
 21
388.834011
 31
0.0
  0
LINE
  8
LC-002-005-----0
  6
CONTINUOUS
  5
76
 10
226.613665
 20
387.834011
 30
0.0
 11
227.613665
 21
388.834011
 31
0.0
  0
LINE
  8
LC-002-005-----0
  6
CONTINUOUS
  5
77
 10
223.785238
 20
387.834011
 30
0.0
 11
224.785238
 21
388.834011
 31
0.0
  0
LINE
  8
LC-002-005-----0
  6
CONTINUOUS
  5
78
 10
220.956811
 20
387.834011
 30
0.0
 11
221.956811
 21
388.834011
 31
0.0
  0
LINE
  8
LC-002-005-----0
  6
CONTINUOUS
  5
79
 10
218.128384
 20
387.834011
 30
0.0
 11
219.128384
 21
388.834011
 31
0.0
  0
ENDBLK
  8
0
  5
7A
  0
BLOCK
  8
0
  5
7C
  2
*X4
 70
    65
 10
217.035659
 20
235.391092
 30
0.0
  3
*X4
  0
LINE
  8
LC-002-005-----0
  6
CONTINUOUS
  5
7D
 10
269.770156
 20
235.82903
 30
0.0
 11
272.332218
 21
238.391092
 31
0.0
  0
LINE
  8
LC-002-005-----0
  6
CONTINUOUS
  5
7E
 10
268.370067
 20
237.257369
 30
0.0
 11
270.965378
 21
239.852679
 31
0.0
  0
LINE
  8
LC-002-005-----0
  6
CONTINUOUS
  5
7F
 10
267.965428
 20
239.681157
 30
0.0
 11
270.965378
 21
242.681106
 31
0.0
  0
LINE
  8
LC-002-005-----0
  6
CONTINUOUS
  5
80
 10
267.965609
 20
242.509765
 30
0.0
 11
270.965378
 21
245.509534
 31
0.0
  0
LINE
  8
LC-002-005-----0
  6
CONTINUOUS
  5
81
 10
267.96579
 20
245.338373
 30
0.0
 11
270.965378
 21
248.337961
 31
0.0
  0
LINE
  8
LC-002-005-----0
  6
CONTINUOUS
  5
82
 10
267.965971
 20
248.166981
 30
0.0
 11
270.965378
 21
251.166388
 31
0.0
  0
LINE
  8
LC-002-005-----0
  6
CONTINUOUS
  5
83
 10
267.966152
 20
250.995589
 30
0.0
 11
270.965378
 21
253.994815
 31
0.0
  0
LINE
  8
LC-002-005-----0
  6
CONTINUOUS
  5
84
 10
267.966332
 20
253.824197
 30
0.0
 11
270.965378
 21
256.823242
 31
0.0
  0
LINE
  8
LC-002-005-----0
  6
CONTINUOUS
  5
85
 10
272.64083
 20
258.498695
 30
0.0
 11
272.965378
 21
258.823242
 31
0.0
  0
LINE
  8
LC-002-005-----0
  6
CONTINUOUS
  5
86
 10
267.966513
 20
256.652805
 30
0.0
 11
271.38496
 21
260.071251
 31
0.0
  0
LINE
  8
LC-002-005-----0
  6
CONTINUOUS
  5
87
 10
267.966694
 20
259.481413
 30
0.0
 11
270.965378
 21
262.480096
 31
0.0
  0
LINE
  8
LC-002-005-----0
  6
CONTINUOUS
  5
88
 10
267.966875
 20
262.310021
 30
0.0
 11
270.965378
 21
265.308523
 31
0.0
  0
LINE
  8
LC-002-005-----0
  6
CONTINUOUS
  5
89
 10
267.967056
 20
265.138629
 30
0.0
 11
270.965378
 21
268.136951
 31
0.0
  0
LINE
  8
LC-002-005-----0
  6
CONTINUOUS
  5
8A
 10
267.967237
 20
267.967237
 30
0.0
 11
270.965378
 21
270.965378
 31
0.0
  0
LINE
  8
LC-002-005-----0
  6
CONTINUOUS
  5
8B
 10
267.967418
 20
270.795845
 30
0.0
 11
270.965378
 21
273.793805
 31
0.0
  0
LINE
  8
LC-002-005-----0
  6
CONTINUOUS
  5
8C
 10
267.967598
 20
273.624453
 30
0.0
 11
270.965378
 21
276.622232
 31
0.0
  0
LINE
  8
LC-002-005-----0
  6
CONTINUOUS
  5
8D
 10
267.967779
 20
276.453061
 30
0.0
 11
270.965378
 21
279.450659
 31
0.0
  0
LINE
  8
LC-002-005-----0
  6
CONTINUOUS
  5
8E
 10
267.96796
 20
279.281669
 30
0.0
 11
270.965378
 21
282.279086
 31
0.0
  0
LINE
  8
LC-002-005-----0
  6
CONTINUOUS
  5
8F
 10
267.968141
 20
282.110277
 30
0.0
 11
270.965378
 21
285.107513
 31
0.0
  0
LINE
  8
LC-002-005-----0
  6
CONTINUOUS
  5
90
 10
267.968322
 20
284.938885
 30
0.0
 11
270.965378
 21
287.93594
 31
0.0
  0
LINE
  8
LC-002-005-----0
  6
CONTINUOUS
  5
91
 10
267.968503
 20
287.767493
 30
0.0
 11
270.965378
 21
290.764368
 31
0.0
  0
LINE
  8
LC-002-005-----0
  6
CONTINUOUS
  5
92
 10
267.968684
 20
290.596101
 30
0.0
 11
270.965378
 21
293.592795
 31
0.0
  0
LINE
  8
LC-002-005-----0
  6
CONTINUOUS
  5
93
 10
267.968864
 20
293.424709
 30
0.0
 11
270.965378
 21
296.421222
 31
0.0
  0
LINE
  8
LC-002-005-----0
  6
CONTINUOUS
  5
94
 10
267.969045
 20
296.253317
 30
0.0
 11
270.965378
 21
299.249649
 31
0.0
  0
LINE
  8
LC-002-005-----0
  6
CONTINUOUS
  5
95
 10
267.969226
 20
299.081925
 30
0.0
 11
270.965378
 21
302.078076
 31
0.0
  0
LINE
  8
LC-002-005-----0
  6
CONTINUOUS
  5
96
 10
267.969407
 20
301.910533
 30
0.0
 11
270.965378
 21
304.906503
 31
0.0
  0
LINE
  8
LC-002-005-----0
  6
CONTINUOUS
  5
97
 10
267.969588
 20
304.739141
 30
0.0
 11
270.965378
 21
307.73493
 31
0.0
  0
LINE
  8
LC-002-005-----0
  6
CONTINUOUS
  5
98
 10
267.969769
 20
307.567749
 30
0.0
 11
270.965378
 21
310.563357
 31
0.0
  0
LINE
  8
LC-002-005-----0
  6
CONTINUOUS
  5
99
 10
267.96995
 20
310.396357
 30
0.0
 11
270.965378
 21
313.391785
 31
0.0
  0
LINE
  8
LC-002-005-----0
  6
CONTINUOUS
  5
9A
 10
267.970131
 20
313.224965
 30
0.0
 11
270.965378
 21
316.220212
 31
0.0
  0
LINE
  8
LC-002-005-----0
  6
CONTINUOUS
  5
9B
 10
267.970311
 20
316.053572
 30
0.0
 11
270.965378
 21
319.048639
 31
0.0
  0
LINE
  8
LC-002-005-----0
  6
CONTINUOUS
  5
9C
 10
267.970492
 20
318.88218
 30
0.0
 11
270.965378
 21
321.877066
 31
0.0
  0
LINE
  8
LC-002-005-----0
  6
CONTINUOUS
  5
9D
 10
267.970673
 20
321.710788
 30
0.0
 11
270.965378
 21
324.705493
 31
0.0
  0
LINE
  8
LC-002-005-----0
  6
CONTINUOUS
  5
9E
 10
267.970854
 20
324.539396
 30
0.0
 11
270.51562
 21
327.084163
 31
0.0
  0
LINE
  8
LC-002-005-----0
  6
CONTINUOUS
  5
9F
 10
265.187203
 20
324.584173
 30
0.0
 11
267.687198
 21
327.084168
 31
0.0
  0
LINE
  8
LC-002-005-----0
  6
CONTINUOUS
  5
A0
 10
251.608614
 20
313.834011
 30
0.0
 11
252.035659
 21
314.261055
 31
0.0
  0
LINE
  8
LC-002-005-----0
  6
CONTINUOUS
  5
A1
 10
262.358781
 20
324.584178
 30
0.0
 11
264.858777
 21
327.084173
 31
0.0
  0
LINE
  8
LC-002-005-----0
  6
CONTINUOUS
  5
A2
 10
248.780187
 20
313.834011
 30
0.0
 11
252.035659
 21
317.089482
 31
0.0
  0
LINE
  8
LC-002-005-----0
  6
CONTINUOUS
  5
A3
 10
259.53036
 20
324.584184
 30
0.0
 11
262.030355
 21
327.084179
 31
0.0
  0
LINE
  8
LC-002-005-----0
  6
CONTINUOUS
  5
A4
 10
245.95176
 20
313.834011
 30
0.0
 11
246.95176
 21
314.834011
 31
0.0
  0
LINE
  8
LC-002-005-----0
  6
CONTINUOUS
  5
A5
 10
249.035635
 20
316.917886
 30
0.0
 11
252.035659
 21
319.91791
 31
0.0
  0
LINE
  8
LC-002-005-----0
  6
CONTINUOUS
  5
A6
 10
256.701938
 20
324.584189
 30
0.0
 11
259.201933
 21
327.084184
 31
0.0
  0
LINE
  8
LC-002-005-----0
  6
CONTINUOUS
  5
A7
 10
243.123333
 20
313.834011
 30
0.0
 11
244.123333
 21
314.834011
 31
0.0
  0
LINE
  8
LC-002-005-----0
  6
CONTINUOUS
  5
A8
 10
249.035603
 20
319.746281
 30
0.0
 11
252.035659
 21
322.746337
 31
0.0
  0
LINE
  8
LC-002-005-----0
  6
CONTINUOUS
  5
A9
 10
253.873516
 20
324.584195
 30
0.0
 11
256.373512
 21
327.08419
 31
0.0
  0
LINE
  8
LC-002-005-----0
  6
CONTINUOUS
  5
AA
 10
240.294906
 20
313.834011
 30
0.0
 11
241.294906
 21
314.834011
 31
0.0
  0
LINE
  8
LC-002-005-----0
  6
CONTINUOUS
  5
AB
 10
249.03557
 20
322.574676
 30
0.0
 11
253.54509
 21
327.084195
 31
0.0
  0
LINE
  8
LC-002-005-----0
  6
CONTINUOUS
  5
AC
 10
237.466479
 20
313.834011
 30
0.0
 11
238.466479
 21
314.834011
 31
0.0
  0
LINE
  8
LC-002-005-----0
  6
CONTINUOUS
  5
AD
 10
249.035564
 20
325.403097
 30
0.0
 11
250.716668
 21
327.084201
 31
0.0
  0
LINE
  8
LC-002-005-----0
  6
CONTINUOUS
  5
AE
 10
234.638052
 20
313.834011
 30
0.0
 11
235.638052
 21
314.834011
 31
0.0
  0
LINE
  8
LC-002-005-----0
  6
CONTINUOUS
  5
AF
 10
231.809624
 20
313.834011
 30
0.0
 11
232.809624
 21
314.834011
 31
0.0
  0
LINE
  8
LC-002-005-----0
  6
CONTINUOUS
  5
B0
 10
228.981197
 20
313.834011
 30
0.0
 11
229.981197
 21
314.834011
 31
0.0
  0
LINE
  8
LC-002-005-----0
  6
CONTINUOUS
  5
B1
 10
226.15277
 20
313.834011
 30
0.0
 11
227.15277
 21
314.834011
 31
0.0
  0
LINE
  8
LC-002-005-----0
  6
CONTINUOUS
  5
B2
 10
223.324343
 20
313.834011
 30
0.0
 11
224.324343
 21
314.834011
 31
0.0
  0
LINE
  8
LC-002-005-----0
  6
CONTINUOUS
  5
B3
 10
220.495916
 20
313.834011
 30
0.0
 11
221.495916
 21
314.834011
 31
0.0
  0
LINE
  8
LC-002-005-----0
  6
CONTINUOUS
  5
B4
 10
217.667489
 20
313.834011
 30
0.0
 11
218.667489
 21
314.834011
 31
0.0
  0
ENDBLK
  8
0
  5
B5
  0
BLOCK
  8
0
  5
B7
  2
*X5
 70
    65
 10
517.131379
 20
399.334111
 30
0.0
  3
*X5
  0
LINE
  8
LC-002-005-----0
  6
CONTINUOUS
  5
B8
 10
557.726665
 20
399.334111
 30
0.0
 11
560.131379
 21
401.738822
 31
0.0
  0
LINE
  8
LC-002-005-----0
  6
CONTINUOUS
  5
B9
 10
552.069807
 20
399.334111
 30
0.0
 11
556.069812
 21
403.334111
 31
0.0
  0
LINE
  8
LC-002-005-----0
  6
CONTINUOUS
  5
BA
 10
546.412949
 20
399.334111
 30
0.0
 11
550.412954
 21
403.334111
 31
0.0
  0
LINE
  8
LC-002-005-----0
  6
CONTINUOUS
  5
BB
 10
540.756091
 20
399.334111
 30
0.0
 11
544.756096
 21
403.334111
 31
0.0
  0
LINE
  8
LC-002-005-----0
  6
CONTINUOUS
  5
BC
 10
535.099233
 20
399.334111
 30
0.0
 11
539.099238
 21
403.334111
 31
0.0
  0
LINE
  8
LC-002-005-----0
  6
CONTINUOUS
  5
BD
 10
529.442375
 20
399.334111
 30
0.0
 11
533.44238
 21
403.334111
 31
0.0
  0
LINE
  8
LC-002-005-----0
  6
CONTINUOUS
  5
BE
 10
523.785517
 20
399.334111
 30
0.0
 11
527.785522
 21
403.334111
 31
0.0
  0
LINE
  8
LC-002-005-----0
  6
CONTINUOUS
  5
BF
 10
518.128659
 20
399.334111
 30
0.0
 11
522.128664
 21
403.334111
 31
0.0
  0
ENDBLK
  8
0
  5
C0
  0
BLOCK
  8
0
  5
C2
  2
*X6
 70
    65
 10
517.131379
 20
470.336018
 30
0.0
  3
*X6
  0
LINE
  8
LC-002-005-----0
  6
CONTINUOUS
  5
C3
 10
555.189512
 20
470.336018
 30
0.0
 11
559.189518
 21
474.336018
 31
0.0
  0
LINE
  8
LC-002-005-----0
  6
CONTINUOUS
  5
C4
 10
549.532654
 20
470.336018
 30
0.0
 11
553.53266
 21
474.336018
 31
0.0
  0
LINE
  8
LC-002-005-----0
  6
CONTINUOUS
  5
C5
 10
543.875796
 20
470.336018
 30
0.0
 11
547.875802
 21
474.336018
 31
0.0
  0
LINE
  8
LC-002-005-----0
  6
CONTINUOUS
  5
C6
 10
538.218938
 20
470.336018
 30
0.0
 11
542.218944
 21
474.336018
 31
0.0
  0
LINE
  8
LC-002-005-----0
  6
CONTINUOUS
  5
C7
 10
532.56208
 20
470.336018
 30
0.0
 11
536.562086
 21
474.336018
 31
0.0
  0
LINE
  8
LC-002-005-----0
  6
CONTINUOUS
  5
C8
 10
526.905222
 20
470.336018
 30
0.0
 11
530.905228
 21
474.336018
 31
0.0
  0
LINE
  8
LC-002-005-----0
  6
CONTINUOUS
  5
C9
 10
521.248364
 20
470.336018
 30
0.0
 11
525.24837
 21
474.336018
 31
0.0
  0
LINE
  8
LC-002-005-----0
  6
CONTINUOUS
  5
CA
 10
517.131379
 20
471.875889
 30
0.0
 11
519.591512
 21
474.336018
 31
0.0
  0
ENDBLK
  8
0
  5
CB
  0
BLOCK
  8
0
  5
CD
  2
*X7
 70
    65
 10
517.131379
 20
470.336018
 30
0.0
  3
*X7
  0
LINE
  8
LC-002-005-----0
  6
CONTINUOUS
  5
CE
 10
517.131379
 20
472.818114
 30
0.0
 11
519.613475
 21
470.336018
 31
0.0
  0
LINE
  8
LC-002-005-----0
  6
CONTINUOUS
  5
CF
 10
521.27033
 20
474.336018
 30
0.0
 11
525.27033
 21
470.336018
 31
0.0
  0
LINE
  8
LC-002-005-----0
  6
CONTINUOUS
  5
D0
 10
526.927184
 20
474.336018
 30
0.0
 11
530.927184
 21
470.336018
 31
0.0
  0
LINE
  8
LC-002-005-----0
  6
CONTINUOUS
  5
D1
 10
532.584038
 20
474.336018
 30
0.0
 11
536.584038
 21
470.336018
 31
0.0
  0
LINE
  8
LC-002-005-----0
  6
CONTINUOUS
  5
D2
 10
538.240892
 20
474.336018
 30
0.0
 11
542.240892
 21
470.336018
 31
0.0
  0
LINE
  8
LC-002-005-----0
  6
CONTINUOUS
  5
D3
 10
543.897747
 20
474.336018
 30
0.0
 11
547.897747
 21
470.336018
 31
0.0
  0
LINE
  8
LC-002-005-----0
  6
CONTINUOUS
  5
D4
 10
549.554601
 20
474.336018
 30
0.0
 11
553.554601
 21
470.336018
 31
0.0
  0
LINE
  8
LC-002-005-----0
  6
CONTINUOUS
  5
D5
 10
555.211455
 20
474.336018
 30
0.0
 11
559.211455
 21
470.336018
 31
0.0
  0
ENDBLK
  8
0
  5
D6
  0
BLOCK
  8
0
  5
D8
  2
*X8
 70
    65
 10
517.131379
 20
399.334111
 30
0.0
  3
*X8
  0
LINE
  8
LC-002-005-----0
  6
CONTINUOUS
  5
D9
 10
518.733208
 20
403.334111
 30
0.0
 11
522.733213
 21
399.334111
 31
0.0
  0
LINE
  8
LC-002-005-----0
  6
CONTINUOUS
  5
DA
 10
524.390066
 20
403.334111
 30
0.0
 11
528.390071
 21
399.334111
 31
0.0
  0
LINE
  8
LC-002-005-----0
  6
CONTINUOUS
  5
DB
 10
530.046924
 20
403.334111
 30
0.0
 11
534.046929
 21
399.334111
 31
0.0
  0
LINE
  8
LC-002-005-----0
  6
CONTINUOUS
  5
DC
 10
535.703782
 20
403.334111
 30
0.0
 11
539.703787
 21
399.334111
 31
0.0
  0
LINE
  8
LC-002-005-----0
  6
CONTINUOUS
  5
DD
 10
541.36064
 20
403.334111
 30
0.0
 11
545.360645
 21
399.334111
 31
0.0
  0
LINE
  8
LC-002-005-----0
  6
CONTINUOUS
  5
DE
 10
547.017498
 20
403.334111
 30
0.0
 11
551.017503
 21
399.334111
 31
0.0
  0
LINE
  8
LC-002-005-----0
  6
CONTINUOUS
  5
DF
 10
552.674356
 20
403.334111
 30
0.0
 11
556.674361
 21
399.334111
 31
0.0
  0
LINE
  8
LC-002-005-----0
  6
CONTINUOUS
  5
E0
 10
558.331214
 20
403.334111
 30
0.0
 11
560.131379
 21
401.533948
 31
0.0
  0
ENDBLK
  8
0
  5
E1
  0
BLOCK
  8
0
  5
E3
  2
*X9
 70
    65
 10
272.965378
 20
258.034973
 30
0.0
  3
*X9
  0
LINE
  8
LC-002-005-----0
  6
CONTINUOUS
  5
E4
 10
311.775088
 20
258.034973
 30
0.0
 11
312.968396
 21
259.228281
 31
0.0
  0
LINE
  8
LC-002-005-----0
  6
CONTINUOUS
  5
E5
 10
308.946661
 20
258.034973
 30
0.0
 11
311.446661
 21
260.534973
 31
0.0
  0
LINE
  8
LC-002-005-----0
  6
CONTINUOUS
  5
E6
 10
306.118234
 20
258.034973
 30
0.0
 11
308.618234
 21
260.534973
 31
0.0
  0
LINE
  8
LC-002-005-----0
  6
CONTINUOUS
  5
E7
 10
303.289807
 20
258.034973
 30
0.0
 11
305.789807
 21
260.534973
 31
0.0
  0
LINE
  8
LC-002-005-----0
  6
CONTINUOUS
  5
E8
 10
300.46138
 20
258.034973
 30
0.0
 11
302.96138
 21
260.534973
 31
0.0
  0
LINE
  8
LC-002-005-----0
  6
CONTINUOUS
  5
E9
 10
297.632953
 20
258.034973
 30
0.0
 11
300.132953
 21
260.534973
 31
0.0
  0
LINE
  8
LC-002-005-----0
  6
CONTINUOUS
  5
EA
 10
294.804526
 20
258.034973
 30
0.0
 11
297.304526
 21
260.534973
 31
0.0
  0
LINE
  8
LC-002-005-----0
  6
CONTINUOUS
  5
EB
 10
291.976099
 20
258.034973
 30
0.0
 11
294.476099
 21
260.534973
 31
0.0
  0
LINE
  8
LC-002-005-----0
  6
CONTINUOUS
  5
EC
 10
289.147671
 20
258.034973
 30
0.0
 11
291.647671
 21
260.534973
 31
0.0
  0
LINE
  8
LC-002-005-----0
  6
CONTINUOUS
  5
ED
 10
286.319244
 20
258.034973
 30
0.0
 11
288.819244
 21
260.534973
 31
0.0
  0
LINE
  8
LC-002-005-----0
  6
CONTINUOUS
  5
EE
 10
283.490817
 20
258.034973
 30
0.0
 11
285.990817
 21
260.534973
 31
0.0
  0
LINE
  8
LC-002-005-----0
  6
CONTINUOUS
  5
EF
 10
280.66239
 20
258.034973
 30
0.0
 11
283.16239
 21
260.534973
 31
0.0
  0
LINE
  8
LC-002-005-----0
  6
CONTINUOUS
  5
F0
 10
277.833963
 20
258.034973
 30
0.0
 11
280.333963
 21
260.534973
 31
0.0
  0
LINE
  8
LC-002-005-----0
  6
CONTINUOUS
  5
F1
 10
275.005536
 20
258.034973
 30
0.0
 11
277.505536
 21
260.534973
 31
0.0
  0
LINE
  8
LC-002-005-----0
  6
CONTINUOUS
  5
F2
 10
272.965378
 20
258.823242
 30
0.0
 11
274.677109
 21
260.534973
 31
0.0
  0
ENDBLK
  8
0
  5
F3
  0
BLOCK
  8
0
  5
F5
  2
*X10
 70
    65
 10
206.934585
 20
234.971476
 30
0.0
  3
*X10
  0
LINE
  8
LC-002-005-----0
  6
CONTINUOUS
  5
F6
 10
213.794334
 20
304.304002
 30
0.0
 11
214.942855
 21
305.452523
 31
0.0
  0
LINE
  8
LC-002-005-----0
  6
CONTINUOUS
  5
F7
 10
212.140068
 20
305.478163
 30
0.0
 11
213.20073
 21
306.538825
 31
0.0
  0
LINE
  8
LC-002-005-----0
  6
CONTINUOUS
  5
F8
 10
210.971085
 20
307.137607
 30
0.0
 11
212.121695
 21
308.288217
 31
0.0
  0
LINE
  8
LC-002-005-----0
  6
CONTINUOUS
  5
F9
 10
210.289891
 20
309.284841
 30
0.0
 11
211.519227
 21
310.514176
 31
0.0
  0
LINE
  8
LC-002-005-----0
  6
CONTINUOUS
  5
FA
 10
209.718141
 20
311.541517
 30
0.0
 11
210.965005
 21
312.788381
 31
0.0
  0
LINE
  8
LC-002-005-----0
  6
CONTINUOUS
  5
FB
 10
209.191964
 20
313.843767
 30
0.0
 11
210.45786
 21
315.109664
 31
0.0
  0
LINE
  8
LC-002-005-----0
  6
CONTINUOUS
  5
FC
 10
208.713437
 20
316.193668
 30
0.0
 11
210.000032
 21
317.480263
 31
0.0
  0
LINE
  8
LC-002-005-----0
  6
CONTINUOUS
  5
FD
 10
208.284885
 20
318.593543
 30
0.0
 11
209.594039
 21
319.902697
 31
0.0
  0
LINE
  8
LC-002-005-----0
  6
CONTINUOUS
  5
FE
 10
207.908924
 20
321.046009
 30
0.0
 11
209.242723
 21
322.379808
 31
0.0
  0
LINE
  8
LC-002-005-----0
  6
CONTINUOUS
  5
FF
 10
207.588514
 20
323.554026
 30
0.0
 11
208.949312
 21
324.914824
 31
0.0
  0
LINE
  8
LC-002-005-----0
  6
CONTINUOUS
  5
100
 10
207.327014
 20
326.120953
 30
0.0
 11
208.71749
 21
327.511429
 31
0.0
  0
LINE
  8
LC-002-005-----0
  6
CONTINUOUS
  5
101
 10
207.128267
 20
328.750633
 30
0.0
 11
208.551492
 21
330.173859
 31
0.0
  0
LINE
  8
LC-002-005-----0
  6
CONTINUOUS
  5
102
 10
206.996696
 20
331.44749
 30
0.0
 11
208.456222
 21
332.907015
 31
0.0
  0
LINE
  8
LC-002-005-----0
  6
CONTINUOUS
  5
103
 10
209.383218
 20
333.834011
 30
0.0
 11
210.883218
 21
335.334011
 31
0.0
  0
LINE
  8
LC-002-005-----0
  6
CONTINUOUS
  5
104
 10
206.937433
 20
334.216654
 30
0.0
 11
208.05479
 21
335.334011
 31
0.0
  0
ENDBLK
  8
0
  5
105
  0
BLOCK
  8
0
  5
107
  2
*X11
 70
    65
 10
272.968396
 20
173.583175
 30
0.0
  3
*X11
  0
LINE
  8
LC-002-005-----0
  6
CONTINUOUS
  5
108
 10
318.018396
 20
173.768613
 30
0.0
 11
319.537233
 21
175.28745
 31
0.0
  0
LINE
  8
LC-002-005-----0
  6
CONTINUOUS
  5
109
 10
318.018396
 20
176.59704
 30
0.0
 11
320.018396
 21
178.59704
 31
0.0
  0
LINE
  8
LC-002-005-----0
  6
CONTINUOUS
  5
10A
 10
318.018396
 20
179.425467
 30
0.0
 11
320.018396
 21
181.425467
 31
0.0
  0
LINE
  8
LC-002-005-----0
  6
CONTINUOUS
  5
10B
 10
318.018396
 20
182.253894
 30
0.0
 11
320.018396
 21
184.253894
 31
0.0
  0
LINE
  8
LC-002-005-----0
  6
CONTINUOUS
  5
10C
 10
318.018396
 20
185.082322
 30
0.0
 11
320.018396
 21
187.082322
 31
0.0
  0
LINE
  8
LC-002-005-----0
  6
CONTINUOUS
  5
10D
 10
318.018396
 20
187.910749
 30
0.0
 11
320.018396
 21
189.910749
 31
0.0
  0
LINE
  8
LC-002-005-----0
  6
CONTINUOUS
  5
10E
 10
318.018396
 20
190.739176
 30
0.0
 11
320.018396
 21
192.739176
 31
0.0
  0
LINE
  8
LC-002-005-----0
  6
CONTINUOUS
  5
10F
 10
318.018396
 20
193.567603
 30
0.0
 11
320.018396
 21
195.567603
 31
0.0
  0
LINE
  8
LC-002-005-----0
  6
CONTINUOUS
  5
110
 10
318.018396
 20
196.39603
 30
0.0
 11
320.018396
 21
198.39603
 31
0.0
  0
LINE
  8
LC-002-005-----0
  6
CONTINUOUS
  5
111
 10
318.018396
 20
199.224457
 30
0.0
 11
320.018396
 21
201.224457
 31
0.0
  0
LINE
  8
LC-002-005-----0
  6
CONTINUOUS
  5
112
 10
318.018396
 20
202.052884
 30
0.0
 11
320.018396
 21
204.052884
 31
0.0
  0
LINE
  8
LC-002-005-----0
  6
CONTINUOUS
  5
113
 10
318.018396
 20
204.881311
 30
0.0
 11
320.018396
 21
206.881311
 31
0.0
  0
LINE
  8
LC-002-005-----0
  6
CONTINUOUS
  5
114
 10
318.018396
 20
207.709739
 30
0.0
 11
320.018396
 21
209.709739
 31
0.0
  0
LINE
  8
LC-002-005-----0
  6
CONTINUOUS
  5
115
 10
318.018396
 20
210.538166
 30
0.0
 11
320.018396
 21
212.538166
 31
0.0
  0
LINE
  8
LC-002-005-----0
  6
CONTINUOUS
  5
116
 10
318.018396
 20
213.366593
 30
0.0
 11
320.018396
 21
215.366593
 31
0.0
  0
LINE
  8
LC-002-005-----0
  6
CONTINUOUS
  5
117
 10
318.018396
 20
216.19502
 30
0.0
 11
320.018396
 21
218.19502
 31
0.0
  0
LINE
  8
LC-002-005-----0
  6
CONTINUOUS
  5
118
 10
318.018396
 20
219.023447
 30
0.0
 11
320.018396
 21
221.023447
 31
0.0
  0
LINE
  8
LC-002-005-----0
  6
CONTINUOUS
  5
119
 10
318.018396
 20
221.851874
 30
0.0
 11
320.018396
 21
223.851874
 31
0.0
  0
LINE
  8
LC-002-005-----0
  6
CONTINUOUS
  5
11A
 10
318.018396
 20
224.680301
 30
0.0
 11
319.469833
 21
226.131738
 31
0.0
  0
LINE
  8
LC-002-005-----0
  6
CONTINUOUS
  5
11B
 10
316.641406
 20
226.131738
 30
0.0
 11
318.05562
 21
227.545952
 31
0.0
  0
LINE
  8
LC-002-005-----0
  6
CONTINUOUS
  5
11C
 10
315.227193
 20
227.545952
 30
0.0
 11
316.641406
 21
228.960165
 31
0.0
  0
LINE
  8
LC-002-005-----0
  6
CONTINUOUS
  5
11D
 10
313.812979
 20
228.960165
 30
0.0
 11
315.227193
 21
230.374379
 31
0.0
  0
LINE
  8
LC-002-005-----0
  6
CONTINUOUS
  5
11E
 10
312.968396
 20
230.94401
 30
0.0
 11
314.968396
 21
232.94401
 31
0.0
  0
LINE
  8
LC-002-005-----0
  6
CONTINUOUS
  5
11F
 10
312.968396
 20
233.772437
 30
0.0
 11
315.968396
 21
236.772437
 31
0.0
  0
LINE
  8
LC-002-005-----0
  6
CONTINUOUS
  5
120
 10
312.968396
 20
236.600864
 30
0.0
 11
315.968396
 21
239.600864
 31
0.0
  0
LINE
  8
LC-002-005-----0
  6
CONTINUOUS
  5
121
 10
312.968396
 20
239.429291
 30
0.0
 11
315.968396
 21
242.429291
 31
0.0
  0
LINE
  8
LC-002-005-----0
  6
CONTINUOUS
  5
122
 10
312.968396
 20
242.257718
 30
0.0
 11
315.968396
 21
245.257718
 31
0.0
  0
LINE
  8
LC-002-005-----0
  6
CONTINUOUS
  5
123
 10
312.968396
 20
245.086145
 30
0.0
 11
315.968396
 21
248.086145
 31
0.0
  0
LINE
  8
LC-002-005-----0
  6
CONTINUOUS
  5
124
 10
312.968396
 20
247.914573
 30
0.0
 11
315.968396
 21
250.914573
 31
0.0
  0
LINE
  8
LC-002-005-----0
  6
CONTINUOUS
  5
125
 10
312.968396
 20
250.743
 30
0.0
 11
315.968396
 21
253.743
 31
0.0
  0
LINE
  8
LC-002-005-----0
  6
CONTINUOUS
  5
126
 10
312.968396
 20
253.571427
 30
0.0
 11
315.968396
 21
256.571427
 31
0.0
  0
LINE
  8
LC-002-005-----0
  6
CONTINUOUS
  5
127
 10
312.968396
 20
256.399854
 30
0.0
 11
315.968396
 21
259.399854
 31
0.0
  0
LINE
  8
LC-002-005-----0
  6
CONTINUOUS
  5
128
 10
312.968396
 20
259.228281
 30
0.0
 11
315.968396
 21
262.228281
 31
0.0
  0
LINE
  8
LC-002-005-----0
  6
CONTINUOUS
  5
129
 10
312.968396
 20
262.056708
 30
0.0
 11
315.968396
 21
265.056708
 31
0.0
  0
LINE
  8
LC-002-005-----0
  6
CONTINUOUS
  5
12A
 10
312.968396
 20
264.885135
 30
0.0
 11
315.968396
 21
267.885135
 31
0.0
  0
LINE
  8
LC-002-005-----0
  6
CONTINUOUS
  5
12B
 10
312.968396
 20
267.713562
 30
0.0
 11
315.968396
 21
270.713562
 31
0.0
  0
LINE
  8
LC-002-005-----0
  6
CONTINUOUS
  5
12C
 10
312.968396
 20
270.54199
 30
0.0
 11
315.968396
 21
273.54199
 31
0.0
  0
LINE
  8
LC-002-005-----0
  6
CONTINUOUS
  5
12D
 10
312.968396
 20
273.370417
 30
0.0
 11
315.968396
 21
276.370417
 31
0.0
  0
LINE
  8
LC-002-005-----0
  6
CONTINUOUS
  5
12E
 10
312.968396
 20
276.198844
 30
0.0
 11
315.968396
 21
279.198844
 31
0.0
  0
LINE
  8
LC-002-005-----0
  6
CONTINUOUS
  5
12F
 10
312.968396
 20
279.027271
 30
0.0
 11
315.968396
 21
282.027271
 31
0.0
  0
LINE
  8
LC-002-005-----0
  6
CONTINUOUS
  5
130
 10
312.968396
 20
281.855698
 30
0.0
 11
315.968396
 21
284.855698
 31
0.0
  0
LINE
  8
LC-002-005-----0
  6
CONTINUOUS
  5
131
 10
312.968396
 20
284.684125
 30
0.0
 11
315.968396
 21
287.684125
 31
0.0
  0
LINE
  8
LC-002-005-----0
  6
CONTINUOUS
  5
132
 10
312.968396
 20
287.512552
 30
0.0
 11
315.968396
 21
290.512552
 31
0.0
  0
LINE
  8
LC-002-005-----0
  6
CONTINUOUS
  5
133
 10
312.968396
 20
290.340979
 30
0.0
 11
315.968396
 21
293.340979
 31
0.0
  0
LINE
  8
LC-002-005-----0
  6
CONTINUOUS
  5
134
 10
312.968396
 20
293.169407
 30
0.0
 11
315.968396
 21
296.169407
 31
0.0
  0
LINE
  8
LC-002-005-----0
  6
CONTINUOUS
  5
135
 10
312.968396
 20
295.997834
 30
0.0
 11
315.968396
 21
298.997834
 31
0.0
  0
LINE
  8
LC-002-005-----0
  6
CONTINUOUS
  5
136
 10
312.968396
 20
298.826261
 30
0.0
 11
315.968396
 21
301.826261
 31
0.0
  0
LINE
  8
LC-002-005-----0
  6
CONTINUOUS
  5
137
 10
312.968396
 20
301.654688
 30
0.0
 11
315.968396
 21
304.654688
 31
0.0
  0
LINE
  8
LC-002-005-----0
  6
CONTINUOUS
  5
138
 10
312.968396
 20
304.483115
 30
0.0
 11
315.968396
 21
307.483115
 31
0.0
  0
LINE
  8
LC-002-005-----0
  6
CONTINUOUS
  5
139
 10
312.968396
 20
307.311542
 30
0.0
 11
315.968396
 21
310.311542
 31
0.0
  0
LINE
  8
LC-002-005-----0
  6
CONTINUOUS
  5
13A
 10
312.968396
 20
310.139969
 30
0.0
 11
315.968396
 21
313.139969
 31
0.0
  0
LINE
  8
LC-002-005-----0
  6
CONTINUOUS
  5
13B
 10
312.968396
 20
312.968396
 30
0.0
 11
315.968396
 21
315.968396
 31
0.0
  0
LINE
  8
LC-002-005-----0
  6
CONTINUOUS
  5
13C
 10
312.968396
 20
315.796824
 30
0.0
 11
315.968396
 21
318.796824
 31
0.0
  0
LINE
  8
LC-002-005-----0
  6
CONTINUOUS
  5
13D
 10
312.968396
 20
318.625251
 30
0.0
 11
315.968396
 21
321.625251
 31
0.0
  0
LINE
  8
LC-002-005-----0
  6
CONTINUOUS
  5
13E
 10
312.968396
 20
321.453678
 30
0.0
 11
315.968396
 21
324.453678
 31
0.0
  0
LINE
  8
LC-002-005-----0
  6
CONTINUOUS
  5
13F
 10
312.968396
 20
324.282105
 30
0.0
 11
315.968396
 21
327.282105
 31
0.0
  0
LINE
  8
LC-002-005-----0
  6
CONTINUOUS
  5
140
 10
312.968396
 20
327.110532
 30
0.0
 11
315.968396
 21
330.110532
 31
0.0
  0
LINE
  8
LC-002-005-----0
  6
CONTINUOUS
  5
141
 10
312.968396
 20
329.938959
 30
0.0
 11
315.968396
 21
332.938959
 31
0.0
  0
LINE
  8
LC-002-005-----0
  6
CONTINUOUS
  5
142
 10
312.968396
 20
332.767386
 30
0.0
 11
315.968396
 21
335.767386
 31
0.0
  0
LINE
  8
LC-002-005-----0
  6
CONTINUOUS
  5
143
 10
312.968396
 20
335.595813
 30
0.0
 11
315.968396
 21
338.595813
 31
0.0
  0
LINE
  8
LC-002-005-----0
  6
CONTINUOUS
  5
144
 10
312.968396
 20
338.424241
 30
0.0
 11
315.968396
 21
341.424241
 31
0.0
  0
LINE
  8
LC-002-005-----0
  6
CONTINUOUS
  5
145
 10
312.968396
 20
341.252668
 30
0.0
 11
315.968396
 21
344.252668
 31
0.0
  0
LINE
  8
LC-002-005-----0
  6
CONTINUOUS
  5
146
 10
312.968396
 20
344.081095
 30
0.0
 11
315.968396
 21
347.081095
 31
0.0
  0
LINE
  8
LC-002-005-----0
  6
CONTINUOUS
  5
147
 10
312.968396
 20
346.909522
 30
0.0
 11
315.968396
 21
349.909522
 31
0.0
  0
LINE
  8
LC-002-005-----0
  6
CONTINUOUS
  5
148
 10
312.968396
 20
349.737949
 30
0.0
 11
315.968396
 21
352.737949
 31
0.0
  0
LINE
  8
LC-002-005-----0
  6
CONTINUOUS
  5
149
 10
312.968396
 20
352.566376
 30
0.0
 11
315.968396
 21
355.566376
 31
0.0
  0
LINE
  8
LC-002-005-----0
  6
CONTINUOUS
  5
14A
 10
312.968396
 20
355.394803
 30
0.0
 11
315.968396
 21
358.394803
 31
0.0
  0
LINE
  8
LC-002-005-----0
  6
CONTINUOUS
  5
14B
 10
312.968396
 20
358.22323
 30
0.0
 11
315.968396
 21
361.22323
 31
0.0
  0
LINE
  8
LC-002-005-----0
  6
CONTINUOUS
  5
14C
 10
312.968396
 20
361.051658
 30
0.0
 11
315.968396
 21
364.051658
 31
0.0
  0
LINE
  8
LC-002-005-----0
  6
CONTINUOUS
  5
14D
 10
312.968396
 20
363.880085
 30
0.0
 11
315.968396
 21
366.880085
 31
0.0
  0
LINE
  8
LC-002-005-----0
  6
CONTINUOUS
  5
14E
 10
312.968396
 20
366.708512
 30
0.0
 11
315.968396
 21
369.708512
 31
0.0
  0
LINE
  8
LC-002-005-----0
  6
CONTINUOUS
  5
14F
 10
312.968396
 20
369.536939
 30
0.0
 11
315.968396
 21
372.536939
 31
0.0
  0
LINE
  8
LC-002-005-----0
  6
CONTINUOUS
  5
150
 10
312.968396
 20
372.365366
 30
0.0
 11
315.968396
 21
375.365366
 31
0.0
  0
LINE
  8
LC-002-005-----0
  6
CONTINUOUS
  5
151
 10
312.968396
 20
375.193793
 30
0.0
 11
315.968396
 21
378.193793
 31
0.0
  0
LINE
  8
LC-002-005-----0
  6
CONTINUOUS
  5
152
 10
312.968396
 20
378.02222
 30
0.0
 11
315.968396
 21
381.02222
 31
0.0
  0
LINE
  8
LC-002-005-----0
  6
CONTINUOUS
  5
153
 10
310.50125
 20
378.383501
 30
0.0
 11
313.50125
 21
381.383501
 31
0.0
  0
LINE
  8
LC-002-005-----0
  6
CONTINUOUS
  5
154
 10
307.672823
 20
378.383501
 30
0.0
 11
310.672823
 21
381.383501
 31
0.0
  0
LINE
  8
LC-002-005-----0
  6
CONTINUOUS
  5
155
 10
304.844396
 20
378.383501
 30
0.0
 11
307.844396
 21
381.383501
 31
0.0
  0
LINE
  8
LC-002-005-----0
  6
CONTINUOUS
  5
156
 10
302.015969
 20
378.383501
 30
0.0
 11
305.015969
 21
381.383501
 31
0.0
  0
LINE
  8
LC-002-005-----0
  6
CONTINUOUS
  5
157
 10
299.187542
 20
378.383501
 30
0.0
 11
302.187542
 21
381.383501
 31
0.0
  0
LINE
  8
LC-002-005-----0
  6
CONTINUOUS
  5
158
 10
296.359114
 20
378.383501
 30
0.0
 11
299.359114
 21
381.383501
 31
0.0
  0
LINE
  8
LC-002-005-----0
  6
CONTINUOUS
  5
159
 10
293.530687
 20
378.383501
 30
0.0
 11
296.530687
 21
381.383501
 31
0.0
  0
LINE
  8
LC-002-005-----0
  6
CONTINUOUS
  5
15A
 10
290.70226
 20
378.383501
 30
0.0
 11
293.70226
 21
381.383501
 31
0.0
  0
LINE
  8
LC-002-005-----0
  6
CONTINUOUS
  5
15B
 10
287.873833
 20
378.383501
 30
0.0
 11
290.873833
 21
381.383501
 31
0.0
  0
LINE
  8
LC-002-005-----0
  6
CONTINUOUS
  5
15C
 10
285.045406
 20
378.383501
 30
0.0
 11
288.045406
 21
381.383501
 31
0.0
  0
LINE
  8
LC-002-005-----0
  6
CONTINUOUS
  5
15D
 10
282.216979
 20
378.383501
 30
0.0
 11
285.216979
 21
381.383501
 31
0.0
  0
LINE
  8
LC-002-005-----0
  6
CONTINUOUS
  5
15E
 10
279.388552
 20
378.383501
 30
0.0
 11
282.388552
 21
381.383501
 31
0.0
  0
LINE
  8
LC-002-005-----0
  6
CONTINUOUS
  5
15F
 10
276.560125
 20
378.383501
 30
0.0
 11
279.560125
 21
381.383501
 31
0.0
  0
LINE
  8
LC-002-005-----0
  6
CONTINUOUS
  5
160
 10
273.731697
 20
378.383501
 30
0.0
 11
276.731697
 21
381.383501
 31
0.0
  0
ENDBLK
  8
0
  5
161
  0
BLOCK
  8
0
  5
163
  2
*X12
 70
    65
 10
269.818396
 20
173.583175
 30
0.0
  3
*X12
  0
LINE
  8
LC-002-005-----0
  6
CONTINUOUS
  5
164
 10
270.543516
 20
174.376993
 30
0.0
 11
271.818396
 21
175.651874
 31
0.0
  0
LINE
  8
LC-002-005-----0
  6
CONTINUOUS
  5
165
 10
269.945799
 20
176.607704
 30
0.0
 11
271.818396
 21
178.480301
 31
0.0
  0
LINE
  8
LC-002-005-----0
  6
CONTINUOUS
  5
166
 10
269.818396
 20
179.308728
 30
0.0
 11
271.818396
 21
181.308728
 31
0.0
  0
LINE
  8
LC-002-005-----0
  6
CONTINUOUS
  5
167
 10
269.818396
 20
182.137156
 30
0.0
 11
271.818396
 21
184.137156
 31
0.0
  0
LINE
  8
LC-002-005-----0
  6
CONTINUOUS
  5
168
 10
269.818396
 20
184.965583
 30
0.0
 11
271.818396
 21
186.965583
 31
0.0
  0
LINE
  8
LC-002-005-----0
  6
CONTINUOUS
  5
169
 10
269.818396
 20
187.79401
 30
0.0
 11
271.818396
 21
189.79401
 31
0.0
  0
LINE
  8
LC-002-005-----0
  6
CONTINUOUS
  5
16A
 10
269.818396
 20
190.622437
 30
0.0
 11
271.818396
 21
192.622437
 31
0.0
  0
LINE
  8
LC-002-005-----0
  6
CONTINUOUS
  5
16B
 10
269.818396
 20
193.450864
 30
0.0
 11
271.818396
 21
195.450864
 31
0.0
  0
LINE
  8
LC-002-005-----0
  6
CONTINUOUS
  5
16C
 10
269.818396
 20
196.279291
 30
0.0
 11
271.818396
 21
198.279291
 31
0.0
  0
LINE
  8
LC-002-005-----0
  6
CONTINUOUS
  5
16D
 10
269.818396
 20
199.107718
 30
0.0
 11
271.818396
 21
201.107718
 31
0.0
  0
LINE
  8
LC-002-005-----0
  6
CONTINUOUS
  5
16E
 10
269.818396
 20
201.936145
 30
0.0
 11
271.818396
 21
203.936145
 31
0.0
  0
LINE
  8
LC-002-005-----0
  6
CONTINUOUS
  5
16F
 10
269.818396
 20
204.764573
 30
0.0
 11
271.818396
 21
206.764573
 31
0.0
  0
LINE
  8
LC-002-005-----0
  6
CONTINUOUS
  5
170
 10
269.818396
 20
207.593
 30
0.0
 11
271.818396
 21
209.593
 31
0.0
  0
LINE
  8
LC-002-005-----0
  6
CONTINUOUS
  5
171
 10
269.818396
 20
210.421427
 30
0.0
 11
271.818396
 21
212.421427
 31
0.0
  0
LINE
  8
LC-002-005-----0
  6
CONTINUOUS
  5
172
 10
269.818396
 20
213.249854
 30
0.0
 11
271.818396
 21
215.249854
 31
0.0
  0
LINE
  8
LC-002-005-----0
  6
CONTINUOUS
  5
173
 10
269.818396
 20
216.078281
 30
0.0
 11
271.818396
 21
218.078281
 31
0.0
  0
LINE
  8
LC-002-005-----0
  6
CONTINUOUS
  5
174
 10
269.818396
 20
218.906708
 30
0.0
 11
271.818396
 21
220.906708
 31
0.0
  0
LINE
  8
LC-002-005-----0
  6
CONTINUOUS
  5
175
 10
269.818396
 20
221.735135
 30
0.0
 11
271.818396
 21
223.735135
 31
0.0
  0
LINE
  8
LC-002-005-----0
  6
CONTINUOUS
  5
176
 10
269.818396
 20
224.563562
 30
0.0
 11
276.868396
 21
231.613562
 31
0.0
  0
LINE
  8
LC-002-005-----0
  6
CONTINUOUS
  5
177
 10
274.868396
 20
232.44199
 30
0.0
 11
276.868396
 21
234.44199
 31
0.0
  0
LINE
  8
LC-002-005-----0
  6
CONTINUOUS
  5
178
 10
274.868396
 20
235.270417
 30
0.0
 11
276.868396
 21
237.270417
 31
0.0
  0
LINE
  8
LC-002-005-----0
  6
CONTINUOUS
  5
179
 10
273.660645
 20
236.891092
 30
0.0
 11
275.160645
 21
238.391092
 31
0.0
  0
ENDBLK
  8
0
  5
17A
  0
BLOCK
  8
0
  5
17C
  2
BLK1
 70
    64
 10
0.0
 20
0.0
 30
0.0
  3
BLK1
  0
ENDBLK
  8
0
  5
17D
  0
BLOCK
  8
0
  5
17F
  2
BLK2
 70
    64
 10
0.0
 20
0.0
 30
0.0
  3
BLK2
  0
ENDBLK
  8
0
  5
180
  0
BLOCK
  8
0
  5
182
  2
*X15
 70
    65
 10
102.044755
 20
399.397989
 30
0.0
  3
*X15
  0
LINE
  8
LC-002-005-----0
  6
CONTINUOUS
  5
183
 10
144.839908
 20
399.397989
 30
0.0
 11
145.044755
 21
399.602835
 31
0.0
  0
LINE
  8
LC-002-005-----0
  6
CONTINUOUS
  5
184
 10
139.18305
 20
399.397989
 30
0.0
 11
143.183056
 21
403.397989
 31
0.0
  0
LINE
  8
LC-002-005-----0
  6
CONTINUOUS
  5
185
 10
133.526192
 20
399.397989
 30
0.0
 11
137.526198
 21
403.397989
 31
0.0
  0
LINE
  8
LC-002-005-----0
  6
CONTINUOUS
  5
186
 10
127.869334
 20
399.397989
 30
0.0
 11
131.86934
 21
403.397989
 31
0.0
  0
LINE
  8
LC-002-005-----0
  6
CONTINUOUS
  5
187
 10
122.212476
 20
399.397989
 30
0.0
 11
126.212482
 21
403.397989
 31
0.0
  0
LINE
  8
LC-002-005-----0
  6
CONTINUOUS
  5
188
 10
116.555618
 20
399.397989
 30
0.0
 11
120.555624
 21
403.397989
 31
0.0
  0
LINE
  8
LC-002-005-----0
  6
CONTINUOUS
  5
189
 10
110.89876
 20
399.397989
 30
0.0
 11
114.898766
 21
403.397989
 31
0.0
  0
LINE
  8
LC-002-005-----0
  6
CONTINUOUS
  5
18A
 10
105.241902
 20
399.397989
 30
0.0
 11
109.241908
 21
403.397989
 31
0.0
  0
LINE
  8
LC-002-005-----0
  6
CONTINUOUS
  5
18B
 10
102.044755
 20
401.857696
 30
0.0
 11
103.58505
 21
403.397989
 31
0.0
  0
ENDBLK
  8
0
  5
18C
  0
BLOCK
  8
0
  5
18E
  2
*X16
 70
    65
 10
102.044755
 20
470.399896
 30
0.0
  3
*X16
  0
LINE
  8
LC-002-005-----0
  6
CONTINUOUS
  5
18F
 10
142.302756
 20
470.399896
 30
0.0
 11
145.044755
 21
473.141891
 31
0.0
  0
LINE
  8
LC-002-005-----0
  6
CONTINUOUS
  5
190
 10
136.645898
 20
470.399896
 30
0.0
 11
140.645903
 21
474.399896
 31
0.0
  0
LINE
  8
LC-002-005-----0
  6
CONTINUOUS
  5
191
 10
130.98904
 20
470.399896
 30
0.0
 11
134.989045
 21
474.399896
 31
0.0
  0
LINE
  8
LC-002-005-----0
  6
CONTINUOUS
  5
192
 10
125.332182
 20
470.399896
 30
0.0
 11
129.332187
 21
474.399896
 31
0.0
  0
LINE
  8
LC-002-005-----0
  6
CONTINUOUS
  5
193
 10
119.675324
 20
470.399896
 30
0.0
 11
123.675329
 21
474.399896
 31
0.0
  0
LINE
  8
LC-002-005-----0
  6
CONTINUOUS
  5
194
 10
114.018466
 20
470.399896
 30
0.0
 11
118.018471
 21
474.399896
 31
0.0
  0
LINE
  8
LC-002-005-----0
  6
CONTINUOUS
  5
195
 10
108.361608
 20
470.399896
 30
0.0
 11
112.361613
 21
474.399896
 31
0.0
  0
LINE
  8
LC-002-005-----0
  6
CONTINUOUS
  5
196
 10
102.70475
 20
470.399896
 30
0.0
 11
106.704755
 21
474.399896
 31
0.0
  0
ENDBLK
  8
0
  5
197
  0
BLOCK
  8
0
  5
199
  2
*X17
 70
    65
 10
102.044755
 20
470.399896
 30
0.0
  3
*X17
  0
LINE
  8
LC-002-005-----0
  6
CONTINUOUS
  5
19A
 10
102.599238
 20
474.399896
 30
0.0
 11
106.599238
 21
470.399896
 31
0.0
  0
LINE
  8
LC-002-005-----0
  6
CONTINUOUS
  5
19B
 10
108.256092
 20
474.399896
 30
0.0
 11
112.256092
 21
470.399896
 31
0.0
  0
LINE
  8
LC-002-005-----0
  6
CONTINUOUS
  5
19C
 10
113.912946
 20
474.399896
 30
0.0
 11
117.912946
 21
470.399896
 31
0.0
  0
LINE
  8
LC-002-005-----0
  6
CONTINUOUS
  5
19D
 10
119.569801
 20
474.399896
 30
0.0
 11
123.569801
 21
470.399896
 31
0.0
  0
LINE
  8
LC-002-005-----0
  6
CONTINUOUS
  5
19E
 10
125.226655
 20
474.399896
 30
0.0
 11
129.226655
 21
470.399896
 31
0.0
  0
LINE
  8
LC-002-005-----0
  6
CONTINUOUS
  5
19F
 10
130.883509
 20
474.399896
 30
0.0
 11
134.883509
 21
470.399896
 31
0.0
  0
LINE
  8
LC-002-005-----0
  6
CONTINUOUS
  5
1A0
 10
136.540363
 20
474.399896
 30
0.0
 11
140.540363
 21
470.399896
 31
0.0
  0
LINE
  8
LC-002-005-----0
  6
CONTINUOUS
  5
1A1
 10
142.197217
 20
474.399896
 30
0.0
 11
145.044755
 21
471.552359
 31
0.0
  0
ENDBLK
  8
0
  5
1A2
  0
BLOCK
  8
0
  5
1A4
  2
*X18
 70
    65
 10
102.044755
 20
399.397989
 30
0.0
  3
*X18
  0
LINE
  8
LC-002-005-----0
  6
CONTINUOUS
  5
1A5
 10
102.044755
 20
401.415075
 30
0.0
 11
104.061844
 21
399.397989
 31
0.0
  0
LINE
  8
LC-002-005-----0
  6
CONTINUOUS
  5
1A6
 10
105.718696
 20
403.397989
 30
0.0
 11
109.718702
 21
399.397989
 31
0.0
  0
LINE
  8
LC-002-005-----0
  6
CONTINUOUS
  5
1A7
 10
111.375554
 20
403.397989
 30
0.0
 11
115.37556
 21
399.397989
 31
0.0
  0
LINE
  8
LC-002-005-----0
  6
CONTINUOUS
  5
1A8
 10
117.032412
 20
403.397989
 30
0.0
 11
121.032418
 21
399.397989
 31
0.0
  0
LINE
  8
LC-002-005-----0
  6
CONTINUOUS
  5
1A9
 10
122.68927
 20
403.397989
 30
0.0
 11
126.689276
 21
399.397989
 31
0.0
  0
LINE
  8
LC-002-005-----0
  6
CONTINUOUS
  5
1AA
 10
128.346128
 20
403.397989
 30
0.0
 11
132.346134
 21
399.397989
 31
0.0
  0
LINE
  8
LC-002-005-----0
  6
CONTINUOUS
  5
1AB
 10
134.002986
 20
403.397989
 30
0.0
 11
138.002992
 21
399.397989
 31
0.0
  0
LINE
  8
LC-002-005-----0
  6
CONTINUOUS
  5
1AC
 10
139.659844
 20
403.397989
 30
0.0
 11
143.65985
 21
399.397989
 31
0.0
  0
ENDBLK
  8
0
  5
1AD
  0
BLOCK
  8
0
  5
1AF
  2
*X19
 70
    65
 10
212.035659
 20
387.834011
 30
0.0
  3
*X19
  0
LINE
  8
LC-002-005-----0
  6
CONTINUOUS
  5
1B0
 10
215.299956
 20
387.834011
 30
0.0
 11
216.299956
 21
388.834011
 31
0.0
  0
LINE
  8
LC-002-005-----0
  6
CONTINUOUS
  5
1B1
 10
212.471529
 20
387.834011
 30
0.0
 11
213.471529
 21
388.834011
 31
0.0
  0
ENDBLK
  8
0
  5
1B2
  0
BLOCK
  8
0
  5
1B4
  2
*X20
 70
    65
 10
212.035659
 20
313.834011
 30
0.0
  3
*X20
  0
LINE
  8
LC-002-005-----0
  6
CONTINUOUS
  5
1B5
 10
214.839062
 20
313.834011
 30
0.0
 11
215.839062
 21
314.834011
 31
0.0
  0
LINE
  8
LC-002-005-----0
  6
CONTINUOUS
  5
1B6
 10
212.035659
 20
313.859035
 30
0.0
 11
213.010635
 21
314.834011
 31
0.0
  0
ENDBLK
  8
0
  5
1B7
  0
BLOCK
  8
0
  5
1B9
  2
BLK3
 70
    64
 10
0.0
 20
0.0
 30
0.0
  3
BLK3
  0
ENDBLK
  8
0
  5
1BA
  0
BLOCK
  8
0
  5
1BC
  2
*X22
 70
    65
 10
206.934585
 20
267.696546
 30
0.0
  3
*X22
  0
LINE
  8
LC-002-005-----0
  6
CONTINUOUS
  5
1BD
 10
208.942092
 20
367.334011
 30
0.0
 11
210.442092
 21
368.834011
 31
0.0
  0
LINE
  8
LC-002-005-----0
  6
CONTINUOUS
  5
1BE
 10
206.93564
 20
368.155986
 30
0.0
 11
208.454452
 21
369.674798
 31
0.0
  0
LINE
  8
LC-002-005-----0
  6
CONTINUOUS
  5
1BF
 10
206.990468
 20
371.039242
 30
0.0
 11
208.556998
 21
372.605772
 31
0.0
  0
LINE
  8
LC-002-005-----0
  6
CONTINUOUS
  5
1C0
 10
207.134169
 20
374.011369
 30
0.0
 11
208.754753
 21
375.631954
 31
0.0
  0
LINE
  8
LC-002-005-----0
  6
CONTINUOUS
  5
1C1
 10
207.375953
 20
377.081581
 30
0.0
 11
209.058323
 21
378.763951
 31
0.0
  0
LINE
  8
LC-002-005-----0
  6
CONTINUOUS
  5
1C2
 10
207.727068
 20
380.261122
 30
0.0
 11
209.480825
 21
382.014879
 31
0.0
  0
LINE
  8
LC-002-005-----0
  6
CONTINUOUS
  5
1C3
 10
208.201485
 20
383.563967
 30
0.0
 11
210.038805
 21
385.401287
 31
0.0
  0
LINE
  8
LC-002-005-----0
  6
CONTINUOUS
  5
1C4
 10
208.816931
 20
387.00784
 30
0.0
 11
210.753652
 21
388.944561
 31
0.0
  0
LINE
  8
LC-002-005-----0
  6
CONTINUOUS
  5
1C5
 10
209.596477
 20
390.615813
 30
0.0
 11
211.653857
 21
392.673193
 31
0.0
  0
LINE
  8
LC-002-005-----0
  6
CONTINUOUS
  5
1C6
 10
210.571125
 20
394.418888
 30
0.0
 11
214.925238
 21
398.773001
 31
0.0
  0
ENDBLK
  8
0
  5
1C7
  0
BLOCK
  8
0
  5
1C9
  2
*D23
 70
    65
 10
0.0
 20
0.0
 30
0.0
  3
*D23
  0
LINE
  8
LC-004-003-MTH-0
  6
CONTINUOUS
  5
1CA
 10
123.544755
 20
476.399896
 30
0.0
 11
123.544755
 21
554.8
 31
0.0
  0
LINE
  8
LC-004-003-MTH-0
  6
CONTINUOUS
  5
1CB
 10
206.892187
 20
367.874018
 30
0.0
 11
206.892187
 21
554.8
 31
0.0
  0
LINE
  8
LC-003-003-----0
  6
CONTINUOUS
  5
1CC
 10
105.698747
 20
541.650529
 30
0.0
 11
123.544755
 21
544.0
 31
0.0
  0
LINE
  8
LC-003-003-----0
  6
CONTINUOUS
  5
1CD
 10
123.544755
 20
544.0
 30
0.0
 11
105.698747
 21
546.349471
 31
0.0
  0
LINE
  8
LC-003-003-----0
  6
CONTINUOUS
  5
1CE
 10
105.698747
 20
546.349471
 30
0.0
 11
105.698747
 21
541.650529
 31
0.0
  0
LINE
  8
LC-003-003-----0
  6
CONTINUOUS
  5
1CF
 10
105.658709
 20
542.261391
 30
0.0
 11
118.864755
 21
544.0
 31
0.0
  0
LINE
  8
LC-003-003-----0
  6
CONTINUOUS
  5
1D0
 10
118.864755
 20
544.0
 30
0.0
 11
105.658709
 21
545.738609
 31
0.0
  0
LINE
  8
LC-003-003-----0
  6
CONTINUOUS
  5
1D1
 10
105.618671
 20
542.872254
 30
0.0
 11
114.184755
 21
544.0
 31
0.0
  0
LINE
  8
LC-003-003-----0
  6
CONTINUOUS
  5
1D2
 10
114.184755
 20
544.0
 30
0.0
 11
105.618671
 21
545.127746
 31
0.0
  0
LINE
  8
LC-003-003-----0
  6
CONTINUOUS
  5
1D3
 10
105.578633
 20
543.483116
 30
0.0
 11
109.504755
 21
544.0
 31
0.0
  0
LINE
  8
LC-003-003-----0
  6
CONTINUOUS
  5
1D4
 10
109.504755
 20
544.0
 30
0.0
 11
105.578633
 21
544.516884
 31
0.0
  0
LINE
  8
LC-003-003-----0
  6
CONTINUOUS
  5
1D5
 10
224.738195
 20
546.349471
 30
0.0
 11
206.892187
 21
544.0
 31
0.0
  0
LINE
  8
LC-003-003-----0
  6
CONTINUOUS
  5
1D6
 10
206.892187
 20
544.0
 30
0.0
 11
224.738195
 21
541.650529
 31
0.0
  0
LINE
  8
LC-003-003-----0
  6
CONTINUOUS
  5
1D7
 10
224.738195
 20
541.650529
 30
0.0
 11
224.738195
 21
546.349471
 31
0.0
  0
LINE
  8
LC-003-003-----0
  6
CONTINUOUS
  5
1D8
 10
224.778233
 20
545.738609
 30
0.0
 11
211.572187
 21
544.0
 31
0.0
  0
LINE
  8
LC-003-003-----0
  6
CONTINUOUS
  5
1D9
 10
211.572187
 20
544.0
 30
0.0
 11
224.778233
 21
542.261391
 31
0.0
  0
LINE
  8
LC-003-003-----0
  6
CONTINUOUS
  5
1DA
 10
224.818271
 20
545.127746
 30
0.0
 11
216.252187
 21
544.0
 31
0.0
  0
LINE
  8
LC-003-003-----0
  6
CONTINUOUS
  5
1DB
 10
216.252187
 20
544.0
 30
0.0
 11
224.818271
 21
542.872254
 31
0.0
  0
LINE
  8
LC-003-003-----0
  6
CONTINUOUS
  5
1DC
 10
224.858309
 20
544.516884
 30
0.0
 11
220.932187
 21
544.0
 31
0.0
  0
LINE
  8
LC-003-003-----0
  6
CONTINUOUS
  5
1DD
 10
220.932187
 20
544.0
 30
0.0
 11
224.858309
 21
543.483116
 31
0.0
  0
LINE
  8
LC-005-003-MTG-0
  6
CONTINUOUS
  5
1DE
 10
98.344755
 20
544.0
 30
0.0
 11
345.894707
 21
544.0
 31
0.0
  0
TEXT
  8
LC-003-003-----0
  6
CONTINUOUS
 62
     6
  5
1DF
 10
234.167433
 20
554.431999
 30
0.0
 40
18.0
  1
MAX.225
 51
15.0
  7
LC-TXTSTYLE-150-400-0-0-D0
  0
ENDBLK
  8
0
  5
1E0
  0
BLOCK
  8
0
  5
1E2
  2
*D24
 70
    65
 10
0.0
 20
0.0
 30
0.0
  3
*D24
  0
LINE
  8
LC-004-003-MTH-0
  6
CONTINUOUS
  5
1E3
 10
102.044755
 20
476.399896
 30
0.0
 11
102.044755
 21
514.8
 31
0.0
  0
LINE
  8
LC-004-003-MTH-0
  6
CONTINUOUS
  5
1E4
 10
145.044755
 20
476.399896
 30
0.0
 11
145.044755
 21
514.8
 31
0.0
  0
LINE
  8
LC-003-003-----0
  6
CONTINUOUS
  5
1E5
 10
84.198747
 20
501.650529
 30
0.0
 11
102.044755
 21
504.0
 31
0.0
  0
LINE
  8
LC-003-003-----0
  6
CONTINUOUS
  5
1E6
 10
102.044755
 20
504.0
 30
0.0
 11
84.198747
 21
506.349471
 31
0.0
  0
LINE
  8
LC-003-003-----0
  6
CONTINUOUS
  5
1E7
 10
84.198747
 20
506.349471
 30
0.0
 11
84.198747
 21
501.650529
 31
0.0
  0
LINE
  8
LC-003-003-----0
  6
CONTINUOUS
  5
1E8
 10
84.158709
 20
502.261391
 30
0.0
 11
97.364755
 21
504.0
 31
0.0
  0
LINE
  8
LC-003-003-----0
  6
CONTINUOUS
  5
1E9
 10
97.364755
 20
504.0
 30
0.0
 11
84.158709
 21
505.738609
 31
0.0
  0
LINE
  8
LC-003-003-----0
  6
CONTINUOUS
  5
1EA
 10
84.118671
 20
502.872254
 30
0.0
 11
92.684755
 21
504.0
 31
0.0
  0
LINE
  8
LC-003-003-----0
  6
CONTINUOUS
  5
1EB
 10
92.684755
 20
504.0
 30
0.0
 11
84.118671
 21
505.127746
 31
0.0
  0
LINE
  8
LC-003-003-----0
  6
CONTINUOUS
  5
1EC
 10
84.078633
 20
503.483116
 30
0.0
 11
88.004755
 21
504.0
 31
0.0
  0
LINE
  8
LC-003-003-----0
  6
CONTINUOUS
  5
1ED
 10
88.004755
 20
504.0
 30
0.0
 11
84.078633
 21
504.516884
 31
0.0
  0
LINE
  8
LC-003-003-----0
  6
CONTINUOUS
  5
1EE
 10
162.890762
 20
506.349471
 30
0.0
 11
145.044755
 21
504.0
 31
0.0
  0
LINE
  8
LC-003-003-----0
  6
CONTINUOUS
  5
1EF
 10
145.044755
 20
504.0
 30
0.0
 11
162.890762
 21
501.650529
 31
0.0
  0
LINE
  8
LC-003-003-----0
  6
CONTINUOUS
  5
1F0
 10
162.890762
 20
501.650529
 30
0.0
 11
162.890762
 21
506.349471
 31
0.0
  0
LINE
  8
LC-003-003-----0
  6
CONTINUOUS
  5
1F1
 10
162.9308
 20
505.738609
 30
0.0
 11
149.724755
 21
504.0
 31
0.0
  0
LINE
  8
LC-003-003-----0
  6
CONTINUOUS
  5
1F2
 10
149.724755
 20
504.0
 30
0.0
 11
162.9308
 21
502.261391
 31
0.0
  0
LINE
  8
LC-003-003-----0
  6
CONTINUOUS
  5
1F3
 10
162.970838
 20
505.127746
 30
0.0
 11
154.404755
 21
504.0
 31
0.0
  0
LINE
  8
LC-003-003-----0
  6
CONTINUOUS
  5
1F4
 10
154.404755
 20
504.0
 30
0.0
 11
162.970838
 21
502.872254
 31
0.0
  0
LINE
  8
LC-003-003-----0
  6
CONTINUOUS
  5
1F5
 10
163.010876
 20
504.516884
 30
0.0
 11
159.084755
 21
504.0
 31
0.0
  0
LINE
  8
LC-003-003-----0
  6
CONTINUOUS
  5
1F6
 10
159.084755
 20
504.0
 30
0.0
 11
163.010876
 21
503.483116
 31
0.0
  0
LINE
  8
LC-005-003-MTG-0
  6
CONTINUOUS
  5
1F7
 10
76.844755
 20
504.0
 30
0.0
 11
267.847274
 21
504.0
 31
0.0
  0
TEXT
  8
LC-003-003-----0
  6
CONTINUOUS
 62
     6
  5
1F8
 10
172.32
 20
514.431999
 30
0.0
 40
18.0
  1
1 1/4"
 51
15.0
  7
LC-TXTSTYLE-150-400-0-0-D0
  0
ENDBLK
  8
0
  5
1F9
  0
BLOCK
  8
0
  5
1FB
  2
*D25
 70
    65
 10
0.0
 20
0.0
 30
0.0
  3
*D25
  0
LINE
  8
LC-004-003-MTH-0
  6
CONTINUOUS
  5
1FC
 10
153.544697
 20
351.397862
 30
0.0
 11
73.2
 21
351.397862
 31
0.0
  0
LINE
  8
LC-004-003-MTH-0
  6
CONTINUOUS
  5
1FD
 10
102.044755
 20
476.399896
 30
0.0
 11
73.2
 21
476.399896
 31
0.0
  0
LINE
  8
LC-005-003-MTG-0
  6
CONTINUOUS
  5
1FE
 10
84.0
 20
351.397862
 30
0.0
 11
84.0
 21
476.399896
 31
0.0
  0
LINE
  8
LC-003-003-----0
  6
CONTINUOUS
  5
1FF
 10
81.650529
 20
369.243869
 30
0.0
 11
84.0
 21
351.397862
 31
0.0
  0
LINE
  8
LC-003-003-----0
  6
CONTINUOUS
  5
200
 10
84.0
 20
351.397862
 30
0.0
 11
86.349471
 21
369.243869
 31
0.0
  0
LINE
  8
LC-003-003-----0
  6
CONTINUOUS
  5
201
 10
86.349471
 20
369.243869
 30
0.0
 11
81.650529
 21
369.243869
 31
0.0
  0
LINE
  8
LC-003-003-----0
  6
CONTINUOUS
  5
202
 10
82.261391
 20
369.283907
 30
0.0
 11
84.0
 21
356.077862
 31
0.0
  0
LINE
  8
LC-003-003-----0
  6
CONTINUOUS
  5
203
 10
84.0
 20
356.077862
 30
0.0
 11
85.738609
 21
369.283907
 31
0.0
  0
LINE
  8
LC-003-003-----0
  6
CONTINUOUS
  5
204
 10
82.872254
 20
369.323945
 30
0.0
 11
84.0
 21
360.757862
 31
0.0
  0
LINE
  8
LC-003-003-----0
  6
CONTINUOUS
  5
205
 10
84.0
 20
360.757862
 30
0.0
 11
85.127746
 21
369.323945
 31
0.0
  0
LINE
  8
LC-003-003-----0
  6
CONTINUOUS
  5
206
 10
83.483116
 20
369.363984
 30
0.0
 11
84.0
 21
365.437862
 31
0.0
  0
LINE
  8
LC-003-003-----0
  6
CONTINUOUS
  5
207
 10
84.0
 20
365.437862
 30
0.0
 11
84.516884
 21
369.363984
 31
0.0
  0
LINE
  8
LC-003-003-----0
  6
CONTINUOUS
  5
208
 10
86.349471
 20
458.553888
 30
0.0
 11
84.0
 21
476.399896
 31
0.0
  0
LINE
  8
LC-003-003-----0
  6
CONTINUOUS
  5
209
 10
84.0
 20
476.399896
 30
0.0
 11
81.650529
 21
458.553888
 31
0.0
  0
LINE
  8
LC-003-003-----0
  6
CONTINUOUS
  5
20A
 10
81.650529
 20
458.553888
 30
0.0
 11
86.349471
 21
458.553888
 31
0.0
  0
LINE
  8
LC-003-003-----0
  6
CONTINUOUS
  5
20B
 10
85.738609
 20
458.51385
 30
0.0
 11
84.0
 21
471.719896
 31
0.0
  0
LINE
  8
LC-003-003-----0
  6
CONTINUOUS
  5
20C
 10
84.0
 20
471.719896
 30
0.0
 11
82.261391
 21
458.51385
 31
0.0
  0
LINE
  8
LC-003-003-----0
  6
CONTINUOUS
  5
20D
 10
85.127746
 20
458.473812
 30
0.0
 11
84.0
 21
467.039896
 31
0.0
  0
LINE
  8
LC-003-003-----0
  6
CONTINUOUS
  5
20E
 10
84.0
 20
467.039896
 30
0.0
 11
82.872254
 21
458.473812
 31
0.0
  0
LINE
  8
LC-003-003-----0
  6
CONTINUOUS
  5
20F
 10
84.516884
 20
458.433774
 30
0.0
 11
84.0
 21
462.359896
 31
0.0
  0
LINE
  8
LC-003-003-----0
  6
CONTINUOUS
  5
210
 10
84.0
 20
462.359896
 30
0.0
 11
83.483116
 21
458.433774
 31
0.0
  0
TEXT
  8
LC-003-003-----0
  6
CONTINUOUS
 62
     6
  5
211
 10
73.568001
 20
374.918534
 30
0.0
 40
18.0
  1
70-165
 50
90.0
 51
15.0
  7
LC-TXTSTYLE-150-400-0-0-D0
 72
     1
 11
73.568001
 21
416.694124
 31
0.0
  0
ENDBLK
  8
0
  5
212
  0
BLOCK
  8
0
  5
214
  2
BLK4
 70
    64
 10
0.0
 20
0.0
 30
0.0
  3
BLK4
  0
ENDBLK
  8
0
  5
215
  0
BLOCK
  8
0
  5
217
  2
*D27
 70
    65
 10
0.0
 20
0.0
 30
0.0
  3
*D27
  0
LINE
  8
LC-004-003-MTH-0
  6
CONTINUOUS
  5
218
 10
215.193399
 20
303.834011
 30
0.0
 11
169.2
 21
303.834011
 31
0.0
  0
LINE
  8
LC-004-003-MTH-0
  6
CONTINUOUS
  5
219
 10
215.193399
 20
398.834011
 30
0.0
 11
169.2
 21
398.834011
 31
0.0
  0
LINE
  8
LC-003-003-----0
  6
CONTINUOUS
  5
21A
 10
182.349471
 20
285.988004
 30
0.0
 11
180.0
 21
303.834011
 31
0.0
  0
LINE
  8
LC-003-003-----0
  6
CONTINUOUS
  5
21B
 10
180.0
 20
303.834011
 30
0.0
 11
177.650529
 21
285.988004
 31
0.0
  0
LINE
  8
LC-003-003-----0
  6
CONTINUOUS
  5
21C
 10
177.650529
 20
285.988004
 30
0.0
 11
182.349471
 21
285.988004
 31
0.0
  0
LINE
  8
LC-003-003-----0
  6
CONTINUOUS
  5
21D
 10
181.738609
 20
285.947965
 30
0.0
 11
180.0
 21
299.154011
 31
0.0
  0
LINE
  8
LC-003-003-----0
  6
CONTINUOUS
  5
21E
 10
180.0
 20
299.154011
 30
0.0
 11
178.261391
 21
285.947965
 31
0.0
  0
LINE
  8
LC-003-003-----0
  6
CONTINUOUS
  5
21F
 10
181.127746
 20
285.907927
 30
0.0
 11
180.0
 21
294.474011
 31
0.0
  0
LINE
  8
LC-003-003-----0
  6
CONTINUOUS
  5
220
 10
180.0
 20
294.474011
 30
0.0
 11
178.872254
 21
285.907927
 31
0.0
  0
LINE
  8
LC-003-003-----0
  6
CONTINUOUS
  5
221
 10
180.516884
 20
285.867889
 30
0.0
 11
180.0
 21
289.794011
 31
0.0
  0
LINE
  8
LC-003-003-----0
  6
CONTINUOUS
  5
222
 10
180.0
 20
289.794011
 30
0.0
 11
179.483116
 21
285.867889
 31
0.0
  0
LINE
  8
LC-003-003-----0
  6
CONTINUOUS
  5
223
 10
177.650529
 20
416.680019
 30
0.0
 11
180.0
 21
398.834011
 31
0.0
  0
LINE
  8
LC-003-003-----0
  6
CONTINUOUS
  5
224
 10
180.0
 20
398.834011
 30
0.0
 11
182.349471
 21
416.680019
 31
0.0
  0
LINE
  8
LC-003-003-----0
  6
CONTINUOUS
  5
225
 10
182.349471
 20
416.680019
 30
0.0
 11
177.650529
 21
416.680019
 31
0.0
  0
LINE
  8
LC-003-003-----0
  6
CONTINUOUS
  5
226
 10
178.261391
 20
416.720057
 30
0.0
 11
180.0
 21
403.514011
 31
0.0
  0
LINE
  8
LC-003-003-----0
  6
CONTINUOUS
  5
227
 10
180.0
 20
403.514011
 30
0.0
 11
181.738609
 21
416.720057
 31
0.0
  0
LINE
  8
LC-003-003-----0
  6
CONTINUOUS
  5
228
 10
178.872254
 20
416.760095
 30
0.0
 11
180.0
 21
408.194011
 31
0.0
  0
LINE
  8
LC-003-003-----0
  6
CONTINUOUS
  5
229
 10
180.0
 20
408.194011
 30
0.0
 11
181.127746
 21
416.760095
 31
0.0
  0
LINE
  8
LC-003-003-----0
  6
CONTINUOUS
  5
22A
 10
179.483116
 20
416.800133
 30
0.0
 11
180.0
 21
412.874011
 31
0.0
  0
LINE
  8
LC-003-003-----0
  6
CONTINUOUS
  5
22B
 10
180.0
 20
412.874011
 30
0.0
 11
180.516884
 21
416.800133
 31
0.0
  0
LINE
  8
LC-005-003-MTG-0
  6
CONTINUOUS
  5
22C
 10
180.0
 20
229.631491
 30
0.0
 11
180.0
 21
424.034011
 31
0.0
  0
TEXT
  8
LC-003-003-----0
  6
CONTINUOUS
 62
     6
  5
22D
 10
169.568001
 20
247.708312
 30
0.0
 40
18.0
  1
Ø95
 50
90.0
 51
15.0
  7
LC-TXTSTYLE-150-400-0-0-D0
 72
     2
 11
169.568001
 21
282.149257
 31
0.0
  0
ENDBLK
  8
0
  5
22E
  0
BLOCK
  8
0
  5
230
  2
BLK5
 70
    64
 10
0.0
 20
0.0
 30
0.0
  3
BLK5
  0
ENDBLK
  8
0
  5
231
  0
BLOCK
  8
0
  5
233
  2
BLK6
 70
    64
 10
0.0
 20
0.0
 30
0.0
  3
BLK6
  0
ENDBLK
  8
0
  5
234
  0
BLOCK
  8
0
  5
236
  2
*D30
 70
    65
 10
0.0
 20
0.0
 30
0.0
  3
*D30
  0
LINE
  8
LC-004-003-MTH-0
  6
CONTINUOUS
  5
237
 10
269.818396
 20
177.083175
 30
0.0
 11
269.818396
 21
133.2
 31
0.0
  0
LINE
  8
LC-004-003-MTH-0
  6
CONTINUOUS
  5
238
 10
320.018396
 20
177.083175
 30
0.0
 11
320.018396
 21
133.2
 31
0.0
  0
LINE
  8
LC-003-003-----0
  6
CONTINUOUS
  5
239
 10
251.972389
 20
141.650529
 30
0.0
 11
269.818396
 21
144.0
 31
0.0
  0
LINE
  8
LC-003-003-----0
  6
CONTINUOUS
  5
23A
 10
269.818396
 20
144.0
 30
0.0
 11
251.972389
 21
146.349471
 31
0.0
  0
LINE
  8
LC-003-003-----0
  6
CONTINUOUS
  5
23B
 10
251.972389
 20
146.349471
 30
0.0
 11
251.972389
 21
141.650529
 31
0.0
  0
LINE
  8
LC-003-003-----0
  6
CONTINUOUS
  5
23C
 10
251.932351
 20
142.261391
 30
0.0
 11
265.138396
 21
144.0
 31
0.0
  0
LINE
  8
LC-003-003-----0
  6
CONTINUOUS
  5
23D
 10
265.138396
 20
144.0
 30
0.0
 11
251.932351
 21
145.738609
 31
0.0
  0
LINE
  8
LC-003-003-----0
  6
CONTINUOUS
  5
23E
 10
251.892313
 20
142.872254
 30
0.0
 11
260.458396
 21
144.0
 31
0.0
  0
LINE
  8
LC-003-003-----0
  6
CONTINUOUS
  5
23F
 10
260.458396
 20
144.0
 30
0.0
 11
251.892313
 21
145.127746
 31
0.0
  0
LINE
  8
LC-003-003-----0
  6
CONTINUOUS
  5
240
 10
251.852275
 20
143.483116
 30
0.0
 11
255.778396
 21
144.0
 31
0.0
  0
LINE
  8
LC-003-003-----0
  6
CONTINUOUS
  5
241
 10
255.778396
 20
144.0
 30
0.0
 11
251.852275
 21
144.516884
 31
0.0
  0
LINE
  8
LC-003-003-----0
  6
CONTINUOUS
  5
242
 10
337.864404
 20
146.349471
 30
0.0
 11
320.018396
 21
144.0
 31
0.0
  0
LINE
  8
LC-003-003-----0
  6
CONTINUOUS
  5
243
 10
320.018396
 20
144.0
 30
0.0
 11
337.864404
 21
141.650529
 31
0.0
  0
LINE
  8
LC-003-003-----0
  6
CONTINUOUS
  5
244
 10
337.864404
 20
141.650529
 30
0.0
 11
337.864404
 21
146.349471
 31
0.0
  0
LINE
  8
LC-003-003-----0
  6
CONTINUOUS
  5
245
 10
337.904442
 20
145.738609
 30
0.0
 11
324.698396
 21
144.0
 31
0.0
  0
LINE
  8
LC-003-003-----0
  6
CONTINUOUS
  5
246
 10
324.698396
 20
144.0
 30
0.0
 11
337.904442
 21
142.261391
 31
0.0
  0
LINE
  8
LC-003-003-----0
  6
CONTINUOUS
  5
247
 10
337.94448
 20
145.127746
 30
0.0
 11
329.378396
 21
144.0
 31
0.0
  0
LINE
  8
LC-003-003-----0
  6
CONTINUOUS
  5
248
 10
329.378396
 20
144.0
 30
0.0
 11
337.94448
 21
142.872254
 31
0.0
  0
LINE
  8
LC-003-003-----0
  6
CONTINUOUS
  5
249
 10
337.984518
 20
144.516884
 30
0.0
 11
334.058396
 21
144.0
 31
0.0
  0
LINE
  8
LC-003-003-----0
  6
CONTINUOUS
  5
24A
 10
334.058396
 20
144.0
 30
0.0
 11
337.984518
 21
143.483116
 31
0.0
  0
LINE
  8
LC-005-003-MTG-0
  6
CONTINUOUS
  5
24B
 10
244.618396
 20
144.0
 30
0.0
 11
410.420916
 21
144.0
 31
0.0
  0
TEXT
  8
LC-003-003-----0
  6
CONTINUOUS
 62
     6
  5
24C
 10
347.293642
 20
154.431999
 30
0.0
 40
18.0
  1
DN50
 51
15.0
  7
LC-TXTSTYLE-150-400-0-0-D0
  0
ENDBLK
  8
0
  5
24D
  0
ENDSEC
  0
SECTION
  2
ENTITIES
  0
VIEWPORT
  8
LC-000
  5
3F8
 67
     1
 68
     1
 10
420.0
 20
297.0
 30
0.0
 40
840.0
 41
594.0
 69
     1
1001
ACAD
1000
MVIEW
1002
{
1070
    16
1010
0.0
1020
0.0
1030
0.0
1010
0.0
1020
0.0
1030
1.0
1040
0.0
1040
594.0
1040
420.0
1040
297.0
1040
50.0
1040
0.0
1040
0.0
1070
     0
1070
   100
1070
     1
1070
     1
1070
     0
1070
     0
1070
     0
1070
     0
1040
0.0
1040
0.0
1040
0.0
1040
1.0
1040
1.0
1040
0.0
1040
0.0
1070
     0
1002
{
1002
}
1002
}
  0
VIEWPORT
  8
0
  5
3F9
 67
     1
 68
     1
 10
0.0
 20
0.0
 30
0.0
 40
0.0
 41
0.0
 69
     1
1001
ACAD
1000
MVIEW
1002
{
1070
    16
1010
0.0
1020
0.0
1030
0.0
1010
0.0
1020
0.0
1030
1.0
1040
0.0
1040
594.0
1040
0.0
1040
0.0
1040
50.0
1040
0.0
1040
0.0
1070
     0
1070
   100
1070
     0
1070
     1
1070
     0
1070
     0
1070
     0
1070
     0
1040
0.0
1040
0.0
1040
0.0
1040
0.5
1040
0.5
1040
0.5
1040
0.5
1070
     0
1002
{
1002
}
1002
}
  0
INSERT
  8
0
  5
24E
  2
*X0
 10
246.035659
 20
367.834011
 30
0.0
  0
DIMENSION
  8
0
  5
24F
  2
*D1
 10
284.002028
 20
434.0
 30
0.0
 11
284.002028
 21
434.0
 31
0.0
  1
64
 13
252.035659
 23
388.834011
 33
0.0
 14
315.968396
 24
383.084017
 34
0.0
  3
LC-DIM-L-0090-02-02
  0
DIMENSION
  8
0
  5
250
  2
*D2
 10
364.0
 20
308.387297
 30
0.0
 11
364.0
 21
308.387297
 31
0.0
  1
146
 13
315.968396
 23
381.383501
 33
0.0
 14
315.968396
 24
235.391092
 34
0.0
 50
90.0
  3
LC-DIM-L-0090-02-02
  0
INSERT
  8
0
  5
251
  2
*X3
 10
217.035659
 20
374.38591
 30
0.0
  0
INSERT
  8
0
  5
252
  2
*X4
 10
217.035659
 20
235.391092
 30
0.0
  0
INSERT
  8
0
  5
253
  2
*X5
 10
517.131379
 20
399.334111
 30
0.0
  0
INSERT
  8
0
  5
254
  2
*X6
 10
517.131379
 20
470.336018
 30
0.0
  0
INSERT
  8
0
  5
255
  2
*X7
 10
517.131379
 20
470.336018
 30
0.0
  0
INSERT
  8
0
  5
256
  2
*X8
 10
517.131379
 20
399.334111
 30
0.0
  0
INSERT
  8
0
  5
257
  2
*X9
 10
272.965378
 20
258.034973
 30
0.0
  0
INSERT
  8
0
  5
258
  2
*X10
 10
206.934585
 20
234.971476
 30
0.0
  0
INSERT
  8
0
  5
259
  2
*X11
 10
272.968396
 20
173.583175
 30
0.0
  0
INSERT
  8
0
  5
25A
  2
*X12
 10
269.818396
 20
173.583175
 30
0.0
  0
INSERT
  8
0
  5
25C
  2
BLK1
 10
0.0
 20
0.0
 30
0.0
  0
INSERT
  8
0
  5
25D
  2
BLK2
 10
0.0
 20
0.0
 30
0.0
  0
INSERT
  8
0
  5
25E
  2
*X15
 10
102.044755
 20
399.397989
 30
0.0
  0
INSERT
  8
0
  5
25F
  2
*X16
 10
102.044755
 20
470.399896
 30
0.0
  0
INSERT
  8
0
  5
260
  2
*X17
 10
102.044755
 20
470.399896
 30
0.0
  0
INSERT
  8
0
  5
261
  2
*X18
 10
102.044755
 20
399.397989
 30
0.0
  0
INSERT
  8
0
  5
262
  2
*X19
 10
212.035659
 20
387.834011
 30
0.0
  0
INSERT
  8
0
  5
263
  2
*X20
 10
212.035659
 20
313.834011
 30
0.0
  0
INSERT
  8
0
  5
264
  2
BLK3
 10
0.0
 20
0.0
 30
0.0
  0
INSERT
  8
0
  5
265
  2
*X22
 10
206.934585
 20
267.696546
 30
0.0
  0
DIMENSION
  8
0
  5
266
  2
*D23
 10
256.277342
 20
544.0
 30
0.0
 11
256.277342
 21
544.0
 31
0.0
  1
MAX.225
 13
123.544755
 23
476.399896
 33
0.0
 14
206.892187
 24
367.874018
 34
0.0
  3
LC-DIM-L-0090-02-02
  0
DIMENSION
  8
0
  5
267
  2
*D24
 10
123.544755
 20
504.0
 30
0.0
 11
123.544755
 21
504.0
 31
0.0
  1
1 1/4"
 13
102.044755
 23
476.399896
 33
0.0
 14
145.044755
 24
476.399896
 34
0.0
  3
LC-DIM-L-0090-02-02
  0
DIMENSION
  8
0
  5
268
  2
*D25
 10
84.0
 20
413.898879
 30
0.0
 11
84.0
 21
413.898879
 31
0.0
  1
70-165
 13
102.044755
 23
476.399896
 33
0.0
 14
153.544697
 24
351.397862
 34
0.0
 50
90.0
  3
LC-DIM-L-0090-02-02
  0
INSERT
  8
0
  5
269
  2
BLK4
 10
0.0
 20
0.0
 30
0.0
  0
DIMENSION
  8
0
  5
26A
  2
*D27
 10
180.0
 20
263.142
 30
0.0
 11
180.0
 21
263.142
 31
0.0
  1
%%c<>
 13
215.193399
 23
398.834011
 33
0.0
 14
215.193399
 24
303.834011
 34
0.0
 50
90.0
  3
LC-DIM-L-0090-02-02
  0
INSERT
  8
0
  5
26B
  2
BLK5
 10
0.0
 20
0.0
 30
0.0
  0
INSERT
  8
0
  5
26C
  2
BLK6
 10
0.0
 20
0.0
 30
0.0
  0
DIMENSION
  8
0
  5
26D
  2
*D30
 10
294.918396
 20
144.0
 30
0.0
 11
294.918396
 21
144.0
 31
0.0
  1
DN50
 13
269.818396
 23
177.083175
 33
0.0
 14
320.018396
 24
177.083175
 34
0.0
  3
LC-DIM-L-0090-02-02
  0
LINE
  8
LC-001-002-----0
  6
CONTINUOUS
  5
26F
 10
252.035659
 20
388.834011
 30
0.0
 11
252.035659
 21
378.583814
 31
0.0
  0
LINE
  8
LC-001-002-----0
  6
CONTINUOUS
  5
270
 10
273.968396
 20
235.391092
 30
0.0
 11
273.968396
 21
236.891092
 31
0.0
  0
LINE
  8
LC-001-002-----0
  6
CONTINUOUS
  5
271
 10
273.968396
 20
235.391092
 30
0.0
 11
274.868396
 21
235.391092
 31
0.0
  0
LINE
  8
LC-001-002-----0
  6
CONTINUOUS
  5
272
 10
212.035659
 20
388.834011
 30
0.0
 11
252.035659
 21
388.834011
 31
0.0
  0
LINE
  8
LC-001-002-----0
  6
CONTINUOUS
  5
273
 10
212.035659
 20
388.834011
 30
0.0
 11
212.035659
 21
367.397989
 31
0.0
  0
LINE
  8
LC-001-002-----0
  6
CONTINUOUS
  5
274
 10
276.868396
 20
229.804748
 30
0.0
 11
312.968396
 21
229.804748
 31
0.0
  0
LINE
  8
LC-001-002-----0
  6
CONTINUOUS
  5
275
 10
271.818396
 20
224.754748
 30
0.0
 11
318.018396
 21
224.754748
 31
0.0
  0
LINE
  8
LC-001-002-----0
  6
CONTINUOUS
  5
276
 10
246.035659
 20
333.10196
 30
0.0
 11
246.035659
 21
322.834011
 31
0.0
  0
LINE
  8
LC-001-002-----0
  6
CONTINUOUS
  5
277
 10
212.035659
 20
335.397989
 30
0.0
 11
212.035659
 21
313.834011
 31
0.0
  0
LINE
  8
LC-002-005-----0
  6
CONTINUOUS
  5
278
 10
275.560851
 20
273.154011
 30
0.0
 11
275.035659
 21
273.679204
 31
0.0
  0
LINE
  8
LC-002-005-----0
  6
CONTINUOUS
  5
279
 10
306.67355
 20
273.154011
 30
0.0
 11
304.535659
 21
275.291902
 31
0.0
  0
LINE
  8
LC-001-002-----0
  6
DASHDOT
 62
     2
  5
27B
 10
153.544697
 20
351.334011
 30
0.0
 11
246.035659
 21
351.334011
 31
0.0
  0
LINE
  8
LC-001-002-----0
  6
CONTINUOUS
  5
27C
 10
212.035659
 20
387.834011
 30
0.0
 11
249.035659
 21
387.834011
 31
0.0
  0
ARC
  8
LC-001-002-----0
  6
DASHED
 62
     2
  5
27E
 10
537.753942
 20
349.966219
 30
0.0
 40
30.924705
 50
7.786066
 51
102.425819
  0
LINE
  8
LC-001-002-----0
  6
DASHED
 62
     2
  5
27F
 10
522.873211
 20
348.556406
 30
0.0
 11
536.168688
 21
273.154011
 31
0.0
  0
LINE
  8
LC-001-002-----0
  6
DASHED
 62
     2
  5
280
 10
554.779143
 20
351.88953
 30
0.0
 11
568.662339
 21
273.154011
 31
0.0
  0
LINE
  8
LC-001-002-----0
  6
DASHDOT
 62
     2
  5
281
 10
538.641379
 20
351.334011
 30
0.0
 11
552.426623
 21
273.154011
 31
0.0
  0
ARC
  8
LC-001-002-----0
  6
DASHED
 62
     2
  5
282
 10
538.631379
 20
351.334011
 30
0.0
 40
30.0
 50
178.585635
 51
201.659607
  0
LINE
  8
LC-001-002-----0
  6
DASHDOT
 62
     2
  5
283
 10
538.631379
 20
380.609699
 30
0.0
 11
538.631379
 21
173.583175
 31
0.0
  0
ARC
  8
LC-001-002-----0
  6
CONTINUOUS
  5
284
 10
538.631379
 20
351.334011
 30
0.0
 40
16.0
 50
180.0
 51
0.0
  0
ARC
  8
LC-001-002-----0
  6
DASHED
 62
     2
  5
285
 10
538.631379
 20
351.334011
 30
0.0
 40
32.436123
 50
119.556212
 51
60.443788
  0
LINE
  8
LC-001-002-----0
  6
DASHED
 62
     2
  5
286
 10
570.202853
 20
343.894648
 30
0.0
 11
567.97865
 21
356.508727
 31
0.0
  0
LINE
  8
LC-001-002-----0
  6
DASHED
 62
     2
  5
287
 10
516.559807
 20
375.10264
 30
0.0
 11
517.218491
 21
374.443956
 31
0.0
  0
ARC
  8
LC-001-002-----0
  6
DASHED
 62
     2
  5
288
 10
547.23163
 20
321.338292
 30
0.0
 40
61.0
 50
105.334736
 51
156.154986
  0
LINE
  8
LC-001-002-----0
  6
DASHED
 62
     2
  5
289
 10
514.86275
 20
373.405584
 30
0.0
 11
515.08687
 21
373.181464
 31
0.0
  0
LINE
  8
LC-001-002-----0
  6
CONTINUOUS
  5
28A
 10
522.631379
 20
381.334111
 30
0.0
 11
522.631379
 21
351.334011
 31
0.0
  0
LINE
  8
LC-001-002-----0
  6
CONTINUOUS
  5
28B
 10
554.631379
 20
351.334011
 30
0.0
 11
554.631379
 21
381.334111
 31
0.0
  0
LINE
  8
LC-001-002-----0
  6
CONTINUOUS
  5
28C
 10
272.965378
 20
258.034973
 30
0.0
 11
312.968396
 21
258.034973
 31
0.0
  0
LINE
  8
LC-001-002-----0
  6
CONTINUOUS
  5
28D
 10
522.631379
 20
381.334111
 30
0.0
 11
554.631379
 21
381.334111
 31
0.0
  0
LINE
  8
LC-001-002-----0
  6
CONTINUOUS
  5
28E
 10
555.631379
 20
397.334111
 30
0.0
 11
521.631379
 21
397.334111
 31
0.0
  0
LINE
  8
LC-001-002-----0
  6
CONTINUOUS
  5
28F
 10
272.965378
 20
260.534973
 30
0.0
 11
312.968396
 21
260.534973
 31
0.0
  0
LINE
  8
LC-001-002-----0
  6
CONTINUOUS
  5
290
 10
521.631379
 20
466.336018
 30
0.0
 11
521.631379
 21
407.334111
 31
0.0
  0
LINE
  8
LC-001-002-----0
  6
CONTINUOUS
  5
291
 10
521.631379
 20
383.334111
 30
0.0
 11
555.631379
 21
383.334111
 31
0.0
  0
LINE
  8
LC-001-002-----0
  6
CONTINUOUS
  5
292
 10
555.631379
 20
383.334111
 30
0.0
 11
555.631379
 21
397.334111
 31
0.0
  0
LINE
  8
LC-001-002-----0
  6
CONTINUOUS
  5
293
 10
521.631379
 20
383.334111
 30
0.0
 11
522.631379
 21
381.334111
 31
0.0
  0
LINE
  8
LC-001-002-----0
  6
CONTINUOUS
  5
294
 10
555.631379
 20
383.334111
 30
0.0
 11
554.631379
 21
381.334111
 31
0.0
  0
LINE
  8
LC-001-002-----0
  6
CONTINUOUS
  5
295
 10
521.631379
 20
397.334111
 30
0.0
 11
517.131379
 21
397.334111
 31
0.0
  0
LINE
  8
LC-001-002-----0
  6
CONTINUOUS
  5
296
 10
560.131379
 20
397.334111
 30
0.0
 11
555.631379
 21
397.334111
 31
0.0
  0
LINE
  8
LC-001-002-----0
  6
CONTINUOUS
  5
297
 10
517.131379
 20
399.334111
 30
0.0
 11
560.131379
 21
399.334111
 31
0.0
  0
LINE
  8
LC-001-002-----0
  6
CONTINUOUS
  5
298
 10
517.131379
 20
403.334111
 30
0.0
 11
560.131379
 21
403.334111
 31
0.0
  0
LINE
  8
LC-001-002-----0
  6
CONTINUOUS
  5
299
 10
517.131379
 20
397.334111
 30
0.0
 11
517.131379
 21
403.334111
 31
0.0
  0
LINE
  8
LC-001-002-----0
  6
CONTINUOUS
  5
29A
 10
560.131379
 20
403.334111
 30
0.0
 11
560.131379
 21
397.334111
 31
0.0
  0
LINE
  8
LC-001-002-----0
  6
CONTINUOUS
  5
29B
 10
521.131379
 20
407.334111
 30
0.0
 11
556.131379
 21
407.334111
 31
0.0
  0
LINE
  8
LC-001-002-----0
  6
CONTINUOUS
  5
29C
 10
517.131379
 20
476.336018
 30
0.0
 11
560.131379
 21
476.336018
 31
0.0
  0
LINE
  8
LC-001-002-----0
  6
CONTINUOUS
  5
29D
 10
517.131379
 20
474.336018
 30
0.0
 11
560.131379
 21
474.336018
 31
0.0
  0
LINE
  8
LC-001-002-----0
  6
CONTINUOUS
  5
29E
 10
517.131379
 20
470.336018
 30
0.0
 11
560.131379
 21
470.336018
 31
0.0
  0
LINE
  8
LC-001-002-----0
  6
CONTINUOUS
  5
29F
 10
517.131379
 20
470.336018
 30
0.0
 11
517.131379
 21
476.336018
 31
0.0
  0
LINE
  8
LC-001-002-----0
  6
CONTINUOUS
  5
2A0
 10
560.131379
 20
476.336018
 30
0.0
 11
560.131379
 21
470.336018
 31
0.0
  0
LINE
  8
LC-001-002-----0
  6
CONTINUOUS
  5
2A1
 10
521.631379
 20
397.334111
 30
0.0
 11
521.631379
 21
383.334111
 31
0.0
  0
LINE
  8
LC-001-002-----0
  6
CONTINUOUS
  5
2A2
 10
212.035659
 20
314.834011
 30
0.0
 11
249.035659
 21
314.834011
 31
0.0
  0
LINE
  8
LC-001-002-----0
  6
CONTINUOUS
  5
2A3
 10
212.035659
 20
313.834011
 30
0.0
 11
252.035659
 21
313.834011
 31
0.0
  0
LINE
  8
LC-001-002-----0
  6
CONTINUOUS
  5
2A4
 10
555.631379
 20
407.334111
 30
0.0
 11
555.631379
 21
466.336018
 31
0.0
  0
LINE
  8
LC-001-002-----0
  6
CONTINUOUS
  5
2A5
 10
252.035659
 20
313.834011
 30
0.0
 11
252.035659
 21
324.084208
 31
0.0
  0
LINE
  8
LC-001-002-----0
  6
CONTINUOUS
  5
2A6
 10
249.035659
 20
314.834011
 30
0.0
 11
249.035659
 21
327.084204
 31
0.0
  0
LINE
  8
LC-001-002-----0
  6
CONTINUOUS
  5
2A7
 10
312.968396
 20
258.034973
 30
0.0
 11
312.968396
 21
229.804748
 31
0.0
  0
LINE
  8
LC-001-002-----0
  6
CONTINUOUS
  5
2A8
 10
249.035659
 20
326.834011
 30
0.0
 11
251.035659
 21
327.369909
 31
0.0
  0
ARC
  8
LC-006-002-RND-0
  6
CONTINUOUS
  5
2AA
 10
256.132159
 20
326.834011
 30
0.0
 40
0.5
 50
200.556045
 51
270.0
  0
LINE
  8
LC-001-002-----0
  6
CONTINUOUS
  5
2AB
 10
253.535659
 20
332.334011
 30
0.0
 11
255.663994
 21
326.658449
 31
0.0
  0
LINE
  8
LC-001-002-----0
  6
CONTINUOUS
  5
2AC
 10
256.907323
 20
326.658449
 30
0.0
 11
259.035659
 21
332.334011
 31
0.0
  0
ARC
  8
LC-006-002-RND-0
  6
CONTINUOUS
  5
2AD
 10
256.439158
 20
326.834011
 30
0.0
 40
0.5
 50
270.0
 51
339.443955
  0
LINE
  8
LC-001-002-----0
  6
CONTINUOUS
  5
2AE
 10
256.132159
 20
326.334011
 30
0.0
 11
256.439158
 21
326.334011
 31
0.0
  0
LINE
  8
LC-001-002-----0
  6
CONTINUOUS
  5
2AF
 10
263.535659
 20
332.334011
 30
0.0
 11
265.663994
 21
326.658449
 31
0.0
  0
LINE
  8
LC-001-002-----0
  6
CONTINUOUS
  5
2B0
 10
266.907323
 20
326.658449
 30
0.0
 11
269.035659
 21
332.334011
 31
0.0
  0
ARC
  8
LC-006-002-RND-0
  6
CONTINUOUS
  5
2B1
 10
266.439158
 20
326.834011
 30
0.0
 40
0.5
 50
270.0
 51
339.443955
  0
ARC
  8
LC-006-002-RND-0
  6
CONTINUOUS
  5
2B2
 10
266.132159
 20
326.834011
 30
0.0
 40
0.5
 50
200.556045
 51
270.0
  0
ARC
  8
LC-001-002-----0
  6
DASHED
 62
     2
  5
2B3
 10
538.631379
 20
351.270134
 30
0.0
 40
32.43606
 50
60.499352
 51
119.500648
  0
LINE
  8
LC-001-002-----0
  6
CONTINUOUS
  5
2B4
 10
189.223245
 20
367.397989
 30
0.0
 11
239.068249
 21
367.397989
 31
0.0
  0
LINE
  8
LC-001-002-----0
  6
CONTINUOUS
  5
2B5
 10
266.132159
 20
326.334011
 30
0.0
 11
266.439158
 21
326.334011
 31
0.0
  0
ARC
  8
LC-001-002-----0
  6
CONTINUOUS
  5
2B6
 10
306.934585
 20
334.971476
 30
0.0
 40
98.5
 50
180.661659
 51
195.65621
  0
LINE
  8
LC-001-002-----0
  6
CONTINUOUS
  5
2B7
 10
521.131379
 20
466.336018
 30
0.0
 11
556.131379
 21
466.336018
 31
0.0
  0
LINE
  8
LC-001-002-----0
  6
CONTINUOUS
  5
2B8
 10
272.965378
 20
258.498695
 30
0.0
 11
272.965378
 21
258.034973
 31
0.0
  0
ARC
  8
LC-006-002-RND-0
  6
CONTINUOUS
  5
2B9
 10
556.131379
 20
403.334111
 30
0.0
 40
4.0
 50
0.0
 51
90.0
  0
ARC
  8
LC-006-002-RND-0
  6
CONTINUOUS
  5
2BA
 10
521.131379
 20
403.334111
 30
0.0
 40
4.0
 50
90.0
 51
180.0
  0
LINE
  8
LC-001-002-----0
  6
DASHDOT
 62
     2
  5
2BB
 10
294.918396
 20
238.391092
 30
0.0
 11
294.918396
 21
173.583175
 31
0.0
  0
ARC
  8
LC-006-002-RND-0
  6
CONTINUOUS
  5
2BC
 10
521.131379
 20
470.336018
 30
0.0
 40
4.0
 50
180.0
 51
270.0
  0
LINE
  8
LC-001-002-----0
  6
DASHED
 62
     2
  5
2BD
 10
556.681379
 20
255.597396
 30
0.0
 11
546.457622
 21
255.597396
 31
0.0
  0
LINE
  8
LC-001-002-----0
  6
CONTINUOUS
  5
2BE
 10
269.818396
 20
225.583175
 30
0.0
 11
269.818396
 21
177.083175
 31
0.0
  0
ARC
  8
LC-006-002-RND-0
  6
CONTINUOUS
  5
2BF
 10
556.131379
 20
470.336018
 30
0.0
 40
4.0
 50
270.0
 51
0.0
  0
LINE
  8
LC-001-002-----0
  6
DASHDOT
 62
     2
  5
2C0
 10
538.631379
 20
476.336018
 30
0.0
 11
538.631379
 21
381.333984
 31
0.0
  0
LINE
  8
LC-001-002-----0
  6
CONTINUOUS
  5
2C1
 10
320.018396
 20
225.583175
 30
0.0
 11
320.018396
 21
177.083175
 31
0.0
  0
LINE
  8
LC-001-002-----0
  6
CONTINUOUS
  5
2C2
 10
312.968396
 20
323.150076
 30
0.0
 11
307.035659
 21
323.150076
 31
0.0
  0
LINE
  8
LC-001-002-----0
  6
CONTINUOUS
  5
2C3
 10
319.080574
 20
173.583175
 30
0.0
 11
270.756219
 21
173.583175
 31
0.0
  0
LINE
  8
LC-001-002-----0
  6
CONTINUOUS
  5
2C4
 10
269.818396
 20
177.083175
 30
0.0
 11
270.756219
 21
173.583175
 31
0.0
  0
LINE
  8
LC-001-002-----0
  6
CONTINUOUS
  5
2C5
 10
320.018396
 20
177.083175
 30
0.0
 11
319.080574
 21
173.583175
 31
0.0
  0
LINE
  8
LC-001-002-----0
  6
CONTINUOUS
  5
2C6
 10
274.868396
 20
230.633175
 30
0.0
 11
269.818396
 21
225.583175
 31
0.0
  0
LINE
  8
LC-001-002-----0
  6
CONTINUOUS
  5
2C7
 10
582.047015
 20
276.723063
 30
0.0
 11
574.393458
 21
320.128546
 31
0.0
  0
LINE
  8
LC-001-002-----0
  6
DASHED
 62
     2
  5
2C8
 10
574.393458
 20
320.128546
 30
0.0
 11
568.186099
 21
355.332229
 31
0.0
  0
ARC
  8
LC-006-002-RND-0
  6
CONTINUOUS
  5
2C9
 10
207.434594
 20
334.834011
 30
0.0
 40
0.5
 50
90.0
 51
180.003985
  0
LINE
  8
LC-001-002-----0
  6
CONTINUOUS
  5
2CA
 10
210.9339
 20
335.334011
 30
0.0
 11
210.9339
 21
333.834011
 31
0.0
  0
ARC
  8
LC-001-002-----0
  6
CONTINUOUS
  5
2CB
 10
216.390025
 20
309.713474
 30
0.0
 40
4.5
 50
197.106393
 51
254.578552
  0
LINE
  8
LC-001-002-----0
  6
CONTINUOUS
  5
2CC
 10
210.9339
 20
335.334011
 30
0.0
 11
207.434594
 21
335.334011
 31
0.0
  0
LINE
  8
LC-001-002-----0
  6
CONTINUOUS
  5
2CD
 10
314.968396
 20
230.633175
 30
0.0
 11
320.018396
 21
225.583175
 31
0.0
  0
LINE
  8
LC-001-002-----0
  6
CONTINUOUS
  5
2CE
 10
271.818396
 20
224.754748
 30
0.0
 11
271.818396
 21
173.583175
 31
0.0
  0
LINE
  8
LC-001-002-----0
  6
CONTINUOUS
  5
2CF
 10
318.018396
 20
224.754748
 30
0.0
 11
318.018396
 21
173.583175
 31
0.0
  0
LINE
  8
LC-001-002-----0
  6
CONTINUOUS
  5
2D0
 10
276.868396
 20
229.804748
 30
0.0
 11
271.818396
 21
224.754748
 31
0.0
  0
LINE
  8
LC-001-002-----0
  6
CONTINUOUS
  5
2D1
 10
312.968396
 20
229.804748
 30
0.0
 11
318.018396
 21
224.754748
 31
0.0
  0
LINE
  8
LC-001-002-----0
  6
DASHED
 62
     2
  5
2D2
 10
511.051472
 20
323.150076
 30
0.0
 11
518.883005
 21
278.735247
 31
0.0
  0
ARC
  8
LC-006-002-RND-0
  6
DASHED
 62
     2
  5
2D3
 10
546.457622
 20
283.597396
 30
0.0
 40
28.0
 50
190.0
 51
270.0
  0
LINE
  8
LC-001-002-----0
  6
DASHED
 62
     2
  5
2D4
 10
490.403337
 20
309.594189
 30
0.0
 11
499.796777
 21
256.321342
 31
0.0
  0
LINE
  8
LC-001-002-----0
  6
DASHED
 62
     2
  5
2D5
 10
521.462548
 20
238.141602
 30
0.0
 11
556.681379
 21
238.141602
 31
0.0
  0
LINE
  8
LC-001-002-----0
  6
CONTINUOUS
  5
2D6
 10
210.9339
 20
333.834011
 30
0.0
 11
208.436266
 21
333.834011
 31
0.0
  0
LINE
  8
LC-001-002-----0
  6
DASHED
 62
     2
  5
2D7
 10
556.681379
 20
255.597396
 30
0.0
 11
556.681379
 21
238.141602
 31
0.0
  0
LINE
  8
LC-001-002-----0
  6
DASHED
 62
     2
  5
2D8
 10
564.320476
 20
258.597396
 30
0.0
 11
546.457622
 21
258.597396
 31
0.0
  0
LINE
  8
LC-001-002-----0
  6
DASHED
 62
     2
  5
2D9
 10
565.02533
 20
355.981525
 30
0.0
 11
579.092592
 21
276.202118
 31
0.0
  0
ARC
  8
LC-006-002-RND-0
  6
DASHED
 62
     2
  5
2DA
 10
564.320476
 20
273.597396
 30
0.0
 40
15.0
 50
270.0
 51
10.0
  0
LINE
  8
LC-001-002-----0
  6
DASHED
 62
     2
  5
2DB
 10
514.005895
 20
323.671021
 30
0.0
 11
521.837428
 21
279.256191
 31
0.0
  0
ARC
  8
LC-006-002-RND-0
  6
DASHED
 62
     2
  5
2DC
 10
546.457622
 20
283.597396
 30
0.0
 40
25.0
 50
190.0
 51
270.0
  0
ARC
  8
LC-006-002-RND-0
  6
DASHED
 62
     2
  5
2DD
 10
521.462548
 20
260.141602
 30
0.0
 40
22.0
 50
190.0
 51
270.0
  0
ARC
  8
LC-001-002-----0
  6
DASHED
 62
     2
  5
2DE
 10
538.631379
 20
351.270134
 30
0.0
 40
26.8
 50
10.120905
 51
107.829622
  0
LINE
  8
LC-001-002-----0
  6
DASHED
 62
     2
  5
2DF
 10
514.005895
 20
323.671021
 30
0.0
 11
511.051472
 21
323.150076
 31
0.0
  0
ARC
  8
LC-001-002-----0
  6
DASHED
 62
     2
  5
2E0
 10
547.23163
 20
321.338292
 30
0.0
 40
58.0
 50
106.862811
 51
191.676341
  0
LINE
  8
LC-001-002-----0
  6
CONTINUOUS
  5
2E1
 10
249.035659
 20
387.834011
 30
0.0
 11
249.035659
 21
375.834011
 31
0.0
  0
LINE
  8
LC-001-002-----0
  6
CONTINUOUS
  5
2E2
 10
275.035659
 20
323.150076
 30
0.0
 11
270.965378
 21
323.150076
 31
0.0
  0
LINE
  8
LC-001-002-----0
  6
DASHED
 62
     2
  5
2E3
 10
515.531379
 20
224.754748
 30
0.0
 11
515.531379
 21
173.583175
 31
0.0
  0
LINE
  8
LC-001-002-----0
  6
DASHED
 62
     2
  5
2E4
 10
520.581379
 20
229.804748
 30
0.0
 11
515.817156
 21
225.040525
 31
0.0
  0
LINE
  8
LC-001-002-----0
  6
DASHED
 62
     2
  5
2E5
 10
520.581379
 20
235.141602
 30
0.0
 11
520.581379
 21
229.804748
 31
0.0
  0
LINE
  8
LC-001-002-----0
  6
DASHED
 62
     2
  5
2E6
 10
556.681379
 20
235.141602
 30
0.0
 11
556.681379
 21
229.804748
 31
0.0
  0
LINE
  8
LC-001-002-----0
  6
DASHED
 62
     2
  5
2E7
 10
556.681379
 20
229.804748
 30
0.0
 11
561.731379
 21
224.754748
 31
0.0
  0
LINE
  8
LC-001-002-----0
  6
DASHED
 62
     2
  5
2E8
 10
561.731379
 20
224.754748
 30
0.0
 11
561.731379
 21
173.583175
 31
0.0
  0
LINE
  8
LC-001-002-----0
  6
DASHDOT
 62
     2
  5
2E9
 10
506.195257
 20
351.334011
 30
0.0
 11
571.067502
 21
351.334011
 31
0.0
  0
LINE
  8
LC-001-002-----0
  6
CONTINUOUS
  5
2EA
 10
275.035659
 20
273.154011
 30
0.0
 11
307.035659
 21
273.154011
 31
0.0
  0
LINE
  8
LC-002-005-----0
  6
CONTINUOUS
  5
2EB
 10
277.535659
 20
333.4046
 30
0.0
 11
276.106248
 21
334.834011
 31
0.0
  0
LINE
  8
LC-002-005-----0
  6
CONTINUOUS
  5
2EC
 10
277.535659
 20
330.576173
 30
0.0
 11
273.277821
 21
334.834011
 31
0.0
  0
LINE
  8
LC-002-005-----0
  6
CONTINUOUS
  5
2ED
 10
277.535659
 20
327.747746
 30
0.0
 11
274.035659
 21
331.247746
 31
0.0
  0
LINE
  8
LC-002-005-----0
  6
CONTINUOUS
  5
2EE
 10
272.949394
 20
332.334011
 30
0.0
 11
270.449394
 21
334.834011
 31
0.0
  0
LINE
  8
LC-002-005-----0
  6
CONTINUOUS
  5
2EF
 10
277.535659
 20
324.919319
 30
0.0
 11
275.035659
 21
327.419319
 31
0.0
  0
LINE
  8
LC-002-005-----0
  6
CONTINUOUS
  5
2F0
 10
270.120967
 20
332.334011
 30
0.0
 11
267.620967
 21
334.834011
 31
0.0
  0
LINE
  8
LC-002-005-----0
  6
CONTINUOUS
  5
2F1
 10
277.535659
 20
322.090892
 30
0.0
 11
275.035659
 21
324.590892
 31
0.0
  0
LINE
  8
LC-002-005-----0
  6
CONTINUOUS
  5
2F2
 10
268.560262
 20
331.066288
 30
0.0
 11
264.792539
 21
334.834011
 31
0.0
  0
LINE
  8
LC-002-005-----0
  6
CONTINUOUS
  5
2F3
 10
277.535659
 20
319.262465
 30
0.0
 11
275.035659
 21
321.762465
 31
0.0
  0
LINE
  8
LC-002-005-----0
  6
CONTINUOUS
  5
2F4
 10
267.788873
 20
329.00925
 30
0.0
 11
261.964112
 21
334.834011
 31
0.0
  0
LINE
  8
LC-002-005-----0
  6
CONTINUOUS
  5
2F5
 10
277.535659
 20
316.434038
 30
0.0
 11
275.035659
 21
318.934038
 31
0.0
  0
LINE
  8
LC-002-005-----0
  6
CONTINUOUS
  5
2F6
 10
267.017484
 20
326.952212
 30
0.0
 11
264.675643
 21
329.294054
 31
0.0
  0
LINE
  8
LC-001-002-----0
  6
CONTINUOUS
  5
2F7
 10
562.793557
 20
173.583175
 30
0.0
 11
514.469201
 21
173.583175
 31
0.0
  0
LINE
  8
LC-001-002-----0
  6
CONTINUOUS
  5
2F8
 10
256.132159
 20
376.334011
 30
0.0
 11
256.439158
 21
376.334011
 31
0.0
  0
LINE
  8
LC-002-005-----0
  6
CONTINUOUS
  5
2F9
 10
261.635685
 20
332.334011
 30
0.0
 11
259.135685
 21
334.834011
 31
0.0
  0
ARC
  8
LC-001-002-----0
  6
CONTINUOUS
  5
2FA
 10
216.390025
 20
309.713474
 30
0.0
 40
6.0
 50
196.512636
 51
258.495918
  0
LINE
  8
LC-002-005-----0
  6
CONTINUOUS
  5
2FB
 10
277.535659
 20
313.605611
 30
0.0
 11
275.035659
 21
316.105611
 31
0.0
  0
LINE
  8
LC-002-005-----0
  6
CONTINUOUS
  5
2FC
 10
258.973368
 20
332.167902
 30
0.0
 11
256.307258
 21
334.834011
 31
0.0
  0
LINE
  8
LC-002-005-----0
  6
CONTINUOUS
  5
2FD
 10
277.535659
 20
310.777183
 30
0.0
 11
275.035659
 21
313.277183
 31
0.0
  0
LINE
  8
LC-002-005-----0
  6
CONTINUOUS
  5
2FE
 10
258.201978
 20
330.110864
 30
0.0
 11
253.478831
 21
334.834011
 31
0.0
  0
LINE
  8
LC-002-005-----0
  6
CONTINUOUS
  5
2FF
 10
277.535659
 20
307.948756
 30
0.0
 11
275.035659
 21
310.448756
 31
0.0
  0
LINE
  8
LC-002-005-----0
  6
CONTINUOUS
  5
300
 10
257.430589
 20
328.053826
 30
0.0
 11
253.766811
 21
331.717603
 31
0.0
  0
LINE
  8
LC-002-005-----0
  6
CONTINUOUS
  5
301
 10
253.150404
 20
332.334011
 30
0.0
 11
250.650404
 21
334.834011
 31
0.0
  0
LINE
  8
LC-002-005-----0
  6
CONTINUOUS
  5
302
 10
277.535659
 20
305.120329
 30
0.0
 11
275.035659
 21
307.620329
 31
0.0
  0
LINE
  8
LC-002-005-----0
  6
CONTINUOUS
  5
303
 10
256.321977
 20
326.334011
 30
0.0
 11
255.463868
 21
327.19212
 31
0.0
  0
LINE
  8
LC-002-005-----0
  6
CONTINUOUS
  5
304
 10
251.035659
 20
331.620329
 30
0.0
 11
248.266215
 21
334.389773
 31
0.0
  0
LINE
  8
LC-002-005-----0
  6
CONTINUOUS
  5
305
 10
277.535659
 20
302.291902
 30
0.0
 11
275.035659
 21
304.791902
 31
0.0
  0
LINE
  8
LC-001-002-----0
  6
DASHDOT
 62
     2
  5
306
 10
187.223245
 20
371.201974
 30
0.0
 11
187.223245
 21
331.466048
 31
0.0
  0
LINE
  8
LC-001-002-----0
  6
DASHDOT
 62
     2
  5
307
 10
189.223245
 20
371.201974
 30
0.0
 11
189.223245
 21
331.466048
 31
0.0
  0
LINE
  8
LC-002-005-----0
  6
CONTINUOUS
  5
308
 10
251.035659
 20
328.791902
 30
0.0
 11
246.473064
 21
333.354496
 31
0.0
  0
LINE
  8
LC-001-002-----0
  6
CONTINUOUS
  5
309
 10
513.531379
 20
177.083175
 30
0.0
 11
563.731379
 21
177.083175
 31
0.0
  0
LINE
  8
LC-001-002-----0
  6
CONTINUOUS
  5
30A
 10
513.531379
 20
177.083175
 30
0.0
 11
514.469201
 21
173.583175
 31
0.0
  0
LINE
  8
LC-001-002-----0
  6
CONTINUOUS
  5
30B
 10
563.731379
 20
177.083175
 30
0.0
 11
562.793557
 21
173.583175
 31
0.0
  0
LINE
  8
LC-001-002-----0
  6
CONTINUOUS
  5
30C
 10
513.531379
 20
225.583175
 30
0.0
 11
513.531379
 21
177.083175
 31
0.0
  0
LINE
  8
LC-001-002-----0
  6
CONTINUOUS
  5
30D
 10
563.731379
 20
225.583175
 30
0.0
 11
563.731379
 21
177.083175
 31
0.0
  0
LINE
  8
LC-001-002-----0
  6
CONTINUOUS
  5
30E
 10
513.531379
 20
225.583175
 30
0.0
 11
563.731379
 21
225.583175
 31
0.0
  0
LINE
  8
LC-001-002-----0
  6
CONTINUOUS
  5
30F
 10
518.581379
 20
230.633175
 30
0.0
 11
513.531379
 21
225.583175
 31
0.0
  0
LINE
  8
LC-001-002-----0
  6
CONTINUOUS
  5
310
 10
107.544755
 20
381.397989
 30
0.0
 11
139.544755
 21
381.397989
 31
0.0
  0
LINE
  8
LC-001-002-----0
  6
CONTINUOUS
  5
311
 10
140.544755
 20
397.397989
 30
0.0
 11
106.544755
 21
397.397989
 31
0.0
  0
LINE
  8
LC-001-002-----0
  6
CONTINUOUS
  5
312
 10
106.544755
 20
466.399896
 30
0.0
 11
106.544755
 21
407.397989
 31
0.0
  0
LINE
  8
LC-001-002-----0
  6
CONTINUOUS
  5
313
 10
106.544755
 20
383.397989
 30
0.0
 11
140.544755
 21
383.397989
 31
0.0
  0
LINE
  8
LC-001-002-----0
  6
CONTINUOUS
  5
314
 10
140.544755
 20
383.397989
 30
0.0
 11
140.544755
 21
397.397989
 31
0.0
  0
LINE
  8
LC-001-002-----0
  6
CONTINUOUS
  5
315
 10
106.544755
 20
383.397989
 30
0.0
 11
107.544755
 21
381.397989
 31
0.0
  0
LINE
  8
LC-001-002-----0
  6
CONTINUOUS
  5
316
 10
140.544755
 20
383.397989
 30
0.0
 11
139.544755
 21
381.397989
 31
0.0
  0
LINE
  8
LC-001-002-----0
  6
CONTINUOUS
  5
317
 10
106.544755
 20
397.397989
 30
0.0
 11
102.044755
 21
397.397989
 31
0.0
  0
LINE
  8
LC-001-002-----0
  6
CONTINUOUS
  5
318
 10
145.044755
 20
397.397989
 30
0.0
 11
140.544755
 21
397.397989
 31
0.0
  0
LINE
  8
LC-001-002-----0
  6
CONTINUOUS
  5
319
 10
102.044755
 20
399.397989
 30
0.0
 11
145.044755
 21
399.397989
 31
0.0
  0
LINE
  8
LC-001-002-----0
  6
CONTINUOUS
  5
31A
 10
102.044755
 20
403.397989
 30
0.0
 11
145.044755
 21
403.397989
 31
0.0
  0
LINE
  8
LC-001-002-----0
  6
CONTINUOUS
  5
31B
 10
102.044755
 20
397.397989
 30
0.0
 11
102.044755
 21
403.397989
 31
0.0
  0
LINE
  8
LC-001-002-----0
  6
CONTINUOUS
  5
31C
 10
145.044755
 20
403.397989
 30
0.0
 11
145.044755
 21
397.397989
 31
0.0
  0
LINE
  8
LC-001-002-----0
  6
CONTINUOUS
  5
31D
 10
106.044755
 20
407.397989
 30
0.0
 11
141.044755
 21
407.397989
 31
0.0
  0
LINE
  8
LC-001-002-----0
  6
CONTINUOUS
  5
31E
 10
102.044755
 20
476.399896
 30
0.0
 11
145.044755
 21
476.399896
 31
0.0
  0
LINE
  8
LC-001-002-----0
  6
CONTINUOUS
  5
31F
 10
102.044755
 20
474.399896
 30
0.0
 11
145.044755
 21
474.399896
 31
0.0
  0
LINE
  8
LC-001-002-----0
  6
CONTINUOUS
  5
320
 10
102.044755
 20
470.399896
 30
0.0
 11
145.044755
 21
470.399896
 31
0.0
  0
LINE
  8
LC-001-002-----0
  6
CONTINUOUS
  5
321
 10
102.044755
 20
470.399896
 30
0.0
 11
102.044755
 21
476.399896
 31
0.0
  0
LINE
  8
LC-001-002-----0
  6
CONTINUOUS
  5
322
 10
145.044755
 20
476.399896
 30
0.0
 11
145.044755
 21
470.399896
 31
0.0
  0
LINE
  8
LC-001-002-----0
  6
CONTINUOUS
  5
323
 10
106.544755
 20
397.397989
 30
0.0
 11
106.544755
 21
383.397989
 31
0.0
  0
LINE
  8
LC-001-002-----0
  6
CONTINUOUS
  5
324
 10
140.544755
 20
407.397989
 30
0.0
 11
140.544755
 21
466.399896
 31
0.0
  0
ARC
  8
LC-001-002-----0
  6
CONTINUOUS
  5
325
 10
153.544755
 20
381.397989
 30
0.0
 40
14.0
 50
180.0
 51
270.000058
  0
LINE
  8
LC-001-002-----0
  6
CONTINUOUS
  5
326
 10
153.544755
 20
367.397989
 30
0.0
 11
187.223245
 21
367.397989
 31
0.0
  0
ARC
  8
LC-001-002-----0
  6
CONTINUOUS
  5
327
 10
153.544755
 20
381.397989
 30
0.0
 40
46.0
 50
180.0
 51
270.000058
  0
LINE
  8
LC-001-002-----0
  6
CONTINUOUS
  5
328
 10
153.544755
 20
335.397989
 30
0.0
 11
187.223245
 21
335.397989
 31
0.0
  0
LINE
  8
LC-001-002-----0
  6
CONTINUOUS
  5
329
 10
106.044755
 20
466.399896
 30
0.0
 11
141.044755
 21
466.399896
 31
0.0
  0
ARC
  8
LC-006-002-RND-0
  6
DASHDOT
 62
     2
  5
32A
 10
153.544755
 20
381.397862
 30
0.0
 40
30.0
 50
180.0
 51
269.99989
  0
ARC
  8
LC-006-002-RND-0
  6
CONTINUOUS
  5
32B
 10
141.044755
 20
403.397989
 30
0.0
 40
4.0
 50
0.0
 51
90.0
  0
ARC
  8
LC-006-002-RND-0
  6
CONTINUOUS
  5
32C
 10
106.044755
 20
403.397989
 30
0.0
 40
4.0
 50
90.0
 51
180.0
  0
ARC
  8
LC-006-002-RND-0
  6
CONTINUOUS
  5
32D
 10
106.044755
 20
470.399896
 30
0.0
 40
4.0
 50
180.0
 51
270.0
  0
ARC
  8
LC-006-002-RND-0
  6
CONTINUOUS
  5
32E
 10
141.044755
 20
470.399896
 30
0.0
 40
4.0
 50
270.0
 51
0.0
  0
LINE
  8
LC-001-002-----0
  6
DASHDOT
 62
     2
  5
32F
 10
123.544755
 20
476.399896
 30
0.0
 11
123.544755
 21
381.397862
 31
0.0
  0
LINE
  8
LC-001-002-----0
  6
CONTINUOUS
  5
330
 10
239.068249
 20
367.397989
 30
0.0
 11
277.535659
 21
367.397989
 31
0.0
  0
LINE
  8
LC-001-002-----0
  6
CONTINUOUS
  5
331
 10
236.578308
 20
335.397989
 30
0.0
 11
277.535659
 21
335.397989
 31
0.0
  0
LINE
  8
LC-001-002-----0
  6
CONTINUOUS
  5
332
 10
518.581379
 20
230.633175
 30
0.0
 11
558.681379
 21
230.633175
 31
0.0
  0
CIRCLE
  8
LC-001-002-----0
  6
DASHED
 62
     2
  5
333
 10
538.631379
 20
351.270134
 30
0.0
 40
37.5
  0
LINE
  8
LC-001-002-----0
  6
CONTINUOUS
  5
334
 10
558.681379
 20
230.633175
 30
0.0
 11
563.731379
 21
225.583175
 31
0.0
  0
LINE
  8
LC-002-005-----0
  6
CONTINUOUS
  5
335
 10
277.535659
 20
299.463475
 30
0.0
 11
275.035659
 21
301.963475
 31
0.0
  0
LINE
  8
LC-002-005-----0
  6
CONTINUOUS
  5
336
 10
249.926439
 20
327.072695
 30
0.0
 11
246.035659
 21
330.963475
 31
0.0
  0
LINE
  8
LC-002-005-----0
  6
CONTINUOUS
  5
337
 10
277.535659
 20
296.635048
 30
0.0
 11
275.035659
 21
299.135048
 31
0.0
  0
LINE
  8
LC-002-005-----0
  6
CONTINUOUS
  5
338
 10
249.035659
 20
325.135048
 30
0.0
 11
246.035659
 21
328.135048
 31
0.0
  0
LINE
  8
LC-002-005-----0
  6
CONTINUOUS
  5
339
 10
277.535659
 20
293.806621
 30
0.0
 11
275.035659
 21
296.306621
 31
0.0
  0
LINE
  8
LC-002-005-----0
  6
CONTINUOUS
  5
33A
 10
248.508268
 20
322.834011
 30
0.0
 11
246.035659
 21
325.306621
 31
0.0
  0
LINE
  8
LC-002-005-----0
  6
CONTINUOUS
  5
33B
 10
277.535659
 20
290.978194
 30
0.0
 11
275.035659
 21
293.478194
 31
0.0
  0
LINE
  8
LC-002-005-----0
  6
CONTINUOUS
  5
33C
 10
277.535659
 20
288.149766
 30
0.0
 11
275.035659
 21
290.649766
 31
0.0
  0
LINE
  8
LC-002-005-----0
  6
CONTINUOUS
  5
33D
 10
277.535659
 20
285.321339
 30
0.0
 11
275.035659
 21
287.821339
 31
0.0
  0
LINE
  8
LC-002-005-----0
  6
CONTINUOUS
  5
33E
 10
277.535659
 20
282.492912
 30
0.0
 11
275.035659
 21
284.992912
 31
0.0
  0
LINE
  8
LC-002-005-----0
  6
CONTINUOUS
  5
33F
 10
277.535659
 20
279.664485
 30
0.0
 11
275.035659
 21
282.164485
 31
0.0
  0
LINE
  8
LC-002-005-----0
  6
CONTINUOUS
  5
340
 10
277.535659
 20
276.836058
 30
0.0
 11
275.035659
 21
279.336058
 31
0.0
  0
LINE
  8
LC-002-005-----0
  6
CONTINUOUS
  5
341
 10
277.535659
 20
274.007631
 30
0.0
 11
275.035659
 21
276.507631
 31
0.0
  0
LINE
  8
LC-001-002-----0
  6
DASHED
 62
     2
  5
342
 10
536.168688
 20
273.154011
 30
0.0
 11
568.662339
 21
273.154011
 31
0.0
  0
CIRCLE
  8
LC-001-002-----0
  6
DASHED
 62
     2
  5
343
 10
538.631379
 20
351.270134
 30
0.0
 40
36.5
  0
CIRCLE
  8
LC-001-002-----0
  6
DASHED
 62
     2
  5
344
 10
538.631379
 20
351.270134
 30
0.0
 40
24.75
  0
LINE
  8
LC-002-005-----0
  6
CONTINUOUS
  5
345
 10
306.166356
 20
358.514019
 30
0.0
 11
297.067894
 21
367.61248
 31
0.0
  0
LINE
  8
LC-002-005-----0
  6
CONTINUOUS
  5
346
 10
306.970184
 20
354.881763
 30
0.0
 11
293.135805
 21
368.716142
 31
0.0
  0
LINE
  8
LC-002-005-----0
  6
CONTINUOUS
  5
347
 10
307.035659
 20
351.987862
 30
0.0
 11
303.969193
 21
355.054327
 31
0.0
  0
LINE
  8
LC-002-005-----0
  6
CONTINUOUS
  5
348
 10
295.755974
 20
363.267546
 30
0.0
 11
289.272102
 21
369.751418
 31
0.0
  0
LINE
  8
LC-002-005-----0
  6
CONTINUOUS
  5
349
 10
307.035659
 20
349.159434
 30
0.0
 11
304.531308
 21
351.663785
 31
0.0
  0
LINE
  8
LC-002-005-----0
  6
CONTINUOUS
  5
34A
 10
292.365433
 20
363.82966
 30
0.0
 11
285.408398
 21
370.786695
 31
0.0
  0
LINE
  8
LC-002-005-----0
  6
CONTINUOUS
  5
34B
 10
307.035659
 20
346.331007
 30
0.0
 11
304.535659
 21
348.831007
 31
0.0
  0
LINE
  8
LC-002-005-----0
  6
CONTINUOUS
  5
34C
 10
289.532655
 20
363.834011
 30
0.0
 11
281.544695
 21
371.821971
 31
0.0
  0
LINE
  8
LC-002-005-----0
  6
CONTINUOUS
  5
34D
 10
307.035659
 20
343.50258
 30
0.0
 11
304.535659
 21
346.00258
 31
0.0
  0
LINE
  8
LC-002-005-----0
  6
CONTINUOUS
  5
34E
 10
286.704228
 20
363.834011
 30
0.0
 11
277.680992
 21
372.857247
 31
0.0
  0
LINE
  8
LC-002-005-----0
  6
CONTINUOUS
  5
34F
 10
307.035659
 20
340.674153
 30
0.0
 11
304.535659
 21
343.174153
 31
0.0
  0
LINE
  8
LC-002-005-----0
  6
CONTINUOUS
  5
350
 10
283.875801
 20
363.834011
 30
0.0
 11
274.035659
 21
373.674153
 31
0.0
  0
LINE
  8
LC-002-005-----0
  6
CONTINUOUS
  5
351
 10
307.035659
 20
337.845726
 30
0.0
 11
304.535659
 21
340.345726
 31
0.0
  0
LINE
  8
LC-002-005-----0
  6
CONTINUOUS
  5
352
 10
281.047373
 20
363.834011
 30
0.0
 11
277.535659
 21
367.345726
 31
0.0
  0
ARC
  8
LC-001-002-----0
  6
CONTINUOUS
  5
353
 10
306.934585
 20
334.971476
 30
0.0
 40
100.0
 50
180.079158
 51
195.642467
  0
LINE
  8
LC-002-005-----0
  6
CONTINUOUS
  5
354
 10
277.047373
 20
367.834011
 30
0.0
 11
274.035659
 21
370.845726
 31
0.0
  0
LINE
  8
LC-002-005-----0
  6
CONTINUOUS
  5
355
 10
307.035659
 20
335.017299
 30
0.0
 11
304.535659
 21
337.517299
 31
0.0
  0
LINE
  8
LC-002-005-----0
  6
CONTINUOUS
  5
356
 10
278.218946
 20
363.834011
 30
0.0
 11
277.535659
 21
364.517299
 31
0.0
  0
LINE
  8
LC-002-005-----0
  6
CONTINUOUS
  5
357
 10
274.218946
 20
367.834011
 30
0.0
 11
271.718946
 21
370.334011
 31
0.0
  0
LINE
  8
LC-002-005-----0
  6
CONTINUOUS
  5
358
 10
267.425686
 20
374.627271
 30
0.0
 11
265.824672
 21
376.228285
 31
0.0
  0
LINE
  8
LC-002-005-----0
  6
CONTINUOUS
  5
359
 10
307.035659
 20
332.188872
 30
0.0
 11
304.535659
 21
334.688872
 31
0.0
  0
LINE
  8
LC-002-005-----0
  6
CONTINUOUS
  5
35A
 10
271.390519
 20
367.834011
 30
0.0
 11
264.996075
 21
374.228455
 31
0.0
  0
LINE
  8
LC-002-005-----0
  6
CONTINUOUS
  5
35B
 10
307.035659
 20
329.360445
 30
0.0
 11
304.535659
 21
331.860445
 31
0.0
  0
LINE
  8
LC-002-005-----0
  6
CONTINUOUS
  5
35C
 10
268.562092
 20
367.834011
 30
0.0
 11
264.224686
 21
372.171417
 31
0.0
  0
LINE
  8
LC-002-005-----0
  6
CONTINUOUS
  5
35D
 10
307.035659
 20
326.532017
 30
0.0
 11
304.535659
 21
329.032017
 31
0.0
  0
LINE
  8
LC-002-005-----0
  6
CONTINUOUS
  5
35E
 10
265.733665
 20
367.834011
 30
0.0
 11
263.233665
 21
370.334011
 31
0.0
  0
LINE
  8
LC-002-005-----0
  6
CONTINUOUS
  5
35F
 10
307.035659
 20
323.70359
 30
0.0
 11
304.535659
 21
326.20359
 31
0.0
  0
LINE
  8
LC-002-005-----0
  6
CONTINUOUS
  5
360
 10
262.905238
 20
367.834011
 30
0.0
 11
260.405238
 21
370.334011
 31
0.0
  0
LINE
  8
LC-002-005-----0
  6
CONTINUOUS
  5
361
 10
258.213911
 20
372.525338
 30
0.0
 11
255.40918
 21
375.330069
 31
0.0
  0
LINE
  8
LC-002-005-----0
  6
CONTINUOUS
  5
362
 10
307.035659
 20
320.875163
 30
0.0
 11
304.535659
 21
323.375163
 31
0.0
  0
LINE
  8
LC-002-005-----0
  6
CONTINUOUS
  5
363
 10
260.076811
 20
367.834011
 30
0.0
 11
254.637791
 21
373.273031
 31
0.0
  0
LINE
  8
LC-002-005-----0
  6
CONTINUOUS
  5
364
 10
307.035659
 20
318.046736
 30
0.0
 11
304.535659
 21
320.546736
 31
0.0
  0
LINE
  8
LC-002-005-----0
  6
CONTINUOUS
  5
365
 10
257.248384
 20
367.834011
 30
0.0
 11
253.866402
 21
371.215993
 31
0.0
  0
LINE
  8
LC-002-005-----0
  6
CONTINUOUS
  5
366
 10
251.035659
 20
374.046736
 30
0.0
 11
249.326246
 21
375.756148
 31
0.0
  0
LINE
  8
LC-002-005-----0
  6
CONTINUOUS
  5
367
 10
307.035659
 20
315.218309
 30
0.0
 11
304.535659
 21
317.718309
 31
0.0
  0
LINE
  8
LC-002-005-----0
  6
CONTINUOUS
  5
368
 10
254.419956
 20
367.834011
 30
0.0
 11
251.919956
 21
370.334011
 31
0.0
  0
LINE
  8
LC-002-005-----0
  6
CONTINUOUS
  5
369
 10
251.035659
 20
371.218309
 30
0.0
 11
249.035659
 21
373.218309
 31
0.0
  0
LINE
  8
LC-002-005-----0
  6
CONTINUOUS
  5
36A
 10
307.035659
 20
312.389882
 30
0.0
 11
304.535659
 21
314.889882
 31
0.0
  0
LINE
  8
LC-002-005-----0
  6
CONTINUOUS
  5
36B
 10
251.591529
 20
367.834011
 30
0.0
 11
249.035659
 21
370.389882
 31
0.0
  0
LINE
  8
LC-002-005-----0
  6
CONTINUOUS
  5
36C
 10
307.035659
 20
309.561455
 30
0.0
 11
304.535659
 21
312.061455
 31
0.0
  0
LINE
  8
LC-002-005-----0
  6
CONTINUOUS
  5
36D
 10
307.035659
 20
306.733028
 30
0.0
 11
304.535659
 21
309.233028
 31
0.0
  0
LINE
  8
LC-002-005-----0
  6
CONTINUOUS
  5
36E
 10
307.035659
 20
303.9046
 30
0.0
 11
304.535659
 21
306.4046
 31
0.0
  0
LINE
  8
LC-002-005-----0
  6
CONTINUOUS
  5
36F
 10
307.035659
 20
301.076173
 30
0.0
 11
304.535659
 21
303.576173
 31
0.0
  0
LINE
  8
LC-002-005-----0
  6
CONTINUOUS
  5
370
 10
307.035659
 20
298.247746
 30
0.0
 11
304.535659
 21
300.747746
 31
0.0
  0
LINE
  8
LC-002-005-----0
  6
CONTINUOUS
  5
371
 10
307.035659
 20
295.419319
 30
0.0
 11
304.535659
 21
297.919319
 31
0.0
  0
LINE
  8
LC-002-005-----0
  6
CONTINUOUS
  5
372
 10
307.035659
 20
292.590892
 30
0.0
 11
304.535659
 21
295.090892
 31
0.0
  0
LINE
  8
LC-002-005-----0
  6
CONTINUOUS
  5
373
 10
307.035659
 20
289.762465
 30
0.0
 11
304.535659
 21
292.262465
 31
0.0
  0
LINE
  8
LC-002-005-----0
  6
CONTINUOUS
  5
374
 10
307.035659
 20
286.934038
 30
0.0
 11
304.535659
 21
289.434038
 31
0.0
  0
LINE
  8
LC-002-005-----0
  6
CONTINUOUS
  5
375
 10
307.035659
 20
284.105611
 30
0.0
 11
304.535659
 21
286.605611
 31
0.0
  0
LINE
  8
LC-002-005-----0
  6
CONTINUOUS
  5
376
 10
307.035659
 20
281.277183
 30
0.0
 11
304.535659
 21
283.777183
 31
0.0
  0
LINE
  8
LC-002-005-----0
  6
CONTINUOUS
  5
377
 10
307.035659
 20
278.448756
 30
0.0
 11
304.535659
 21
280.948756
 31
0.0
  0
LINE
  8
LC-002-005-----0
  6
CONTINUOUS
  5
378
 10
307.035659
 20
275.620329
 30
0.0
 11
304.535659
 21
278.120329
 31
0.0
  0
LINE
  8
LC-001-002-----0
  6
DASHED
 62
     2
  5
379
 10
513.942566
 20
353.009389
 30
0.0
 11
508.640519
 21
352.074495
 31
0.0
  0
LINE
  8
LC-001-002-----0
  6
DASHED
 62
     2
  5
37A
 10
516.026344
 20
341.191696
 30
0.0
 11
510.749589
 21
340.261262
 31
0.0
  0
LINE
  8
LC-001-002-----0
  6
CONTINUOUS
  5
37B
 10
215.193399
 20
313.834011
 30
0.0
 11
215.193399
 21
303.834011
 31
0.0
  0
LINE
  8
LC-001-002-----0
  6
CONTINUOUS
  5
37C
 10
266.132159
 20
376.334011
 30
0.0
 11
266.439158
 21
376.334011
 31
0.0
  0
ARC
  8
LC-001-002-----0
  6
CONTINUOUS
  5
37D
 10
306.934585
 20
367.696546
 30
0.0
 40
98.5
 50
164.34379
 51
179.338341
  0
ARC
  8
LC-006-002-RND-0
  6
CONTINUOUS
  5
37E
 10
207.434594
 20
367.834011
 30
0.0
 40
0.5
 50
179.996015
 51
270.0
  0
LINE
  8
LC-001-002-----0
  6
CONTINUOUS
  5
37F
 10
189.223245
 20
335.397989
 30
0.0
 11
236.578308
 21
335.397989
 31
0.0
  0
LINE
  8
LC-001-002-----0
  6
CONTINUOUS
  5
380
 10
210.9339
 20
367.334011
 30
0.0
 11
210.9339
 21
368.834011
 31
0.0
  0
ARC
  8
LC-001-002-----0
  6
CONTINUOUS
  5
381
 10
216.390025
 20
392.954548
 30
0.0
 40
4.5
 50
105.421448
 51
162.893607
  0
LINE
  8
LC-001-002-----0
  6
CONTINUOUS
  5
382
 10
210.9339
 20
367.334011
 30
0.0
 11
207.434594
 21
367.334011
 31
0.0
  0
LINE
  8
LC-001-002-----0
  6
CONTINUOUS
  5
383
 10
210.9339
 20
368.834011
 30
0.0
 11
208.436266
 21
368.834011
 31
0.0
  0
ARC
  8
LC-001-002-----0
  6
CONTINUOUS
  5
384
 10
216.390025
 20
392.954548
 30
0.0
 40
6.0
 50
101.504082
 51
163.487364
  0
ARC
  8
LC-001-002-----0
  6
CONTINUOUS
  5
385
 10
306.934585
 20
367.696546
 30
0.0
 40
100.0
 50
164.357533
 51
179.920842
  0
LINE
  8
LC-001-002-----0
  6
CONTINUOUS
  5
386
 10
215.193399
 20
388.834011
 30
0.0
 11
215.193399
 21
398.834011
 31
0.0
  0
LINE
  8
LC-001-002-----0
  6
CONTINUOUS
  5
387
 10
559.681379
 20
253.597396
 30
0.0
 11
559.681379
 21
235.141602
 31
0.0
  0
ARC
  8
LC-006-002-RND-0
  6
CONTINUOUS
  5
388
 10
561.681379
 20
253.597396
 30
0.0
 40
2.0
 50
90.0
 51
180.0
  0
LINE
  8
LC-001-002-----0
  6
CONTINUOUS
  5
389
 10
521.084953
 20
235.141602
 30
0.0
 11
559.681379
 21
235.141602
 31
0.0
  0
LINE
  8
LC-001-002-----0
  6
CONTINUOUS
  5
38A
 10
487.448914
 20
309.073244
 30
0.0
 11
496.907923
 21
255.428539
 31
0.0
  0
LINE
  8
LC-001-002-----0
  6
CONTINUOUS
  5
38B
 10
564.320476
 20
255.597396
 30
0.0
 11
561.681379
 21
255.597396
 31
0.0
  0
ARC
  8
LC-006-002-RND-0
  6
CONTINUOUS
  5
38C
 10
564.320476
 20
273.597396
 30
0.0
 40
18.0
 50
270.0
 51
10.0
  0
ARC
  8
LC-001-002-----0
  6
CONTINUOUS
  5
38D
 10
521.084953
 20
259.691602
 30
0.0
 40
24.55
 50
190.0
 51
270.0
  0
LINE
  8
LC-001-002-----0
  6
CONTINUOUS
  5
38E
 10
518.581379
 20
235.141602
 30
0.0
 11
518.581379
 21
230.633175
 31
0.0
  0
LINE
  8
LC-001-002-----0
  6
CONTINUOUS
  5
38F
 10
558.681379
 20
235.141602
 30
0.0
 11
558.681379
 21
230.633175
 31
0.0
  0
ARC
  8
LC-001-002-----0
  6
CONTINUOUS
  5
390
 10
547.23163
 20
321.338292
 30
0.0
 40
61.0
 50
156.154986
 51
191.594677
  0
LINE
  8
LC-001-002-----0
  6
CONTINUOUS
  5
391
 10
487.448779
 20
309.074009
 30
0.0
 11
496.907923
 21
255.428539
 31
0.0
  0
LINE
  8
LC-001-002-----0
  6
CONTINUOUS
  5
392
 10
252.035659
 20
378.583814
 30
0.0
 11
268.035659
 21
378.583783
 31
0.0
  0
LINE
  8
LC-001-002-----0
  6
CONTINUOUS
  5
393
 10
249.035564
 20
327.084204
 30
0.0
 11
270.965378
 21
327.084162
 31
0.0
  0
LINE
  8
LC-001-002-----0
  6
CONTINUOUS
  5
394
 10
249.035659
 20
376.08382
 30
0.0
 11
270.965472
 21
376.083778
 31
0.0
  0
LINE
  8
LC-001-002-----0
  6
CONTINUOUS
  5
395
 10
249.035564
 20
327.084204
 30
0.0
 11
249.035564
 21
323.084207
 31
0.0
  0
LINE
  8
LC-001-002-----0
  6
CONTINUOUS
  5
396
 10
252.035555
 20
324.584198
 30
0.0
 11
267.970857
 21
324.584167
 31
0.0
  0
LINE
  8
LC-001-002-----0
  6
CONTINUOUS
  5
397
 10
252.035549
 20
323.084195
 30
0.0
 11
252.035555
 21
324.584198
 31
0.0
  0
LINE
  8
LC-001-002-----0
  6
CONTINUOUS
  5
398
 10
293.968396
 20
383.084017
 30
0.0
 11
315.968396
 21
383.084017
 31
0.0
  0
LINE
  8
LC-001-002-----0
  6
DASHDOT
 62
     2
  5
399
 10
246.035659
 20
351.334011
 30
0.0
 11
291.035659
 21
351.334011
 31
0.0
  0
LINE
  8
LC-001-002-----0
  6
DASHDOT
 62
     2
  5
39A
 10
291.035659
 20
351.334011
 30
0.0
 11
291.035659
 21
273.154011
 31
0.0
  0
LINE
  8
LC-001-002-----0
  6
CONTINUOUS
  5
39B
 10
312.968396
 20
260.534973
 30
0.0
 11
312.968396
 21
378.383501
 31
0.0
  0
LINE
  8
LC-001-002-----0
  6
CONTINUOUS
  5
39C
 10
307.035659
 20
353.481783
 30
0.0
 11
307.035659
 21
273.154011
 31
0.0
  0
LINE
  8
LC-001-002-----0
  6
CONTINUOUS
  5
39D
 10
270.965381
 20
378.383501
 30
0.0
 11
312.968396
 21
378.383501
 31
0.0
  0
LINE
  8
LC-001-002-----0
  6
CONTINUOUS
  5
39E
 10
275.035659
 20
328.834011
 30
0.0
 11
275.035659
 21
273.154011
 31
0.0
  0
ARC
  8
LC-006-002-RND-0
  6
CONTINUOUS
  5
39F
 10
271.465378
 20
377.88591
 30
0.0
 40
3.5
 50
90.0
 51
168.498572
  0
LINE
  8
LC-001-002-----0
  6
CONTINUOUS
  5
3A0
 10
246.035659
 20
379.834011
 30
0.0
 11
246.035659
 21
369.566062
 31
0.0
  0
LINE
  8
LC-001-002-----0
  6
CONTINUOUS
  5
3A1
 10
246.035659
 20
379.834011
 30
0.0
 11
249.035659
 21
379.834011
 31
0.0
  0
LINE
  8
LC-001-002-----0
  6
CONTINUOUS
  5
3A2
 10
246.035659
 20
322.834011
 30
0.0
 11
249.035659
 21
322.834011
 31
0.0
  0
LINE
  8
LC-001-002-----0
  6
CONTINUOUS
  5
3A3
 10
249.035659
 20
379.834011
 30
0.0
 11
249.035659
 21
375.834011
 31
0.0
  0
LINE
  8
LC-001-002-----0
  6
CONTINUOUS
  5
3A4
 10
249.035659
 20
367.834011
 30
0.0
 11
277.535659
 21
367.834011
 31
0.0
  0
LINE
  8
LC-001-002-----0
  6
CONTINUOUS
  5
3A5
 10
249.035659
 20
334.834011
 30
0.0
 11
277.535659
 21
334.834011
 31
0.0
  0
LINE
  8
LC-001-002-----0
  6
CONTINUOUS
  5
3A6
 10
249.035659
 20
334.834011
 30
0.0
 11
246.035659
 21
333.10196
 31
0.0
  0
LINE
  8
LC-001-002-----0
  6
CONTINUOUS
  5
3A7
 10
274.035659
 20
373.834011
 30
0.0
 11
274.035659
 21
370.334011
 31
0.0
  0
LINE
  8
LC-001-002-----0
  6
CONTINUOUS
  5
3A8
 10
251.035659
 20
375.298113
 30
0.0
 11
251.035659
 21
370.334011
 31
0.0
  0
LINE
  8
LC-001-002-----0
  6
CONTINUOUS
  5
3A9
 10
249.035659
 20
367.834011
 30
0.0
 11
246.035659
 21
369.566062
 31
0.0
  0
LINE
  8
LC-001-002-----0
  6
CONTINUOUS
  5
3AA
 10
251.035659
 20
370.334011
 30
0.0
 11
253.535659
 21
370.334011
 31
0.0
  0
LINE
  8
LC-001-002-----0
  6
CONTINUOUS
  5
3AB
 10
249.035659
 20
326.834011
 30
0.0
 11
249.035659
 21
322.834011
 31
0.0
  0
LINE
  8
LC-001-002-----0
  6
CONTINUOUS
  5
3AC
 10
251.035659
 20
332.334011
 30
0.0
 11
253.535659
 21
332.334011
 31
0.0
  0
LINE
  8
LC-001-002-----0
  6
CONTINUOUS
  5
3AD
 10
251.035659
 20
332.334011
 30
0.0
 11
251.035659
 21
327.369909
 31
0.0
  0
LINE
  8
LC-001-002-----0
  6
CONTINUOUS
  5
3AE
 10
249.035659
 20
375.834011
 30
0.0
 11
251.035659
 21
375.298113
 31
0.0
  0
LINE
  8
LC-001-002-----0
  6
CONTINUOUS
  5
3AF
 10
274.035659
 20
332.334011
 30
0.0
 11
274.035659
 21
328.834011
 31
0.0
  0
LINE
  8
LC-001-002-----0
  6
CONTINUOUS
  5
3B0
 10
259.035659
 20
370.334011
 30
0.0
 11
263.535659
 21
370.334011
 31
0.0
  0
LINE
  8
LC-001-002-----0
  6
CONTINUOUS
  5
3B1
 10
270.965378
 20
327.084162
 30
0.0
 11
270.965378
 21
260.071251
 31
0.0
  0
LINE
  8
LC-001-002-----0
  6
CONTINUOUS
  5
3B2
 10
274.035659
 20
328.834011
 30
0.0
 11
275.035659
 21
328.834011
 31
0.0
  0
ARC
  8
LC-006-002-RND-0
  6
CONTINUOUS
  5
3B3
 10
292.035659
 20
353.481783
 30
0.0
 40
15.0
 50
0.0
 51
75.0
  0
ARC
  8
LC-006-002-RND-0
  6
CONTINUOUS
  5
3B4
 10
256.132159
 20
375.834011
 30
0.0
 40
0.5
 50
90.0
 51
159.443955
  0
LINE
  8
LC-001-002-----0
  6
CONTINUOUS
  5
3B5
 10
256.132159
 20
376.334011
 30
0.0
 11
256.439158
 21
376.334011
 31
0.0
  0
LINE
  8
LC-001-002-----0
  6
CONTINUOUS
  5
3B6
 10
253.535659
 20
370.334011
 30
0.0
 11
255.663994
 21
376.009573
 31
0.0
  0
ARC
  8
LC-006-002-RND-0
  6
CONTINUOUS
  5
3B7
 10
256.439158
 20
375.834011
 30
0.0
 40
0.5
 50
20.556045
 51
90.0
  0
LINE
  8
LC-001-002-----0
  6
CONTINUOUS
  5
3B8
 10
256.907323
 20
376.009573
 30
0.0
 11
259.035659
 21
370.334011
 31
0.0
  0
ARC
  8
LC-006-002-RND-0
  6
CONTINUOUS
  5
3B9
 10
266.132159
 20
375.834011
 30
0.0
 40
0.5
 50
90.0
 51
159.443955
  0
LINE
  8
LC-001-002-----0
  6
CONTINUOUS
  5
3BA
 10
266.132159
 20
376.334011
 30
0.0
 11
266.439158
 21
376.334011
 31
0.0
  0
LINE
  8
LC-001-002-----0
  6
CONTINUOUS
  5
3BB
 10
263.535659
 20
370.334011
 30
0.0
 11
265.663994
 21
376.009573
 31
0.0
  0
ARC
  8
LC-006-002-RND-0
  6
CONTINUOUS
  5
3BC
 10
266.439158
 20
375.834011
 30
0.0
 40
0.5
 50
20.556045
 51
90.0
  0
LINE
  8
LC-001-002-----0
  6
CONTINUOUS
  5
3BD
 10
266.907323
 20
376.009573
 30
0.0
 11
269.035659
 21
370.334011
 31
0.0
  0
LINE
  8
LC-001-002-----0
  6
CONTINUOUS
  5
3BE
 10
272.965378
 20
238.391092
 30
0.0
 11
272.965378
 21
236.891092
 31
0.0
  0
LINE
  8
LC-001-002-----0
  6
CONTINUOUS
  5
3BF
 10
271.965378
 20
236.846842
 30
0.0
 11
271.965378
 21
235.391092
 31
0.0
  0
ARC
  8
LC-006-002-RND-0
  6
CONTINUOUS
  5
3C0
 10
271.465378
 20
238.891092
 30
0.0
 40
3.5
 50
180.0
 51
270.0
  0
LINE
  8
LC-001-002-----0
  6
CONTINUOUS
  5
3C1
 10
272.965378
 20
260.071251
 30
0.0
 11
270.965378
 21
260.071251
 31
0.0
  0
LINE
  8
LC-001-002-----0
  6
CONTINUOUS
  5
3C2
 10
272.965378
 20
260.534973
 30
0.0
 11
272.965378
 21
258.498695
 31
0.0
  0
LINE
  8
LC-001-002-----0
  6
CONTINUOUS
  5
3C3
 10
271.465378
 20
235.391092
 30
0.0
 11
271.965378
 21
235.391092
 31
0.0
  0
LINE
  8
LC-001-002-----0
  6
CONTINUOUS
  5
3C4
 10
272.965378
 20
258.498695
 30
0.0
 11
270.965378
 21
258.498695
 31
0.0
  0
LINE
  8
LC-001-002-----0
  6
CONTINUOUS
  5
3C5
 10
267.965378
 20
324.584167
 30
0.0
 11
267.965378
 21
238.891092
 31
0.0
  0
LINE
  8
LC-001-002-----0
  6
CONTINUOUS
  5
3C6
 10
271.965378
 20
236.891092
 30
0.0
 11
272.965378
 21
236.891092
 31
0.0
  0
LINE
  8
LC-001-002-----0
  6
CONTINUOUS
  5
3C7
 10
270.965378
 20
258.498695
 30
0.0
 11
270.965378
 21
238.391092
 31
0.0
  0
LINE
  8
LC-001-002-----0
  6
CONTINUOUS
  5
3C8
 10
266.132159
 20
326.334011
 30
0.0
 11
266.439158
 21
326.334011
 31
0.0
  0
LINE
  8
LC-001-002-----0
  6
CONTINUOUS
  5
3C9
 10
269.035659
 20
370.334011
 30
0.0
 11
274.035659
 21
370.334011
 31
0.0
  0
LINE
  8
LC-001-002-----0
  6
CONTINUOUS
  5
3CA
 10
259.035659
 20
332.334011
 30
0.0
 11
263.535659
 21
332.334011
 31
0.0
  0
LINE
  8
LC-001-002-----0
  6
CONTINUOUS
  5
3CB
 10
269.035659
 20
332.334011
 30
0.0
 11
274.035659
 21
332.334011
 31
0.0
  0
LINE
  8
LC-001-002-----0
  6
CONTINUOUS
  5
3CC
 10
304.535659
 20
351.334011
 30
0.0
 11
304.535659
 21
273.154011
 31
0.0
  0
LINE
  8
LC-001-002-----0
  6
CONTINUOUS
  5
3CD
 10
277.535659
 20
367.834011
 30
0.0
 11
277.535659
 21
273.154011
 31
0.0
  0
LINE
  8
LC-001-002-----0
  6
CONTINUOUS
  5
3CE
 10
277.535659
 20
363.834011
 30
0.0
 11
292.035659
 21
363.834011
 31
0.0
  0
LINE
  8
LC-001-002-----0
  6
CONTINUOUS
  5
3CF
 10
274.035659
 20
373.834011
 30
0.0
 11
295.917944
 21
367.97067
 31
0.0
  0
ARC
  8
LC-006-002-RND-0
  6
CONTINUOUS
  5
3D0
 10
292.035659
 20
351.334011
 30
0.0
 40
12.5
 50
0.0
 51
90.0
  0
LINE
  8
LC-001-002-----0
  6
CONTINUOUS
  5
3D1
 10
273.968396
 20
381.383501
 30
0.0
 11
315.968396
 21
381.383501
 31
0.0
  0
LINE
  8
LC-001-002-----0
  6
CONTINUOUS
  5
3D2
 10
272.968396
 20
379.883501
 30
0.0
 11
273.968396
 21
379.883501
 31
0.0
  0
LINE
  8
LC-001-002-----0
  6
CONTINUOUS
  5
3D3
 10
273.968396
 20
381.383501
 30
0.0
 11
273.968396
 21
379.883501
 31
0.0
  0
LINE
  8
LC-001-002-----0
  6
CONTINUOUS
  5
3D4
 10
272.968396
 20
379.883501
 30
0.0
 11
272.968396
 21
378.38591
 31
0.0
  0
LINE
  8
LC-001-002-----0
  6
CONTINUOUS
  5
3D5
 10
272.965378
 20
378.383501
 30
0.0
 11
272.965378
 21
379.88591
 31
0.0
  0
LINE
  8
LC-001-002-----0
  6
CONTINUOUS
  5
3D6
 10
270.965381
 20
376.083778
 30
0.0
 11
270.965381
 21
378.383501
 31
0.0
  0
LINE
  8
LC-001-002-----0
  6
CONTINUOUS
  5
3D7
 10
272.968396
 20
379.883501
 30
0.0
 11
273.968396
 21
379.883501
 31
0.0
  0
LINE
  8
LC-001-002-----0
  6
CONTINUOUS
  5
3D8
 10
271.965378
 20
379.88591
 30
0.0
 11
272.965378
 21
379.88591
 31
0.0
  0
LINE
  8
LC-001-002-----0
  6
CONTINUOUS
  5
3D9
 10
271.965378
 20
379.93016
 30
0.0
 11
271.965378
 21
381.38591
 31
0.0
  0
LINE
  8
LC-001-002-----0
  6
CONTINUOUS
  5
3DA
 10
271.965378
 20
379.93016
 30
0.0
 11
271.965378
 21
381.38591
 31
0.0
  0
LINE
  8
LC-001-002-----0
  6
CONTINUOUS
  5
3DB
 10
271.465378
 20
381.38591
 30
0.0
 11
271.965378
 21
381.38591
 31
0.0
  0
LINE
  8
LC-001-002-----0
  6
CONTINUOUS
  5
3DC
 10
276.868396
 20
238.391092
 30
0.0
 11
276.868396
 21
229.804748
 31
0.0
  0
LINE
  8
LC-001-002-----0
  6
CONTINUOUS
  5
3DD
 10
274.868396
 20
235.391092
 30
0.0
 11
274.868396
 21
230.633175
 31
0.0
  0
LINE
  8
LC-001-002-----0
  6
CONTINUOUS
  5
3DE
 10
314.968396
 20
235.391092
 30
0.0
 11
314.968396
 21
230.633175
 31
0.0
  0
LINE
  8
LC-001-002-----0
  6
CONTINUOUS
  5
3DF
 10
315.968396
 20
235.391092
 30
0.0
 11
314.968396
 21
235.391092
 31
0.0
  0
LINE
  8
LC-001-002-----0
  6
CONTINUOUS
  5
3E0
 10
315.968396
 20
336.79284
 30
0.0
 11
315.968396
 21
337.083501
 31
0.0
  0
LINE
  8
LC-001-002-----0
  6
CONTINUOUS
  5
3E1
 10
312.968396
 20
238.391092
 30
0.0
 11
270.965378
 21
238.391092
 31
0.0
  0
LINE
  8
LC-001-002-----0
  6
CONTINUOUS
  5
3E2
 10
272.968396
 20
236.891092
 30
0.0
 11
273.968396
 21
236.891092
 31
0.0
  0
LINE
  8
LC-001-002-----0
  6
CONTINUOUS
  5
3E3
 10
315.968396
 20
235.391092
 30
0.0
 11
315.968396
 21
383.084017
 31
0.0
  0
LINE
  8
LC-001-002-----0
  6
CONTINUOUS
  5
3E4
 10
293.968396
 20
381.383501
 30
0.0
 11
293.968396
 21
383.084017
 31
0.0
  0
CIRCLE
  8
LC-001-002-----0
  6
DASHED
 62
     2
  5
3E5
 10
576.631379
 20
341.390723
 30
0.0
 40
4.5
  0
LINE
  8
LC-001-002-----0
  6
DASHED
 62
     2
  5
3E6
 10
572.243897
 20
342.390723
 30
0.0
 11
570.468035
 21
342.390723
 31
0.0
  0
LINE
  8
LC-001-002-----0
  6
DASHED
 62
     2
  5
3E7
 10
572.243897
 20
340.390723
 30
0.0
 11
570.820689
 21
340.390723
 31
0.0
  0
CIRCLE
  8
LC-001-002-----0
  6
DASHED
 62
     2
  5
3E8
 10
511.631379
 20
378.390723
 30
0.0
 40
4.5
  0
LINE
  8
LC-001-002-----0
  6
DASHED
 62
     2
  5
3E9
 10
515.504651
 20
374.077284
 30
0.0
 11
514.80385
 21
375.199261
 31
0.0
  0
LINE
  8
LC-001-002-----0
  6
DASHED
 62
     2
  5
3EA
 10
514.02627
 20
372.668885
 30
0.0
 11
513.107558
 21
374.139736
 31
0.0
  0
CIRCLE
  8
LC-001-002-----0
  6
DASHED
 62
     2
  5
3EB
 10
483.631379
 20
341.390723
 30
0.0
 40
4.5
  0
CIRCLE
  8
LC-001-002-----0
  6
CONTINUOUS
  5
3EC
 10
483.631379
 20
341.390723
 30
0.0
 40
5.0
  0
CIRCLE
  8
LC-001-002-----0
  6
CONTINUOUS
  5
3ED
 10
483.631379
 20
341.390723
 30
0.0
 40
3.0
  0
LINE
  8
LC-001-002-----0
  6
DASHED
 62
     2
  5
3EE
 10
487.968429
 20
342.390723
 30
0.0
 11
488.530359
 21
342.390723
 31
0.0
  0
LINE
  8
LC-001-002-----0
  6
DASHED
 62
     2
  5
3EF
 10
487.968429
 20
340.390723
 30
0.0
 11
488.485244
 21
340.390723
 31
0.0
  0
LINE
  8
LC-001-002-----0
  6
CONTINUOUS
  5
3F0
 10
488.530359
 20
342.390723
 30
0.0
 11
489.958776
 21
342.390723
 31
0.0
  0
LINE
  8
LC-001-002-----0
  6
CONTINUOUS
  5
3F1
 10
488.485244
 20
340.390723
 30
0.0
 11
489.26472
 21
340.390723
 31
0.0
  0
CIRCLE
  8
LC-001-002-----0
  6
DASHED
 62
     2
  5
3F2
 10
511.631379
 20
378.390723
 30
0.0
 40
5.0
  0
CIRCLE
  8
LC-001-002-----0
  6
DASHED
 62
     2
  5
3F3
 10
576.631379
 20
341.390723
 30
0.0
 40
5.0
  0
CIRCLE
  8
LC-001-002-----0
  6
DASHED
 62
     2
  5
3F4
 10
576.631379
 20
341.390723
 30
0.0
 40
3.0
  0
ARC
  8
LC-001-002-----0
  6
CONTINUOUS
  5
3F5
 10
538.641379
 20
351.334011
 30
0.0
 40
47.5
 50
110.983879
 51
69.041957
  0
CIRCLE
  8
LC-001-002-----0
  6
DASHED
 62
     2
  5
3F6
 10
511.631379
 20
378.390723
 30
0.0
 40
3.0
  0
ENDSEC
  0
EOF
