  0
SECTION
  2
HEADER
  9
$ACADVER
  1
AC1009
  9
$INSBASE
 10
0.0
 20
0.0
 30
0.0
  9
$EXTMIN
 10
0.0
 20
0.0
 30
0.0
  9
$EXTMAX
 10
840.0
 20
594.0
 30
0.0
  9
$LIMMIN
 10
0.0
 20
0.0
  9
$LIMMAX
 10
840.0
 20
594.0
  9
$ORTHOMODE
 70
     0
  9
$REGENMODE
 70
     1
  9
$FILLMODE
 70
     1
  9
$QTEXTMODE
 70
     0
  9
$MIRRTEXT
 70
     1
  9
$DRAGMODE
 70
     2
  9
$LTSCALE
 40
2.0
  9
$OSMODE
 70
     0
  9
$ATTMODE
 70
     1
  9
$TEXTSIZE
 40
0.2
  9
$TRACEWID
 40
0.05
  9
$TEXTSTYLE
  7
STANDARD
  9
$CLAYER
  8
0
  9
$CELTYPE
  6
BYLAYER
  9
$CECOLOR
 62
     7
  9
$DIMSCALE
 40
2.0
  9
$DIMASZ
 40
3.5
  9
$DIMEXO
 40
0.0625
  9
$DIMDLI
 40
0.38
  9
$DIMRND
 40
0.0
  9
$DIMDLE
 40
0.0
  9
$DIMEXE
 40
0.18
  9
$DIMTP
 40
0.0
  9
$DIMTM
 40
0.0
  9
$DIMTXT
 40
3.5
  9
$DIMCEN
 40
0.09
  9
$DIMTSZ
 40
0.0
  9
$DIMTOL
 70
     0
  9
$DIMLIM
 70
     0
  9
$DIMTIH
 70
     1
  9
$DIMTOH
 70
     1
  9
$DIMSE1
 70
     0
  9
$DIMSE2
 70
     0
  9
$DIMTAD
 70
     1
  9
$DIMZIN
 70
     0
  9
$DIMBLK
  1

  9
$DIMASO
 70
     1
  9
$DIMSHO
 70
     1
  9
$DIMPOST
  1

  9
$DIMAPOST
  1

  9
$DIMALT
 70
     0
  9
$DIMALTD
 70
     2
  9
$DIMALTF
 40
25.4
  9
$DIMLFAC
 40
1.0
  9
$DIMTOFL
 70
     0
  9
$DIMTVP
 40
0.0
  9
$DIMTIX
 70
     0
  9
$DIMSOXD
 70
     0
  9
$DIMSAH
 70
     0
  9
$DIMBLK1
  1

  9
$DIMBLK2
  1

  9
$DIMSTYLE
  2
STANDARD
  9
$DIMCLRD
 70
     0
  9
$DIMCLRE
 70
     0
  9
$DIMCLRT
 70
     0
  9
$DIMTFAC
 40
1.0
  9
$DIMGAP
 40
0.09
  9
$LUNITS
 70
     2
  9
$LUPREC
 70
     2
  9
$AXISMODE
 70
     0
  9
$AXISUNIT
 10
0.0
 20
0.0
  9
$SKETCHINC
 40
0.1
  9
$FILLETRAD
 40
0.0
  9
$AUNITS
 70
     0
  9
$AUPREC
 70
     0
  9
$MENU
  1
acad
  9
$ELEVATION
 40
0.0
  9
$PELEVATION
 40
0.0
  9
$THICKNESS
 40
0.0
  9
$LIMCHECK
 70
     0
  9
$BLIPMODE
 70
     1
  9
$CHAMFERA
 40
0.0
  9
$CHAMFERB
 40
0.0
  9
$SKPOLY
 70
     0
  9
$TDCREATE
 40
0.000000000
  9
$TDUPDATE
 40
0.000000000
  9
$TDINDWG
 40
0.0000000000
  9
$TDUSRTIMER
 40
0.0000000000
  9
$USRTIMER
 70
     1
  9
$ANGBASE
 50
0.0
  9
$ANGDIR
 70
     0
  9
$PDMODE
 70
     0
  9
$PDSIZE
 40
0.0
  9
$PLINEWID
 40
0.0
  9
$COORDS
 70
     0
  9
$SPLFRAME
 70
     0
  9
$SPLINETYPE
 70
     6
  9
$SPLINESEGS
 70
     8
  9
$ATTDIA
 70
     0
  9
$ATTREQ
 70
     1
  9
$HANDLING
 70
     1
  9
$HANDSEED
  5
AD
  9
$SURFTAB1
 70
     6
  9
$SURFTAB2
 70
     6
  9
$SURFTYPE
 70
     6
  9
$SURFU
 70
     6
  9
$SURFV
 70
     6
  9
$UCSNAME
  2

  9
$UCSORG
 10
0.0
 20
0.0
 30
0.0
  9
$UCSXDIR
 10
1.0
 20
0.0
 30
0.0
  9
$UCSYDIR
 10
0.0
 20
1.0
 30
0.0
  9
$PUCSNAME
  2

  9
$PUCSORG
 10
0.0
 20
0.0
 30
0.0
  9
$PUCSXDIR
 10
1.0
 20
0.0
 30
0.0
  9
$PUCSYDIR
 10
0.0
 20
1.0
 30
0.0
  9
$USERI1
 70
     0
  9
$USERI2
 70
     0
  9
$USERI3
 70
     0
  9
$USERI4
 70
     0
  9
$USERI5
 70
     0
  9
$USERR1
 40
0.0
  9
$USERR2
 40
0.0
  9
$USERR3
 40
0.0
  9
$USERR4
 40
0.0
  9
$USERR5
 40
0.0
  9
$WORLDVIEW
 70
     1
  9
$SHADEDGE
 70
     3
  9
$SHADEDIF
 70
    70
  9
$TILEMODE
 70
     1
  9
$MAXACTVP
 70
    16
  9
$PINSBASE
 10
0.0
 20
0.0
 30
0.0
  9
$PLIMCHECK
 70
     0
  9
$PEXTMIN
 10
1.000000E+20
 20
1.000000E+20
 30
1.000000E+20
  9
$PEXTMAX
 10
-1.000000E+20
 20
-1.000000E+20
 30
-1.000000E+20
  9
$PLIMMIN
 10
0.0
 20
0.0
  9
$PLIMMAX
 10
840.0
 20
594.0
  9
$UNITMODE
 70
     0
  9
$VISRETAIN
 70
     0
  9
$PLINEGEN
 70
     1
  9
$PSLTSCALE
 70
     0
  9
$TREEDEPTH
 70
  3020
  9
$DWGCODEPAGE
  3
dos850
  0
ENDSEC
  0
SECTION
  2
TABLES
  0
TABLE
  2
VPORT
 70
     1
  0
VPORT
  2
*ACTIVE
 70
     0
 10
0.0
 20
0.0
 11
1.0
 21
1.0
 12
420.0
 22
297.0
 13
0.0
 23
0.0
 14
1.0
 24
1.0
 15
0.0
 25
0.0
 16
0.0
 26
0.0
 36
1.0
 17
0.0
 27
0.0
 37
0.0
 40
594.0
 41
1.604229
 42
50.0
 43
0.0
 44
0.0
 50
0.0
 51
0.0
 71
     0
 72
   100
 73
     1
 74
     1
 75
     0
 76
     0
 77
     0
 78
     0
  0
ENDTAB
  0
TABLE
  2
LTYPE
 70
     2
  0
LTYPE
  2
CONTINUOUS
 70
    64
  3
Solid line
 72
    65
 73
     0
 40
0.0
  0
LTYPE
  2
DASHDOT
 70
    64
  3
__ . __ . __ . __ . __
 72
    65
 73
     4
 40
7.5
 49
5.0
 49
-1.25
 49
0.0
 49
-1.25
  0
ENDTAB
  0
TABLE
  2
LAYER
 70
     9
  0
LAYER
  2
0
 70
     0
 62
     7
  6
CONTINUOUS
  0
LAYER
  2
LC-INFO-1-2-MM-A3-0
 70
     1
 62
    -1
  6
CONTINUOUS
  0
LAYER
  2
LC-005-003-MTH-0
 70
     0
 62
     2
  6
CONTINUOUS
  0
LAYER
  2
LC-004-003-----0
 70
     0
 62
     2
  6
CONTINUOUS
  0
LAYER
  2
LC-006-003-MTG-0
 70
     0
 62
     2
  6
CONTINUOUS
  0
LAYER
  2
LC-001-002-----0
 70
     0
 62
     1
  6
CONTINUOUS
  0
LAYER
  2
LC-002-001-----0
 70
     0
 62
     2
  6
DASHDOT
  0
LAYER
  2
LC-003-002-RND-0
 70
     0
 62
     1
  6
CONTINUOUS
  0
LAYER
  2
LC-000
 70
     0
 62
     7
  6
CONTINUOUS
  0
ENDTAB
  0
TABLE
  2
STYLE
 70
     4
  0
STYLE
  2
STANDARD
 70
     0
 40
0.0
 41
1.0
 50
0.0
 71
     0
 42
0.0
  3
txt
  4

  0
STYLE
  2
LC-STANDARD
 70
    64
 40
0.0
 41
1.0
 50
0.0
 71
     0
 42
3.5
  3
MONOTXT
  4

  0
STYLE
  2
LC-TXTSTYLE-150-400-0-0-D2
 70
    64
 40
0.0
 41
1.0
 50
15.0
 71
     0
 42
3.5
  3
MONOTXT
  4

  0
STYLE
  2
LC-TXTSTYLE-150-400-0-0-D3
 70
    64
 40
0.0
 41
1.0
 50
15.0
 71
     0
 42
3.5
  3
LC-STANDARD
  4

  0
ENDTAB
  0
TABLE
  2
VIEW
 70
     0
  0
ENDTAB
  0
TABLE
  2
UCS
 70
     0
  0
ENDTAB
  0
TABLE
  2
APPID
 70
     1
  0
APPID
  2
ACAD
 70
     0
  0
ENDTAB
  0
TABLE
  2
DIMSTYLE
 70
     3
  0
DIMSTYLE
  2
STANDARD
 70
     0
  3

  4

  5

  6

  7

 40
1.0
 41
0.18
 42
0.0625
 43
0.38
 44
0.18
 45
0.0
 46
0.0
 47
0.0
 48
0.0
 71
     0
 72
     0
 73
     1
 74
     1
 75
     0
 76
     0
 77
     0
 78
     0
140
0.18
141
0.09
142
0.0
143
25.4
144
1.0
145
0.0
146
1.0
147
0.09
170
     0
171
     2
172
     0
173
     0
174
     0
175
     0
176
     0
177
     0
178
     0
  0
DIMSTYLE
  2
LC-STANDARD
 70
     0
  3

  4

  5

  6

  7

 40
1.0
 41
3.5
 42
0.0
 43
7.5
 44
1.8
 45
0.0
 46
0.0
 47
0.0
 48
0.0
 71
     0
 72
     0
 73
     0
 74
     0
 75
     0
 76
     0
 77
     1
 78
     8
140
3.5
141
0.0
142
0.0
143
25.4
144
1.0
145
0.0
146
0.71
147
1.5
170
     0
171
     2
172
     1
173
     0
174
     0
175
     0
176
     0
177
     0
178
     3
  0
DIMSTYLE
  2
LC-DIM-L-0090-02-02
 70
     0
  3

  4

  5

  6

  7

 40
2.0
 41
3.5
 42
0.0
 43
7.5
 44
1.8
 45
0.0
 46
0.0
 47
0.0
 48
0.0
 71
     0
 72
     0
 73
     0
 74
     0
 75
     0
 76
     0
 77
     1
 78
     8
140
9.0
141
0.0
142
0.0
143
25.4
144
1.0
145
0.0
146
0.71
147
1.5
170
     0
171
     2
172
     0
173
     0
174
     0
175
     0
176
     2
177
     2
178
     6
  0
ENDTAB
  0
ENDSEC
  0
SECTION
  2
BLOCKS
  0
BLOCK
  8
0
  5
23
  2
*D0
 70
    65
 10
0.0
 20
0.0
 30
0.0
  3
*D0
  0
LINE
  8
LC-005-003-MTH-0
  6
CONTINUOUS
  5
25
 10
529.371324
 20
294.417359
 30
0.0
 11
586.8
 21
294.417359
 31
0.0
  0
LINE
  8
LC-005-003-MTH-0
  6
CONTINUOUS
  5
26
 10
529.371324
 20
344.417359
 30
0.0
 11
586.8
 21
344.417359
 31
0.0
  0
LINE
  8
LC-004-003-----0
  6
CONTINUOUS
  5
28
 10
578.349471
 20
276.571352
 30
0.0
 11
576.0
 21
294.417359
 31
0.0
  0
LINE
  8
LC-004-003-----0
  6
CONTINUOUS
  5
29
 10
576.0
 20
294.417359
 30
0.0
 11
573.650529
 21
276.571352
 31
0.0
  0
LINE
  8
LC-004-003-----0
  6
CONTINUOUS
  5
2A
 10
573.650529
 20
276.571352
 30
0.0
 11
578.349471
 21
276.571352
 31
0.0
  0
LINE
  8
LC-004-003-----0
  6
CONTINUOUS
  5
2B
 10
577.738609
 20
276.531314
 30
0.0
 11
576.0
 21
289.737359
 31
0.0
  0
LINE
  8
LC-004-003-----0
  6
CONTINUOUS
  5
2C
 10
576.0
 20
289.737359
 30
0.0
 11
574.261391
 21
276.531314
 31
0.0
  0
LINE
  8
LC-004-003-----0
  6
CONTINUOUS
  5
2D
 10
577.127746
 20
276.491276
 30
0.0
 11
576.0
 21
285.057359
 31
0.0
  0
LINE
  8
LC-004-003-----0
  6
CONTINUOUS
  5
2E
 10
576.0
 20
285.057359
 30
0.0
 11
574.872254
 21
276.491276
 31
0.0
  0
LINE
  8
LC-004-003-----0
  6
CONTINUOUS
  5
2F
 10
576.516884
 20
276.451238
 30
0.0
 11
576.0
 21
280.377359
 31
0.0
  0
LINE
  8
LC-004-003-----0
  6
CONTINUOUS
  5
30
 10
576.0
 20
280.377359
 30
0.0
 11
575.483116
 21
276.451238
 31
0.0
  0
LINE
  8
LC-004-003-----0
  6
CONTINUOUS
  5
31
 10
573.650529
 20
362.263367
 30
0.0
 11
576.0
 21
344.417359
 31
0.0
  0
LINE
  8
LC-004-003-----0
  6
CONTINUOUS
  5
32
 10
576.0
 20
344.417359
 30
0.0
 11
578.349471
 21
362.263367
 31
0.0
  0
LINE
  8
LC-004-003-----0
  6
CONTINUOUS
  5
33
 10
578.349471
 20
362.263367
 30
0.0
 11
573.650529
 21
362.263367
 31
0.0
  0
LINE
  8
LC-004-003-----0
  6
CONTINUOUS
  5
34
 10
574.261391
 20
362.303405
 30
0.0
 11
576.0
 21
349.097359
 31
0.0
  0
LINE
  8
LC-004-003-----0
  6
CONTINUOUS
  5
35
 10
576.0
 20
349.097359
 30
0.0
 11
577.738609
 21
362.303405
 31
0.0
  0
LINE
  8
LC-004-003-----0
  6
CONTINUOUS
  5
36
 10
574.872254
 20
362.343443
 30
0.0
 11
576.0
 21
353.777359
 31
0.0
  0
LINE
  8
LC-004-003-----0
  6
CONTINUOUS
  5
37
 10
576.0
 20
353.777359
 30
0.0
 11
577.127746
 21
362.343443
 31
0.0
  0
LINE
  8
LC-004-003-----0
  6
CONTINUOUS
  5
38
 10
575.483116
 20
362.383481
 30
0.0
 11
576.0
 21
358.457359
 31
0.0
  0
LINE
  8
LC-004-003-----0
  6
CONTINUOUS
  5
39
 10
576.0
 20
358.457359
 30
0.0
 11
576.516884
 21
362.383481
 31
0.0
  0
LINE
  8
LC-006-003-MTG-0
  6
CONTINUOUS
  5
3B
 10
576.0
 20
269.217359
 30
0.0
 11
576.0
 21
434.819879
 31
0.0
  0
TEXT
  8
LC-004-003-----0
  6
CONTINUOUS
 62
     6
  5
3D
 10
565.568001
 20
371.692605
 30
0.0
 40
18.0
  1
DN50
 50
90.0
 41
0.9
 51
15.0
  7
LC-TXTSTYLE-150-400-0-0-D0
  0
ENDBLK
  8
0
  5
3E
  0
BLOCK
  8
0
  5
40
  2
*D1
 70
    65
 10
0.0
 20
0.0
 30
0.0
  3
*D1
  0
LINE
  8
LC-005-003-MTH-0
  6
CONTINUOUS
  5
41
 10
310.371324
 20
290.917359
 30
0.0
 11
310.371324
 21
241.2
 31
0.0
  0
LINE
  8
LC-005-003-MTH-0
  6
CONTINUOUS
  5
42
 10
531.371324
 20
295.57206
 30
0.0
 11
531.371324
 21
241.2
 31
0.0
  0
LINE
  8
LC-006-003-MTG-0
  6
CONTINUOUS
  5
43
 10
310.371324
 20
252.0
 30
0.0
 11
531.371324
 21
252.0
 31
0.0
  0
LINE
  8
LC-004-003-----0
  6
CONTINUOUS
  5
44
 10
328.217332
 20
254.349471
 30
0.0
 11
310.371324
 21
252.0
 31
0.0
  0
LINE
  8
LC-004-003-----0
  6
CONTINUOUS
  5
45
 10
310.371324
 20
252.0
 30
0.0
 11
328.217332
 21
249.650529
 31
0.0
  0
LINE
  8
LC-004-003-----0
  6
CONTINUOUS
  5
46
 10
328.217332
 20
249.650529
 30
0.0
 11
328.217332
 21
254.349471
 31
0.0
  0
LINE
  8
LC-004-003-----0
  6
CONTINUOUS
  5
47
 10
328.25737
 20
253.738609
 30
0.0
 11
315.051324
 21
252.0
 31
0.0
  0
LINE
  8
LC-004-003-----0
  6
CONTINUOUS
  5
48
 10
315.051324
 20
252.0
 30
0.0
 11
328.25737
 21
250.261391
 31
0.0
  0
LINE
  8
LC-004-003-----0
  6
CONTINUOUS
  5
49
 10
328.297408
 20
253.127746
 30
0.0
 11
319.731324
 21
252.0
 31
0.0
  0
LINE
  8
LC-004-003-----0
  6
CONTINUOUS
  5
4A
 10
319.731324
 20
252.0
 30
0.0
 11
328.297408
 21
250.872254
 31
0.0
  0
LINE
  8
LC-004-003-----0
  6
CONTINUOUS
  5
4B
 10
328.337446
 20
252.516884
 30
0.0
 11
324.411324
 21
252.0
 31
0.0
  0
LINE
  8
LC-004-003-----0
  6
CONTINUOUS
  5
4C
 10
324.411324
 20
252.0
 30
0.0
 11
328.337446
 21
251.483116
 31
0.0
  0
LINE
  8
LC-004-003-----0
  6
CONTINUOUS
  5
4D
 10
513.525317
 20
249.650529
 30
0.0
 11
531.371324
 21
252.0
 31
0.0
  0
LINE
  8
LC-004-003-----0
  6
CONTINUOUS
  5
4E
 10
531.371324
 20
252.0
 30
0.0
 11
513.525317
 21
254.349471
 31
0.0
  0
LINE
  8
LC-004-003-----0
  6
CONTINUOUS
  5
4F
 10
513.525317
 20
254.349471
 30
0.0
 11
513.525317
 21
249.650529
 31
0.0
  0
LINE
  8
LC-004-003-----0
  6
CONTINUOUS
  5
50
 10
513.485279
 20
250.261391
 30
0.0
 11
526.691324
 21
252.0
 31
0.0
  0
LINE
  8
LC-004-003-----0
  6
CONTINUOUS
  5
51
 10
526.691324
 20
252.0
 30
0.0
 11
513.485279
 21
253.738609
 31
0.0
  0
LINE
  8
LC-004-003-----0
  6
CONTINUOUS
  5
52
 10
513.445241
 20
250.872254
 30
0.0
 11
522.011324
 21
252.0
 31
0.0
  0
LINE
  8
LC-004-003-----0
  6
CONTINUOUS
  5
53
 10
522.011324
 20
252.0
 30
0.0
 11
513.445241
 21
253.127746
 31
0.0
  0
LINE
  8
LC-004-003-----0
  6
CONTINUOUS
  5
54
 10
513.405203
 20
251.483116
 30
0.0
 11
517.331324
 21
252.0
 31
0.0
  0
LINE
  8
LC-004-003-----0
  6
CONTINUOUS
  5
55
 10
517.331324
 20
252.0
 30
0.0
 11
513.405203
 21
252.516884
 31
0.0
  0
TEXT
  8
LC-004-003-----0
  6
CONTINUOUS
 62
     6
  5
56
 10
404.72259
 20
262.431999
 30
0.0
 40
18.0
  1
215
 51
15.0
  7
LC-TXTSTYLE-150-400-0-0-D0
 72
     1
 11
423.856448
 21
262.431999
 31
0.0
  0
ENDBLK
  8
0
  5
57
  0
ENDSEC
  0
SECTION
  2
ENTITIES
  0
VIEWPORT
  8
LC-000
  5
A9
 67
     1
 68
     1
 10
420.0
 20
297.0
 30
0.0
 40
840.0
 41
594.0
 69
     1
1001
ACAD
1000
MVIEW
1002
{
1070
    16
1010
0.0
1020
0.0
1030
0.0
1010
0.0
1020
0.0
1030
1.0
1040
0.0
1040
594.0
1040
420.0
1040
297.0
1040
50.0
1040
0.0
1040
0.0
1070
     0
1070
   100
1070
     1
1070
     1
1070
     0
1070
     0
1070
     0
1070
     0
1040
0.0
1040
0.0
1040
0.0
1040
1.0
1040
1.0
1040
0.0
1040
0.0
1070
     0
1002
{
1002
}
1002
}
  0
VIEWPORT
  8
0
  5
AA
 67
     1
 68
     1
 10
0.0
 20
0.0
 30
0.0
 40
0.0
 41
0.0
 69
     1
1001
ACAD
1000
MVIEW
1002
{
1070
    16
1010
0.0
1020
0.0
1030
0.0
1010
0.0
1020
0.0
1030
1.0
1040
0.0
1040
594.0
1040
0.0
1040
0.0
1040
50.0
1040
0.0
1040
0.0
1070
     0
1070
   100
1070
     0
1070
     1
1070
     0
1070
     0
1070
     0
1070
     0
1040
0.0
1040
0.0
1040
0.0
1040
0.5
1040
0.5
1040
0.5
1040
0.5
1070
     0
1002
{
1002
}
1002
}
  0
DIMENSION
  8
0
  5
58
  2
*D0
 10
576.0
 20
366.498
 30
0.0
 11
576.0
 21
366.498
 31
0.0
  1
DN50
 13
529.371324
 23
344.417359
 33
0.0
 14
529.371324
 24
294.417359
 34
0.0
 50
90.0
  3
LC-DIM-L-0090-02-02
  0
DIMENSION
  8
0
  5
59
  2
*D1
 10
421.061202
 20
252.0
 30
0.0
 11
421.061202
 21
252.0
 31
0.0
  1
215
 13
310.371324
 23
290.917359
 33
0.0
 14
531.371324
 24
295.57206
 34
0.0
  3
LC-DIM-L-0090-02-02
  0
LINE
  8
LC-001-002-----0
  6
CONTINUOUS
  5
5B
 10
529.371324
 20
294.417359
 30
0.0
 11
361.371279
 21
294.417359
 31
0.0
  0
LINE
  8
LC-001-002-----0
  6
CONTINUOUS
  5
5C
 10
531.371324
 20
343.262659
 30
0.0
 11
531.371324
 21
295.57206
 31
0.0
  0
LINE
  8
LC-001-002-----0
  6
CONTINUOUS
  5
5D
 10
529.371324
 20
294.417359
 30
0.0
 11
531.371324
 21
295.57206
 31
0.0
  0
LINE
  8
LC-001-002-----0
  6
CONTINUOUS
  5
5E
 10
529.371324
 20
344.417359
 30
0.0
 11
531.371324
 21
343.262659
 31
0.0
  0
LINE
  8
LC-001-002-----0
  6
CONTINUOUS
  5
5F
 10
529.371324
 20
344.417359
 30
0.0
 11
407.371324
 21
344.417359
 31
0.0
  0
LINE
  8
LC-002-001-----0
  5
62
 10
531.371324
 20
319.417359
 30
0.0
 11
310.371324
 21
319.417359
 31
0.0
  0
LINE
  8
LC-001-002-----0
  6
DASHDOT
 62
     2
  5
63
 10
389.371324
 20
339.655404
 30
0.0
 11
389.371324
 21
369.917359
 31
0.0
  0
LINE
  8
LC-001-002-----0
  6
CONTINUOUS
  5
64
 10
407.371324
 20
369.417359
 30
0.0
 11
405.371324
 21
369.417359
 31
0.0
  0
LINE
  8
LC-001-002-----0
  6
CONTINUOUS
  5
65
 10
407.371324
 20
369.417359
 30
0.0
 11
407.371324
 21
344.417359
 31
0.0
  0
LINE
  8
LC-001-002-----0
  6
CONTINUOUS
  5
66
 10
371.371324
 20
344.417359
 30
0.0
 11
361.371279
 21
344.417359
 31
0.0
  0
LINE
  8
LC-001-002-----0
  6
CONTINUOUS
  5
67
 10
404.871324
 20
369.917359
 30
0.0
 11
370.371324
 21
369.917359
 31
0.0
  0
LINE
  8
LC-001-002-----0
  6
CONTINUOUS
  5
68
 10
370.371324
 20
369.917359
 30
0.0
 11
370.371324
 21
372.917359
 31
0.0
  0
LINE
  8
LC-001-002-----0
  6
CONTINUOUS
  5
69
 10
408.371324
 20
372.917359
 30
0.0
 11
408.371324
 21
369.917359
 31
0.0
  0
LINE
  8
LC-001-002-----0
  6
CONTINUOUS
  5
6A
 10
408.371324
 20
369.917359
 30
0.0
 11
404.871324
 21
369.917359
 31
0.0
  0
LINE
  8
LC-001-002-----0
  6
CONTINUOUS
  5
6B
 10
405.371324
 20
372.917359
 30
0.0
 11
405.371324
 21
378.917359
 31
0.0
  0
LINE
  8
LC-001-002-----0
  6
CONTINUOUS
  5
6C
 10
373.371324
 20
378.917359
 30
0.0
 11
373.371324
 21
372.917359
 31
0.0
  0
LINE
  8
LC-001-002-----0
  6
CONTINUOUS
  5
6D
 10
406.871324
 20
378.917359
 30
0.0
 11
406.871324
 21
381.917359
 31
0.0
  0
LINE
  8
LC-001-002-----0
  6
CONTINUOUS
  5
6E
 10
406.871324
 20
381.917359
 30
0.0
 11
405.371324
 21
381.917359
 31
0.0
  0
LINE
  8
LC-001-002-----0
  6
CONTINUOUS
  5
6F
 10
371.871324
 20
381.917359
 30
0.0
 11
371.871324
 21
378.917359
 31
0.0
  0
LINE
  8
LC-001-002-----0
  6
CONTINUOUS
  5
70
 10
371.871324
 20
378.917359
 30
0.0
 11
405.371324
 21
378.917359
 31
0.0
  0
LINE
  8
LC-001-002-----0
  6
CONTINUOUS
  5
71
 10
405.371324
 20
378.917359
 30
0.0
 11
406.871324
 21
378.917359
 31
0.0
  0
LINE
  8
LC-001-002-----0
  6
CONTINUOUS
  5
72
 10
405.371324
 20
381.917359
 30
0.0
 11
371.871324
 21
381.917359
 31
0.0
  0
LINE
  8
LC-001-002-----0
  6
CONTINUOUS
  5
73
 10
405.371324
 20
372.917359
 30
0.0
 11
408.371324
 21
372.917359
 31
0.0
  0
LINE
  8
LC-001-002-----0
  6
CONTINUOUS
  5
74
 10
370.371324
 20
372.917359
 30
0.0
 11
405.371324
 21
372.917359
 31
0.0
  0
LINE
  8
LC-001-002-----0
  6
CONTINUOUS
  5
75
 10
406.871324
 20
382.417359
 30
0.0
 11
408.871324
 21
382.417359
 31
0.0
  0
LINE
  8
LC-001-002-----0
  6
CONTINUOUS
  5
76
 10
408.871324
 20
382.417359
 30
0.0
 11
408.871324
 21
403.417359
 31
0.0
  0
LINE
  8
LC-001-002-----0
  6
CONTINUOUS
  5
77
 10
408.871324
 20
403.417359
 30
0.0
 11
407.371324
 21
403.417359
 31
0.0
  0
LINE
  8
LC-001-002-----0
  6
CONTINUOUS
  5
78
 10
407.371324
 20
403.417359
 30
0.0
 11
407.371324
 21
409.417359
 31
0.0
  0
LINE
  8
LC-001-002-----0
  6
CONTINUOUS
  5
79
 10
407.371324
 20
409.417359
 30
0.0
 11
389.371324
 21
409.417359
 31
0.0
  0
LINE
  8
LC-001-002-----0
  6
CONTINUOUS
  5
7A
 10
371.371592
 20
409.417684
 30
0.0
 11
389.371592
 21
409.417673
 31
0.0
  0
LINE
  8
LC-001-002-----0
  6
CONTINUOUS
  5
7B
 10
371.371588
 20
403.417684
 30
0.0
 11
371.371592
 21
409.417684
 31
0.0
  0
LINE
  8
LC-001-002-----0
  6
CONTINUOUS
  5
7C
 10
369.871588
 20
403.417685
 30
0.0
 11
407.371324
 21
403.417661
 31
0.0
  0
LINE
  8
LC-001-002-----0
  6
CONTINUOUS
  5
7D
 10
369.871574
 20
382.417685
 30
0.0
 11
369.871588
 21
403.417685
 31
0.0
  0
LINE
  8
LC-001-002-----0
  6
CONTINUOUS
  5
7E
 10
406.871324
 20
382.417661
 30
0.0
 11
369.871574
 21
382.417685
 31
0.0
  0
LINE
  8
LC-001-002-----0
  6
DASHDOT
 62
     2
  5
7F
 10
389.371324
 20
373.417359
 30
0.0
 11
389.371324
 21
409.417359
 31
0.0
  0
LINE
  8
LC-001-002-----0
  6
CONTINUOUS
  5
80
 10
371.371324
 20
369.417359
 30
0.0
 11
371.371324
 21
344.417359
 31
0.0
  0
LINE
  8
LC-001-002-----0
  6
CONTINUOUS
  5
81
 10
405.371324
 20
369.417359
 30
0.0
 11
371.371324
 21
369.417359
 31
0.0
  0
ARC
  8
LC-001-002-----0
  6
CONTINUOUS
  5
82
 10
389.371324
 20
376.056021
 30
0.0
 40
36.400617
 50
240.363101
 51
299.636712
  0
LINE
  8
LC-001-002-----0
  6
CONTINUOUS
  5
83
 10
529.371324
 20
344.417359
 30
0.0
 11
529.371324
 21
294.417359
 31
0.0
  0
LINE
  8
LC-001-002-----0
  6
CONTINUOUS
  5
84
 10
361.371324
 20
344.417359
 30
0.0
 11
361.371324
 21
294.417359
 31
0.0
  0
LINE
  8
LC-001-002-----0
  6
CONTINUOUS
  5
85
 10
353.371324
 20
346.917359
 30
0.0
 11
353.371324
 21
291.917359
 31
0.0
  0
LINE
  8
LC-001-002-----0
  6
CONTINUOUS
  5
86
 10
353.371324
 20
291.917359
 30
0.0
 11
361.371324
 21
294.417359
 31
0.0
  0
LINE
  8
LC-001-002-----0
  6
CONTINUOUS
  5
87
 10
353.371324
 20
346.917359
 30
0.0
 11
361.371324
 21
344.417359
 31
0.0
  0
LINE
  8
LC-001-002-----0
  6
CONTINUOUS
  5
88
 10
353.371324
 20
346.917359
 30
0.0
 11
330.371324
 21
346.917359
 31
0.0
  0
LINE
  8
LC-001-002-----0
  6
CONTINUOUS
  5
89
 10
330.371324
 20
346.917359
 30
0.0
 11
330.371324
 21
291.917359
 31
0.0
  0
LINE
  8
LC-001-002-----0
  6
CONTINUOUS
  5
8A
 10
330.371324
 20
291.917359
 30
0.0
 11
353.371324
 21
291.917359
 31
0.0
  0
LINE
  8
LC-001-002-----0
  6
CONTINUOUS
  5
8B
 10
330.371324
 20
346.917359
 30
0.0
 11
330.371324
 21
350.917359
 31
0.0
  0
LINE
  8
LC-001-002-----0
  6
CONTINUOUS
  5
8C
 10
330.371324
 20
287.917359
 30
0.0
 11
330.371324
 21
291.917359
 31
0.0
  0
LINE
  8
LC-001-002-----0
  6
CONTINUOUS
  5
8D
 10
329.371324
 20
350.917359
 30
0.0
 11
329.371324
 21
287.917359
 31
0.0
  0
LINE
  8
LC-001-002-----0
  6
CONTINUOUS
  5
8E
 10
329.371324
 20
350.917359
 30
0.0
 11
329.371324
 21
351.917359
 31
0.0
  0
LINE
  8
LC-001-002-----0
  6
CONTINUOUS
  5
8F
 10
329.371324
 20
351.917359
 30
0.0
 11
330.371324
 21
351.917359
 31
0.0
  0
LINE
  8
LC-001-002-----0
  6
CONTINUOUS
  5
90
 10
330.371324
 20
351.917359
 30
0.0
 11
330.371324
 21
350.917359
 31
0.0
  0
LINE
  8
LC-001-002-----0
  6
CONTINUOUS
  5
91
 10
329.371324
 20
287.917359
 30
0.0
 11
329.371324
 21
286.917359
 31
0.0
  0
LINE
  8
LC-001-002-----0
  6
CONTINUOUS
  5
92
 10
329.371324
 20
286.917359
 30
0.0
 11
330.371324
 21
286.917359
 31
0.0
  0
LINE
  8
LC-001-002-----0
  6
CONTINUOUS
  5
93
 10
330.371324
 20
286.917359
 30
0.0
 11
330.371324
 21
287.917359
 31
0.0
  0
LINE
  8
LC-001-002-----0
  6
CONTINUOUS
  5
94
 10
329.371324
 20
350.917359
 30
0.0
 11
313.371324
 21
350.917359
 31
0.0
  0
ARC
  8
LC-003-002-RND-0
  6
CONTINUOUS
  5
96
 10
313.371324
 20
347.917359
 30
0.0
 40
3.0
 50
90.0
 51
180.0
  0
LINE
  8
LC-001-002-----0
  6
CONTINUOUS
  5
97
 10
313.371324
 20
287.917359
 30
0.0
 11
329.371324
 21
287.917359
 31
0.0
  0
ARC
  8
LC-003-002-RND-0
  6
CONTINUOUS
  5
98
 10
313.371324
 20
290.917359
 30
0.0
 40
3.0
 50
180.0
 51
270.0
  0
LINE
  8
LC-001-002-----0
  6
CONTINUOUS
  5
99
 10
310.371324
 20
347.917359
 30
0.0
 11
310.371324
 21
290.917359
 31
0.0
  0
LINE
  8
LC-001-002-----0
  6
CONTINUOUS
 62
     2
  5
9A
 10
329.371324
 20
319.917359
 30
0.0
 11
313.371324
 21
319.917359
 31
0.0
  0
LINE
  8
LC-001-002-----0
  6
CONTINUOUS
 62
     2
  5
9B
 10
329.371324
 20
320.917359
 30
0.0
 11
313.371324
 21
320.917359
 31
0.0
  0
LINE
  8
LC-001-002-----0
  6
CONTINUOUS
 62
     2
  5
9C
 10
329.371324
 20
321.917359
 30
0.0
 11
313.371324
 21
321.917359
 31
0.0
  0
LINE
  8
LC-001-002-----0
  6
CONTINUOUS
 62
     2
  5
9D
 10
329.371324
 20
322.917359
 30
0.0
 11
313.371324
 21
322.917359
 31
0.0
  0
LINE
  8
LC-001-002-----0
  6
CONTINUOUS
 62
     2
  5
9E
 10
329.371324
 20
318.917359
 30
0.0
 11
313.371324
 21
318.917359
 31
0.0
  0
LINE
  8
LC-001-002-----0
  6
CONTINUOUS
 62
     2
  5
9F
 10
329.371324
 20
317.917359
 30
0.0
 11
313.371324
 21
317.917359
 31
0.0
  0
LINE
  8
LC-001-002-----0
  6
CONTINUOUS
 62
     2
  5
A0
 10
329.371324
 20
316.917359
 30
0.0
 11
313.371324
 21
316.917359
 31
0.0
  0
LINE
  8
LC-001-002-----0
  6
CONTINUOUS
 62
     2
  5
A1
 10
329.371324
 20
315.917359
 30
0.0
 11
313.371324
 21
315.917359
 31
0.0
  0
LINE
  8
LC-001-002-----0
  6
CONTINUOUS
 62
     2
  5
A2
 10
329.371324
 20
350.417359
 30
0.0
 11
313.371324
 21
350.417359
 31
0.0
  0
LINE
  8
LC-001-002-----0
  6
CONTINUOUS
 62
     2
  5
A3
 10
329.371324
 20
288.417359
 30
0.0
 11
313.371324
 21
288.417359
 31
0.0
  0
LINE
  8
LC-001-002-----0
  6
CONTINUOUS
 62
     2
  5
A4
 10
329.371324
 20
349.417359
 30
0.0
 11
313.371324
 21
349.417359
 31
0.0
  0
LINE
  8
LC-001-002-----0
  6
CONTINUOUS
 62
     2
  5
A5
 10
329.371324
 20
348.417359
 30
0.0
 11
313.371324
 21
348.417359
 31
0.0
  0
LINE
  8
LC-001-002-----0
  6
CONTINUOUS
 62
     2
  5
A6
 10
329.371324
 20
289.417359
 30
0.0
 11
313.371324
 21
289.417359
 31
0.0
  0
LINE
  8
LC-001-002-----0
  6
CONTINUOUS
 62
     2
  5
A7
 10
329.371324
 20
290.417359
 30
0.0
 11
313.371324
 21
290.417359
 31
0.0
  0
ENDSEC
  0
EOF
