  0
SECTION
  2
HEADER
  9
$ACADVER
  1
AC1015
  9
$ACADMAINTVER
 70
     6
  9
$DWGCODEPAGE
  3
DOS850
  9
$INSBASE
 10
0.0
 20
0.0
 30
0.0
  9
$EXTMIN
 10
-300.000785
 20
-149.82
 30
0.0
  9
$EXTMAX
 10
539.999215
 20
444.18
 30
0.0
  9
$LIMMIN
 10
-300.000785
 20
-149.82
  9
$LIMMAX
 10
539.999215
 20
444.18
  9
$ORTHOMODE
 70
     0
  9
$REGENMODE
 70
     1
  9
$FILLMODE
 70
     1
  9
$QTEXTMODE
 70
     0
  9
$MIRRTEXT
 70
     1
  9
$LTSCALE
 40
2.0
  9
$ATTMODE
 70
     1
  9
$TEXTSIZE
 40
2.5
  9
$TRACEWID
 40
1.0
  9
$TEXTSTYLE
  7
Standard
  9
$CLAYER
  8
0
  9
$CELTYPE
  6
ByLayer
  9
$CECOLOR
 62
     7
  9
$CELTSCALE
 40
1.0
  9
$DISPSILH
 70
     0
  9
$DIMSCALE
 40
2.0
  9
$DIMASZ
 40
3.5
  9
$DIMEXO
 40
0.625
  9
$DIMDLI
 40
3.75
  9
$DIMRND
 40
0.0
  9
$DIMDLE
 40
0.0
  9
$DIMEXE
 40
1.25
  9
$DIMTP
 40
0.0
  9
$DIMTM
 40
0.0
  9
$DIMTXT
 40
3.5
  9
$DIMCEN
 40
2.5
  9
$DIMTSZ
 40
0.0
  9
$DIMTOL
 70
     0
  9
$DIMLIM
 70
     0
  9
$DIMTIH
 70
     0
  9
$DIMTOH
 70
     0
  9
$DIMSE1
 70
     0
  9
$DIMSE2
 70
     0
  9
$DIMTAD
 70
     1
  9
$DIMZIN
 70
     8
  9
$DIMBLK
  1

  9
$DIMASO
 70
     1
  9
$DIMSHO
 70
     1
  9
$DIMPOST
  1

  9
$DIMAPOST
  1

  9
$DIMALT
 70
     0
  9
$DIMALTD
 70
     3
  9
$DIMALTF
 40
0.03937
  9
$DIMLFAC
 40
1.0
  9
$DIMTOFL
 70
     1
  9
$DIMTVP
 40
0.0
  9
$DIMTIX
 70
     0
  9
$DIMSOXD
 70
     0
  9
$DIMSAH
 70
     0
  9
$DIMBLK1
  1

  9
$DIMBLK2
  1

  9
$DIMSTYLE
  2
ISO-25
  9
$DIMCLRD
 70
     0
  9
$DIMCLRE
 70
     0
  9
$DIMCLRT
 70
     0
  9
$DIMTFAC
 40
1.0
  9
$DIMGAP
 40
0.625
  9
$DIMJUST
 70
     0
  9
$DIMSD1
 70
     0
  9
$DIMSD2
 70
     0
  9
$DIMTOLJ
 70
     0
  9
$DIMTZIN
 70
     8
  9
$DIMALTZ
 70
     0
  9
$DIMALTTZ
 70
     0
  9
$DIMUPT
 70
     0
  9
$DIMDEC
 70
     2
  9
$DIMTDEC
 70
     2
  9
$DIMALTU
 70
     2
  9
$DIMALTTD
 70
     3
  9
$DIMTXSTY
  7
Standard
  9
$DIMAUNIT
 70
     0
  9
$DIMADEC
 70
     0
  9
$DIMALTRND
 40
0.0
  9
$DIMAZIN
 70
     0
  9
$DIMDSEP
 70
    44
  9
$DIMATFIT
 70
     3
  9
$DIMFRAC
 70
     0
  9
$DIMLDRBLK
  1

  9
$DIMLUNIT
 70
     2
  9
$DIMLWD
 70
    -2
  9
$DIMLWE
 70
    -2
  9
$DIMTMOVE
 70
     0
  9
$LUNITS
 70
     2
  9
$LUPREC
 70
     4
  9
$SKETCHINC
 40
1.0
  9
$FILLETRAD
 40
10.0
  9
$AUNITS
 70
     0
  9
$AUPREC
 70
     0
  9
$MENU
  1
.
  9
$ELEVATION
 40
0.0
  9
$PELEVATION
 40
0.0
  9
$THICKNESS
 40
0.0
  9
$LIMCHECK
 70
     0
  9
$CHAMFERA
 40
10.0
  9
$CHAMFERB
 40
10.0
  9
$CHAMFERC
 40
20.0
  9
$CHAMFERD
 40
0.0
  9
$SKPOLY
 70
     0
  9
$TDCREATE
 40
2453790.480977871
  9
$TDUCREATE
 40
2453790.439311204
  9
$TDUPDATE
 40
2453790.480977882
  9
$TDUUPDATE
 40
2453790.439311215
  9
$TDINDWG
 40
0.0000000116
  9
$TDUSRTIMER
 40
0.0000000116
  9
$USRTIMER
 70
     1
  9
$ANGBASE
 50
0.0
  9
$ANGDIR
 70
     0
  9
$PDMODE
 70
     0
  9
$PDSIZE
 40
0.0
  9
$PLINEWID
 40
0.0
  9
$SPLFRAME
 70
     0
  9
$SPLINETYPE
 70
     6
  9
$SPLINESEGS
 70
     8
  9
$HANDSEED
  5
DA
  9
$SURFTAB1
 70
     6
  9
$SURFTAB2
 70
     6
  9
$SURFTYPE
 70
     6
  9
$SURFU
 70
     6
  9
$SURFV
 70
     6
  9
$UCSBASE
  2

  9
$UCSNAME
  2

  9
$UCSORG
 10
0.0
 20
0.0
 30
0.0
  9
$UCSXDIR
 10
1.0
 20
0.0
 30
0.0
  9
$UCSYDIR
 10
0.0
 20
1.0
 30
0.0
  9
$UCSORTHOREF
  2

  9
$UCSORTHOVIEW
 70
     0
  9
$UCSORGTOP
 10
0.0
 20
0.0
 30
0.0
  9
$UCSORGBOTTOM
 10
0.0
 20
0.0
 30
0.0
  9
$UCSORGLEFT
 10
0.0
 20
0.0
 30
0.0
  9
$UCSORGRIGHT
 10
0.0
 20
0.0
 30
0.0
  9
$UCSORGFRONT
 10
0.0
 20
0.0
 30
0.0
  9
$UCSORGBACK
 10
0.0
 20
0.0
 30
0.0
  9
$PUCSBASE
  2

  9
$PUCSNAME
  2

  9
$PUCSORG
 10
0.0
 20
0.0
 30
0.0
  9
$PUCSXDIR
 10
1.0
 20
0.0
 30
0.0
  9
$PUCSYDIR
 10
0.0
 20
1.0
 30
0.0
  9
$PUCSORTHOREF
  2

  9
$PUCSORTHOVIEW
 70
     0
  9
$PUCSORGTOP
 10
0.0
 20
0.0
 30
0.0
  9
$PUCSORGBOTTOM
 10
0.0
 20
0.0
 30
0.0
  9
$PUCSORGLEFT
 10
0.0
 20
0.0
 30
0.0
  9
$PUCSORGRIGHT
 10
0.0
 20
0.0
 30
0.0
  9
$PUCSORGFRONT
 10
0.0
 20
0.0
 30
0.0
  9
$PUCSORGBACK
 10
0.0
 20
0.0
 30
0.0
  9
$USERI1
 70
     0
  9
$USERI2
 70
     0
  9
$USERI3
 70
     0
  9
$USERI4
 70
     0
  9
$USERI5
 70
     0
  9
$USERR1
 40
0.0
  9
$USERR2
 40
0.0
  9
$USERR3
 40
0.0
  9
$USERR4
 40
0.0
  9
$USERR5
 40
0.0
  9
$WORLDVIEW
 70
     1
  9
$SHADEDGE
 70
     3
  9
$SHADEDIF
 70
    70
  9
$TILEMODE
 70
     1
  9
$MAXACTVP
 70
    64
  9
$PINSBASE
 10
0.0
 20
0.0
 30
0.0
  9
$PLIMCHECK
 70
     0
  9
$PEXTMIN
 10
-300.000785
 20
-149.82
 30
0.0
  9
$PEXTMAX
 10
539.999215
 20
444.18
 30
0.0
  9
$PLIMMIN
 10
-300.000785
 20
-149.82
  9
$PLIMMAX
 10
539.999215
 20
444.18
  9
$UNITMODE
 70
     0
  9
$VISRETAIN
 70
     1
  9
$PLINEGEN
 70
     0
  9
$PSLTSCALE
 70
     1
  9
$TREEDEPTH
 70
  3020
  9
$CMLSTYLE
  2
Standard
  9
$CMLJUST
 70
     0
  9
$CMLSCALE
 40
20.0
  9
$PROXYGRAPHICS
 70
     1
  9
$MEASUREMENT
 70
     1
  9
$CELWEIGHT
370
    -1
  9
$ENDCAPS
280
     0
  9
$JOINSTYLE
280
     0
  9
$LWDISPLAY
290
     0
  9
$INSUNITS
 70
     4
  9
$HYPERLINKBASE
  1

  9
$STYLESHEET
  1

  9
$XEDIT
290
     1
  9
$CEPSNTYPE
380
     0
  9
$PSTYLEMODE
290
     1
  9
$FINGERPRINTGUID
  2
{FAEB1C30-E019-11D5-929B-00C0DF256EC4}
  9
$VERSIONGUID
  2
{FAEB1C32-E019-11D5-929B-00C0DF256EC4}
  9
$EXTNAMES
290
     1
  9
$PSVPSCALE
 40
0.0
  9
$OLESTARTUP
290
     0
  0
ENDSEC
  0
SECTION
  2
CLASSES
  0
CLASS
  1
ACDBDICTIONARYWDFLT
  2
AcDbDictionaryWithDefault
  3
ObjectDBX Classes
 90
        0
280
     0
281
     0
  0
CLASS
  1
ACDBPLACEHOLDER
  2
AcDbPlaceHolder
  3
ObjectDBX Classes
 90
        0
280
     0
281
     0
  0
CLASS
  1
LAYOUT
  2
AcDbLayout
  3
ObjectDBX Classes
 90
        0
280
     0
281
     0
  0
ENDSEC
  0
SECTION
  2
TABLES
  0
TABLE
  2
VPORT
  5
8
330
0
100
AcDbSymbolTable
 70
     2
  0
VPORT
  5
29
330
8
100
AcDbSymbolTableRecord
100
AcDbViewportTableRecord
  2
*ACTIVE
 70
     0
 10
0.0
 20
0.0
 11
1.0
 21
1.0
 12
119.999215
 22
147.18
 13
0.0
 23
0.0
 14
1.0
 24
1.0
 15
0.0
 25
0.0
 16
0.0
 26
0.0
 36
1.0
 17
0.0
 27
0.0
 37
0.0
 40
594.0
 41
1.414141
 42
50.0
 43
0.0
 44
0.0
 50
0.0
 51
0.0
 71
    16
 72
   100
 73
     1
 74
     0
 75
     0
 76
     0
 77
     0
 78
     0
281
     0
 65
     0
110
0.0
120
0.0
130
0.0
111
1.0
121
0.0
131
0.0
112
0.0
122
1.0
132
0.0
 79
     0
146
0.0
  0
ENDTAB
  0
TABLE
  2
LTYPE
  5
5
330
0
100
AcDbSymbolTable
 70
     3
  0
LTYPE
  5
14
330
5
100
AcDbSymbolTableRecord
100
AcDbLinetypeTableRecord
  2
ByBlock
 70
     0
  3

 72
    65
 73
     0
 40
0.0
  0
LTYPE
  5
15
330
5
100
AcDbSymbolTableRecord
100
AcDbLinetypeTableRecord
  2
ByLayer
 70
     0
  3

 72
    65
 73
     0
 40
0.0
  0
LTYPE
  5
16
330
5
100
AcDbSymbolTableRecord
100
AcDbLinetypeTableRecord
  2
Continuous
 70
     0
  3
Solid line
 72
    65
 73
     0
 40
0.0
  0
LTYPE
  5
2A
330
5
100
AcDbSymbolTableRecord
100
AcDbLinetypeTableRecord
  2
DASHED
 70
     0
  3
__ __ __ __ __
 72
    65
 73
     2
 40
6.25
 49
5.0
 74
     4
 75
     0
340
0
 46
1.0
 50
0.0
 44
0.0
 45
0.0
 49
-1.25
 74
     4
 75
     0
340
0
 46
1.0
 50
0.0
 44
0.0
 45
0.0
  0
LTYPE
  5
63
330
5
100
AcDbSymbolTableRecord
100
AcDbLinetypeTableRecord
  2
CENTER
 70
     0
  3
__ . __ . __ . __ . __
 72
    65
 73
     4
 40
7.5
 49
5.0
 74
     4
 75
     0
340
0
 46
1.0
 50
0.0
 44
0.0
 45
0.0
 49
-1.25
 74
     4
 75
     0
340
0
 46
1.0
 50
0.0
 44
0.0
 45
0.0
 49
0.0
 74
     4
 75
     0
340
0
 46
1.0
 50
0.0
 44
0.0
 45
0.0
 49
-1.25
 74
     4
 75
     0
340
0
 46
1.0
 50
0.0
 44
0.0
 45
0.0
  0
ENDTAB
  0
TABLE
  2
LAYER
  5
2
330
0
100
AcDbSymbolTable
 70
    11
  0
LAYER
  5
10
330
2
100
AcDbSymbolTableRecord
100
AcDbLayerTableRecord
  2
0
 70
     0
 62
     7
  6
Continuous
370
    -3
390
F
  0
LAYER
  5
2B
330
2
100
AcDbSymbolTableRecord
100
AcDbLayerTableRecord
  2
LC-INFO-1-2-mm-A3-0
 70
     1
 62
     7
  6
ByBlock
370
    -3
390
F
  0
LAYER
  5
2C
330
2
100
AcDbSymbolTableRecord
100
AcDbLayerTableRecord
  2
LC-CUT-HIDDEN
 70
     0
 62
     7
  6
DASHED
370
    -3
390
F
  0
LAYER
  5
2D
330
2
100
AcDbSymbolTableRecord
100
AcDbLayerTableRecord
  2
LC-VIEWPORT
 70
     0
 62
     7
  6
ByBlock
370
    -3
390
F
  0
LAYER
  5
2E
330
2
100
AcDbSymbolTableRecord
100
AcDbLayerTableRecord
  2
LC-3D-HIDDEN
 70
     0
 62
     9
  6
DASHED
370
    -3
390
F
  0
LAYER
  5
30
330
2
100
AcDbSymbolTableRecord
100
AcDbLayerTableRecord
  2
LC-001-002-----0
 70
     0
 62
     1
  6
ByBlock
370
    -3
390
F
  0
LAYER
  5
32
330
2
100
AcDbSymbolTableRecord
100
AcDbLayerTableRecord
  2
LC-002-002-RND-0
 70
     0
 62
     1
  6
ByBlock
370
    -3
390
F
  0
LAYER
  5
39
330
2
100
AcDbSymbolTableRecord
100
AcDbLayerTableRecord
  2
LC-003-005-----0
 70
     0
 62
     2
  6
DASHED
370
    -3
390
F
  0
LAYER
  5
64
330
2
100
AcDbSymbolTableRecord
100
AcDbLayerTableRecord
  2
LC-004-006-MLN-0
 70
     0
 62
     2
  6
CENTER
370
    -3
390
F
  0
LAYER
  5
A2
330
2
100
AcDbSymbolTableRecord
100
AcDbLayerTableRecord
  2
LC-005-003-----0
 70
     0
 62
     2
  6
ByBlock
370
    -3
390
F
  0
LAYER
  5
A4
330
2
100
AcDbSymbolTableRecord
100
AcDbLayerTableRecord
  2
Defpoints
 70
     0
 62
     7
  6
Continuous
290
     0
370
    -3
390
F
  0
ENDTAB
  0
TABLE
  2
STYLE
  5
3
330
0
100
AcDbSymbolTable
 70
     3
  0
STYLE
  5
11
330
3
100
AcDbSymbolTableRecord
100
AcDbTextStyleTableRecord
  2
Standard
 70
     0
 40
0.0
 41
1.0
 50
0.0
 71
     0
 42
2.5
  3
txt
  4

  0
STYLE
  5
2F
330
3
100
AcDbSymbolTableRecord
100
AcDbTextStyleTableRecord
  2
LCTX15-400-0-0-Arial
 70
     0
 40
0.0
 41
0.9
 50
0.0
 71
     0
 42
3.5
  3

  4

1001
ACAD
1000
Arial
1071
 16777218
  0
STYLE
  5
A0
330
3
100
AcDbSymbolTableRecord
100
AcDbTextStyleTableRecord
  2
LCTX15-400-0-0pDIN-Schrift
 70
     0
 40
2.5
 41
0.8
 50
15.0
 71
     0
 42
3.5
  3
STANDARD
  4

  0
ENDTAB
  0
TABLE
  2
VIEW
  5
6
330
0
100
AcDbSymbolTable
 70
     0
  0
ENDTAB
  0
TABLE
  2
UCS
  5
7
330
0
100
AcDbSymbolTable
 70
     0
  0
ENDTAB
  0
TABLE
  2
APPID
  5
9
330
0
100
AcDbSymbolTable
 70
     1
  0
APPID
  5
12
330
9
100
AcDbSymbolTableRecord
100
AcDbRegAppTableRecord
  2
ACAD
 70
     0
  0
ENDTAB
  0
TABLE
  2
DIMSTYLE
  5
A
330
0
100
AcDbSymbolTable
 70
     3
100
AcDbDimStyleTable
  0
DIMSTYLE
105
27
330
A
100
AcDbSymbolTableRecord
100
AcDbDimStyleTableRecord
  2
ISO-25
 70
     0
 41
2.5
 42
0.625
 43
3.75
 44
1.25
 73
     0
 74
     0
 77
     1
 78
     8
140
2.5
141
2.5
143
0.03937
147
0.625
171
     3
172
     1
271
     2
272
     2
274
     3
278
    44
283
     0
284
     8
340
11
  0
DIMSTYLE
105
A1
102
{ACAD_REACTORS
330
A3
102
}
330
A
100
AcDbSymbolTableRecord
100
AcDbDimStyleTableRecord
  2
LC-DIM-L-0140-02-02
 70
     0
 40
2.0
 41
14.0
 42
0.0
 43
7.5
 44
1.8
 73
     0
 74
     0
 77
     1
 78
     8
 79
     2
140
14.0
141
0.0
146
0.71
147
1.5
176
     2
177
     2
178
     2
179
     2
271
     2
278
    44
289
     1
340
A0
  0
DIMSTYLE
105
B1
102
{ACAD_REACTORS
330
B2
330
BF
102
}
330
A
100
AcDbSymbolTableRecord
100
AcDbDimStyleTableRecord
  2
LC-DIM-L-0140-01-02
 70
     0
 40
2.0
 41
14.0
 42
0.0
 43
7.5
 44
1.8
 73
     0
 74
     0
 77
     1
 78
     8
 79
     2
140
14.0
141
0.0
146
0.71
147
1.5
176
     2
177
     2
178
     2
179
     1
271
     1
278
    44
289
     1
340
A0
  0
ENDTAB
  0
TABLE
  2
BLOCK_RECORD
  5
1
330
0
100
AcDbSymbolTable
 70
     6
  0
BLOCK_RECORD
  5
1F
330
1
100
AcDbSymbolTableRecord
100
AcDbBlockTableRecord
  2
*Model_Space
340
22
  0
BLOCK_RECORD
  5
1B
330
1
100
AcDbSymbolTableRecord
100
AcDbBlockTableRecord
  2
*Paper_Space
340
1E
  0
BLOCK_RECORD
  5
23
330
1
100
AcDbSymbolTableRecord
100
AcDbBlockTableRecord
  2
*Paper_Space0
340
26
  0
BLOCK_RECORD
  5
36
330
1
100
AcDbSymbolTableRecord
100
AcDbBlockTableRecord
  2
*X11
340
0
102
{BLKREFS
331
40
102
}
  0
BLOCK_RECORD
  5
69
330
1
100
AcDbSymbolTableRecord
100
AcDbBlockTableRecord
  2
*X22
340
0
102
{BLKREFS
331
79
102
}
  0
BLOCK_RECORD
  5
A5
330
1
100
AcDbSymbolTableRecord
100
AcDbBlockTableRecord
  2
*D3
340
0
  0
BLOCK_RECORD
  5
B3
330
1
100
AcDbSymbolTableRecord
100
AcDbBlockTableRecord
  2
*D4
340
0
  0
BLOCK_RECORD
  5
C0
330
1
100
AcDbSymbolTableRecord
100
AcDbBlockTableRecord
  2
*D5
340
0
  0
ENDTAB
  0
ENDSEC
  0
SECTION
  2
BLOCKS
  0
BLOCK
  5
20
330
1F
100
AcDbEntity
  8
0
100
AcDbBlockBegin
  2
*Model_Space
 70
     0
 71
     0
 10
0.0
 20
0.0
 30
0.0
  3
*Model_Space
  1

  0
ENDBLK
  5
21
330
1F
100
AcDbEntity
  8
0
100
AcDbBlockEnd
  0
BLOCK
  5
1C
330
1B
100
AcDbEntity
 67
     1
  8
0
100
AcDbBlockBegin
  2
*Paper_Space
 70
     0
 71
     0
 10
0.0
 20
0.0
 30
0.0
  3
*Paper_Space
  1

  0
ENDBLK
  5
1D
330
1B
100
AcDbEntity
 67
     1
  8
0
100
AcDbBlockEnd
  0
BLOCK
  5
24
330
23
100
AcDbEntity
  8
0
100
AcDbBlockBegin
  2
*Paper_Space0
 70
     0
 71
     0
 10
0.0
 20
0.0
 30
0.0
  3
*Paper_Space0
  1

  0
ENDBLK
  5
25
330
23
100
AcDbEntity
  8
0
100
AcDbBlockEnd
  0
BLOCK
  5
37
330
36
100
AcDbEntity
  8
0
100
AcDbBlockBegin
  2
*X11
 70
     1
 71
     0
 10
0.0
 20
0.0
 30
0.0
  3
*X11
  1

  4
*X1
  0
LINE
  5
3A
330
36
100
AcDbEntity
  8
LC-003-005-----0
 62
     7
370
    25
100
AcDbLine
 10
183.550419
 20
209.600951
 30
0.0
 11
180.124943
 21
213.026428
 31
0.0
  0
LINE
  5
3B
330
36
100
AcDbEntity
  8
LC-003-005-----0
 62
     7
370
    25
100
AcDbLine
 10
181.120248
 20
209.202695
 30
0.0
 11
178.710729
 21
211.612214
 31
0.0
  0
LINE
  5
3C
330
36
100
AcDbEntity
  8
LC-003-005-----0
  6
ByBlock
 62
     7
370
    25
100
AcDbLine
 10
184.533982
 20
200.132107
 30
0.0
 11
183.730985
 21
200.935104
 31
0.0
  0
LINE
  5
3D
330
36
100
AcDbEntity
  8
LC-003-005-----0
  6
ByBlock
 62
     7
370
    25
100
AcDbLine
 10
181.714548
 20
202.951541
 30
0.0
 11
178.471458
 21
206.194631
 31
0.0
  0
LINE
  5
3E
330
36
100
AcDbEntity
  8
LC-003-005-----0
  6
ByBlock
 62
     7
370
    25
100
AcDbLine
 10
182.886121
 20
198.951541
 30
0.0
 11
178.550419
 21
203.287243
 31
0.0
  0
LINE
  5
3F
330
36
100
AcDbEntity
  8
LC-003-005-----0
 62
     7
370
    25
100
AcDbLine
 10
181.229266
 20
194.951541
 30
0.0
 11
178.550419
 21
197.630388
 31
0.0
  0
ENDBLK
  5
38
330
36
100
AcDbEntity
  8
0
100
AcDbBlockEnd
  0
BLOCK
  5
6A
330
69
100
AcDbEntity
  8
0
100
AcDbBlockBegin
  2
*X22
 70
     1
 71
     0
 10
0.0
 20
0.0
 30
0.0
  3
*X22
  1

  4
*X2
  0
LINE
  5
6C
330
69
100
AcDbEntity
  8
LC-003-005-----0
 62
     7
370
    25
100
AcDbLine
 10
183.550419
 20
209.600951
 30
0.0
 11
180.124943
 21
213.026428
 31
0.0
  0
LINE
  5
6D
330
69
100
AcDbEntity
  8
LC-003-005-----0
 62
     7
370
    25
100
AcDbLine
 10
181.120248
 20
209.202695
 30
0.0
 11
178.710729
 21
211.612214
 31
0.0
  0
LINE
  5
6E
330
69
100
AcDbEntity
  8
LC-003-005-----0
  6
ByBlock
 62
     7
370
    25
100
AcDbLine
 10
184.533982
 20
200.132107
 30
0.0
 11
183.730985
 21
200.935104
 31
0.0
  0
LINE
  5
6F
330
69
100
AcDbEntity
  8
LC-003-005-----0
  6
ByBlock
 62
     7
370
    25
100
AcDbLine
 10
181.714548
 20
202.951541
 30
0.0
 11
178.471458
 21
206.194631
 31
0.0
  0
LINE
  5
70
330
69
100
AcDbEntity
  8
LC-003-005-----0
  6
ByBlock
 62
     7
370
    25
100
AcDbLine
 10
182.886121
 20
198.951541
 30
0.0
 11
178.550419
 21
203.287243
 31
0.0
  0
LINE
  5
71
330
69
100
AcDbEntity
  8
LC-003-005-----0
 62
     7
370
    25
100
AcDbLine
 10
181.229266
 20
194.951541
 30
0.0
 11
178.550419
 21
197.630388
 31
0.0
  0
LINE
  5
72
330
69
100
AcDbEntity
  8
LC-003-005-----0
 62
     7
370
    25
100
AcDbLine
 10
68.641803
 20
205.715628
 30
0.0
 11
66.511806
 21
207.845625
 31
0.0
  0
LINE
  5
73
330
69
100
AcDbEntity
  8
LC-003-005-----0
 62
     7
370
    25
100
AcDbLine
 10
64.953485
 20
209.403946
 30
0.0
 11
63.550421
 21
210.80701
 31
0.0
  0
LINE
  5
74
330
69
100
AcDbEntity
  8
LC-003-005-----0
 62
     7
370
    25
100
AcDbLine
 10
68.750576
 20
202.778428
 30
0.0
 11
64.625058
 21
206.903946
 31
0.0
  0
LINE
  5
75
330
69
100
AcDbEntity
  8
LC-003-005-----0
  6
ByBlock
 62
     7
370
    25
100
AcDbLine
 10
68.968122
 20
196.904028
 30
0.0
 11
68.743275
 21
197.128874
 31
0.0
  0
LINE
  5
76
330
69
100
AcDbEntity
  8
LC-003-005-----0
  6
ByBlock
 62
     7
370
    25
100
AcDbLine
 10
68.550421
 20
197.321728
 30
0.0
 11
64.920608
 21
200.951541
 31
0.0
  0
LINE
  5
77
330
69
100
AcDbEntity
  8
LC-003-005-----0
  6
ByBlock
 62
     7
370
    25
100
AcDbLine
 10
68.092181
 20
194.951541
 30
0.0
 11
65.990259
 21
197.053464
 31
0.0
  0
LINE
  5
78
330
69
100
AcDbEntity
  8
LC-003-005-----0
  6
ByBlock
 62
     7
370
    25
100
AcDbLine
 10
64.092181
 20
198.951541
 30
0.0
 11
62.652344
 21
200.391379
 31
0.0
  0
ENDBLK
  5
6B
330
69
100
AcDbEntity
  8
0
100
AcDbBlockEnd
  0
BLOCK
  5
AF
330
A5
100
AcDbEntity
  8
0
100
AcDbBlockBegin
  2
*D3
 70
     1
 71
     0
 10
0.0
 20
0.0
 30
0.0
  3
*D3
  1

  0
LINE
  5
A6
330
A5
100
AcDbEntity
  8
LC-005-003-----0
 62
     2
370
    -2
100
AcDbLine
 10
178.550419
 20
211.451904
 30
0.0
 11
178.550419
 21
241.068
 31
0.0
  0
LINE
  5
A7
330
A5
100
AcDbEntity
  8
LC-005-003-----0
 62
     2
370
    -2
100
AcDbLine
 10
68.550421
 20
211.451904
 30
0.0
 11
68.550421
 21
241.068
 31
0.0
  0
LINE
  5
A8
330
A5
100
AcDbEntity
  8
LC-005-003-----0
 62
     2
370
    -2
100
AcDbLine
 10
150.550419
 20
237.468
 30
0.0
 11
96.550421
 21
237.468
 31
0.0
  0
SOLID
  5
A9
330
A5
100
AcDbEntity
  8
LC-005-003-----0
 62
     2
100
AcDbTrace
 10
150.550419
 20
232.801333
 30
0.0
 11
150.550419
 21
242.134667
 31
0.0
 12
178.550419
 22
237.468
 32
0.0
 13
178.550419
 23
237.468
 33
0.0
  0
SOLID
  5
AA
330
A5
100
AcDbEntity
  8
LC-005-003-----0
 62
     2
100
AcDbTrace
 10
96.550421
 20
242.134667
 30
0.0
 11
96.550421
 21
232.801333
 31
0.0
 12
68.550421
 22
237.468
 32
0.0
 13
68.550421
 23
237.468
 33
0.0
  0
MTEXT
  5
AB
330
A5
100
AcDbEntity
  8
LC-005-003-----0
 62
     2
100
AcDbMText
 10
123.55042
 20
268.268
 30
0.0
 40
28.0
 41
0.0
 71
     5
 72
     1
  1
%%c\A1;110
  7
LCTX15-400-0-0pDIN-Schrift
 73
     1
 44
1.0
  0
POINT
  5
AC
330
A5
100
AcDbEntity
  8
Defpoints
 62
     0
100
AcDbPoint
 10
178.550419
 20
211.451904
 30
0.0
  0
POINT
  5
AD
330
A5
100
AcDbEntity
  8
Defpoints
 62
     0
100
AcDbPoint
 10
68.550421
 20
211.451904
 30
0.0
  0
POINT
  5
AE
330
A5
100
AcDbEntity
  8
Defpoints
 62
     0
100
AcDbPoint
 10
68.550421
 20
237.468
 30
0.0
  0
ENDBLK
  5
B0
330
A5
100
AcDbEntity
  8
0
100
AcDbBlockEnd
  0
BLOCK
  5
BD
330
B3
100
AcDbEntity
  8
0
100
AcDbBlockBegin
  2
*D4
 70
     1
 71
     0
 10
0.0
 20
0.0
 30
0.0
  3
*D4
  1

  0
LINE
  5
B4
330
B3
100
AcDbEntity
  8
LC-005-003-----0
 62
     2
370
    -2
100
AcDbLine
 10
63.550421
 20
212.951541
 30
0.0
 11
63.550421
 21
295.122
 31
0.0
  0
LINE
  5
B5
330
B3
100
AcDbEntity
  8
LC-005-003-----0
 62
     2
370
    -2
100
AcDbLine
 10
183.550419
 20
212.951541
 30
0.0
 11
183.550419
 21
295.122
 31
0.0
  0
LINE
  5
B6
330
B3
100
AcDbEntity
  8
LC-005-003-----0
 62
     2
370
    -2
100
AcDbLine
 10
91.550421
 20
291.522
 30
0.0
 11
155.550419
 21
291.522
 31
0.0
  0
SOLID
  5
B7
330
B3
100
AcDbEntity
  8
LC-005-003-----0
 62
     2
100
AcDbTrace
 10
91.550421
 20
296.188667
 30
0.0
 11
91.550421
 21
286.855333
 31
0.0
 12
63.550421
 22
291.522
 32
0.0
 13
63.550421
 23
291.522
 33
0.0
  0
SOLID
  5
B8
330
B3
100
AcDbEntity
  8
LC-005-003-----0
 62
     2
100
AcDbTrace
 10
155.550419
 20
286.855333
 30
0.0
 11
155.550419
 21
296.188667
 31
0.0
 12
183.550419
 22
291.522
 32
0.0
 13
183.550419
 23
291.522
 33
0.0
  0
MTEXT
  5
B9
330
B3
100
AcDbEntity
  8
LC-005-003-----0
 62
     2
100
AcDbMText
 10
123.55042
 20
322.322
 30
0.0
 40
28.0
 41
0.0
 71
     5
 72
     1
  1
%%c\A1;120
  7
LCTX15-400-0-0pDIN-Schrift
 73
     1
 44
1.0
  0
POINT
  5
BA
330
B3
100
AcDbEntity
  8
Defpoints
 62
     0
100
AcDbPoint
 10
63.550421
 20
212.951541
 30
0.0
  0
POINT
  5
BB
330
B3
100
AcDbEntity
  8
Defpoints
 62
     0
100
AcDbPoint
 10
183.550419
 20
212.951541
 30
0.0
  0
POINT
  5
BC
330
B3
100
AcDbEntity
  8
Defpoints
 62
     0
100
AcDbPoint
 10
183.550419
 20
291.522
 30
0.0
  0
ENDBLK
  5
BE
330
B3
100
AcDbEntity
  8
0
100
AcDbBlockEnd
  0
BLOCK
  5
CC
330
C0
100
AcDbEntity
  8
0
100
AcDbBlockBegin
  2
*D5
 70
     1
 71
     0
 10
0.0
 20
0.0
 30
0.0
  3
*D5
  1

  0
LINE
  5
C1
330
C0
100
AcDbEntity
  8
LC-005-003-----0
 62
     2
370
    -2
100
AcDbLine
 10
64.550421
 20
213.951541
 30
0.0
 11
31.4
 21
213.951541
 31
0.0
  0
LINE
  5
C2
330
C0
100
AcDbEntity
  8
LC-005-003-----0
 62
     2
370
    -2
100
AcDbLine
 10
63.550421
 20
194.951541
 30
0.0
 11
31.4
 21
194.951541
 31
0.0
  0
LINE
  5
C3
330
C0
100
AcDbEntity
  8
LC-005-003-----0
 62
     2
370
    -2
100
AcDbLine
 10
35.0
 20
241.951541
 30
0.0
 11
35.0
 21
269.951541
 31
0.0
  0
LINE
  5
C4
330
C0
100
AcDbEntity
  8
LC-005-003-----0
 62
     2
370
    -2
100
AcDbLine
 10
35.0
 20
166.951541
 30
0.0
 11
35.0
 21
138.951541
 31
0.0
  0
LINE
  5
C5
330
C0
100
AcDbEntity
  8
LC-005-003-----0
 62
     2
370
    -2
100
AcDbLine
 10
35.0
 20
213.951541
 30
0.0
 11
35.0
 21
194.951541
 31
0.0
  0
SOLID
  5
C6
330
C0
100
AcDbEntity
  8
LC-005-003-----0
 62
     2
100
AcDbTrace
 10
30.333333
 20
241.951541
 30
0.0
 11
39.666667
 21
241.951541
 31
0.0
 12
35.0
 22
213.951541
 32
0.0
 13
35.0
 23
213.951541
 33
0.0
  0
SOLID
  5
C7
330
C0
100
AcDbEntity
  8
LC-005-003-----0
 62
     2
100
AcDbTrace
 10
39.666667
 20
166.951541
 30
0.0
 11
30.333333
 21
166.951541
 31
0.0
 12
35.0
 22
194.951541
 32
0.0
 13
35.0
 23
194.951541
 33
0.0
  0
MTEXT
  5
C8
330
C0
100
AcDbEntity
  8
LC-005-003-----0
 62
     2
100
AcDbMText
 10
4.2
 20
204.451541
 30
0.0
 40
28.0
 41
0.0
 71
     5
 72
     1
  1
\A1;19
  7
LCTX15-400-0-0pDIN-Schrift
 11
6.123031769111886E-17
 21
1.0
 31
0.0
 73
     1
 44
1.0
  0
POINT
  5
C9
330
C0
100
AcDbEntity
  8
Defpoints
 62
     0
100
AcDbPoint
 10
64.550421
 20
213.951541
 30
0.0
  0
POINT
  5
CA
330
C0
100
AcDbEntity
  8
Defpoints
 62
     0
100
AcDbPoint
 10
63.550421
 20
194.951541
 30
0.0
  0
POINT
  5
CB
330
C0
100
AcDbEntity
  8
Defpoints
 62
     0
100
AcDbPoint
 10
35.0
 20
194.951541
 30
0.0
  0
ENDBLK
  5
CD
330
C0
100
AcDbEntity
  8
0
100
AcDbBlockEnd
  0
ENDSEC
  0
SECTION
  2
ENTITIES
  0
LINE
  5
31
102
{ACAD_REACTORS
330
D9
102
}
330
1F
100
AcDbEntity
  8
LC-001-002-----0
 62
     7
370
    50
100
AcDbLine
 10
178.550419
 20
209.240219
 30
0.0
 11
178.050419
 21
208.951544
 31
0.0
  0
ARC
  5
33
102
{ACAD_REACTORS
330
D9
102
}
330
1F
100
AcDbEntity
  8
LC-002-002-RND-0
 62
     7
370
    50
100
AcDbCircle
 10
183.551419
 20
203.950541
 30
0.0
 40
0.9990000000000237
100
AcDbArc
 50
270.0
 51
0.0
  0
LINE
  5
34
102
{ACAD_REACTORS
330
D9
102
}
330
1F
100
AcDbEntity
  8
LC-001-002-----0
 62
     7
370
    50
100
AcDbLine
 10
183.550419
 20
198.951541
 30
0.0
 11
181.550419
 21
198.951541
 31
0.0
  0
LINE
  5
35
102
{ACAD_REACTORS
330
D9
102
}
330
1F
100
AcDbEntity
  8
LC-001-002-----0
 62
     7
370
    50
100
AcDbLine
 10
181.050056
 20
213.951541
 30
0.0
 11
178.550419
 21
211.451904
 31
0.0
  0
INSERT
  5
40
102
{ACAD_REACTORS
330
D9
102
}
330
1F
100
AcDbEntity
  8
LC-003-005-----0
  6
ByBlock
 62
     7
370
    25
100
AcDbBlockReference
  2
*X11
 10
0.0
 20
0.0
 30
0.0
  0
LINE
  5
41
102
{ACAD_REACTORS
330
D9
102
}
330
1F
100
AcDbEntity
  8
LC-001-002-----0
 62
     7
370
    50
100
AcDbLine
 10
183.551419
 20
202.951541
 30
0.0
 11
181.550419
 21
202.951541
 31
0.0
  0
LINE
  5
42
102
{ACAD_REACTORS
330
D9
102
}
330
1F
100
AcDbEntity
  8
LC-001-002-----0
 62
     7
370
    50
100
AcDbLine
 10
181.550419
 20
200.951541
 30
0.0
 11
183.550419
 21
200.951541
 31
0.0
  0
LINE
  5
43
102
{ACAD_REACTORS
330
D9
102
}
330
1F
100
AcDbEntity
  8
LC-001-002-----0
 62
     7
370
    50
100
AcDbLine
 10
182.550419
 20
213.951541
 30
0.0
 11
181.050056
 21
213.951541
 31
0.0
  0
LINE
  5
44
102
{ACAD_REACTORS
330
D9
102
}
330
1F
100
AcDbEntity
  8
LC-001-002-----0
 62
     7
370
    50
100
AcDbLine
 10
178.550419
 20
208.662868
 30
0.0
 11
178.550419
 21
206.240219
 31
0.0
  0
LINE
  5
45
102
{ACAD_REACTORS
330
D9
102
}
330
1F
100
AcDbEntity
  8
LC-001-002-----0
 62
     7
370
    50
100
AcDbLine
 10
178.550419
 20
203.240219
 30
0.0
 11
178.050419
 21
202.951544
 31
0.0
  0
LINE
  5
46
102
{ACAD_REACTORS
330
D9
102
}
330
1F
100
AcDbEntity
  8
LC-001-002-----0
 62
     7
370
    50
100
AcDbLine
 10
178.050419
 20
208.951544
 30
0.0
 11
178.550419
 21
208.662868
 31
0.0
  0
LINE
  5
47
102
{ACAD_REACTORS
330
D9
102
}
330
1F
100
AcDbEntity
  8
LC-001-002-----0
 62
     7
370
    50
100
AcDbLine
 10
182.550413
 20
206.903946
 30
0.0
 11
182.550413
 21
204.95054
 31
0.0
  0
LINE
  5
48
102
{ACAD_REACTORS
330
D9
102
}
330
1F
100
AcDbEntity
  8
LC-001-002-----0
 62
     7
370
    50
100
AcDbLine
 10
178.050419
 20
205.951544
 30
0.0
 11
178.550419
 21
205.662868
 31
0.0
  0
LINE
  5
49
102
{ACAD_REACTORS
330
D9
102
}
330
1F
100
AcDbEntity
  8
LC-001-002-----0
 62
     7
370
    50
100
AcDbLine
 10
178.550419
 20
206.240219
 30
0.0
 11
178.050419
 21
205.951544
 31
0.0
  0
LINE
  5
4A
102
{ACAD_REACTORS
330
D9
102
}
330
1F
100
AcDbEntity
  8
LC-001-002-----0
 62
     7
370
    50
100
AcDbLine
 10
178.050419
 20
202.951544
 30
0.0
 11
178.550419
 21
202.662868
 31
0.0
  0
LINE
  5
4B
102
{ACAD_REACTORS
330
D9
102
}
330
1F
100
AcDbEntity
  8
LC-001-002-----0
 62
     7
370
    50
100
AcDbLine
 10
178.550419
 20
200.240219
 30
0.0
 11
178.050419
 21
199.951544
 31
0.0
  0
LINE
  5
4C
102
{ACAD_REACTORS
330
D9
102
}
330
1F
100
AcDbEntity
  8
LC-001-002-----0
 62
     7
370
    50
100
AcDbLine
 10
178.050419
 20
199.951544
 30
0.0
 11
178.550419
 21
199.662868
 31
0.0
  0
LINE
  5
4D
102
{ACAD_REACTORS
330
D9
102
}
330
1F
100
AcDbEntity
  8
LC-001-002-----0
 62
     7
370
    50
100
AcDbLine
 10
178.550419
 20
199.662868
 30
0.0
 11
178.550419
 21
197.240219
 31
0.0
  0
LINE
  5
4E
102
{ACAD_REACTORS
330
D9
102
}
330
1F
100
AcDbEntity
  8
LC-001-002-----0
 62
     7
370
    50
100
AcDbLine
 10
178.550419
 20
202.662868
 30
0.0
 11
178.550419
 21
200.240219
 31
0.0
  0
LINE
  5
4F
102
{ACAD_REACTORS
330
D9
102
}
330
1F
100
AcDbEntity
  8
LC-001-002-----0
 62
     7
370
    50
100
AcDbLine
 10
178.550419
 20
205.662868
 30
0.0
 11
178.550419
 21
203.240219
 31
0.0
  0
LINE
  5
50
102
{ACAD_REACTORS
330
D9
102
}
330
1F
100
AcDbEntity
  8
LC-001-002-----0
 62
     7
370
    50
100
AcDbLine
 10
178.550419
 20
211.451904
 30
0.0
 11
178.550419
 21
209.240219
 31
0.0
  0
ARC
  5
51
102
{ACAD_REACTORS
330
D9
102
}
330
1F
100
AcDbEntity
  8
LC-002-002-RND-0
 62
     7
370
    50
100
AcDbCircle
 10
181.550419
 20
201.951541
 30
0.0
 40
1.0
100
AcDbArc
 50
90.0
 51
180.0
  0
ARC
  5
52
102
{ACAD_REACTORS
330
D9
102
}
330
1F
100
AcDbEntity
  8
LC-002-002-RND-0
 62
     7
370
    50
100
AcDbCircle
 10
181.550419
 20
201.951541
 30
0.0
 40
1.0
100
AcDbArc
 50
180.0
 51
270.0
  0
ARC
  5
53
102
{ACAD_REACTORS
330
D9
102
}
330
1F
100
AcDbEntity
  8
LC-002-002-RND-0
 62
     7
370
    50
100
AcDbCircle
 10
183.550419
 20
199.951541
 30
0.0
 40
1.0
100
AcDbArc
 50
0.0
 51
90.0
  0
ARC
  5
54
102
{ACAD_REACTORS
330
D9
102
}
330
1F
100
AcDbEntity
  8
LC-002-002-RND-0
 62
     7
370
    50
100
AcDbCircle
 10
183.550419
 20
199.951541
 30
0.0
 40
1.0
100
AcDbArc
 50
270.0
 51
0.0
  0
ARC
  5
55
102
{ACAD_REACTORS
330
D9
102
}
330
1F
100
AcDbEntity
  8
LC-002-002-RND-0
 62
     7
370
    50
100
AcDbCircle
 10
183.551419
 20
203.95154
 30
0.0
 40
0.999000000000251
100
AcDbArc
 50
0.0
 51
90.0
  0
LINE
  5
56
102
{ACAD_REACTORS
330
D9
102
}
330
1F
100
AcDbEntity
  8
LC-001-002-----0
 62
     7
370
    50
100
AcDbLine
 10
182.550418
 20
206.903946
 30
0.0
 11
181.800413
 21
206.903946
 31
0.0
  0
LINE
  5
57
102
{ACAD_REACTORS
330
D9
102
}
330
1F
100
AcDbEntity
  8
LC-001-002-----0
 62
     7
370
    50
100
AcDbLine
 10
182.550413
 20
204.95054
 30
0.0
 11
183.551419
 21
204.95054
 31
0.0
  0
LINE
  5
58
102
{ACAD_REACTORS
330
D9
102
}
330
1F
100
AcDbEntity
  8
LC-001-002-----0
 62
     7
370
    50
100
AcDbLine
 10
68.550421
 20
209.240219
 30
0.0
 11
69.050421
 21
208.951544
 31
0.0
  0
ARC
  5
59
102
{ACAD_REACTORS
330
D9
102
}
330
1F
100
AcDbEntity
  8
LC-001-002-----0
 62
     7
370
    50
100
AcDbCircle
 10
181.800413
 20
208.153946
 30
0.0
 40
1.250000000416662
100
AcDbArc
 50
90.0
 51
270.0
  0
LINE
  5
5A
102
{ACAD_REACTORS
330
D9
102
}
330
1F
100
AcDbEntity
  8
LC-001-002-----0
 62
     7
370
    50
100
AcDbLine
 10
178.550419
 20
197.240219
 30
0.0
 11
178.050419
 21
196.951544
 31
0.0
  0
ARC
  5
5B
102
{ACAD_REACTORS
330
D9
102
}
330
1F
100
AcDbEntity
  8
LC-002-002-RND-0
 62
     7
370
    50
100
AcDbCircle
 10
63.549421
 20
203.950541
 30
0.0
 40
0.999000000000251
100
AcDbArc
 50
180.0
 51
270.0
  0
LINE
  5
5C
102
{ACAD_REACTORS
330
D9
102
}
330
1F
100
AcDbEntity
  8
LC-001-002-----0
 62
     7
370
    50
100
AcDbLine
 10
183.550419
 20
194.951541
 30
0.0
 11
178.550419
 21
194.951541
 31
0.0
  0
ARC
  5
5D
102
{ACAD_REACTORS
330
D9
102
}
330
1F
100
AcDbEntity
  8
LC-002-002-RND-0
 62
     7
370
    50
100
AcDbCircle
 10
183.550419
 20
195.951541
 30
0.0
 40
1.0
100
AcDbArc
 50
270.0
 51
0.0
  0
ARC
  5
5E
102
{ACAD_REACTORS
330
D9
102
}
330
1F
100
AcDbEntity
  8
LC-002-002-RND-0
 62
     7
370
    50
100
AcDbCircle
 10
183.550419
 20
195.951541
 30
0.0
 40
1.0
100
AcDbArc
 50
0.0
 51
90.0
  0
LINE
  5
5F
102
{ACAD_REACTORS
330
D9
102
}
330
1F
100
AcDbEntity
  8
LC-001-002-----0
 62
     7
370
    50
100
AcDbLine
 10
181.550419
 20
196.951541
 30
0.0
 11
183.550419
 21
196.951541
 31
0.0
  0
ARC
  5
60
102
{ACAD_REACTORS
330
D9
102
}
330
1F
100
AcDbEntity
  8
LC-002-002-RND-0
 62
     7
370
    50
100
AcDbCircle
 10
181.550419
 20
197.951541
 30
0.0
 40
1.0
100
AcDbArc
 50
180.0
 51
270.0
  0
ARC
  5
61
102
{ACAD_REACTORS
330
D9
102
}
330
1F
100
AcDbEntity
  8
LC-002-002-RND-0
 62
     7
370
    50
100
AcDbCircle
 10
181.550419
 20
197.951541
 30
0.0
 40
1.0
100
AcDbArc
 50
90.0
 51
180.0
  0
LINE
  5
62
102
{ACAD_REACTORS
330
D9
102
}
330
1F
100
AcDbEntity
  8
LC-001-002-----0
 62
     7
370
    50
100
AcDbLine
 10
178.050419
 20
196.951544
 30
0.0
 11
178.550419
 21
196.662868
 31
0.0
  0
LINE
  5
65
102
{ACAD_REACTORS
330
D9
102
}
330
1F
100
AcDbEntity
  8
LC-004-006-MLN-0
 62
     7
370
    25
100
AcDbLine
 10
123.55042
 20
225.451178
 30
0.0
 11
123.55042
 21
184.951541
 31
0.0
  0
LINE
  5
66
102
{ACAD_REACTORS
330
D9
102
}
330
1F
100
AcDbEntity
  8
LC-001-002-----0
 62
     7
370
    50
100
AcDbLine
 10
178.550419
 20
196.662868
 30
0.0
 11
178.550419
 21
194.951541
 31
0.0
  0
LINE
  5
67
102
{ACAD_REACTORS
330
D9
102
}
330
1F
100
AcDbEntity
  8
LC-001-002-----0
 62
     7
370
    50
100
AcDbLine
 10
63.550421
 20
198.951541
 30
0.0
 11
65.550421
 21
198.951541
 31
0.0
  0
LINE
  5
68
102
{ACAD_REACTORS
330
D9
102
}
330
1F
100
AcDbEntity
  8
LC-001-002-----0
 62
     7
370
    50
100
AcDbLine
 10
66.050784
 20
213.951541
 30
0.0
 11
68.550421
 21
211.451904
 31
0.0
  0
INSERT
  5
79
102
{ACAD_REACTORS
330
D9
102
}
330
1F
100
AcDbEntity
  8
LC-003-005-----0
  6
ByBlock
 62
     7
370
    25
100
AcDbBlockReference
  2
*X22
 10
0.0
 20
0.0
 30
0.0
  0
LINE
  5
7A
102
{ACAD_REACTORS
330
D9
102
}
330
1F
100
AcDbEntity
  8
LC-001-002-----0
 62
     7
370
    50
100
AcDbLine
 10
63.549421
 20
202.951541
 30
0.0
 11
65.550421
 21
202.951541
 31
0.0
  0
LINE
  5
7B
102
{ACAD_REACTORS
330
D9
102
}
330
1F
100
AcDbEntity
  8
LC-001-002-----0
 62
     7
370
    50
100
AcDbLine
 10
65.550421
 20
200.951541
 30
0.0
 11
63.550421
 21
200.951541
 31
0.0
  0
LINE
  5
7C
102
{ACAD_REACTORS
330
D9
102
}
330
1F
100
AcDbEntity
  8
LC-001-002-----0
 62
     7
370
    50
100
AcDbLine
 10
66.050784
 20
213.951541
 30
0.0
 11
123.55042
 21
213.951541
 31
0.0
  0
LINE
  5
7D
102
{ACAD_REACTORS
330
D9
102
}
330
1F
100
AcDbEntity
  8
LC-001-002-----0
 62
     7
370
    50
100
AcDbLine
 10
68.550421
 20
208.662868
 30
0.0
 11
68.550421
 21
206.240219
 31
0.0
  0
LINE
  5
7E
102
{ACAD_REACTORS
330
D9
102
}
330
1F
100
AcDbEntity
  8
LC-001-002-----0
 62
     7
370
    50
100
AcDbLine
 10
68.550421
 20
203.240219
 30
0.0
 11
69.050421
 21
202.951544
 31
0.0
  0
LINE
  5
7F
102
{ACAD_REACTORS
330
D9
102
}
330
1F
100
AcDbEntity
  8
LC-001-002-----0
 62
     7
370
    50
100
AcDbLine
 10
69.050421
 20
208.951544
 30
0.0
 11
68.550421
 21
208.662868
 31
0.0
  0
LINE
  5
80
102
{ACAD_REACTORS
330
D9
102
}
330
1F
100
AcDbEntity
  8
LC-001-002-----0
 62
     7
370
    50
100
AcDbLine
 10
64.550427
 20
206.903946
 30
0.0
 11
64.550427
 21
204.95054
 31
0.0
  0
LINE
  5
81
102
{ACAD_REACTORS
330
D9
102
}
330
1F
100
AcDbEntity
  8
LC-001-002-----0
 62
     7
370
    50
100
AcDbLine
 10
69.050421
 20
205.951544
 30
0.0
 11
68.550421
 21
205.662868
 31
0.0
  0
LINE
  5
82
102
{ACAD_REACTORS
330
D9
102
}
330
1F
100
AcDbEntity
  8
LC-001-002-----0
 62
     7
370
    50
100
AcDbLine
 10
68.550421
 20
206.240219
 30
0.0
 11
69.050421
 21
205.951544
 31
0.0
  0
LINE
  5
83
102
{ACAD_REACTORS
330
D9
102
}
330
1F
100
AcDbEntity
  8
LC-001-002-----0
 62
     7
370
    50
100
AcDbLine
 10
69.050421
 20
202.951544
 30
0.0
 11
68.550421
 21
202.662868
 31
0.0
  0
LINE
  5
84
102
{ACAD_REACTORS
330
D9
102
}
330
1F
100
AcDbEntity
  8
LC-001-002-----0
 62
     7
370
    50
100
AcDbLine
 10
68.550421
 20
200.240219
 30
0.0
 11
69.050421
 21
199.951544
 31
0.0
  0
LINE
  5
85
102
{ACAD_REACTORS
330
D9
102
}
330
1F
100
AcDbEntity
  8
LC-001-002-----0
 62
     7
370
    50
100
AcDbLine
 10
69.050421
 20
199.951544
 30
0.0
 11
68.550421
 21
199.662868
 31
0.0
  0
LINE
  5
86
102
{ACAD_REACTORS
330
D9
102
}
330
1F
100
AcDbEntity
  8
LC-001-002-----0
 62
     7
370
    50
100
AcDbLine
 10
68.550421
 20
199.662868
 30
0.0
 11
68.550421
 21
197.240219
 31
0.0
  0
LINE
  5
87
102
{ACAD_REACTORS
330
D9
102
}
330
1F
100
AcDbEntity
  8
LC-001-002-----0
 62
     7
370
    50
100
AcDbLine
 10
68.550421
 20
202.662868
 30
0.0
 11
68.550421
 21
200.240219
 31
0.0
  0
LINE
  5
88
102
{ACAD_REACTORS
330
D9
102
}
330
1F
100
AcDbEntity
  8
LC-001-002-----0
 62
     7
370
    50
100
AcDbLine
 10
68.550421
 20
205.662868
 30
0.0
 11
68.550421
 21
203.240219
 31
0.0
  0
LINE
  5
89
102
{ACAD_REACTORS
330
D9
102
}
330
1F
100
AcDbEntity
  8
LC-001-002-----0
 62
     7
370
    50
100
AcDbLine
 10
68.550421
 20
211.451904
 30
0.0
 11
68.550421
 21
209.240219
 31
0.0
  0
ARC
  5
8A
102
{ACAD_REACTORS
330
D9
102
}
330
1F
100
AcDbEntity
  8
LC-002-002-RND-0
 62
     7
370
    50
100
AcDbCircle
 10
65.550421
 20
201.951541
 30
0.0
 40
1.0
100
AcDbArc
 50
360.0
 51
90.0
  0
ARC
  5
8B
102
{ACAD_REACTORS
330
D9
102
}
330
1F
100
AcDbEntity
  8
LC-002-002-RND-0
 62
     7
370
    50
100
AcDbCircle
 10
65.550421
 20
201.951541
 30
0.0
 40
1.0
100
AcDbArc
 50
270.0
 51
360.0
  0
ARC
  5
8C
102
{ACAD_REACTORS
330
D9
102
}
330
1F
100
AcDbEntity
  8
LC-002-002-RND-0
 62
     7
370
    50
100
AcDbCircle
 10
63.550421
 20
199.951541
 30
0.0
 40
1.0
100
AcDbArc
 50
90.0
 51
180.0
  0
ARC
  5
8D
102
{ACAD_REACTORS
330
D9
102
}
330
1F
100
AcDbEntity
  8
LC-002-002-RND-0
 62
     7
370
    50
100
AcDbCircle
 10
63.550421
 20
199.951541
 30
0.0
 40
1.0
100
AcDbArc
 50
180.0
 51
270.0
  0
ARC
  5
8E
102
{ACAD_REACTORS
330
D9
102
}
330
1F
100
AcDbEntity
  8
LC-002-002-RND-0
 62
     7
370
    50
100
AcDbCircle
 10
63.549421
 20
203.95154
 30
0.0
 40
0.9990000000000237
100
AcDbArc
 50
90.0
 51
180.0
  0
LINE
  5
8F
102
{ACAD_REACTORS
330
D9
102
}
330
1F
100
AcDbEntity
  8
LC-001-002-----0
 62
     7
370
    50
100
AcDbLine
 10
64.550423
 20
206.903946
 30
0.0
 11
65.300427
 21
206.903946
 31
0.0
  0
LINE
  5
90
102
{ACAD_REACTORS
330
D9
102
}
330
1F
100
AcDbEntity
  8
LC-001-002-----0
 62
     7
370
    50
100
AcDbLine
 10
64.550427
 20
204.95054
 30
0.0
 11
63.549421
 21
204.95054
 31
0.0
  0
ARC
  5
91
102
{ACAD_REACTORS
330
D9
102
}
330
1F
100
AcDbEntity
  8
LC-001-002-----0
 62
     7
370
    50
100
AcDbCircle
 10
65.300427
 20
208.153946
 30
0.0
 40
1.250000000416662
100
AcDbArc
 50
270.0
 51
90.0
  0
LINE
  5
92
102
{ACAD_REACTORS
330
D9
102
}
330
1F
100
AcDbEntity
  8
LC-001-002-----0
 62
     7
370
    50
100
AcDbLine
 10
68.550421
 20
197.240219
 30
0.0
 11
69.050421
 21
196.951544
 31
0.0
  0
LINE
  5
93
102
{ACAD_REACTORS
330
D9
102
}
330
1F
100
AcDbEntity
  8
LC-001-002-----0
 62
     7
370
    50
100
AcDbLine
 10
63.550421
 20
194.951541
 30
0.0
 11
68.550421
 21
194.951541
 31
0.0
  0
ARC
  5
94
102
{ACAD_REACTORS
330
D9
102
}
330
1F
100
AcDbEntity
  8
LC-002-002-RND-0
 62
     7
370
    50
100
AcDbCircle
 10
63.550421
 20
195.951541
 30
0.0
 40
1.0
100
AcDbArc
 50
180.0
 51
270.0
  0
ARC
  5
95
102
{ACAD_REACTORS
330
D9
102
}
330
1F
100
AcDbEntity
  8
LC-002-002-RND-0
 62
     7
370
    50
100
AcDbCircle
 10
63.550421
 20
195.951541
 30
0.0
 40
1.0
100
AcDbArc
 50
90.0
 51
180.0
  0
LINE
  5
96
102
{ACAD_REACTORS
330
D9
102
}
330
1F
100
AcDbEntity
  8
LC-001-002-----0
 62
     7
370
    50
100
AcDbLine
 10
65.550421
 20
196.951541
 30
0.0
 11
63.550421
 21
196.951541
 31
0.0
  0
ARC
  5
97
102
{ACAD_REACTORS
330
D9
102
}
330
1F
100
AcDbEntity
  8
LC-002-002-RND-0
 62
     7
370
    50
100
AcDbCircle
 10
65.550421
 20
197.951541
 30
0.0
 40
1.0
100
AcDbArc
 50
270.0
 51
360.0
  0
ARC
  5
98
102
{ACAD_REACTORS
330
D9
102
}
330
1F
100
AcDbEntity
  8
LC-002-002-RND-0
 62
     7
370
    50
100
AcDbCircle
 10
65.550421
 20
197.951541
 30
0.0
 40
1.0
100
AcDbArc
 50
360.0
 51
90.0
  0
LINE
  5
99
102
{ACAD_REACTORS
330
D9
102
}
330
1F
100
AcDbEntity
  8
LC-001-002-----0
 62
     7
370
    50
100
AcDbLine
 10
69.050421
 20
196.951544
 30
0.0
 11
68.550421
 21
196.662868
 31
0.0
  0
LINE
  5
9A
102
{ACAD_REACTORS
330
D9
102
}
330
1F
100
AcDbEntity
  8
LC-001-002-----0
 62
     7
370
    50
100
AcDbLine
 10
68.550421
 20
196.662868
 30
0.0
 11
68.550421
 21
194.951541
 31
0.0
  0
LINE
  5
9B
102
{ACAD_REACTORS
330
D9
102
}
330
1F
100
AcDbEntity
  8
LC-001-002-----0
 62
     7
370
    50
100
AcDbLine
 10
68.550421
 20
194.951541
 30
0.0
 11
123.55042
 21
194.951541
 31
0.0
  0
LINE
  5
9C
102
{ACAD_REACTORS
330
D9
102
}
330
1F
100
AcDbEntity
  8
LC-001-002-----0
 62
     7
370
    50
100
AcDbLine
 10
64.550421
 20
213.951541
 30
0.0
 11
66.050784
 21
213.951541
 31
0.0
  0
LINE
  5
9D
102
{ACAD_REACTORS
330
D9
102
}
330
1F
100
AcDbEntity
  8
LC-001-002-----0
 62
     7
370
    50
100
AcDbLine
 10
181.050056
 20
213.951541
 30
0.0
 11
123.55042
 21
213.951541
 31
0.0
  0
ARC
  5
9E
102
{ACAD_REACTORS
330
D9
102
}
330
1F
100
AcDbEntity
  8
LC-002-002-RND-0
 62
     7
370
    50
100
AcDbCircle
 10
182.550419
 20
212.951541
 30
0.0
 40
1.0
100
AcDbArc
 50
0.0
 51
90.0
  0
LINE
  5
9F
102
{ACAD_REACTORS
330
D9
102
}
330
1F
100
AcDbEntity
  8
LC-001-002-----0
 62
     7
370
    50
100
AcDbLine
 10
178.550419
 20
194.951541
 30
0.0
 11
123.55042
 21
194.951541
 31
0.0
  0
DIMENSION
  5
A3
330
1F
100
AcDbEntity
  8
LC-005-003-----0
 62
     7
370
    25
100
AcDbDimension
  2
*D3
 10
68.550421
 20
237.468
 30
0.0
 11
123.55042
 21
268.268
 31
0.0
 70
   160
  1
%%c<>
 71
     5
 42
109.999998
  3
LC-DIM-L-0140-02-02
100
AcDbAlignedDimension
 13
178.550419
 23
211.451904
 33
0.0
 14
68.550421
 24
211.451904
 34
0.0
100
AcDbRotatedDimension
  0
DIMENSION
  5
B2
330
1F
100
AcDbEntity
  8
LC-005-003-----0
 62
     7
370
    25
100
AcDbDimension
  2
*D4
 10
183.550419
 20
291.522
 30
0.0
 11
123.55042
 21
322.322
 31
0.0
 70
   160
  1
%%c<>
 71
     5
 42
119.999998
  3
LC-DIM-L-0140-01-02
100
AcDbAlignedDimension
 13
63.550421
 23
212.951541
 33
0.0
 14
183.550419
 24
212.951541
 34
0.0
100
AcDbRotatedDimension
  0
DIMENSION
  5
BF
330
1F
100
AcDbEntity
  8
LC-005-003-----0
 62
     7
370
    25
100
AcDbDimension
  2
*D5
 10
35.0
 20
194.951541
 30
0.0
 11
4.2
 21
204.451541
 31
0.0
 70
   160
 71
     5
 42
19.0
 53
90.0
  3
LC-DIM-L-0140-01-02
100
AcDbAlignedDimension
 13
64.550421
 23
213.951541
 33
0.0
 14
63.550421
 24
194.951541
 34
0.0
 50
90.0
100
AcDbRotatedDimension
  0
ARC
  5
CE
102
{ACAD_REACTORS
330
D9
102
}
330
1F
100
AcDbEntity
  8
LC-002-002-RND-0
 62
     7
370
    50
100
AcDbCircle
 10
64.550421
 20
212.951541
 30
0.0
 40
1.0
100
AcDbArc
 50
90.0
 51
180.0
  0
LINE
  5
CF
102
{ACAD_REACTORS
330
D9
102
}
330
1F
100
AcDbEntity
  8
LC-001-002-----0
 62
     7
370
    50
100
AcDbLine
 10
181.800413
 20
209.403946
 30
0.0
 11
183.550419
 21
209.403946
 31
0.0
  0
LINE
  5
D0
102
{ACAD_REACTORS
330
D9
102
}
330
1F
100
AcDbEntity
  8
LC-001-002-----0
 62
     7
370
    50
100
AcDbLine
 10
183.550419
 20
209.403946
 30
0.0
 11
183.550419
 21
212.951541
 31
0.0
  0
LINE
  5
D1
102
{ACAD_REACTORS
330
D9
102
}
330
1F
100
AcDbEntity
  8
LC-001-002-----0
 62
     7
370
    50
100
AcDbLine
 10
63.550421
 20
209.403946
 30
0.0
 11
63.550421
 21
212.951541
 31
0.0
  0
LINE
  5
D2
102
{ACAD_REACTORS
330
D9
102
}
330
1F
100
AcDbEntity
  8
LC-001-002-----0
 62
     7
370
    50
100
AcDbLine
 10
65.300427
 20
209.403946
 30
0.0
 11
63.550421
 21
209.403946
 31
0.0
  0
LINE
  5
D3
102
{ACAD_REACTORS
330
D9
102
}
330
1F
100
AcDbEntity
  8
LC-001-002-----0
 62
     7
370
    50
100
AcDbLine
 10
68.550421
 20
211.451904
 30
0.0
 11
178.550419
 21
211.451904
 31
0.0
  0
LINE
  5
D4
102
{ACAD_REACTORS
330
D9
102
}
330
1F
100
AcDbEntity
  8
LC-001-002-----0
 62
     7
370
    50
100
AcDbLine
 10
178.050419
 20
208.951544
 30
0.0
 11
69.050421
 21
208.951544
 31
0.0
  0
LINE
  5
D5
102
{ACAD_REACTORS
330
D9
102
}
330
1F
100
AcDbEntity
  8
LC-001-002-----0
 62
     7
370
    50
100
AcDbLine
 10
69.050421
 20
205.951544
 30
0.0
 11
178.050419
 21
205.951544
 31
0.0
  0
LINE
  5
D6
102
{ACAD_REACTORS
330
D9
102
}
330
1F
100
AcDbEntity
  8
LC-001-002-----0
 62
     7
370
    50
100
AcDbLine
 10
178.050419
 20
202.951544
 30
0.0
 11
69.050421
 21
202.951544
 31
0.0
  0
LINE
  5
D7
102
{ACAD_REACTORS
330
D9
102
}
330
1F
100
AcDbEntity
  8
LC-001-002-----0
 62
     7
370
    50
100
AcDbLine
 10
69.050421
 20
199.951544
 30
0.0
 11
178.050419
 21
199.951544
 31
0.0
  0
LINE
  5
D8
102
{ACAD_REACTORS
330
D9
102
}
330
1F
100
AcDbEntity
  8
LC-001-002-----0
 62
     7
370
    50
100
AcDbLine
 10
178.050419
 20
196.951544
 30
0.0
 11
69.050421
 21
196.951544
 31
0.0
  0
ENDSEC
  0
SECTION
  2
OBJECTS
  0
DICTIONARY
  5
C
330
0
100
AcDbDictionary
281
     1
  3
ACAD_GROUP
350
D
  3
ACAD_LAYOUT
350
1A
  3
ACAD_MLINESTYLE
350
17
  3
ACAD_PLOTSETTINGS
350
19
  3
ACAD_PLOTSTYLENAME
350
E
  0
DICTIONARY
  5
D
102
{ACAD_REACTORS
330
C
102
}
330
C
100
AcDbDictionary
281
     1
  3
LCGROUP91
350
D9
  0
DICTIONARY
  5
1A
102
{ACAD_REACTORS
330
C
102
}
330
C
100
AcDbDictionary
281
     1
  3
Layout1
350
1E
  3
Layout2
350
26
  3
Model
350
22
  0
DICTIONARY
  5
17
102
{ACAD_REACTORS
330
C
102
}
330
C
100
AcDbDictionary
281
     1
  3
Standard
350
18
  0
DICTIONARY
  5
19
102
{ACAD_REACTORS
330
C
102
}
330
C
100
AcDbDictionary
281
     1
  0
ACDBDICTIONARYWDFLT
  5
E
102
{ACAD_REACTORS
330
C
102
}
330
C
100
AcDbDictionary
281
     1
  3
Normal
350
F
100
AcDbDictionaryWithDefault
340
F
  0
GROUP
  5
D9
102
{ACAD_REACTORS
330
D
102
}
330
D
100
AcDbGroup
300
dictung3
 70
     1
 71
     1
340
31
340
33
340
34
340
35
340
40
340
41
340
42
340
43
340
44
340
45
340
46
340
47
340
48
340
49
340
4A
340
4B
340
4C
340
4D
340
4E
340
4F
340
50
340
51
340
52
340
53
340
54
340
55
340
56
340
57
340
58
340
59
340
5A
340
5B
340
5C
340
5D
340
5E
340
5F
340
60
340
61
340
62
340
65
340
66
340
67
340
68
340
79
340
7A
340
7B
340
7C
340
7D
340
7E
340
7F
340
80
340
81
340
82
340
83
340
84
340
85
340
86
340
87
340
88
340
89
340
8A
340
8B
340
8C
340
8D
340
8E
340
8F
340
90
340
91
340
92
340
93
340
94
340
95
340
96
340
97
340
98
340
99
340
9A
340
9B
340
9C
340
9D
340
9E
340
9F
340
CE
340
CF
340
D0
340
D1
340
D2
340
D3
340
D4
340
D5
340
D6
340
D7
340
D8
  0
LAYOUT
  5
1E
102
{ACAD_REACTORS
330
1A
102
}
330
1A
100
AcDbPlotSettings
  1

  2

  4

  6

 40
0.0
 41
0.0
 42
0.0
 43
0.0
 44
0.0
 45
0.0
 46
0.0
 47
0.0
 48
0.0
 49
0.0
140
0.0
141
0.0
142
1.0
143
1.0
 70
   688
 72
     0
 73
     0
 74
     5
  7

 75
    16
147
1.0
148
0.0
149
0.0
100
AcDbLayout
  1
Layout1
 70
     1
 71
     1
 10
-300.000785
 20
-149.82
 11
539.999215
 21
444.18
 12
0.0
 22
0.0
 32
0.0
 14
-300.000785
 24
-149.82
 34
0.0
 15
539.999215
 25
444.18
 35
0.0
146
0.0
 13
0.0
 23
0.0
 33
0.0
 16
1.0
 26
0.0
 36
0.0
 17
0.0
 27
1.0
 37
0.0
 76
     0
330
1B
  0
LAYOUT
  5
26
102
{ACAD_REACTORS
330
1A
102
}
330
1A
100
AcDbPlotSettings
  1

  2

  4

  6

 40
0.0
 41
0.0
 42
0.0
 43
0.0
 44
0.0
 45
0.0
 46
0.0
 47
0.0
 48
0.0
 49
0.0
140
0.0
141
0.0
142
1.0
143
1.0
 70
   688
 72
     0
 73
     0
 74
     5
  7

 75
    16
147
1.0
148
0.0
149
0.0
100
AcDbLayout
  1
Layout2
 70
     1
 71
     2
 10
0.0
 20
0.0
 11
0.0
 21
0.0
 12
0.0
 22
0.0
 32
0.0
 14
0.0
 24
0.0
 34
0.0
 15
0.0
 25
0.0
 35
0.0
146
0.0
 13
0.0
 23
0.0
 33
0.0
 16
1.0
 26
0.0
 36
0.0
 17
0.0
 27
1.0
 37
0.0
 76
     0
330
23
  0
LAYOUT
  5
22
102
{ACAD_REACTORS
330
1A
102
}
330
1A
100
AcDbPlotSettings
  1

  2

  4

  6

 40
0.0
 41
0.0
 42
0.0
 43
0.0
 44
0.0
 45
0.0
 46
0.0
 47
0.0
 48
0.0
 49
0.0
140
0.0
141
0.0
142
1.0
143
1.0
 70
  1776
 72
     0
 73
     0
 74
     0
  7

 75
     0
147
1.0
148
0.0
149
0.0
100
AcDbLayout
  1
Model
 70
     1
 71
     0
 10
-300.000785
 20
-149.82
 11
539.999215
 21
444.18
 12
0.0
 22
0.0
 32
0.0
 14
-300.000785
 24
-149.82
 34
0.0
 15
539.999215
 25
444.18
 35
0.0
146
0.0
 13
0.0
 23
0.0
 33
0.0
 16
1.0
 26
0.0
 36
0.0
 17
0.0
 27
1.0
 37
0.0
 76
     0
330
1F
  0
MLINESTYLE
  5
18
102
{ACAD_REACTORS
330
17
102
}
330
17
100
AcDbMlineStyle
  2
Standard
 70
     0
  3

 62
   256
 51
90.0
 52
90.0
 71
     2
 49
0.5
 62
   256
  6
BYLAYER
 49
-0.5
 62
   256
  6
BYLAYER
  0
ACDBPLACEHOLDER
  5
F
102
{ACAD_REACTORS
330
E
102
}
330
E
  0
ENDSEC
  0
EOF
