  0
SECTION
  2
HEADER
  9
$ACADVER
  1
AC1015
  9
$ACADMAINTVER
 70
     6
  9
$DWGCODEPAGE
  3
DOS850
  9
$INSBASE
 10
-91.262619
 20
78.306
 30
0.0
  9
$EXTMIN
 10
-91.262619
 20
78.306
 30
0.0
  9
$EXTMAX
 10
748.737381
 20
672.306
 30
0.0
  9
$LIMMIN
 10
-91.262619
 20
78.306
  9
$LIMMAX
 10
748.737381
 20
672.306
  9
$ORTHOMODE
 70
     0
  9
$REGENMODE
 70
     1
  9
$FILLMODE
 70
     1
  9
$QTEXTMODE
 70
     0
  9
$MIRRTEXT
 70
     1
  9
$LTSCALE
 40
2.0
  9
$ATTMODE
 70
     1
  9
$TEXTSIZE
 40
0.2
  9
$TRACEWID
 40
0.05
  9
$TEXTSTYLE
  7
Standard
  9
$CLAYER
  8
0
  9
$CELTYPE
  6
ByBlock
  9
$CECOLOR
 62
     7
  9
$CELTSCALE
 40
1.0
  9
$DISPSILH
 70
     0
  9
$DIMSCALE
 40
2.0
  9
$DIMASZ
 40
3.5
  9
$DIMEXO
 40
0.0625
  9
$DIMDLI
 40
0.38
  9
$DIMRND
 40
0.0
  9
$DIMDLE
 40
0.0
  9
$DIMEXE
 40
0.18
  9
$DIMTP
 40
0.0
  9
$DIMTM
 40
0.0
  9
$DIMTXT
 40
3.5
  9
$DIMCEN
 40
0.09
  9
$DIMTSZ
 40
0.0
  9
$DIMTOL
 70
     0
  9
$DIMLIM
 70
     0
  9
$DIMTIH
 70
     1
  9
$DIMTOH
 70
     1
  9
$DIMSE1
 70
     0
  9
$DIMSE2
 70
     0
  9
$DIMTAD
 70
     1
  9
$DIMZIN
 70
     0
  9
$DIMBLK
  1

  9
$DIMASO
 70
     1
  9
$DIMSHO
 70
     1
  9
$DIMPOST
  1

  9
$DIMAPOST
  1

  9
$DIMALT
 70
     0
  9
$DIMALTD
 70
     2
  9
$DIMALTF
 40
25.4
  9
$DIMLFAC
 40
1.0
  9
$DIMTOFL
 70
     0
  9
$DIMTVP
 40
0.0
  9
$DIMTIX
 70
     0
  9
$DIMSOXD
 70
     0
  9
$DIMSAH
 70
     0
  9
$DIMBLK1
  1

  9
$DIMBLK2
  1

  9
$DIMSTYLE
  2
Standard
  9
$DIMCLRD
 70
     0
  9
$DIMCLRE
 70
     0
  9
$DIMCLRT
 70
     0
  9
$DIMTFAC
 40
1.0
  9
$DIMGAP
 40
0.09
  9
$DIMJUST
 70
     0
  9
$DIMSD1
 70
     0
  9
$DIMSD2
 70
     0
  9
$DIMTOLJ
 70
     1
  9
$DIMTZIN
 70
     0
  9
$DIMALTZ
 70
     0
  9
$DIMALTTZ
 70
     0
  9
$DIMUPT
 70
     0
  9
$DIMDEC
 70
     4
  9
$DIMTDEC
 70
     4
  9
$DIMALTU
 70
     2
  9
$DIMALTTD
 70
     2
  9
$DIMTXSTY
  7
Standard
  9
$DIMAUNIT
 70
     0
  9
$DIMADEC
 70
     0
  9
$DIMALTRND
 40
0.0
  9
$DIMAZIN
 70
     0
  9
$DIMDSEP
 70
     0
  9
$DIMATFIT
 70
     3
  9
$DIMFRAC
 70
     0
  9
$DIMLDRBLK
  1

  9
$DIMLUNIT
 70
     2
  9
$DIMLWD
 70
     0
  9
$DIMLWE
 70
     0
  9
$DIMTMOVE
 70
     0
  9
$LUNITS
 70
     2
  9
$LUPREC
 70
     6
  9
$SKETCHINC
 40
0.1
  9
$FILLETRAD
 40
0.0
  9
$AUNITS
 70
     0
  9
$AUPREC
 70
     0
  9
$MENU
  1
acad
  9
$ELEVATION
 40
0.0
  9
$PELEVATION
 40
0.0
  9
$THICKNESS
 40
0.0
  9
$LIMCHECK
 70
     0
  9
$CHAMFERA
 40
0.0
  9
$CHAMFERB
 40
0.0
  9
$CHAMFERC
 40
0.0
  9
$CHAMFERD
 40
0.0
  9
$SKPOLY
 70
     0
  9
$TDCREATE
 40
0.000000000
  9
$TDUCREATE
 40
0.000000000
  9
$TDUPDATE
 40
0.000000000
  9
$TDUUPDATE
 40
0.000000000
  9
$TDINDWG
 40
0.0000000000
  9
$TDUSRTIMER
 40
0.0000000000
  9
$USRTIMER
 70
     1
  9
$ANGBASE
 50
0.0
  9
$ANGDIR
 70
     0
  9
$PDMODE
 70
     0
  9
$PDSIZE
 40
0.0
  9
$PLINEWID
 40
0.0
  9
$SPLFRAME
 70
     0
  9
$SPLINETYPE
 70
     6
  9
$SPLINESEGS
 70
     8
  9
$HANDSEED
  5
446
  9
$SURFTAB1
 70
     6
  9
$SURFTAB2
 70
     6
  9
$SURFTYPE
 70
     6
  9
$SURFU
 70
     6
  9
$SURFV
 70
     6
  9
$UCSBASE
  2

  9
$UCSNAME
  2

  9
$UCSORG
 10
0.0
 20
0.0
 30
0.0
  9
$UCSXDIR
 10
1.0
 20
0.0
 30
0.0
  9
$UCSYDIR
 10
0.0
 20
1.0
 30
0.0
  9
$UCSORTHOREF
  2

  9
$UCSORTHOVIEW
 70
     0
  9
$UCSORGTOP
 10
0.0
 20
0.0
 30
0.0
  9
$UCSORGBOTTOM
 10
0.0
 20
0.0
 30
0.0
  9
$UCSORGLEFT
 10
0.0
 20
0.0
 30
0.0
  9
$UCSORGRIGHT
 10
0.0
 20
0.0
 30
0.0
  9
$UCSORGFRONT
 10
0.0
 20
0.0
 30
0.0
  9
$UCSORGBACK
 10
0.0
 20
0.0
 30
0.0
  9
$PUCSBASE
  2

  9
$PUCSNAME
  2

  9
$PUCSORG
 10
0.0
 20
0.0
 30
0.0
  9
$PUCSXDIR
 10
1.0
 20
0.0
 30
0.0
  9
$PUCSYDIR
 10
0.0
 20
1.0
 30
0.0
  9
$PUCSORTHOREF
  2

  9
$PUCSORTHOVIEW
 70
     0
  9
$PUCSORGTOP
 10
0.0
 20
0.0
 30
0.0
  9
$PUCSORGBOTTOM
 10
0.0
 20
0.0
 30
0.0
  9
$PUCSORGLEFT
 10
0.0
 20
0.0
 30
0.0
  9
$PUCSORGRIGHT
 10
0.0
 20
0.0
 30
0.0
  9
$PUCSORGFRONT
 10
0.0
 20
0.0
 30
0.0
  9
$PUCSORGBACK
 10
0.0
 20
0.0
 30
0.0
  9
$USERI1
 70
     0
  9
$USERI2
 70
     0
  9
$USERI3
 70
     0
  9
$USERI4
 70
     0
  9
$USERI5
 70
     0
  9
$USERR1
 40
0.0
  9
$USERR2
 40
0.0
  9
$USERR3
 40
0.0
  9
$USERR4
 40
0.0
  9
$USERR5
 40
0.0
  9
$WORLDVIEW
 70
     1
  9
$SHADEDGE
 70
     3
  9
$SHADEDIF
 70
    70
  9
$TILEMODE
 70
     1
  9
$MAXACTVP
 70
    16
  9
$PINSBASE
 10
0.0
 20
0.0
 30
0.0
  9
$PLIMCHECK
 70
     0
  9
$PEXTMIN
 10
-91.262619
 20
78.306
 30
0.0
  9
$PEXTMAX
 10
748.737381
 20
672.306
 30
0.0
  9
$PLIMMIN
 10
-91.262619
 20
78.306
  9
$PLIMMAX
 10
748.737381
 20
672.306
  9
$UNITMODE
 70
     0
  9
$VISRETAIN
 70
     0
  9
$PLINEGEN
 70
     1
  9
$PSLTSCALE
 70
     0
  9
$TREEDEPTH
 70
  3020
  9
$CMLSTYLE
  2
Standard
  9
$CMLJUST
 70
     0
  9
$CMLSCALE
 40
1.0
  9
$PROXYGRAPHICS
 70
     0
  9
$MEASUREMENT
 70
     0
  9
$CELWEIGHT
370
     0
  9
$ENDCAPS
280
     0
  9
$JOINSTYLE
280
     0
  9
$LWDISPLAY
290
     0
  9
$INSUNITS
 70
     0
  9
$HYPERLINKBASE
  1

  9
$STYLESHEET
  1

  9
$XEDIT
290
     1
  9
$CEPSNTYPE
380
     0
  9
$PSTYLEMODE
290
     1
  9
$FINGERPRINTGUID
  2

  9
$VERSIONGUID
  2

  9
$EXTNAMES
290
     1
  9
$PSVPSCALE
 40
0.0
  0
ENDSEC
  0
SECTION
  2
CLASSES
  0
CLASS
  1
LWPOLYLINE
  2
AcDbPolyline
  3
AutoCAD 2000
 90
        0
280
     0
281
     1
  0
CLASS
  1
IMAGE
  2
AcDbRasterImage
  3
ISM
 90
      127
280
     0
281
     1
  0
CLASS
  1
OLE2FRAME
  2
AcDbOle2Frame
  3
AutoCAD 2000
 90
        0
280
     0
281
     1
  0
CLASS
  1
HATCH
  2
AcDbHatch
  3
AutoCAD 2000
 90
        0
280
     0
281
     1
  0
CLASS
  1
DICTIONARYVAR
  2
AcDbDictionaryVar
  3
AutoCAD 2000
 90
        0
280
     0
281
     0
  0
CLASS
  1
RASTERVARIABLES
  2
AcDbRasterVariables
  3
ISM
 90
        0
280
     0
281
     0
  0
CLASS
  1
IMAGEDEF
  2
AcDbRasterImageDef
  3
ISM
 90
        0
280
     0
281
     0
  0
CLASS
  1
IMAGEDEF_REACTOR
  2
AcDbRasterImageDefReactor
  3
ISM
 90
        1
280
     0
281
     0
  0
CLASS
  1
IDBUFFER
  2
AcDbIdBuffer
  3
AutoCAD 2000
 90
        0
280
     0
281
     0
  0
CLASS
  1
SPATIAL_FILTER
  2
AcDbSpatialFilter
  3
AutoCAD 2000
 90
        0
280
     0
281
     0
  0
CLASS
  1
XRECORD
  2
AcDbXrecord
  3
AutoCAD 2000
 90
        0
280
     0
281
     0
  0
CLASS
  1
SORTENTSTABLE
  2
AcDbSortentsTable
  3
AutoCAD 2000
 90
        0
280
     0
281
     0
  0
CLASS
  1
LAYER_INDEX
  2
AcDbLayerIndex
  3
AutoCAD 2000
 90
        0
280
     0
281
     0
  0
CLASS
  1
SPATIAL_INDEX
  2
AcDbSpatialIndex
  3
AutoCAD 2000
 90
        0
280
     0
281
     0
  0
CLASS
  1
OBJECT_PTR
  2
CAseDLPNTableRecord
  3
"ASE-LPNTableRecord"
 90
        1
280
     0
281
     0
  0
CLASS
  1
LAYOUT
  2
AcDbLayout
  3
AutoCAD 2000
 90
        0
280
     0
281
     0
  0
CLASS
  1
PLOTSETTINGS
  2
AcDbPlotSettings
  3
AutoCAD 2000
 90
        0
280
     0
281
     0
  0
CLASS
  1
ACDBDICTIONARYWDFLT
  2
AcDbDictionaryWithDefault
  3
AutoCAD 2000
 90
        0
280
     0
281
     0
  0
CLASS
  1
ACDBPLACEHOLDER
  2
AcDbPlaceHolder
  3
AutoCAD 2000
 90
        0
280
     0
281
     0
  0
ENDSEC
  0
SECTION
  2
TABLES
  0
TABLE
  2
VPORT
  5
7
100
AcDbSymbolTable
 70
     1
  0
VPORT
  5
15
100
AcDbSymbolTableRecord
100
AcDbViewportTableRecord
  2
*ACTIVE
 70
     0
 10
0.0
 20
0.0
 11
1.0
 21
1.0
 12
420.0
 22
297.0
 13
0.0
 23
0.0
 14
1.0
 24
1.0
 15
0.0
 25
0.0
 16
0.0
 26
0.0
 36
1.0
 17
-91.262619
 27
78.306
 37
0.0
 40
594.0
 41
1.604229
 42
50.0
 43
0.0
 44
0.0
 50
0.0
 51
0.0
 71
     0
 72
   100
 73
     1
 74
     1
 75
     0
 76
     0
 77
     0
 78
     0
281
     0
 65
     0
110
0.0
120
0.0
130
0.0
111
1.0
121
0.0
131
0.0
112
0.0
122
1.0
132
0.0
345
0
346
0
 79
     0
146
0.0
  0
ENDTAB
  0
TABLE
  2
LTYPE
  5
4
100
AcDbSymbolTable
 70
     6
  0
LTYPE
  5
11
100
AcDbSymbolTableRecord
100
AcDbLinetypeTableRecord
  2
ByBlock
 70
    64
  3

 72
    65
 73
     0
 40
0.0
  0
LTYPE
  5
12
100
AcDbSymbolTableRecord
100
AcDbLinetypeTableRecord
  2
ByLayer
 70
    64
  3

 72
    65
 73
     0
 40
0.0
  0
LTYPE
  5
13
100
AcDbSymbolTableRecord
100
AcDbLinetypeTableRecord
  2
Continuous
 70
    64
  3
Solid line
 72
    65
 73
     0
 40
0.0
  0
LTYPE
  5
23
100
AcDbSymbolTableRecord
100
AcDbLinetypeTableRecord
  2
DASHED
 70
    64
  3
__ __ __ __ __
 72
    65
 73
     2
 40
6.25
 49
5.0
 74
     0
 49
-1.25
 74
     0
  0
LTYPE
  5
2C
100
AcDbSymbolTableRecord
100
AcDbLinetypeTableRecord
  2
DASHDOT
 70
    64
  3
__ . __ . __ . __ . __
 72
    65
 73
     4
 40
7.5
 49
5.0
 74
     0
 49
-1.25
 74
     0
 49
0.0
 74
     0
 49
-1.25
 74
     0
  0
LTYPE
  5
190
100
AcDbSymbolTableRecord
100
AcDbLinetypeTableRecord
  2
CENTER
 70
    64
  3
__ . __ . __ . __ . __
 72
    65
 73
     4
 40
7.5
 49
5.0
 74
     0
 49
-1.25
 74
     0
 49
0.0
 74
     0
 49
-1.25
 74
     0
  0
ENDTAB
  0
TABLE
  2
LAYER
  5
2
100
AcDbSymbolTable
 70
    13
  0
LAYER
  5
14
100
AcDbSymbolTableRecord
100
AcDbLayerTableRecord
  2
0
 70
     0
 62
     7
  6
Continuous
290
     1
370
    -3
390
1D
  0
LAYER
  5
24
100
AcDbSymbolTableRecord
100
AcDbLayerTableRecord
  2
LC-INFO-1-2-mm-A3-0
 70
     1
 62
   255
  6
ByBlock
290
     1
370
    -3
390
1D
  0
LAYER
  5
25
100
AcDbSymbolTableRecord
100
AcDbLayerTableRecord
  2
LC-3D-HIDDEN
 70
     0
 62
     9
  6
DASHED
290
     1
370
    -3
390
1D
  0
LAYER
  5
26
100
AcDbSymbolTableRecord
100
AcDbLayerTableRecord
  2
LC-CUT-HIDDEN
 70
     0
 62
     9
  6
DASHED
290
     1
370
    -3
390
1D
  0
LAYER
  5
27
100
AcDbSymbolTableRecord
100
AcDbLayerTableRecord
  2
LC-VIEWPORT
 70
     0
 62
     7
  6
ByBlock
290
     1
370
    -3
390
1D
  0
LAYER
  5
2A
100
AcDbSymbolTableRecord
100
AcDbLayerTableRecord
  2
LC-001-002-RND-0
 70
     0
 62
     1
  6
ByBlock
290
     1
370
    -3
390
1D
  0
LAYER
  5
2D
100
AcDbSymbolTableRecord
100
AcDbLayerTableRecord
  2
LC-002-002-----0
 70
     0
 62
     2
  6
DASHDOT
290
     1
370
    -3
390
1D
  0
LAYER
  5
4C
100
AcDbSymbolTableRecord
100
AcDbLayerTableRecord
  2
LC-003-003-MTH-0
 70
     0
 62
     2
  6
ByBlock
290
     1
370
    -3
390
1D
  0
LAYER
  5
4F
100
AcDbSymbolTableRecord
100
AcDbLayerTableRecord
  2
LC-004-003-----0
 70
     0
 62
     2
  6
ByBlock
290
     1
370
    -3
390
1D
  0
LAYER
  5
62
100
AcDbSymbolTableRecord
100
AcDbLayerTableRecord
  2
LC-005-003-MTG-0
 70
     0
 62
     2
  6
ByBlock
290
     1
370
    -3
390
1D
  0
LAYER
  5
161
100
AcDbSymbolTableRecord
100
AcDbLayerTableRecord
  2
LC-006-001-----0
 70
     0
 62
     2
  6
DASHDOT
290
     1
370
    -3
390
1D
  0
LAYER
  5
191
100
AcDbSymbolTableRecord
100
AcDbLayerTableRecord
  2
LC-007-006-MLN-0
 70
     0
 62
     2
  6
CENTER
290
     1
370
    -3
390
1D
  0
LAYER
  5
270
100
AcDbSymbolTableRecord
100
AcDbLayerTableRecord
  2
LC-008-002-___-0
 70
     0
 62
     2
  6
DASHED
290
     1
370
    -3
390
1D
  0
ENDTAB
  0
TABLE
  2
STYLE
  5
3
100
AcDbSymbolTable
 70
     3
  0
STYLE
  5
17
100
AcDbSymbolTableRecord
100
AcDbTextStyleTableRecord
  2
Standard
 70
     0
 40
0.0
 41
1.0
 50
0.0
 71
     0
 42
0.0
  3
txt
  4

  0
STYLE
  5
29
100
AcDbSymbolTableRecord
100
AcDbTextStyleTableRecord
  2
LCTX15-400-0-0-ARIAL
 70
    64
 40
3.5
 41
1.0
 50
0.0
 71
     0
 42
0.0
  3
Arial
  4

1001
ACAD
1000
Arial
1071
 16777216
  0
STYLE
  5
49
100
AcDbSymbolTableRecord
100
AcDbTextStyleTableRecord
  2
LCTX15-400-0-0-DIN-SCHRIFTP
 70
    64
 40
0.0
 41
1.0
 50
1.5
 71
     0
 42
3.5
  3
STANDARD
  4

  0
ENDTAB
  0
TABLE
  2
VIEW
  5
5
100
AcDbSymbolTable
 70
     0
  0
ENDTAB
  0
TABLE
  2
UCS
  5
6
100
AcDbSymbolTable
 70
     0
  0
ENDTAB
  0
TABLE
  2
APPID
  5
8
100
AcDbSymbolTable
 70
     1
  0
APPID
  5
16
100
AcDbSymbolTableRecord
100
AcDbRegAppTableRecord
  2
ACAD
 70
     0
  0
ENDTAB
  0
TABLE
  2
DIMSTYLE
  5
9
100
AcDbSymbolTable
 70
     2
100
AcDbDimStyleTable
 71
     0
  0
DIMSTYLE
105
18
100
AcDbSymbolTableRecord
100
AcDbDimStyleTableRecord
  2
Standard
 70
     0
  3

  4

 40
1.0
 41
0.18
 42
0.0625
 43
0.38
 44
0.18
 45
0.0
 46
0.0
 47
0.0
 48
0.0
 71
     0
 72
     0
 73
     1
 74
     1
 75
     0
 76
     0
 77
     0
 78
     0
 79
     0
140
0.18
141
0.09
142
0.0
143
25.4
144
1.0
145
0.0
146
1.0
147
0.09
148
0.0
170
     0
171
     2
172
     0
173
     0
174
     0
175
     0
176
     0
177
     0
178
     0
179
     0
271
     4
272
     4
273
     2
274
     2
275
     0
276
     0
277
     2
278
    46
279
     0
280
     0
281
     0
282
     0
283
     1
284
     0
285
     0
286
     0
288
     0
289
     0
340
17
341
0
342
0
343
0
344
0
371
    -2
372
    -2
  0
DIMSTYLE
105
48
100
AcDbSymbolTableRecord
100
AcDbDimStyleTableRecord
  2
LC-DIM-L-0140-02-02
 70
     0
  3

  4

 40
2.0
 41
3.5
 42
0.0
 43
7.5
 44
1.8
 45
0.0
 46
0.0
 47
0.0
 48
0.0
 71
     0
 72
     0
 73
     0
 74
     0
 75
     0
 76
     0
 77
     1
 78
     8
 79
     0
140
14.0
141
0.0
142
0.0
143
25.4
144
1.0
145
0.0
146
0.71
147
1.5
148
0.0
170
     0
171
     2
172
     0
173
     0
174
     0
175
     0
176
     2
177
     2
178
     2
179
     2
271
     2
272
     4
273
     2
274
     2
275
     0
276
     0
277
     2
278
    44
279
     0
280
     0
281
     0
282
     0
283
     1
284
     0
285
     0
286
     0
288
     0
289
     0
340
49
341
0
342
0
343
0
344
0
371
    -3
372
     0
  0
ENDTAB
  0
TABLE
  2
BLOCK_RECORD
  5
1
100
AcDbSymbolTable
 70
     8
  0
BLOCK_RECORD
  5
A
100
AcDbSymbolTableRecord
100
AcDbBlockTableRecord
  2
*MODEL_SPACE
340
20
  0
BLOCK_RECORD
  5
B
100
AcDbSymbolTableRecord
100
AcDbBlockTableRecord
  2
*PAPER_SPACE
340
21
  0
BLOCK_RECORD
  5
4A
100
AcDbSymbolTableRecord
100
AcDbBlockTableRecord
  2
*D0
340
0
  0
BLOCK_RECORD
  5
67
100
AcDbSymbolTableRecord
100
AcDbBlockTableRecord
  2
*D1
340
0
  0
BLOCK_RECORD
  5
81
100
AcDbSymbolTableRecord
100
AcDbBlockTableRecord
  2
*D2
340
0
  0
BLOCK_RECORD
  5
9B
100
AcDbSymbolTableRecord
100
AcDbBlockTableRecord
  2
*D3
340
0
  0
BLOCK_RECORD
  5
B6
100
AcDbSymbolTableRecord
100
AcDbBlockTableRecord
  2
*D4
340
0
  0
BLOCK_RECORD
  5
D3
100
AcDbSymbolTableRecord
100
AcDbBlockTableRecord
  2
*D5
340
0
  0
BLOCK_RECORD
  5
3FA
100
AcDbSymbolTableRecord
100
AcDbBlockTableRecord
  2
*D6
340
0
  0
BLOCK_RECORD
  5
415
100
AcDbSymbolTableRecord
100
AcDbBlockTableRecord
  2
*D7
340
0
  0
ENDTAB
  0
ENDSEC
  0
SECTION
  2
BLOCKS
  0
BLOCK
  5
D
100
AcDbEntity
  8
0
390
0
100
AcDbBlockBegin
  2
*MODEL_SPACE
 70
     0
 10
0.0
 20
0.0
 30
0.0
  3
*MODEL_SPACE
  1

  0
ENDBLK
  5
E
100
AcDbEntity
  8
0
390
0
100
AcDbBlockEnd
  0
BLOCK
  5
F
100
AcDbEntity
 67
     1
  8
0
390
0
100
AcDbBlockBegin
  2
*PAPER_SPACE
 70
     0
 10
0.0
 20
0.0
 30
0.0
  3
*PAPER_SPACE
  1

  0
ENDBLK
  5
10
100
AcDbEntity
 67
     1
  8
0
390
0
100
AcDbBlockEnd
  0
BLOCK
  5
4B
100
AcDbEntity
  8
0
390
0
100
AcDbBlockBegin
  2
*D0
 70
    65
 10
0.0
 20
0.0
 30
0.0
  3
*D0
  1

  0
LINE
  5
4D
100
AcDbEntity
  8
LC-003-003-MTH-0
370
    25
390
0
 62
     2
100
AcDbLine
 10
88.167654
 20
290.692548
 30
0.0
 11
88.167654
 21
179.2
 31
0.0
  0
LINE
  5
4E
100
AcDbEntity
  8
LC-003-003-MTH-0
370
    25
390
0
 62
     2
100
AcDbLine
 10
128.167654
 20
290.867992
 30
0.0
 11
128.167654
 21
179.2
 31
0.0
  0
LINE
  5
50
100
AcDbEntity
  8
LC-004-003-----0
370
    25
390
0
 62
     2
100
AcDbLine
 10
60.407198
 20
192.345267
 30
0.0
 11
88.167654
 21
196.0
 31
0.0
  0
LINE
  5
51
100
AcDbEntity
  8
LC-004-003-----0
370
    25
390
0
 62
     2
100
AcDbLine
 10
88.167654
 20
196.0
 30
0.0
 11
60.407198
 21
199.654733
 31
0.0
  0
LINE
  5
52
100
AcDbEntity
  8
LC-004-003-----0
370
    25
390
0
 62
     2
100
AcDbLine
 10
60.407198
 20
199.654733
 30
0.0
 11
60.407198
 21
192.345267
 31
0.0
  0
LINE
  5
53
100
AcDbEntity
  8
LC-004-003-----0
370
    25
390
0
 62
     2
100
AcDbLine
 10
60.344916
 20
193.295497
 30
0.0
 11
80.887654
 21
196.0
 31
0.0
  0
LINE
  5
54
100
AcDbEntity
  8
LC-004-003-----0
370
    25
390
0
 62
     2
100
AcDbLine
 10
80.887654
 20
196.0
 30
0.0
 11
60.344916
 21
198.704503
 31
0.0
  0
LINE
  5
55
100
AcDbEntity
  8
LC-004-003-----0
370
    25
390
0
 62
     2
100
AcDbLine
 10
60.282635
 20
194.245728
 30
0.0
 11
73.607654
 21
196.0
 31
0.0
  0
LINE
  5
56
100
AcDbEntity
  8
LC-004-003-----0
370
    25
390
0
 62
     2
100
AcDbLine
 10
73.607654
 20
196.0
 30
0.0
 11
60.282635
 21
197.754272
 31
0.0
  0
LINE
  5
57
100
AcDbEntity
  8
LC-004-003-----0
370
    25
390
0
 62
     2
100
AcDbLine
 10
60.220353
 20
195.195959
 30
0.0
 11
66.327654
 21
196.0
 31
0.0
  0
LINE
  5
58
100
AcDbEntity
  8
LC-004-003-----0
370
    25
390
0
 62
     2
100
AcDbLine
 10
66.327654
 20
196.0
 30
0.0
 11
60.220353
 21
196.804041
 31
0.0
  0
LINE
  5
59
100
AcDbEntity
  8
LC-004-003-----0
370
    25
390
0
 62
     2
100
AcDbLine
 10
155.92811
 20
199.654733
 30
0.0
 11
128.167654
 21
196.0
 31
0.0
  0
LINE
  5
5A
100
AcDbEntity
  8
LC-004-003-----0
370
    25
390
0
 62
     2
100
AcDbLine
 10
128.167654
 20
196.0
 30
0.0
 11
155.92811
 21
192.345267
 31
0.0
  0
LINE
  5
5B
100
AcDbEntity
  8
LC-004-003-----0
370
    25
390
0
 62
     2
100
AcDbLine
 10
155.92811
 20
192.345267
 30
0.0
 11
155.92811
 21
199.654733
 31
0.0
  0
LINE
  5
5C
100
AcDbEntity
  8
LC-004-003-----0
370
    25
390
0
 62
     2
100
AcDbLine
 10
155.990391
 20
198.704503
 30
0.0
 11
135.447654
 21
196.0
 31
0.0
  0
LINE
  5
5D
100
AcDbEntity
  8
LC-004-003-----0
370
    25
390
0
 62
     2
100
AcDbLine
 10
135.447654
 20
196.0
 30
0.0
 11
155.990391
 21
193.295497
 31
0.0
  0
LINE
  5
5E
100
AcDbEntity
  8
LC-004-003-----0
370
    25
390
0
 62
     2
100
AcDbLine
 10
156.052673
 20
197.754272
 30
0.0
 11
142.727654
 21
196.0
 31
0.0
  0
LINE
  5
5F
100
AcDbEntity
  8
LC-004-003-----0
370
    25
390
0
 62
     2
100
AcDbLine
 10
142.727654
 20
196.0
 30
0.0
 11
156.052673
 21
194.245728
 31
0.0
  0
LINE
  5
60
100
AcDbEntity
  8
LC-004-003-----0
370
    25
390
0
 62
     2
100
AcDbLine
 10
156.114954
 20
196.804041
 30
0.0
 11
150.007654
 21
196.0
 31
0.0
  0
LINE
  5
61
100
AcDbEntity
  8
LC-004-003-----0
370
    25
390
0
 62
     2
100
AcDbLine
 10
150.007654
 20
196.0
 30
0.0
 11
156.114954
 21
195.195959
 31
0.0
  0
LINE
  5
63
100
AcDbEntity
  8
LC-005-003-MTG-0
370
    25
390
0
 62
     2
100
AcDbLine
 10
48.967654
 20
196.0
 30
0.0
 11
267.249127
 21
196.0
 31
0.0
  0
TEXT
  5
64
100
AcDbEntity
  8
LC-004-003-----0
370
    -2
390
0
 62
     7
100
AcDbText
 10
178.749287
 20
203.827554
 30
0.0
 40
28.0
  1
DN40
 41
0.9
 51
15.0
  7
LCTX15-400-0-0-ARIAL
100
AcDbText
  0
ENDBLK
  5
65
100
AcDbEntity
  8
0
390
0
100
AcDbBlockEnd
  0
BLOCK
  5
68
100
AcDbEntity
  8
0
390
0
100
AcDbBlockBegin
  2
*D1
 70
    65
 10
0.0
 20
0.0
 30
0.0
  3
*D1
  1

  0
LINE
  5
69
100
AcDbEntity
  8
LC-003-003-MTH-0
370
    25
390
0
 62
     2
100
AcDbLine
 10
83.167654
 20
237.867992
 30
0.0
 11
83.167654
 21
140.0
 31
0.0
  0
LINE
  5
6A
100
AcDbEntity
  8
LC-003-003-MTH-0
370
    25
390
0
 62
     2
100
AcDbLine
 10
133.167654
 20
237.867992
 30
0.0
 11
133.167654
 21
140.0
 31
0.0
  0
LINE
  5
6B
100
AcDbEntity
  8
LC-004-003-----0
370
    25
390
0
 62
     2
100
AcDbLine
 10
55.407198
 20
153.145267
 30
0.0
 11
83.167654
 21
156.8
 31
0.0
  0
LINE
  5
6C
100
AcDbEntity
  8
LC-004-003-----0
370
    25
390
0
 62
     2
100
AcDbLine
 10
83.167654
 20
156.8
 30
0.0
 11
55.407198
 21
160.454733
 31
0.0
  0
LINE
  5
6D
100
AcDbEntity
  8
LC-004-003-----0
370
    25
390
0
 62
     2
100
AcDbLine
 10
55.407198
 20
160.454733
 30
0.0
 11
55.407198
 21
153.145267
 31
0.0
  0
LINE
  5
6E
100
AcDbEntity
  8
LC-004-003-----0
370
    25
390
0
 62
     2
100
AcDbLine
 10
55.344916
 20
154.095497
 30
0.0
 11
75.887654
 21
156.8
 31
0.0
  0
LINE
  5
6F
100
AcDbEntity
  8
LC-004-003-----0
370
    25
390
0
 62
     2
100
AcDbLine
 10
75.887654
 20
156.8
 30
0.0
 11
55.344916
 21
159.504503
 31
0.0
  0
LINE
  5
70
100
AcDbEntity
  8
LC-004-003-----0
370
    25
390
0
 62
     2
100
AcDbLine
 10
55.282635
 20
155.045728
 30
0.0
 11
68.607654
 21
156.8
 31
0.0
  0
LINE
  5
71
100
AcDbEntity
  8
LC-004-003-----0
370
    25
390
0
 62
     2
100
AcDbLine
 10
68.607654
 20
156.8
 30
0.0
 11
55.282635
 21
158.554272
 31
0.0
  0
LINE
  5
72
100
AcDbEntity
  8
LC-004-003-----0
370
    25
390
0
 62
     2
100
AcDbLine
 10
55.220353
 20
155.995959
 30
0.0
 11
61.327654
 21
156.8
 31
0.0
  0
LINE
  5
73
100
AcDbEntity
  8
LC-004-003-----0
370
    25
390
0
 62
     2
100
AcDbLine
 10
61.327654
 20
156.8
 30
0.0
 11
55.220353
 21
157.604041
 31
0.0
  0
LINE
  5
74
100
AcDbEntity
  8
LC-004-003-----0
370
    25
390
0
 62
     2
100
AcDbLine
 10
160.92811
 20
160.454733
 30
0.0
 11
133.167654
 21
156.8
 31
0.0
  0
LINE
  5
75
100
AcDbEntity
  8
LC-004-003-----0
370
    25
390
0
 62
     2
100
AcDbLine
 10
133.167654
 20
156.8
 30
0.0
 11
160.92811
 21
153.145267
 31
0.0
  0
LINE
  5
76
100
AcDbEntity
  8
LC-004-003-----0
370
    25
390
0
 62
     2
100
AcDbLine
 10
160.92811
 20
153.145267
 30
0.0
 11
160.92811
 21
160.454733
 31
0.0
  0
LINE
  5
77
100
AcDbEntity
  8
LC-004-003-----0
370
    25
390
0
 62
     2
100
AcDbLine
 10
160.990391
 20
159.504503
 30
0.0
 11
140.447654
 21
156.8
 31
0.0
  0
LINE
  5
78
100
AcDbEntity
  8
LC-004-003-----0
370
    25
390
0
 62
     2
100
AcDbLine
 10
140.447654
 20
156.8
 30
0.0
 11
160.990391
 21
154.095497
 31
0.0
  0
LINE
  5
79
100
AcDbEntity
  8
LC-004-003-----0
370
    25
390
0
 62
     2
100
AcDbLine
 10
161.052673
 20
158.554272
 30
0.0
 11
147.727654
 21
156.8
 31
0.0
  0
LINE
  5
7A
100
AcDbEntity
  8
LC-004-003-----0
370
    25
390
0
 62
     2
100
AcDbLine
 10
147.727654
 20
156.8
 30
0.0
 11
161.052673
 21
155.045728
 31
0.0
  0
LINE
  5
7B
100
AcDbEntity
  8
LC-004-003-----0
370
    25
390
0
 62
     2
100
AcDbLine
 10
161.114954
 20
157.604041
 30
0.0
 11
155.007654
 21
156.8
 31
0.0
  0
LINE
  5
7C
100
AcDbEntity
  8
LC-004-003-----0
370
    25
390
0
 62
     2
100
AcDbLine
 10
155.007654
 20
156.8
 30
0.0
 11
161.114954
 21
155.995959
 31
0.0
  0
LINE
  5
7D
100
AcDbEntity
  8
LC-005-003-MTG-0
370
    25
390
0
 62
     2
100
AcDbLine
 10
43.967654
 20
156.8
 30
0.0
 11
265.215654
 21
156.8
 31
0.0
  0
TEXT
  5
7E
100
AcDbEntity
  8
LC-004-003-----0
370
    -2
390
0
 62
     7
100
AcDbText
 10
176.715814
 20
164.627554
 30
0.0
 40
28.0
  1
DN50
 41
0.9
 51
15.0
  7
LCTX15-400-0-0-ARIAL
100
AcDbText
  0
ENDBLK
  5
7F
100
AcDbEntity
  8
0
390
0
100
AcDbBlockEnd
  0
BLOCK
  5
82
100
AcDbEntity
  8
0
390
0
100
AcDbBlockBegin
  2
*D2
 70
    65
 10
0.0
 20
0.0
 30
0.0
  3
*D2
  1

  0
LINE
  5
83
100
AcDbEntity
  8
LC-003-003-MTH-0
370
    25
390
0
 62
     2
100
AcDbLine
 10
354.395856
 20
234.367992
 30
0.0
 11
179.2
 21
234.367992
 31
0.0
  0
LINE
  5
84
100
AcDbEntity
  8
LC-003-003-MTH-0
370
    25
390
0
 62
     2
100
AcDbLine
 10
199.98371
 20
427.367992
 30
0.0
 11
179.2
 21
427.367992
 31
0.0
  0
LINE
  5
85
100
AcDbEntity
  8
LC-005-003-MTG-0
370
    25
390
0
 62
     2
100
AcDbLine
 10
196.0
 20
234.367992
 30
0.0
 11
196.0
 21
427.367992
 31
0.0
  0
LINE
  5
86
100
AcDbEntity
  8
LC-004-003-----0
370
    25
390
0
 62
     2
100
AcDbLine
 10
192.345267
 20
262.128448
 30
0.0
 11
196.0
 21
234.367992
 31
0.0
  0
LINE
  5
87
100
AcDbEntity
  8
LC-004-003-----0
370
    25
390
0
 62
     2
100
AcDbLine
 10
196.0
 20
234.367992
 30
0.0
 11
199.654733
 21
262.128448
 31
0.0
  0
LINE
  5
88
100
AcDbEntity
  8
LC-004-003-----0
370
    25
390
0
 62
     2
100
AcDbLine
 10
199.654733
 20
262.128448
 30
0.0
 11
192.345267
 21
262.128448
 31
0.0
  0
LINE
  5
89
100
AcDbEntity
  8
LC-004-003-----0
370
    25
390
0
 62
     2
100
AcDbLine
 10
193.295497
 20
262.19073
 30
0.0
 11
196.0
 21
241.647992
 31
0.0
  0
LINE
  5
8A
100
AcDbEntity
  8
LC-004-003-----0
370
    25
390
0
 62
     2
100
AcDbLine
 10
196.0
 20
241.647992
 30
0.0
 11
198.704503
 21
262.19073
 31
0.0
  0
LINE
  5
8B
100
AcDbEntity
  8
LC-004-003-----0
370
    25
390
0
 62
     2
100
AcDbLine
 10
194.245728
 20
262.253011
 30
0.0
 11
196.0
 21
248.927992
 31
0.0
  0
LINE
  5
8C
100
AcDbEntity
  8
LC-004-003-----0
370
    25
390
0
 62
     2
100
AcDbLine
 10
196.0
 20
248.927992
 30
0.0
 11
197.754272
 21
262.253011
 31
0.0
  0
LINE
  5
8D
100
AcDbEntity
  8
LC-004-003-----0
370
    25
390
0
 62
     2
100
AcDbLine
 10
195.195959
 20
262.315293
 30
0.0
 11
196.0
 21
256.207992
 31
0.0
  0
LINE
  5
8E
100
AcDbEntity
  8
LC-004-003-----0
370
    25
390
0
 62
     2
100
AcDbLine
 10
196.0
 20
256.207992
 30
0.0
 11
196.804041
 21
262.315293
 31
0.0
  0
LINE
  5
8F
100
AcDbEntity
  8
LC-004-003-----0
370
    25
390
0
 62
     2
100
AcDbLine
 10
199.654733
 20
399.607536
 30
0.0
 11
196.0
 21
427.367992
 31
0.0
  0
LINE
  5
90
100
AcDbEntity
  8
LC-004-003-----0
370
    25
390
0
 62
     2
100
AcDbLine
 10
196.0
 20
427.367992
 30
0.0
 11
192.345267
 21
399.607536
 31
0.0
  0
LINE
  5
91
100
AcDbEntity
  8
LC-004-003-----0
370
    25
390
0
 62
     2
100
AcDbLine
 10
192.345267
 20
399.607536
 30
0.0
 11
199.654733
 21
399.607536
 31
0.0
  0
LINE
  5
92
100
AcDbEntity
  8
LC-004-003-----0
370
    25
390
0
 62
     2
100
AcDbLine
 10
198.704503
 20
399.545255
 30
0.0
 11
196.0
 21
420.087992
 31
0.0
  0
LINE
  5
93
100
AcDbEntity
  8
LC-004-003-----0
370
    25
390
0
 62
     2
100
AcDbLine
 10
196.0
 20
420.087992
 30
0.0
 11
193.295497
 21
399.545255
 31
0.0
  0
LINE
  5
94
100
AcDbEntity
  8
LC-004-003-----0
370
    25
390
0
 62
     2
100
AcDbLine
 10
197.754272
 20
399.482973
 30
0.0
 11
196.0
 21
412.807992
 31
0.0
  0
LINE
  5
95
100
AcDbEntity
  8
LC-004-003-----0
370
    25
390
0
 62
     2
100
AcDbLine
 10
196.0
 20
412.807992
 30
0.0
 11
194.245728
 21
399.482973
 31
0.0
  0
LINE
  5
96
100
AcDbEntity
  8
LC-004-003-----0
370
    25
390
0
 62
     2
100
AcDbLine
 10
196.804041
 20
399.420692
 30
0.0
 11
196.0
 21
405.527992
 31
0.0
  0
LINE
  5
97
100
AcDbEntity
  8
LC-004-003-----0
370
    25
390
0
 62
     2
100
AcDbLine
 10
196.0
 20
405.527992
 30
0.0
 11
195.195959
 21
399.420692
 31
0.0
  0
TEXT
  5
98
100
AcDbEntity
  8
LC-004-003-----0
370
    -2
390
0
 62
     7
100
AcDbText
 10
188.172446
 20
308.588152
 30
0.0
 40
28.0
  1
193
 50
90.0
 41
0.9
 51
15.0
  7
LCTX15-400-0-0-ARIAL
 72
     1
 11
188.172446
 21
335.216152
 31
0.0
100
AcDbText
  0
ENDBLK
  5
99
100
AcDbEntity
  8
0
390
0
100
AcDbBlockEnd
  0
BLOCK
  5
9C
100
AcDbEntity
  8
0
390
0
100
AcDbBlockBegin
  2
*D3
 70
    65
 10
0.0
 20
0.0
 30
0.0
  3
*D3
  1

  0
LINE
  5
9D
100
AcDbEntity
  8
LC-003-003-MTH-0
370
    25
390
0
 62
     2
100
AcDbLine
 10
48.826645
 20
382.367992
 30
0.0
 11
48.826645
 21
257.6
 31
0.0
  0
LINE
  5
9E
100
AcDbEntity
  8
LC-003-003-MTH-0
370
    25
390
0
 62
     2
100
AcDbLine
 10
145.667654
 20
376.082029
 30
0.0
 11
145.667654
 21
257.6
 31
0.0
  0
LINE
  5
9F
100
AcDbEntity
  8
LC-004-003-----0
370
    25
390
0
 62
     2
100
AcDbLine
 10
21.066189
 20
270.745267
 30
0.0
 11
48.826645
 21
274.4
 31
0.0
  0
LINE
  5
A0
100
AcDbEntity
  8
LC-004-003-----0
370
    25
390
0
 62
     2
100
AcDbLine
 10
48.826645
 20
274.4
 30
0.0
 11
21.066189
 21
278.054733
 31
0.0
  0
LINE
  5
A1
100
AcDbEntity
  8
LC-004-003-----0
370
    25
390
0
 62
     2
100
AcDbLine
 10
21.066189
 20
278.054733
 30
0.0
 11
21.066189
 21
270.745267
 31
0.0
  0
LINE
  5
A2
100
AcDbEntity
  8
LC-004-003-----0
370
    25
390
0
 62
     2
100
AcDbLine
 10
21.003907
 20
271.695497
 30
0.0
 11
41.546645
 21
274.4
 31
0.0
  0
LINE
  5
A3
100
AcDbEntity
  8
LC-004-003-----0
370
    25
390
0
 62
     2
100
AcDbLine
 10
41.546645
 20
274.4
 30
0.0
 11
21.003907
 21
277.104503
 31
0.0
  0
LINE
  5
A4
100
AcDbEntity
  8
LC-004-003-----0
370
    25
390
0
 62
     2
100
AcDbLine
 10
20.941626
 20
272.645728
 30
0.0
 11
34.266645
 21
274.4
 31
0.0
  0
LINE
  5
A5
100
AcDbEntity
  8
LC-004-003-----0
370
    25
390
0
 62
     2
100
AcDbLine
 10
34.266645
 20
274.4
 30
0.0
 11
20.941626
 21
276.154272
 31
0.0
  0
LINE
  5
A6
100
AcDbEntity
  8
LC-004-003-----0
370
    25
390
0
 62
     2
100
AcDbLine
 10
20.879345
 20
273.595959
 30
0.0
 11
26.986645
 21
274.4
 31
0.0
  0
LINE
  5
A7
100
AcDbEntity
  8
LC-004-003-----0
370
    25
390
0
 62
     2
100
AcDbLine
 10
26.986645
 20
274.4
 30
0.0
 11
20.879345
 21
275.204041
 31
0.0
  0
LINE
  5
A8
100
AcDbEntity
  8
LC-004-003-----0
370
    25
390
0
 62
     2
100
AcDbLine
 10
173.42811
 20
278.054733
 30
0.0
 11
145.667654
 21
274.4
 31
0.0
  0
LINE
  5
A9
100
AcDbEntity
  8
LC-004-003-----0
370
    25
390
0
 62
     2
100
AcDbLine
 10
145.667654
 20
274.4
 30
0.0
 11
173.42811
 21
270.745267
 31
0.0
  0
LINE
  5
AA
100
AcDbEntity
  8
LC-004-003-----0
370
    25
390
0
 62
     2
100
AcDbLine
 10
173.42811
 20
270.745267
 30
0.0
 11
173.42811
 21
278.054733
 31
0.0
  0
LINE
  5
AB
100
AcDbEntity
  8
LC-004-003-----0
370
    25
390
0
 62
     2
100
AcDbLine
 10
173.490391
 20
277.104503
 30
0.0
 11
152.947654
 21
274.4
 31
0.0
  0
LINE
  5
AC
100
AcDbEntity
  8
LC-004-003-----0
370
    25
390
0
 62
     2
100
AcDbLine
 10
152.947654
 20
274.4
 30
0.0
 11
173.490391
 21
271.695497
 31
0.0
  0
LINE
  5
AD
100
AcDbEntity
  8
LC-004-003-----0
370
    25
390
0
 62
     2
100
AcDbLine
 10
173.552673
 20
276.154272
 30
0.0
 11
160.227654
 21
274.4
 31
0.0
  0
LINE
  5
AE
100
AcDbEntity
  8
LC-004-003-----0
370
    25
390
0
 62
     2
100
AcDbLine
 10
160.227654
 20
274.4
 30
0.0
 11
173.552673
 21
272.645728
 31
0.0
  0
LINE
  5
AF
100
AcDbEntity
  8
LC-004-003-----0
370
    25
390
0
 62
     2
100
AcDbLine
 10
173.614954
 20
275.204041
 30
0.0
 11
167.507654
 21
274.4
 31
0.0
  0
LINE
  5
B0
100
AcDbEntity
  8
LC-004-003-----0
370
    25
390
0
 62
     2
100
AcDbLine
 10
167.507654
 20
274.4
 30
0.0
 11
173.614954
 21
273.595959
 31
0.0
  0
LINE
  5
B1
100
AcDbEntity
  8
LC-005-003-MTG-0
370
    25
390
0
 62
     2
100
AcDbLine
 10
-100.973355
 20
274.4
 30
0.0
 11
184.867654
 21
274.4
 31
0.0
  0
TEXT
  5
B2
100
AcDbEntity
  8
LC-004-003-----0
370
    -2
390
0
 62
     7
100
AcDbText
 10
-85.425195
 20
282.227554
 30
0.0
 40
28.0
  1
73-120
 41
0.9
 51
15.0
  7
LCTX15-400-0-0-ARIAL
 72
     2
 11
13.974805
 21
282.227554
 31
0.0
100
AcDbText
  0
ENDBLK
  5
B3
100
AcDbEntity
  8
0
390
0
100
AcDbBlockEnd
  0
BLOCK
  5
B7
100
AcDbEntity
  8
0
390
0
100
AcDbBlockBegin
  2
*D4
 70
    65
 10
0.0
 20
0.0
 30
0.0
  3
*D4
  1

  0
LINE
  5
B8
100
AcDbEntity
  8
LC-003-003-MTH-0
370
    25
390
0
 62
     2
100
AcDbLine
 10
298.458034
 20
484.505177
 30
0.0
 11
298.458034
 21
526.4
 31
0.0
  0
LINE
  5
B9
100
AcDbEntity
  8
LC-003-003-MTH-0
370
    25
390
0
 62
     2
100
AcDbLine
 10
378.458034
 20
484.867992
 30
0.0
 11
378.458034
 21
526.4
 31
0.0
  0
LINE
  5
BA
100
AcDbEntity
  8
LC-005-003-MTG-0
370
    25
390
0
 62
     2
100
AcDbLine
 10
298.458034
 20
509.6
 30
0.0
 11
378.458034
 21
509.6
 31
0.0
  0
LINE
  5
BB
100
AcDbEntity
  8
LC-004-003-----0
370
    25
390
0
 62
     2
100
AcDbLine
 10
326.21849
 20
513.254733
 30
0.0
 11
298.458034
 21
509.6
 31
0.0
  0
LINE
  5
BC
100
AcDbEntity
  8
LC-004-003-----0
370
    25
390
0
 62
     2
100
AcDbLine
 10
298.458034
 20
509.6
 30
0.0
 11
326.21849
 21
505.945267
 31
0.0
  0
LINE
  5
BD
100
AcDbEntity
  8
LC-004-003-----0
370
    25
390
0
 62
     2
100
AcDbLine
 10
326.21849
 20
505.945267
 30
0.0
 11
326.21849
 21
513.254733
 31
0.0
  0
LINE
  5
BE
100
AcDbEntity
  8
LC-004-003-----0
370
    25
390
0
 62
     2
100
AcDbLine
 10
326.280771
 20
512.304503
 30
0.0
 11
305.738034
 21
509.6
 31
0.0
  0
LINE
  5
BF
100
AcDbEntity
  8
LC-004-003-----0
370
    25
390
0
 62
     2
100
AcDbLine
 10
305.738034
 20
509.6
 30
0.0
 11
326.280771
 21
506.895497
 31
0.0
  0
LINE
  5
C0
100
AcDbEntity
  8
LC-004-003-----0
370
    25
390
0
 62
     2
100
AcDbLine
 10
326.343053
 20
511.354272
 30
0.0
 11
313.018034
 21
509.6
 31
0.0
  0
LINE
  5
C1
100
AcDbEntity
  8
LC-004-003-----0
370
    25
390
0
 62
     2
100
AcDbLine
 10
313.018034
 20
509.6
 30
0.0
 11
326.343053
 21
507.845728
 31
0.0
  0
LINE
  5
C2
100
AcDbEntity
  8
LC-004-003-----0
370
    25
390
0
 62
     2
100
AcDbLine
 10
326.405334
 20
510.404041
 30
0.0
 11
320.298034
 21
509.6
 31
0.0
  0
LINE
  5
C3
100
AcDbEntity
  8
LC-004-003-----0
370
    25
390
0
 62
     2
100
AcDbLine
 10
320.298034
 20
509.6
 30
0.0
 11
326.405334
 21
508.795959
 31
0.0
  0
LINE
  5
C4
100
AcDbEntity
  8
LC-004-003-----0
370
    25
390
0
 62
     2
100
AcDbLine
 10
350.697577
 20
505.945267
 30
0.0
 11
378.458034
 21
509.6
 31
0.0
  0
LINE
  5
C5
100
AcDbEntity
  8
LC-004-003-----0
370
    25
390
0
 62
     2
100
AcDbLine
 10
378.458034
 20
509.6
 30
0.0
 11
350.697577
 21
513.254733
 31
0.0
  0
LINE
  5
C6
100
AcDbEntity
  8
LC-004-003-----0
370
    25
390
0
 62
     2
100
AcDbLine
 10
350.697577
 20
513.254733
 30
0.0
 11
350.697577
 21
505.945267
 31
0.0
  0
LINE
  5
C7
100
AcDbEntity
  8
LC-004-003-----0
370
    25
390
0
 62
     2
100
AcDbLine
 10
350.635296
 20
506.895497
 30
0.0
 11
371.178034
 21
509.6
 31
0.0
  0
LINE
  5
C8
100
AcDbEntity
  8
LC-004-003-----0
370
    25
390
0
 62
     2
100
AcDbLine
 10
371.178034
 20
509.6
 30
0.0
 11
350.635296
 21
512.304503
 31
0.0
  0
LINE
  5
C9
100
AcDbEntity
  8
LC-004-003-----0
370
    25
390
0
 62
     2
100
AcDbLine
 10
350.573015
 20
507.845728
 30
0.0
 11
363.898034
 21
509.6
 31
0.0
  0
LINE
  5
CA
100
AcDbEntity
  8
LC-004-003-----0
370
    25
390
0
 62
     2
100
AcDbLine
 10
363.898034
 20
509.6
 30
0.0
 11
350.573015
 21
511.354272
 31
0.0
  0
LINE
  5
CB
100
AcDbEntity
  8
LC-004-003-----0
370
    25
390
0
 62
     2
100
AcDbLine
 10
350.510733
 20
508.795959
 30
0.0
 11
356.618034
 21
509.6
 31
0.0
  0
LINE
  5
CC
100
AcDbEntity
  8
LC-004-003-----0
370
    25
390
0
 62
     2
100
AcDbLine
 10
356.618034
 20
509.6
 30
0.0
 11
350.510733
 21
510.404041
 31
0.0
  0
TEXT
  5
CD
100
AcDbEntity
  8
LC-004-003-----0
370
    -2
390
0
 62
     7
100
AcDbText
 10
325.054194
 20
517.427554
 30
0.0
 40
28.0
  1
80
 41
0.9
 51
15.0
  7
LCTX15-400-0-0-ARIAL
 72
     1
 11
342.806194
 21
517.427554
 31
0.0
100
AcDbText
  0
ENDBLK
  5
CE
100
AcDbEntity
  8
0
390
0
100
AcDbBlockEnd
  0
BLOCK
  5
D4
100
AcDbEntity
  8
0
390
0
100
AcDbBlockBegin
  2
*D5
 70
    65
 10
0.0
 20
0.0
 30
0.0
  3
*D5
  1

  0
LINE
  5
D5
100
AcDbEntity
  8
LC-003-003-MTH-0
370
    25
390
0
 62
     2
100
AcDbLine
 10
-9.175508
 20
426.369272
 30
0.0
 11
-9.175508
 21
526.4
 31
0.0
  0
LINE
  5
D6
100
AcDbEntity
  8
LC-003-003-MTH-0
370
    25
390
0
 62
     2
100
AcDbLine
 10
43.826645
 20
471.125352
 30
0.0
 11
43.826645
 21
526.4
 31
0.0
  0
LINE
  5
D7
100
AcDbEntity
  8
LC-004-003-----0
370
    25
390
0
 62
     2
100
AcDbLine
 10
-36.935964
 20
505.945267
 30
0.0
 11
-9.175508
 21
509.6
 31
0.0
  0
LINE
  5
D8
100
AcDbEntity
  8
LC-004-003-----0
370
    25
390
0
 62
     2
100
AcDbLine
 10
-9.175508
 20
509.6
 30
0.0
 11
-36.935964
 21
513.254733
 31
0.0
  0
LINE
  5
D9
100
AcDbEntity
  8
LC-004-003-----0
370
    25
390
0
 62
     2
100
AcDbLine
 10
-36.935964
 20
513.254733
 30
0.0
 11
-36.935964
 21
505.945267
 31
0.0
  0
LINE
  5
DA
100
AcDbEntity
  8
LC-004-003-----0
370
    25
390
0
 62
     2
100
AcDbLine
 10
-36.998245
 20
506.895497
 30
0.0
 11
-16.455508
 21
509.6
 31
0.0
  0
LINE
  5
DB
100
AcDbEntity
  8
LC-004-003-----0
370
    25
390
0
 62
     2
100
AcDbLine
 10
-16.455508
 20
509.6
 30
0.0
 11
-36.998245
 21
512.304503
 31
0.0
  0
LINE
  5
DC
100
AcDbEntity
  8
LC-004-003-----0
370
    25
390
0
 62
     2
100
AcDbLine
 10
-37.060527
 20
507.845728
 30
0.0
 11
-23.735508
 21
509.6
 31
0.0
  0
LINE
  5
DD
100
AcDbEntity
  8
LC-004-003-----0
370
    25
390
0
 62
     2
100
AcDbLine
 10
-23.735508
 20
509.6
 30
0.0
 11
-37.060527
 21
511.354272
 31
0.0
  0
LINE
  5
DE
100
AcDbEntity
  8
LC-004-003-----0
370
    25
390
0
 62
     2
100
AcDbLine
 10
-37.122808
 20
508.795959
 30
0.0
 11
-31.015508
 21
509.6
 31
0.0
  0
LINE
  5
DF
100
AcDbEntity
  8
LC-004-003-----0
370
    25
390
0
 62
     2
100
AcDbLine
 10
-31.015508
 20
509.6
 30
0.0
 11
-37.122808
 21
510.404041
 31
0.0
  0
LINE
  5
E0
100
AcDbEntity
  8
LC-004-003-----0
370
    25
390
0
 62
     2
100
AcDbLine
 10
71.587101
 20
513.254733
 30
0.0
 11
43.826645
 21
509.6
 31
0.0
  0
LINE
  5
E1
100
AcDbEntity
  8
LC-004-003-----0
370
    25
390
0
 62
     2
100
AcDbLine
 10
43.826645
 20
509.6
 30
0.0
 11
71.587101
 21
505.945267
 31
0.0
  0
LINE
  5
E2
100
AcDbEntity
  8
LC-004-003-----0
370
    25
390
0
 62
     2
100
AcDbLine
 10
71.587101
 20
505.945267
 30
0.0
 11
71.587101
 21
513.254733
 31
0.0
  0
LINE
  5
E3
100
AcDbEntity
  8
LC-004-003-----0
370
    25
390
0
 62
     2
100
AcDbLine
 10
71.649382
 20
512.304503
 30
0.0
 11
51.106645
 21
509.6
 31
0.0
  0
LINE
  5
E4
100
AcDbEntity
  8
LC-004-003-----0
370
    25
390
0
 62
     2
100
AcDbLine
 10
51.106645
 20
509.6
 30
0.0
 11
71.649382
 21
506.895497
 31
0.0
  0
LINE
  5
E5
100
AcDbEntity
  8
LC-004-003-----0
370
    25
390
0
 62
     2
100
AcDbLine
 10
71.711664
 20
511.354272
 30
0.0
 11
58.386645
 21
509.6
 31
0.0
  0
LINE
  5
E6
100
AcDbEntity
  8
LC-004-003-----0
370
    25
390
0
 62
     2
100
AcDbLine
 10
58.386645
 20
509.6
 30
0.0
 11
71.711664
 21
507.845728
 31
0.0
  0
LINE
  5
E7
100
AcDbEntity
  8
LC-004-003-----0
370
    25
390
0
 62
     2
100
AcDbLine
 10
71.773945
 20
510.404041
 30
0.0
 11
65.666645
 21
509.6
 31
0.0
  0
LINE
  5
E8
100
AcDbEntity
  8
LC-004-003-----0
370
    25
390
0
 62
     2
100
AcDbLine
 10
65.666645
 20
509.6
 30
0.0
 11
71.773945
 21
508.795959
 31
0.0
  0
LINE
  5
E9
100
AcDbEntity
  8
LC-005-003-MTG-0
370
    25
390
0
 62
     2
100
AcDbLine
 10
-48.375508
 20
509.6
 30
0.0
 11
125.810645
 21
509.6
 31
0.0
  0
TEXT
  5
EA
100
AcDbEntity
  8
LC-004-003-----0
370
    -2
390
0
 62
     7
100
AcDbText
 10
87.374805
 20
517.427554
 30
0.0
 40
28.0
  1
55
 41
0.8
 51
15.0
  7
LCTX15-400-0-0-ARIAL
100
AcDbText
  0
ENDBLK
  5
EB
100
AcDbEntity
  8
0
390
0
100
AcDbBlockEnd
  0
BLOCK
  5
3FB
100
AcDbEntity
  8
0
390
0
100
AcDbBlockBegin
  2
*D6
 70
    65
 10
0.0
 20
0.0
 30
0.0
  3
*D6
  1

  0
LINE
  5
3FC
100
AcDbEntity
  8
LC-003-003-MTH-0
370
    25
390
0
 62
     2
100
AcDbLine
 10
243.458034
 20
479.867992
 30
0.0
 11
243.458034
 21
582.78
 31
0.0
  0
LINE
  5
3FD
100
AcDbEntity
  8
LC-003-003-MTH-0
370
    25
390
0
 62
     2
100
AcDbLine
 10
433.458034
 20
479.867992
 30
0.0
 11
433.458034
 21
582.78
 31
0.0
  0
LINE
  5
3FE
100
AcDbEntity
  8
LC-005-003-MTG-0
370
    25
390
0
 62
     2
100
AcDbLine
 10
243.458034
 20
565.98
 30
0.0
 11
304.2535
 21
565.98
 31
0.0
  0
LINE
  5
3FF
100
AcDbEntity
  8
LC-005-003-MTG-0
370
    25
390
0
 62
     2
100
AcDbLine
 10
387.156434
 20
565.98
 30
0.0
 11
433.458034
 21
565.98
 31
0.0
  0
LINE
  5
400
100
AcDbEntity
  8
LC-004-003-----0
370
    25
390
0
 62
     2
100
AcDbLine
 10
271.21849
 20
569.634733
 30
0.0
 11
243.458034
 21
565.98
 31
0.0
  0
LINE
  5
401
100
AcDbEntity
  8
LC-004-003-----0
370
    25
390
0
 62
     2
100
AcDbLine
 10
243.458034
 20
565.98
 30
0.0
 11
271.21849
 21
562.325267
 31
0.0
  0
LINE
  5
402
100
AcDbEntity
  8
LC-004-003-----0
370
    25
390
0
 62
     2
100
AcDbLine
 10
271.21849
 20
562.325267
 30
0.0
 11
271.21849
 21
569.634733
 31
0.0
  0
LINE
  5
403
100
AcDbEntity
  8
LC-004-003-----0
370
    25
390
0
 62
     2
100
AcDbLine
 10
271.280771
 20
568.684503
 30
0.0
 11
250.738034
 21
565.98
 31
0.0
  0
LINE
  5
404
100
AcDbEntity
  8
LC-004-003-----0
370
    25
390
0
 62
     2
100
AcDbLine
 10
250.738034
 20
565.98
 30
0.0
 11
271.280771
 21
563.275497
 31
0.0
  0
LINE
  5
405
100
AcDbEntity
  8
LC-004-003-----0
370
    25
390
0
 62
     2
100
AcDbLine
 10
271.343053
 20
567.734272
 30
0.0
 11
258.018034
 21
565.98
 31
0.0
  0
LINE
  5
406
100
AcDbEntity
  8
LC-004-003-----0
370
    25
390
0
 62
     2
100
AcDbLine
 10
258.018034
 20
565.98
 30
0.0
 11
271.343053
 21
564.225728
 31
0.0
  0
LINE
  5
407
100
AcDbEntity
  8
LC-004-003-----0
370
    25
390
0
 62
     2
100
AcDbLine
 10
271.405334
 20
566.784041
 30
0.0
 11
265.298034
 21
565.98
 31
0.0
  0
LINE
  5
408
100
AcDbEntity
  8
LC-004-003-----0
370
    25
390
0
 62
     2
100
AcDbLine
 10
265.298034
 20
565.98
 30
0.0
 11
271.405334
 21
565.175959
 31
0.0
  0
LINE
  5
409
100
AcDbEntity
  8
LC-004-003-----0
370
    25
390
0
 62
     2
100
AcDbLine
 10
405.697577
 20
562.325267
 30
0.0
 11
433.458034
 21
565.98
 31
0.0
  0
LINE
  5
40A
100
AcDbEntity
  8
LC-004-003-----0
370
    25
390
0
 62
     2
100
AcDbLine
 10
433.458034
 20
565.98
 30
0.0
 11
405.697577
 21
569.634733
 31
0.0
  0
LINE
  5
40B
100
AcDbEntity
  8
LC-004-003-----0
370
    25
390
0
 62
     2
100
AcDbLine
 10
405.697577
 20
569.634733
 30
0.0
 11
405.697577
 21
562.325267
 31
0.0
  0
LINE
  5
40C
100
AcDbEntity
  8
LC-004-003-----0
370
    25
390
0
 62
     2
100
AcDbLine
 10
405.635296
 20
563.275497
 30
0.0
 11
426.178034
 21
565.98
 31
0.0
  0
LINE
  5
40D
100
AcDbEntity
  8
LC-004-003-----0
370
    25
390
0
 62
     2
100
AcDbLine
 10
426.178034
 20
565.98
 30
0.0
 11
405.635296
 21
568.684503
 31
0.0
  0
LINE
  5
40E
100
AcDbEntity
  8
LC-004-003-----0
370
    25
390
0
 62
     2
100
AcDbLine
 10
405.573015
 20
564.225728
 30
0.0
 11
418.898034
 21
565.98
 31
0.0
  0
LINE
  5
40F
100
AcDbEntity
  8
LC-004-003-----0
370
    25
390
0
 62
     2
100
AcDbLine
 10
418.898034
 20
565.98
 30
0.0
 11
405.573015
 21
567.734272
 31
0.0
  0
LINE
  5
410
100
AcDbEntity
  8
LC-004-003-----0
370
    25
390
0
 62
     2
100
AcDbLine
 10
405.510733
 20
565.175959
 30
0.0
 11
411.618034
 21
565.98
 31
0.0
  0
LINE
  5
411
100
AcDbEntity
  8
LC-004-003-----0
370
    25
390
0
 62
     2
100
AcDbLine
 10
411.618034
 20
565.98
 30
0.0
 11
405.510733
 21
566.784041
 31
0.0
  0
TEXT
  5
412
100
AcDbEntity
  8
LC-004-003-----0
370
    -2
390
0
 62
     7
100
AcDbText
 10
316.178194
 20
573.807554
 30
0.0
 40
28.0
  1
190
 41
0.9
 51
15.0
  7
LCTX15-400-0-0-ARIAL
 72
     1
 11
342.806194
 21
573.807554
 31
0.0
100
AcDbText
  0
ENDBLK
  5
413
100
AcDbEntity
  8
0
390
0
100
AcDbBlockEnd
  0
BLOCK
  5
416
100
AcDbEntity
  8
0
390
0
100
AcDbBlockBegin
  2
*D7
 70
    65
 10
0.0
 20
0.0
 30
0.0
  3
*D7
  1

  0
LINE
  5
417
100
AcDbEntity
  8
LC-003-003-MTH-0
370
    25
390
0
 62
     2
100
AcDbLine
 10
430.958034
 20
372.367992
 30
0.0
 11
503.274021
 21
372.367992
 31
0.0
  0
LINE
  5
418
100
AcDbEntity
  8
LC-003-003-MTH-0
370
    25
390
0
 62
     2
100
AcDbLine
 10
430.958034
 20
482.367992
 30
0.0
 11
503.274021
 21
482.367992
 31
0.0
  0
LINE
  5
419
100
AcDbEntity
  8
LC-004-003-----0
370
    25
390
0
 62
     2
100
AcDbLine
 10
490.128755
 20
344.607536
 30
0.0
 11
486.474021
 21
372.367992
 31
0.0
  0
LINE
  5
41A
100
AcDbEntity
  8
LC-004-003-----0
370
    25
390
0
 62
     2
100
AcDbLine
 10
486.474021
 20
372.367992
 30
0.0
 11
482.819288
 21
344.607536
 31
0.0
  0
LINE
  5
41B
100
AcDbEntity
  8
LC-004-003-----0
370
    25
390
0
 62
     2
100
AcDbLine
 10
482.819288
 20
344.607536
 30
0.0
 11
490.128755
 21
344.607536
 31
0.0
  0
LINE
  5
41C
100
AcDbEntity
  8
LC-004-003-----0
370
    25
390
0
 62
     2
100
AcDbLine
 10
489.178524
 20
344.545255
 30
0.0
 11
486.474021
 21
365.087992
 31
0.0
  0
LINE
  5
41D
100
AcDbEntity
  8
LC-004-003-----0
370
    25
390
0
 62
     2
100
AcDbLine
 10
486.474021
 20
365.087992
 30
0.0
 11
483.769519
 21
344.545255
 31
0.0
  0
LINE
  5
41E
100
AcDbEntity
  8
LC-004-003-----0
370
    25
390
0
 62
     2
100
AcDbLine
 10
488.228293
 20
344.482973
 30
0.0
 11
486.474021
 21
357.807992
 31
0.0
  0
LINE
  5
41F
100
AcDbEntity
  8
LC-004-003-----0
370
    25
390
0
 62
     2
100
AcDbLine
 10
486.474021
 20
357.807992
 30
0.0
 11
484.719749
 21
344.482973
 31
0.0
  0
LINE
  5
420
100
AcDbEntity
  8
LC-004-003-----0
370
    25
390
0
 62
     2
100
AcDbLine
 10
487.278063
 20
344.420692
 30
0.0
 11
486.474021
 21
350.527992
 31
0.0
  0
LINE
  5
421
100
AcDbEntity
  8
LC-004-003-----0
370
    25
390
0
 62
     2
100
AcDbLine
 10
486.474021
 20
350.527992
 30
0.0
 11
485.66998
 21
344.420692
 31
0.0
  0
LINE
  5
422
100
AcDbEntity
  8
LC-004-003-----0
370
    25
390
0
 62
     2
100
AcDbLine
 10
482.819288
 20
510.128448
 30
0.0
 11
486.474021
 21
482.367992
 31
0.0
  0
LINE
  5
423
100
AcDbEntity
  8
LC-004-003-----0
370
    25
390
0
 62
     2
100
AcDbLine
 10
486.474021
 20
482.367992
 30
0.0
 11
490.128755
 21
510.128448
 31
0.0
  0
LINE
  5
424
100
AcDbEntity
  8
LC-004-003-----0
370
    25
390
0
 62
     2
100
AcDbLine
 10
490.128755
 20
510.128448
 30
0.0
 11
482.819288
 21
510.128448
 31
0.0
  0
LINE
  5
425
100
AcDbEntity
  8
LC-004-003-----0
370
    25
390
0
 62
     2
100
AcDbLine
 10
483.769519
 20
510.19073
 30
0.0
 11
486.474021
 21
489.647992
 31
0.0
  0
LINE
  5
426
100
AcDbEntity
  8
LC-004-003-----0
370
    25
390
0
 62
     2
100
AcDbLine
 10
486.474021
 20
489.647992
 30
0.0
 11
489.178524
 21
510.19073
 31
0.0
  0
LINE
  5
427
100
AcDbEntity
  8
LC-004-003-----0
370
    25
390
0
 62
     2
100
AcDbLine
 10
484.719749
 20
510.253011
 30
0.0
 11
486.474021
 21
496.927992
 31
0.0
  0
LINE
  5
428
100
AcDbEntity
  8
LC-004-003-----0
370
    25
390
0
 62
     2
100
AcDbLine
 10
486.474021
 20
496.927992
 30
0.0
 11
488.228293
 21
510.253011
 31
0.0
  0
LINE
  5
429
100
AcDbEntity
  8
LC-004-003-----0
370
    25
390
0
 62
     2
100
AcDbLine
 10
485.66998
 20
510.315293
 30
0.0
 11
486.474021
 21
504.207992
 31
0.0
  0
LINE
  5
42A
100
AcDbEntity
  8
LC-004-003-----0
370
    25
390
0
 62
     2
100
AcDbLine
 10
486.474021
 20
504.207992
 30
0.0
 11
487.278063
 21
510.315293
 31
0.0
  0
LINE
  5
42B
100
AcDbEntity
  8
LC-005-003-MTG-0
370
    25
390
0
 62
     2
100
AcDbLine
 10
486.474021
 20
333.167992
 30
0.0
 11
486.474021
 21
513.991459
 31
0.0
  0
TEXT
  5
42C
100
AcDbEntity
  8
LC-004-003-----0
370
    -2
390
0
 62
     7
100
AcDbText
 10
478.646467
 20
525.916152
 30
0.0
 40
28.0
  1
110
 50
90.0
 41
0.9
 51
15.0
  7
LCTX15-400-0-0-ARIAL
100
AcDbText
  0
ENDBLK
  5
42D
100
AcDbEntity
  8
0
390
0
100
AcDbBlockEnd
  0
ENDSEC
  0
SECTION
  2
ENTITIES
  0
VIEWPORT
  5
42F
100
AcDbEntity
 67
     1
  8
LC-VIEWPORT
390
0
100
AcDbViewport
 10
420.0
 20
297.0
 30
0.0
 40
840.0
 41
594.0
 68
     1
 69
     1
 12
420.0
 22
297.0
 13
0.0
 23
0.0
 14
1.0
 24
1.0
 15
0.0
 25
0.0
 16
0.0
 26
0.0
 36
1.0
 17
0.0
 27
0.0
 37
0.0
 42
50.0
 43
0.0
 44
0.0
 45
594.0
 50
0.0
 51
0.0
 72
   100
 90
    32928
340
0
  1

281
     0
 71
     0
 74
     1
110
0.0
120
0.0
130
0.0
111
1.0
121
0.0
131
0.0
112
0.0
122
1.0
132
0.0
345
0
346
0
 79
     0
146
0.0
  0
ARC
  5
2B
102
{ACAD_REACTORS
330
43B
102
}
100
AcDbEntity
  8
LC-001-002-RND-0
370
    50
390
0
 62
     1
100
AcDbCircle
 10
357.458034
 20
284.367992
 30
0.0
 40
4.0
100
AcDbArc
 50
90.0
 51
180.0
  0
LINE
  5
2E
100
AcDbEntity
  8
LC-002-002-----0
370
    25
390
0
 62
     2
100
AcDbLine
 10
331.458034
 20
432.367992
 30
0.0
 11
331.458034
 21
422.367992
 31
0.0
  0
LINE
  5
2F
100
AcDbEntity
  8
LC-002-002-----0
370
    50
390
0
  6
ByBlock
 62
     1
100
AcDbLine
 10
349.476512
 20
339.367992
 30
0.0
 11
405.121601
 21
339.367992
 31
0.0
  0
LINE
  5
30
100
AcDbEntity
  8
LC-002-002-----0
370
    25
390
0
 62
     2
100
AcDbLine
 10
425.458034
 20
432.367992
 30
0.0
 11
425.458034
 21
422.367992
 31
0.0
  0
ARC
  5
31
100
AcDbEntity
  8
LC-001-002-RND-0
370
    50
390
0
 62
     1
100
AcDbCircle
 10
399.458034
 20
284.367992
 30
0.0
 40
4.0
100
AcDbArc
 50
360.0
 51
90.0
  0
LINE
  5
32
100
AcDbEntity
  8
LC-002-002-----0
370
    25
390
0
 62
     2
100
AcDbLine
 10
419.684112
 20
393.365193
 30
0.0
 11
419.684112
 21
383.365193
 31
0.0
  0
LINE
  5
33
100
AcDbEntity
  8
LC-002-002-----0
370
    50
390
0
  6
ByBlock
 62
     1
100
AcDbLine
 10
398.458034
 20
339.367992
 30
0.0
 11
398.458034
 21
288.367992
 31
0.0
  0
LINE
  5
34
100
AcDbEntity
  8
LC-002-002-----0
370
    50
390
0
  6
ByBlock
 62
     1
100
AcDbLine
 10
68.826645
 20
410.867992
 30
0.0
 11
68.826645
 21
443.867992
 31
0.0
  0
LINE
  5
35
100
AcDbEntity
  8
LC-002-002-----0
370
    25
390
0
 62
     2
100
AcDbLine
 10
417.084112
 20
388.365193
 30
0.0
 11
424.684112
 21
388.365193
 31
0.0
  0
LINE
  5
36
100
AcDbEntity
  8
LC-002-002-----0
370
    25
390
0
 62
     2
100
AcDbLine
 10
328.684112
 20
387.865193
 30
0.0
 11
338.035952
 21
387.865193
 31
0.0
  0
LINE
  5
37
100
AcDbEntity
  8
LC-002-002-----0
370
    25
390
0
 62
     2
100
AcDbLine
 10
333.684112
 20
392.865193
 30
0.0
 11
333.684112
 21
382.865193
 31
0.0
  0
LINE
  5
38
102
{ACAD_REACTORS
330
43B
102
}
100
AcDbEntity
  8
LC-002-002-----0
370
    25
390
0
  6
DASHED
 62
     2
100
AcDbLine
 10
415.390404
 20
447.367992
 30
0.0
 11
415.958034
 21
447.367992
 31
0.0
  0
LINE
  5
39
100
AcDbEntity
  8
LC-002-002-----0
370
    25
390
0
 62
     2
100
AcDbLine
 10
278.462305
 20
430.367992
 30
0.0
 11
278.462305
 21
424.367992
 31
0.0
  0
LINE
  5
3A
100
AcDbEntity
  8
LC-002-002-----0
370
    25
390
0
 62
     2
100
AcDbLine
 10
318.462305
 20
430.367992
 30
0.0
 11
318.462305
 21
424.367992
 31
0.0
  0
LINE
  5
3B
102
{ACAD_REACTORS
330
438
102
}
100
AcDbEntity
  8
LC-002-002-----0
370
    50
390
0
  6
ByBlock
 62
     1
100
AcDbLine
 10
129.667654
 20
429.467992
 30
0.0
 11
129.667654
 21
447.367992
 31
0.0
  0
LINE
  5
3C
102
{ACAD_REACTORS
330
438
102
}
100
AcDbEntity
  8
LC-002-002-----0
370
    50
390
0
  6
ByBlock
 62
     1
100
AcDbLine
 10
131.167654
 20
429.467992
 30
0.0
 11
131.167654
 21
447.367992
 31
0.0
  0
LINE
  5
3D
102
{ACAD_REACTORS
330
43B
102
}
100
AcDbEntity
  8
LC-002-002-----0
370
    25
390
0
 62
     2
100
AcDbLine
 10
378.458034
 20
288.367992
 30
0.0
 11
378.458034
 21
231.81099
 31
0.0
  0
LINE
  5
3E
102
{ACAD_REACTORS
330
438
102
}
100
AcDbEntity
  8
LC-002-002-----0
370
    50
390
0
  6
ByBlock
 62
     1
100
AcDbLine
 10
132.667654
 20
429.467992
 30
0.0
 11
132.667654
 21
447.367992
 31
0.0
  0
ARC
  5
3F
102
{ACAD_REACTORS
330
443
102
}
100
AcDbEntity
  8
LC-002-002-----0
370
    25
390
0
  6
DASHED
 62
     2
100
AcDbCircle
 10
298.458034
 20
439.867992
 30
0.0
 40
6.0
100
AcDbArc
 50
89.033562
 51
90.966438
  0
LINE
  5
40
100
AcDbEntity
  8
LC-002-002-----0
370
    50
390
0
  6
ByBlock
 62
     1
100
AcDbLine
 10
147.667654
 20
420.367992
 30
0.0
 11
147.167654
 21
420.367992
 31
0.0
  0
ARC
  5
41
100
AcDbEntity
  8
LC-002-002-----0
370
    50
390
0
  6
ByBlock
 62
     1
100
AcDbCircle
 10
138.542654
 20
414.867992
 30
0.0
 40
10.625
100
AcDbArc
 50
334.942385
 51
25.057615
  0
ARC
  5
42
100
AcDbEntity
  8
LC-001-002-RND-0
370
    50
390
0
 62
     1
100
AcDbCircle
 10
147.167654
 20
419.867992
 30
0.0
 40
0.5
100
AcDbArc
 50
90.0
 51
180.0
  0
ARC
  5
43
100
AcDbEntity
  8
LC-001-002-RND-0
370
    50
390
0
 62
     1
100
AcDbCircle
 10
147.667654
 20
419.867992
 30
0.0
 40
0.5
100
AcDbArc
 50
360.0
 51
90.0
  0
LINE
  5
44
100
AcDbEntity
  8
LC-002-002-----0
370
    50
390
0
  6
ByBlock
 62
     1
100
AcDbLine
 10
148.167654
 20
409.867992
 30
0.0
 11
148.167654
 21
419.867992
 31
0.0
  0
ARC
  5
45
100
AcDbEntity
  8
LC-001-002-RND-0
370
    50
390
0
 62
     1
100
AcDbCircle
 10
147.667654
 20
409.867992
 30
0.0
 40
0.5
100
AcDbArc
 50
270.0
 51
360.0
  0
LINE
  5
46
100
AcDbEntity
  8
LC-002-002-----0
370
    50
390
0
  6
ByBlock
 62
     1
100
AcDbLine
 10
147.667654
 20
409.367992
 30
0.0
 11
147.167654
 21
409.367992
 31
0.0
  0
ARC
  5
47
100
AcDbEntity
  8
LC-001-002-RND-0
370
    50
390
0
 62
     1
100
AcDbCircle
 10
147.167654
 20
409.867992
 30
0.0
 40
0.5
100
AcDbArc
 50
180.0
 51
270.0
  0
DIMENSION
  5
66
100
AcDbEntity
  8
LC-004-003-----0
370
    25
390
0
 62
     2
100
AcDbDimension
  2
*D0
 10
215.225127
 20
196.0
 30
0.0
 11
215.225127
 21
196.0
 31
0.0
 71
     5
 72
     1
 41
1.0
 42
0.0
  1
DN40
  3
LC-DIM-L-0140-02-02
100
AcDbAlignedDimension
 13
88.167654
 23
290.692548
 33
0.0
 14
128.167654
 24
290.867992
 34
0.0
100
AcDbRotatedDimension
  0
DIMENSION
  5
80
100
AcDbEntity
  8
LC-004-003-----0
370
    25
390
0
 62
     2
100
AcDbDimension
  2
*D1
 10
196.306418
 20
156.8
 30
0.0
 11
196.306418
 21
156.8
 31
0.0
 71
     5
 72
     1
 41
1.0
 42
0.0
  1
DN50
  3
LC-DIM-L-0140-02-02
100
AcDbAlignedDimension
 13
83.167654
 23
237.867992
 33
0.0
 14
133.167654
 24
237.867992
 34
0.0
100
AcDbRotatedDimension
  0
DIMENSION
  5
9A
100
AcDbEntity
  8
LC-004-003-----0
370
    25
390
0
 62
     2
100
AcDbDimension
  2
*D2
 10
196.0
 20
330.867992
 30
0.0
 11
196.0
 21
330.867992
 31
0.0
 71
     5
 72
     1
 41
1.0
 42
0.0
  3
LC-DIM-L-0140-02-02
100
AcDbAlignedDimension
 13
199.98371
 23
427.367992
 33
0.0
 14
354.395856
 24
234.367992
 34
0.0
 50
90.0
100
AcDbRotatedDimension
  0
DIMENSION
  5
B4
100
AcDbEntity
  8
LC-004-003-----0
370
    25
390
0
 62
     2
100
AcDbDimension
  2
*D3
 10
18.072264
 20
274.4
 30
0.0
 11
18.072264
 21
274.4
 31
0.0
 71
     5
 72
     1
 41
1.0
 42
0.0
  1
73-120
  3
LC-DIM-L-0140-02-02
100
AcDbAlignedDimension
 13
145.667654
 23
376.082029
 33
0.0
 14
48.826645
 24
382.367992
 34
0.0
100
AcDbRotatedDimension
  0
ARC
  5
B5
100
AcDbEntity
  8
LC-002-002-----0
370
    50
390
0
  6
ByBlock
 62
     1
100
AcDbCircle
 10
298.458034
 20
427.367992
 30
0.0
 40
30.5
100
AcDbArc
 50
301.798913
 51
60.540825
  0
DIMENSION
  5
CF
100
AcDbEntity
  8
LC-004-003-----0
370
    25
390
0
 62
     2
100
AcDbDimension
  2
*D4
 10
338.458034
 20
509.6
 30
0.0
 11
338.458034
 21
509.6
 31
0.0
 71
     5
 72
     1
 41
1.0
 42
0.0
  3
LC-DIM-L-0140-02-02
100
AcDbAlignedDimension
 13
298.458034
 23
484.505177
 33
0.0
 14
378.458034
 24
484.867992
 34
0.0
100
AcDbRotatedDimension
  0
ARC
  5
D0
102
{ACAD_REACTORS
330
443
102
}
100
AcDbEntity
  8
LC-002-002-----0
370
    25
390
0
  6
DASHED
 62
     2
100
AcDbCircle
 10
378.458034
 20
427.367992
 30
0.0
 40
57.5
100
AcDbArc
 50
209.712765
 51
343.042574
  0
ARC
  5
D1
102
{ACAD_REACTORS
330
443
102
}
100
AcDbEntity
  8
LC-002-002-----0
370
    50
390
0
  6
ByBlock
 62
     1
100
AcDbCircle
 10
378.458034
 20
427.367992
 30
0.0
 40
57.5
100
AcDbArc
 50
343.042574
 51
16.957426
  0
ARC
  5
D2
100
AcDbEntity
  8
LC-002-002-----0
370
    50
390
0
  6
ByBlock
 62
     1
100
AcDbCircle
 10
298.458034
 20
427.367992
 30
0.0
 40
30.5
100
AcDbArc
 50
119.459175
 51
239.456211
  0
DIMENSION
  5
EC
100
AcDbEntity
  8
LC-004-003-----0
370
    25
390
0
 62
     2
100
AcDbDimension
  2
*D5
 10
17.325569
 20
509.6
 30
0.0
 11
17.325569
 21
509.6
 31
0.0
 71
     5
 72
     1
 41
1.0
 42
0.0
  1
55
  3
LC-DIM-L-0140-02-02
100
AcDbAlignedDimension
 13
-9.175508
 23
426.369272
 33
0.0
 14
43.826645
 24
471.125352
 34
0.0
100
AcDbRotatedDimension
  0
LINE
  5
ED
100
AcDbEntity
  8
LC-002-002-----0
370
    50
390
0
  6
ByBlock
 62
     1
100
AcDbLine
 10
639.688714
 20
482.367992
 30
0.0
 11
639.688714
 21
372.367992
 31
0.0
  0
LINE
  5
EE
102
{ACAD_REACTORS
330
43A
102
}
100
AcDbEntity
  8
LC-002-002-----0
370
    50
390
0
  6
ByBlock
 62
     1
100
AcDbLine
 10
639.688714
 20
482.367992
 30
0.0
 11
643.816747
 21
478.253395
 31
0.0
  0
LINE
  5
EF
100
AcDbEntity
  8
LC-002-002-----0
370
    50
390
0
  6
ByBlock
 62
     1
100
AcDbLine
 10
541.859081
 20
420.367992
 30
0.0
 11
542.359081
 21
420.367992
 31
0.0
  0
ARC
  5
F0
100
AcDbEntity
  8
LC-002-002-----0
370
    50
390
0
  6
ByBlock
 62
     1
100
AcDbCircle
 10
550.984081
 20
414.867992
 30
0.0
 40
10.625
100
AcDbArc
 50
154.942385
 51
205.057615
  0
ARC
  5
F1
100
AcDbEntity
  8
LC-001-002-RND-0
370
    50
390
0
 62
     1
100
AcDbCircle
 10
542.359081
 20
419.867992
 30
0.0
 40
0.5
100
AcDbArc
 50
0.0
 51
90.0
  0
ARC
  5
F2
100
AcDbEntity
  8
LC-001-002-RND-0
370
    50
390
0
 62
     1
100
AcDbCircle
 10
541.859081
 20
419.867992
 30
0.0
 40
0.5
100
AcDbArc
 50
90.0
 51
180.0
  0
LINE
  5
F3
100
AcDbEntity
  8
LC-002-002-----0
370
    50
390
0
  6
ByBlock
 62
     1
100
AcDbLine
 10
541.359081
 20
409.867992
 30
0.0
 11
541.359081
 21
419.867992
 31
0.0
  0
ARC
  5
F4
100
AcDbEntity
  8
LC-001-002-RND-0
370
    50
390
0
 62
     1
100
AcDbCircle
 10
541.859081
 20
409.867992
 30
0.0
 40
0.5
100
AcDbArc
 50
180.0
 51
270.0
  0
LINE
  5
F5
100
AcDbEntity
  8
LC-002-002-----0
370
    50
390
0
  6
ByBlock
 62
     1
100
AcDbLine
 10
541.859081
 20
409.367992
 30
0.0
 11
542.359081
 21
409.367992
 31
0.0
  0
ARC
  5
F6
100
AcDbEntity
  8
LC-001-002-RND-0
370
    50
390
0
 62
     1
100
AcDbCircle
 10
542.359081
 20
409.867992
 30
0.0
 40
0.5
100
AcDbArc
 50
270.0
 51
0.0
  0
ARC
  5
F7
100
AcDbEntity
  8
LC-001-002-RND-0
370
    50
390
0
 62
     1
100
AcDbCircle
 10
737.272925
 20
464.332302
 30
0.0
 40
2.5
100
AcDbArc
 50
315.0
 51
45.0
  0
LINE
  5
F8
100
AcDbEntity
  8
LC-002-002-----0
370
    25
390
0
  6
DASHED
 62
     2
100
AcDbLine
 10
617.859081
 20
437.855513
 30
0.0
 11
617.859081
 21
416.895513
 31
0.0
  0
LINE
  5
F9
102
{ACAD_REACTORS
330
441
102
}
100
AcDbEntity
  8
LC-002-002-----0
370
    50
390
0
  6
ByBlock
 62
     1
100
AcDbLine
 10
657.359081
 20
439.867992
 30
0.0
 11
656.359081
 21
440.867992
 31
0.0
  0
LINE
  5
FA
100
AcDbEntity
  8
LC-002-002-----0
370
    50
390
0
  6
ByBlock
 62
     1
100
AcDbLine
 10
545.859081
 20
484.867992
 30
0.0
 11
545.859081
 21
475.772006
 31
0.0
  0
LINE
  5
FB
100
AcDbEntity
  8
LC-002-002-----0
370
    50
390
0
  6
ByBlock
 62
     1
100
AcDbLine
 10
554.859081
 20
483.867992
 30
0.0
 11
554.859081
 21
370.867992
 31
0.0
  0
LINE
  5
FC
100
AcDbEntity
  8
LC-002-002-----0
370
    50
390
0
  6
ByBlock
 62
     1
100
AcDbLine
 10
543.859081
 20
478.653955
 30
0.0
 11
543.859081
 21
453.367992
 31
0.0
  0
LINE
  5
FD
102
{ACAD_REACTORS
330
440
102
}
100
AcDbEntity
  8
LC-002-002-----0
370
    50
390
0
  6
ByBlock
 62
     1
100
AcDbLine
 10
553.859081
 20
285.867992
 30
0.0
 11
556.650982
 21
285.867992
 31
0.0
  0
LINE
  5
FE
102
{ACAD_REACTORS
330
440
102
}
100
AcDbEntity
  8
LC-002-002-----0
370
    50
390
0
  6
ByBlock
 62
     1
100
AcDbLine
 10
553.859081
 20
288.367992
 30
0.0
 11
553.859081
 21
285.867992
 31
0.0
  0
LINE
  5
FF
102
{ACAD_REACTORS
330
440
102
}
100
AcDbEntity
  8
LC-002-002-----0
370
    50
390
0
  6
ByBlock
 62
     1
100
AcDbLine
 10
606.06718
 20
285.867992
 30
0.0
 11
608.859081
 21
285.867992
 31
0.0
  0
LINE
  5
100
102
{ACAD_REACTORS
330
440
102
}
100
AcDbEntity
  8
LC-002-002-----0
370
    50
390
0
  6
ByBlock
 62
     1
100
AcDbLine
 10
608.859081
 20
288.367992
 30
0.0
 11
608.859081
 21
285.867992
 31
0.0
  0
LINE
  5
101
102
{ACAD_REACTORS
330
440
102
}
100
AcDbEntity
  8
LC-002-002-----0
370
    50
390
0
  6
ByBlock
 62
     1
100
AcDbLine
 10
601.359081
 20
290.692548
 30
0.0
 11
601.359081
 21
341.367992
 31
0.0
  0
ARC
  5
102
102
{ACAD_REACTORS
330
440
102
}
100
AcDbEntity
  8
LC-001-002-RND-0
370
    50
390
0
 62
     1
100
AcDbCircle
 10
600.359081
 20
343.867992
 30
0.0
 40
2.5
100
AcDbArc
 50
270.0
 51
0.0
  0
LINE
  5
103
102
{ACAD_REACTORS
330
440
102
}
100
AcDbEntity
  8
LC-002-002-----0
370
    50
390
0
  6
ByBlock
 62
     1
100
AcDbLine
 10
604.338355
 20
234.367992
 30
0.0
 11
558.379807
 21
234.367992
 31
0.0
  0
ARC
  5
104
102
{ACAD_REACTORS
330
440
102
}
100
AcDbEntity
  8
LC-001-002-RND-0
370
    50
390
0
 62
     1
100
AcDbCircle
 10
558.859081
 20
290.867992
 30
0.0
 40
2.5
100
AcDbArc
 50
270.0
 51
0.0
  0
ARC
  5
105
102
{ACAD_REACTORS
330
440
102
}
100
AcDbEntity
  8
LC-001-002-RND-0
370
    50
390
0
 62
     1
100
AcDbCircle
 10
603.859081
 20
290.692548
 30
0.0
 40
2.5
100
AcDbArc
 50
180.0
 51
256.657636
  0
LINE
  5
106
102
{ACAD_REACTORS
330
440
102
}
100
AcDbEntity
  8
LC-002-002-----0
370
    50
390
0
  6
ByBlock
 62
     1
100
AcDbLine
 10
556.359081
 20
237.867992
 30
0.0
 11
556.359081
 21
284.367992
 31
0.0
  0
LINE
  5
107
102
{ACAD_REACTORS
330
440
102
}
100
AcDbEntity
  8
LC-002-002-----0
370
    50
390
0
  6
ByBlock
 62
     1
100
AcDbLine
 10
560.359081
 20
288.367992
 30
0.0
 11
608.859081
 21
288.367992
 31
0.0
  0
LINE
  5
108
102
{ACAD_REACTORS
330
441
102
}
100
AcDbEntity
  8
LC-002-002-----0
370
    50
390
0
  6
ByBlock
 62
     1
100
AcDbLine
 10
657.359081
 20
414.867992
 30
0.0
 11
656.359081
 21
413.867992
 31
0.0
  0
LINE
  5
109
102
{ACAD_REACTORS
330
441
102
}
100
AcDbEntity
  8
LC-002-002-----0
370
    50
390
0
  6
ByBlock
 62
     1
100
AcDbLine
 10
656.359081
 20
440.867992
 30
0.0
 11
656.359081
 21
413.867992
 31
0.0
  0
LINE
  5
10A
102
{ACAD_REACTORS
330
43F
102
}
100
AcDbEntity
  8
LC-002-002-----0
370
    50
390
0
  6
ByBlock
 62
     1
100
AcDbLine
 10
656.359081
 20
437.87735
 30
0.0
 11
656.359081
 21
416.87735
 31
0.0
  0
ARC
  5
10B
102
{ACAD_REACTORS
330
440
102
}
100
AcDbEntity
  8
LC-001-002-RND-0
370
    50
390
0
 62
     1
100
AcDbCircle
 10
600.359081
 20
366.367992
 30
0.0
 40
2.5
100
AcDbArc
 50
0.0
 51
10.917885
  0
LINE
  5
10C
102
{ACAD_REACTORS
330
440
102
}
100
AcDbEntity
  8
LC-002-002-----0
370
    50
390
0
  6
ByBlock
 62
     1
100
AcDbLine
 10
602.81383
 20
366.841497
 30
0.0
 11
593.742729
 21
413.867992
 31
0.0
  0
ARC
  5
10D
102
{ACAD_REACTORS
330
440
102
}
100
AcDbEntity
  8
LC-001-002-RND-0
370
    50
390
0
 62
     1
100
AcDbCircle
 10
581.359081
 20
464.867992
 30
0.0
 40
2.5
100
AcDbArc
 50
10.917885
 51
90.0
  0
LINE
  5
10E
100
AcDbEntity
  8
LC-002-002-----0
370
    50
390
0
  6
ByBlock
 62
     1
100
AcDbLine
 10
143.667654
 20
484.867992
 30
0.0
 11
143.667654
 21
475.772006
 31
0.0
  0
LINE
  5
10F
100
AcDbEntity
  8
LC-002-002-----0
370
    50
390
0
  6
ByBlock
 62
     1
100
AcDbLine
 10
134.667654
 20
483.867992
 30
0.0
 11
134.667654
 21
370.867992
 31
0.0
  0
LINE
  5
110
102
{ACAD_REACTORS
330
440
102
}
100
AcDbEntity
  8
LC-002-002-----0
370
    50
390
0
  6
ByBlock
 62
     1
100
AcDbLine
 10
585.930547
 20
454.367992
 30
0.0
 11
583.81383
 21
465.341497
 31
0.0
  0
ARC
  5
111
102
{ACAD_REACTORS
330
439
102
}
100
AcDbEntity
  8
LC-002-002-----0
370
    50
390
0
  6
ByBlock
 62
     1
100
AcDbCircle
 10
641.698887
 20
476.12862
 30
0.0
 40
3.0
100
AcDbArc
 50
0.093394
 51
45.093394
  0
LINE
  5
112
100
AcDbEntity
  8
LC-002-002-----0
370
    50
390
0
  6
ByBlock
 62
     1
100
AcDbLine
 10
145.667654
 20
478.653955
 30
0.0
 11
145.667654
 21
453.367992
 31
0.0
  0
ARC
  5
113
100
AcDbEntity
  8
LC-002-002-----0
370
    50
390
0
  6
ByBlock
 62
     1
100
AcDbCircle
 10
641.698887
 20
378.607365
 30
0.0
 40
3.0
100
AcDbArc
 50
314.906606
 51
359.906606
  0
LINE
  5
114
102
{ACAD_REACTORS
330
440
102
}
100
AcDbEntity
  8
LC-002-002-----0
370
    25
390
0
  6
DASHED
 62
     2
100
AcDbLine
 10
575.859081
 20
390.465193
 30
0.0
 11
562.759081
 21
390.465193
 31
0.0
  0
LINE
  5
115
102
{ACAD_REACTORS
330
440
102
}
100
AcDbEntity
  8
LC-002-002-----0
370
    25
390
0
  6
DASHED
 62
     2
100
AcDbLine
 10
575.859081
 20
385.265193
 30
0.0
 11
562.759081
 21
385.265193
 31
0.0
  0
LINE
  5
116
102
{ACAD_REACTORS
330
440
102
}
100
AcDbEntity
  8
LC-002-002-----0
370
    50
390
0
  6
ByBlock
 62
     1
100
AcDbLine
 10
575.859081
 20
447.367992
 30
0.0
 11
575.859081
 21
449.867992
 31
0.0
  0
LINE
  5
117
100
AcDbEntity
  8
LC-002-002-----0
370
    50
390
0
  6
ByBlock
 62
     1
100
AcDbLine
 10
639.688714
 20
372.367992
 30
0.0
 11
643.816747
 21
376.482589
 31
0.0
  0
LINE
  5
118
100
AcDbEntity
  8
LC-002-002-----0
370
    25
390
0
 62
     2
100
AcDbLine
 10
695.359081
 20
440.096127
 30
0.0
 11
695.359081
 21
378.12735
 31
0.0
  0
LINE
  5
119
100
AcDbEntity
  8
LC-002-002-----0
370
    50
390
0
  6
ByBlock
 62
     1
100
AcDbLine
 10
682.359081
 20
410.62735
 30
0.0
 11
708.359081
 21
410.62735
 31
0.0
  0
LINE
  5
11A
100
AcDbEntity
  8
LC-002-002-----0
370
    50
390
0
  6
ByBlock
 62
     1
100
AcDbLine
 10
710.859081
 20
393.62735
 30
0.0
 11
679.859081
 21
393.62735
 31
0.0
  0
LINE
  5
11B
100
AcDbEntity
  8
LC-002-002-----0
370
    50
390
0
  6
ByBlock
 62
     1
100
AcDbLine
 10
679.859081
 20
393.62735
 30
0.0
 11
679.859081
 21
408.12735
 31
0.0
  0
LINE
  5
11C
100
AcDbEntity
  8
LC-002-002-----0
370
    50
390
0
  6
ByBlock
 62
     1
100
AcDbLine
 10
710.859081
 20
408.12735
 30
0.0
 11
710.859081
 21
393.62735
 31
0.0
  0
LINE
  5
11D
100
AcDbEntity
  8
LC-002-002-----0
370
    50
390
0
  6
ByBlock
 62
     1
100
AcDbLine
 10
682.359081
 20
410.62735
 30
0.0
 11
679.859081
 21
408.12735
 31
0.0
  0
LINE
  5
11E
100
AcDbEntity
  8
LC-002-002-----0
370
    50
390
0
  6
ByBlock
 62
     1
100
AcDbLine
 10
708.359081
 20
410.62735
 30
0.0
 11
710.859081
 21
408.12735
 31
0.0
  0
LINE
  5
11F
100
AcDbEntity
  8
LC-002-002-----0
370
    50
390
0
  6
ByBlock
 62
     1
100
AcDbLine
 10
679.859081
 20
408.12735
 30
0.0
 11
710.859081
 21
408.12735
 31
0.0
  0
LINE
  5
120
100
AcDbEntity
  8
LC-002-002-----0
370
    50
390
0
  6
ByBlock
 62
     1
100
AcDbLine
 10
707.609081
 20
393.62735
 30
0.0
 11
707.609081
 21
391.12735
 31
0.0
  0
LINE
  5
121
102
{ACAD_REACTORS
330
438
102
}
100
AcDbEntity
  8
LC-002-002-----0
370
    50
390
0
  6
ByBlock
 62
     1
100
AcDbLine
 10
135.667654
 20
285.867992
 30
0.0
 11
132.875753
 21
285.867992
 31
0.0
  0
LINE
  5
122
102
{ACAD_REACTORS
330
438
102
}
100
AcDbEntity
  8
LC-002-002-----0
370
    50
390
0
  6
ByBlock
 62
     1
100
AcDbLine
 10
135.667654
 20
288.367992
 30
0.0
 11
135.667654
 21
285.867992
 31
0.0
  0
LINE
  5
123
102
{ACAD_REACTORS
330
438
102
}
100
AcDbEntity
  8
LC-002-002-----0
370
    50
390
0
  6
ByBlock
 62
     1
100
AcDbLine
 10
83.459555
 20
285.867992
 30
0.0
 11
80.667654
 21
285.867992
 31
0.0
  0
LINE
  5
124
102
{ACAD_REACTORS
330
438
102
}
100
AcDbEntity
  8
LC-002-002-----0
370
    50
390
0
  6
ByBlock
 62
     1
100
AcDbLine
 10
80.667654
 20
288.367992
 30
0.0
 11
80.667654
 21
285.867992
 31
0.0
  0
LINE
  5
125
102
{ACAD_REACTORS
330
440
102
}
100
AcDbEntity
  8
LC-002-002-----0
370
    50
390
0
  6
ByBlock
 62
     1
100
AcDbLine
 10
562.759081
 20
447.367992
 30
0.0
 11
575.859081
 21
447.367992
 31
0.0
  0
LINE
  5
126
102
{ACAD_REACTORS
330
438
102
}
100
AcDbEntity
  8
LC-002-002-----0
370
    50
390
0
  6
ByBlock
 62
     1
100
AcDbLine
 10
88.167654
 20
290.692548
 30
0.0
 11
88.167654
 21
341.367992
 31
0.0
  0
ARC
  5
127
102
{ACAD_REACTORS
330
438
102
}
100
AcDbEntity
  8
LC-001-002-RND-0
370
    50
390
0
 62
     1
100
AcDbCircle
 10
89.167654
 20
343.867992
 30
0.0
 40
2.5
100
AcDbArc
 50
180.0
 51
270.0
  0
LINE
  5
128
100
AcDbEntity
  8
LC-002-002-----0
370
    50
390
0
  6
ByBlock
 62
     1
100
AcDbLine
 10
707.609081
 20
391.12735
 30
0.0
 11
683.109081
 21
391.12735
 31
0.0
  0
LINE
  5
129
102
{ACAD_REACTORS
330
438
102
}
100
AcDbEntity
  8
LC-002-002-----0
370
    50
390
0
  6
ByBlock
 62
     1
100
AcDbLine
 10
85.18838
 20
234.367992
 30
0.0
 11
131.146928
 21
234.367992
 31
0.0
  0
ARC
  5
12A
102
{ACAD_REACTORS
330
438
102
}
100
AcDbEntity
  8
LC-001-002-RND-0
370
    50
390
0
 62
     1
100
AcDbCircle
 10
130.667654
 20
290.867992
 30
0.0
 40
2.5
100
AcDbArc
 50
180.0
 51
270.0
  0
ARC
  5
12B
102
{ACAD_REACTORS
330
438
102
}
100
AcDbEntity
  8
LC-001-002-RND-0
370
    50
390
0
 62
     1
100
AcDbCircle
 10
85.667654
 20
290.692548
 30
0.0
 40
2.5
100
AcDbArc
 50
283.342364
 51
0.0
  0
LINE
  5
12C
102
{ACAD_REACTORS
330
438
102
}
100
AcDbEntity
  8
LC-002-002-----0
370
    50
390
0
  6
ByBlock
 62
     1
100
AcDbLine
 10
133.167654
 20
237.867992
 30
0.0
 11
133.167654
 21
284.367992
 31
0.0
  0
LINE
  5
12D
102
{ACAD_REACTORS
330
438
102
}
100
AcDbEntity
  8
LC-002-002-----0
370
    50
390
0
  6
ByBlock
 62
     1
100
AcDbLine
 10
129.167654
 20
288.367992
 30
0.0
 11
80.667654
 21
288.367992
 31
0.0
  0
LINE
  5
12E
102
{ACAD_REACTORS
330
438
102
}
100
AcDbEntity
  8
LC-002-002-----0
370
    50
390
0
  6
ByBlock
 62
     1
100
AcDbLine
 10
126.667654
 20
422.367992
 30
0.0
 11
126.667654
 21
432.367992
 31
0.0
  0
LINE
  5
12F
100
AcDbEntity
  8
LC-002-002-----0
370
    50
390
0
  6
ByBlock
 62
     1
100
AcDbLine
 10
683.109081
 20
391.12735
 30
0.0
 11
683.109081
 21
393.62735
 31
0.0
  0
LINE
  5
130
102
{ACAD_REACTORS
330
438
102
}
100
AcDbEntity
  8
LC-002-002-----0
370
    50
390
0
  6
ByBlock
 62
     1
100
AcDbLine
 10
101.570807
 20
443.867992
 30
0.0
 11
94.626645
 21
443.867992
 31
0.0
  0
LINE
  5
131
100
AcDbEntity
  8
LC-002-002-----0
370
    50
390
0
  6
ByBlock
 62
     1
100
AcDbLine
 10
708.859081
 20
391.12735
 30
0.0
 11
708.859081
 21
386.12735
 31
0.0
  0
LINE
  5
132
102
{ACAD_REACTORS
330
438
102
}
100
AcDbEntity
  8
LC-002-002-----0
370
    50
390
0
  6
ByBlock
 62
     1
100
AcDbLine
 10
113.667654
 20
422.367992
 30
0.0
 11
113.667654
 21
432.367992
 31
0.0
  0
LINE
  5
133
100
AcDbEntity
  8
LC-002-002-----0
370
    50
390
0
  6
ByBlock
 62
     1
100
AcDbLine
 10
708.859081
 20
386.12735
 30
0.0
 11
681.859081
 21
386.12735
 31
0.0
  0
LINE
  5
134
100
AcDbEntity
  8
LC-002-002-----0
370
    50
390
0
  6
ByBlock
 62
     1
100
AcDbLine
 10
681.859081
 20
386.12735
 30
0.0
 11
681.859081
 21
391.12735
 31
0.0
  0
LINE
  5
135
100
AcDbEntity
  8
LC-002-002-----0
370
    50
390
0
  6
ByBlock
 62
     1
100
AcDbLine
 10
681.859081
 20
391.12735
 30
0.0
 11
683.109081
 21
391.12735
 31
0.0
  0
ARC
  5
136
102
{ACAD_REACTORS
330
438
102
}
100
AcDbEntity
  8
LC-001-002-RND-0
370
    50
390
0
 62
     1
100
AcDbCircle
 10
89.167654
 20
366.367992
 30
0.0
 40
2.5
100
AcDbArc
 50
169.082115
 51
180.0
  0
LINE
  5
137
102
{ACAD_REACTORS
330
438
102
}
100
AcDbEntity
  8
LC-002-002-----0
370
    50
390
0
  6
ByBlock
 62
     1
100
AcDbLine
 10
86.712905
 20
366.841497
 30
0.0
 11
95.784005
 21
413.867992
 31
0.0
  0
ARC
  5
138
102
{ACAD_REACTORS
330
438
102
}
100
AcDbEntity
  8
LC-001-002-RND-0
370
    50
390
0
 62
     1
100
AcDbCircle
 10
108.167654
 20
464.867992
 30
0.0
 40
2.5
100
AcDbArc
 50
90.0
 51
169.082115
  0
LINE
  5
139
102
{ACAD_REACTORS
330
438
102
}
100
AcDbEntity
  8
LC-002-002-----0
370
    50
390
0
  6
ByBlock
 62
     1
100
AcDbLine
 10
103.596188
 20
454.367992
 30
0.0
 11
105.712905
 21
465.341497
 31
0.0
  0
LINE
  5
13A
102
{ACAD_REACTORS
330
438
102
}
100
AcDbEntity
  8
LC-002-002-----0
370
    50
390
0
  6
ByBlock
 62
     1
100
AcDbLine
 10
113.667654
 20
422.367992
 30
0.0
 11
126.667654
 21
422.367992
 31
0.0
  0
LINE
  5
13B
100
AcDbEntity
  8
LC-002-002-----0
370
    50
390
0
  6
ByBlock
 62
     1
100
AcDbLine
 10
707.609081
 20
391.12735
 30
0.0
 11
708.859081
 21
391.12735
 31
0.0
  0
LINE
  5
13C
102
{ACAD_REACTORS
330
438
102
}
100
AcDbEntity
  8
LC-002-002-----0
370
    50
390
0
  6
ByBlock
 62
     1
100
AcDbLine
 10
113.667654
 20
432.367992
 30
0.0
 11
126.667654
 21
432.367992
 31
0.0
  0
ARC
  5
13D
100
AcDbEntity
  8
LC-002-002-----0
370
    50
390
0
  6
ByBlock
 62
     1
100
AcDbCircle
 10
684.031688
 20
388.62735
 30
0.0
 40
0.5
100
AcDbArc
 50
136.08159
 51
223.918258
  0
LINE
  5
13E
102
{ACAD_REACTORS
330
438
102
}
100
AcDbEntity
  8
LC-002-002-----0
370
    25
390
0
  6
DASHED
 62
     2
100
AcDbLine
 10
113.667654
 20
390.465193
 30
0.0
 11
126.767654
 21
390.465193
 31
0.0
  0
LINE
  5
13F
102
{ACAD_REACTORS
330
438
102
}
100
AcDbEntity
  8
LC-002-002-----0
370
    25
390
0
  6
DASHED
 62
     2
100
AcDbLine
 10
113.667654
 20
385.265193
 30
0.0
 11
126.767654
 21
385.265193
 31
0.0
  0
LINE
  5
140
102
{ACAD_REACTORS
330
438
102
}
100
AcDbEntity
  8
LC-002-002-----0
370
    50
390
0
  6
ByBlock
 62
     1
100
AcDbLine
 10
113.667654
 20
447.367992
 30
0.0
 11
113.667654
 21
449.867992
 31
0.0
  0
ARC
  5
141
102
{ACAD_REACTORS
330
440
102
}
100
AcDbEntity
  8
LC-001-002-RND-0
370
    50
390
0
 62
     1
100
AcDbCircle
 10
560.359081
 20
284.367992
 30
0.0
 40
4.0
100
AcDbArc
 50
90.0
 51
180.0
  0
ARC
  5
142
102
{ACAD_REACTORS
330
440
102
}
100
AcDbEntity
  8
LC-001-002-RND-0
370
    50
390
0
 62
     1
100
AcDbCircle
 10
602.359081
 20
284.367992
 30
0.0
 40
4.0
100
AcDbArc
 50
0.0
 51
76.657636
  0
LINE
  5
143
102
{ACAD_REACTORS
330
440
102
}
100
AcDbEntity
  8
LC-002-002-----0
370
    50
390
0
  6
ByBlock
 62
     1
100
AcDbLine
 10
556.859081
 20
340.367992
 30
0.0
 11
556.859081
 21
418.067992
 31
0.0
  0
LINE
  5
144
102
{ACAD_REACTORS
330
440
102
}
100
AcDbEntity
  8
LC-002-002-----0
370
    50
390
0
  6
ByBlock
 62
     1
100
AcDbLine
 10
556.859081
 20
454.367992
 30
0.0
 11
556.859081
 21
468.367992
 31
0.0
  0
ARC
  5
145
100
AcDbEntity
  8
LC-002-002-----0
370
    25
390
0
  6
DASHED
 62
     2
100
AcDbCircle
 10
34.158521
 20
399.083608
 30
0.0
 40
8.451553
100
AcDbArc
 50
8.690273
 51
78.599914
  0
ARC
  5
146
100
AcDbEntity
  8
LC-002-002-----0
370
    50
390
0
  6
ByBlock
 62
     1
100
AcDbCircle
 10
42.50984
 20
447.685027
 30
0.0
 40
6.690726
100
AcDbArc
 50
87.284886
 51
182.717845
  0
ARC
  5
147
100
AcDbEntity
  8
LC-002-002-----0
370
    50
390
0
  6
ByBlock
 62
     1
100
AcDbCircle
 10
42.512252
 20
407.051305
 30
0.0
 40
6.690726
100
AcDbArc
 50
177.288957
 51
272.721915
  0
ARC
  5
148
100
AcDbEntity
  8
LC-002-002-----0
370
    25
390
0
  6
DASHED
 62
     2
100
AcDbCircle
 10
34.155163
 20
455.651732
 30
0.0
 40
8.451553
100
AcDbArc
 50
281.406888
 51
351.316528
  0
LINE
  5
149
100
AcDbEntity
  8
LC-002-002-----0
370
    50
390
0
  6
ByBlock
 62
     1
100
AcDbLine
 10
43.826649
 20
452.290354
 30
0.0
 11
42.826784
 21
450.90855
 31
0.0
  0
LINE
  5
14A
100
AcDbEntity
  8
LC-002-002-----0
370
    50
390
0
  6
ByBlock
 62
     1
100
AcDbLine
 10
42.826779
 20
454.368242
 30
0.0
 11
43.826641
 21
454.072096
 31
0.0
  0
LINE
  5
14B
100
AcDbEntity
  8
LC-002-002-----0
370
    50
390
0
  6
ByBlock
 62
     1
100
AcDbLine
 10
43.827332
 20
421.57646
 30
0.0
 11
43.826645
 21
427.368496
 31
0.0
  0
LINE
  5
14C
100
AcDbEntity
  8
LC-002-002-----0
370
    50
390
0
  6
ByBlock
 62
     1
100
AcDbLine
 10
42.827503
 20
421.280195
 30
0.0
 11
43.827332
 21
421.57646
 31
0.0
  0
LINE
  5
14D
102
{ACAD_REACTORS
330
440
102
}
100
AcDbEntity
  8
LC-002-002-----0
370
    50
390
0
  6
ByBlock
 62
     1
100
AcDbLine
 10
558.359081
 20
339.367992
 30
0.0
 11
558.359081
 21
418.067992
 31
0.0
  0
LINE
  5
14E
102
{ACAD_REACTORS
330
440
102
}
100
AcDbEntity
  8
LC-002-002-----0
370
    50
390
0
  6
ByBlock
 62
     1
100
AcDbLine
 10
558.359081
 20
454.367992
 30
0.0
 11
558.359081
 21
469.367992
 31
0.0
  0
LINE
  5
14F
102
{ACAD_REACTORS
330
440
102
}
100
AcDbEntity
  8
LC-002-002-----0
370
    50
390
0
  6
ByBlock
 62
     1
100
AcDbLine
 10
554.859081
 20
343.367992
 30
0.0
 11
554.859081
 21
447.367992
 31
0.0
  0
LINE
  5
150
102
{ACAD_REACTORS
330
440
102
}
100
AcDbEntity
  8
LC-002-002-----0
370
    50
390
0
  6
ByBlock
 62
     1
100
AcDbLine
 10
554.859081
 20
447.367992
 30
0.0
 11
554.859081
 21
465.367992
 31
0.0
  0
LINE
  5
151
102
{ACAD_REACTORS
330
440
102
}
100
AcDbEntity
  8
LC-002-002-----0
370
    50
390
0
  6
ByBlock
 62
     1
100
AcDbLine
 10
585.930547
 20
454.367992
 30
0.0
 11
588.534608
 21
440.867992
 31
0.0
  0
ELLIPSE
  5
152
100
AcDbEntity
  8
LC-002-002-----0
370
    50
390
0
  6
ByBlock
 62
     1
100
AcDbEllipse
 10
39.326759
 20
427.367977
 30
0.0
 11
-0.0000264654725536
 21
5.9999999999461018
 31
0.0
210
0.0
220
0.0
230
1.0
 40
0.583333
 41
4.7123889803846897
 42
10.995574287564276
  0
ELLIPSE
  5
153
100
AcDbEntity
  8
LC-002-002-----0
370
    50
390
0
  6
ByBlock
 62
     1
100
AcDbEllipse
 10
39.321784
 20
414.376465
 30
0.0
 11
-0.003250440392494
 21
4.4999988260874169
 31
0.0
210
0.0
220
0.0
230
1.0
 40
0.777778
 41
4.7123889803846897
 42
10.995574287564276
  0
ELLIPSE
  5
154
100
AcDbEntity
  8
LC-002-002-----0
370
    50
390
0
  6
ByBlock
 62
     1
100
AcDbEllipse
 10
39.320242
 20
440.359488
 30
0.0
 11
0.0027162420059251
 21
4.4999991802388219
 31
0.0
210
0.0
220
0.0
230
1.0
 40
0.777778
 41
4.7123889803846897
 42
10.995574287564276
  0
LINE
  5
155
102
{ACAD_REACTORS
330
438
102
}
100
AcDbEntity
  8
LC-002-002-----0
370
    50
390
0
  6
ByBlock
 62
     1
100
AcDbLine
 10
126.667654
 20
432.367992
 30
0.0
 11
126.667654
 21
422.367992
 31
0.0
  0
LINE
  5
156
102
{ACAD_REACTORS
330
438
102
}
100
AcDbEntity
  8
LC-002-002-----0
370
    50
390
0
  6
ByBlock
 62
     1
100
AcDbLine
 10
126.767654
 20
447.367992
 30
0.0
 11
113.667654
 21
447.367992
 31
0.0
  0
LINE
  5
157
102
{ACAD_REACTORS
330
440
102
}
100
AcDbEntity
  8
LC-002-002-----0
370
    50
390
0
  6
ByBlock
 62
     1
100
AcDbLine
 10
562.759081
 20
449.867992
 30
0.0
 11
575.859081
 21
449.867992
 31
0.0
  0
LINE
  5
158
102
{ACAD_REACTORS
330
440
102
}
100
AcDbEntity
  8
LC-002-002-----0
370
    50
390
0
  6
ByBlock
 62
     1
100
AcDbLine
 10
559.859081
 20
340.367992
 30
0.0
 11
559.859081
 21
415.297278
 31
0.0
  0
ARC
  5
159
100
AcDbEntity
  8
LC-002-002-----0
370
    50
390
0
  6
ByBlock
 62
     1
100
AcDbCircle
 10
688.734081
 20
384.099225
 30
0.0
 40
7.028125
100
AcDbArc
 50
43.91841
 51
136.081571
  0
LINE
  5
15A
102
{ACAD_REACTORS
330
440
102
}
100
AcDbEntity
  8
LC-002-002-----0
370
    50
390
0
  6
ByBlock
 62
     1
100
AcDbLine
 10
559.859081
 20
454.367992
 30
0.0
 11
559.859081
 21
468.367992
 31
0.0
  0
ARC
  5
15B
100
AcDbEntity
  8
LC-002-002-----0
370
    50
390
0
  6
ByBlock
 62
     1
100
AcDbCircle
 10
693.436474
 20
388.62735
 30
0.0
 40
0.5
100
AcDbArc
 50
316.081648
 51
43.91841
  0
ARC
  5
15C
100
AcDbEntity
  8
LC-002-002-----0
370
    50
390
0
  6
ByBlock
 62
     1
100
AcDbCircle
 10
688.734081
 20
393.155475
 30
0.0
 40
7.028125
100
AcDbArc
 50
223.918258
 51
316.08159
  0
ARC
  5
15D
100
AcDbEntity
  8
LC-002-002-----0
370
    50
390
0
  6
ByBlock
 62
     1
100
AcDbCircle
 10
697.281688
 20
388.62735
 30
0.0
 40
0.5
100
AcDbArc
 50
136.08159
 51
223.918258
  0
ARC
  5
15E
100
AcDbEntity
  8
LC-002-002-----0
370
    50
390
0
  6
ByBlock
 62
     1
100
AcDbCircle
 10
701.984081
 20
384.099225
 30
0.0
 40
7.028125
100
AcDbArc
 50
43.91841
 51
136.081571
  0
ARC
  5
15F
100
AcDbEntity
  8
LC-002-002-----0
370
    50
390
0
  6
ByBlock
 62
     1
100
AcDbCircle
 10
706.686474
 20
388.62735
 30
0.0
 40
0.5
100
AcDbArc
 50
316.081648
 51
43.91841
  0
ARC
  5
160
100
AcDbEntity
  8
LC-002-002-----0
370
    50
390
0
  6
ByBlock
 62
     1
100
AcDbCircle
 10
701.984081
 20
393.155475
 30
0.0
 40
7.028125
100
AcDbArc
 50
223.918258
 51
316.08159
  0
LINE
  5
162
100
AcDbEntity
  8
LC-006-001-----0
370
    25
390
0
 62
     2
100
AcDbLine
 10
708.859081
 20
388.62735
 30
0.0
 11
681.859081
 21
388.62735
 31
0.0
  0
ARC
  5
163
100
AcDbEntity
  8
LC-002-002-----0
370
    50
390
0
  6
ByBlock
 62
     1
100
AcDbCircle
 10
680.525748
 20
388.62735
 30
0.0
 40
2.833333
100
AcDbArc
 50
298.072604
 51
61.927571
  0
ARC
  5
164
100
AcDbEntity
  8
LC-002-002-----0
370
    50
390
0
  6
ByBlock
 62
     1
100
AcDbCircle
 10
710.192414
 20
388.62735
 30
0.0
 40
2.833333
100
AcDbArc
 50
118.072449
 51
241.92719
  0
LINE
  5
165
100
AcDbEntity
  8
LC-002-002-----0
370
    50
390
0
  6
ByBlock
 62
     1
100
AcDbLine
 10
707.859081
 20
386.12735
 30
0.0
 11
707.859081
 21
378.921035
 31
0.0
  0
LINE
  5
166
100
AcDbEntity
  8
LC-002-002-----0
370
    50
390
0
  6
ByBlock
 62
     1
100
AcDbLine
 10
682.859081
 20
383.62735
 30
0.0
 11
682.859081
 21
386.12735
 31
0.0
  0
LINE
  5
167
100
AcDbEntity
  8
LC-002-002-----0
370
    50
390
0
  6
ByBlock
 62
     1
100
AcDbLine
 10
693.609081
 20
456.37735
 30
0.0
 11
711.640304
 21
438.346127
 31
0.0
  0
LINE
  5
168
100
AcDbEntity
  8
LC-002-002-----0
370
    25
390
0
 62
     2
100
AcDbLine
 10
730.201857
 20
474.938903
 30
0.0
 11
695.359081
 21
440.096127
 31
0.0
  0
LINE
  5
169
100
AcDbEntity
  8
LC-002-002-----0
370
    25
390
0
  6
ByBlock
 62
     2
100
AcDbLine
 10
682.359081
 20
414.62735
 30
0.0
 11
695.359081
 21
427.37735
 31
0.0
  0
LINE
  5
16A
100
AcDbEntity
  8
LC-002-002-----0
370
    25
390
0
  6
ByBlock
 62
     2
100
AcDbLine
 10
677.359081
 20
440.12735
 30
0.0
 11
677.359081
 21
427.37735
 31
0.0
  0
LINE
  5
16B
100
AcDbEntity
  8
LC-002-002-----0
370
    50
390
0
  6
ByBlock
 62
     1
100
AcDbLine
 10
675.288013
 20
440.12735
 30
0.0
 11
657.359081
 21
440.12735
 31
0.0
  0
ARC
  5
16C
100
AcDbEntity
  8
LC-002-002-----0
370
    50
390
0
  6
ByBlock
 62
     1
100
AcDbCircle
 10
675.288013
 20
445.12735
 30
0.0
 40
5.0
100
AcDbArc
 50
270.0
 51
315.000058
  0
LINE
  5
16D
100
AcDbEntity
  8
LC-002-002-----0
370
    50
390
0
  6
ByBlock
 62
     1
100
AcDbLine
 10
678.823547
 20
441.591816
 30
0.0
 11
693.609081
 21
456.37735
 31
0.0
  0
LINE
  5
16E
100
AcDbEntity
  8
LC-002-002-----0
370
    50
390
0
  6
ByBlock
 62
     1
100
AcDbLine
 10
711.640304
 20
438.346127
 30
0.0
 11
709.823547
 21
436.529371
 31
0.0
  0
ARC
  5
16F
100
AcDbEntity
  8
LC-002-002-----0
370
    50
390
0
  6
ByBlock
 62
     1
100
AcDbCircle
 10
713.359081
 20
432.993837
 30
0.0
 40
5.0
100
AcDbArc
 50
135.0
 51
179.999848
  0
LINE
  5
170
100
AcDbEntity
  8
LC-002-002-----0
370
    50
390
0
  6
ByBlock
 62
     1
100
AcDbLine
 10
708.359081
 20
410.62735
 30
0.0
 11
708.359081
 21
432.993837
 31
0.0
  0
LINE
  5
171
100
AcDbEntity
  8
LC-002-002-----0
370
    50
390
0
  6
ByBlock
 62
     1
100
AcDbLine
 10
657.359081
 20
414.62735
 30
0.0
 11
680.859081
 21
414.62735
 31
0.0
  0
ARC
  5
172
100
AcDbEntity
  8
LC-002-002-----0
370
    50
390
0
  6
ByBlock
 62
     1
100
AcDbCircle
 10
680.859081
 20
413.12735
 30
0.0
 40
1.5
100
AcDbArc
 50
0.0
 51
90.0
  0
LINE
  5
173
100
AcDbEntity
  8
LC-002-002-----0
370
    50
390
0
  6
ByBlock
 62
     1
100
AcDbLine
 10
682.359081
 20
413.12735
 30
0.0
 11
682.359081
 21
410.62735
 31
0.0
  0
LINE
  5
174
100
AcDbEntity
  8
LC-002-002-----0
370
    50
390
0
  6
ByBlock
 62
     1
100
AcDbLine
 10
692.018091
 20
457.968341
 30
0.0
 11
693.609081
 21
456.37735
 31
0.0
  0
LINE
  5
175
100
AcDbEntity
  8
LC-002-002-----0
370
    25
390
0
  6
ByBlock
 62
     2
100
AcDbLine
 10
20.825445
 20
441.243717
 30
0.0
 11
20.825445
 21
435.243717
 31
0.0
  0
LINE
  5
176
100
AcDbEntity
  8
LC-002-002-----0
370
    50
390
0
  6
ByBlock
 62
     1
100
AcDbLine
 10
42.82678
 20
453.456174
 30
0.0
 11
43.826645
 21
453.160028
 31
0.0
  0
LINE
  5
177
100
AcDbEntity
  8
LC-002-002-----0
370
    50
390
0
  6
ByBlock
 62
     1
100
AcDbLine
 10
713.231294
 20
436.755137
 30
0.0
 11
711.640304
 21
438.346127
 31
0.0
  0
LINE
  5
178
100
AcDbEntity
  8
LC-002-002-----0
370
    50
390
0
  6
ByBlock
 62
     1
100
AcDbLine
 10
706.160226
 20
472.110476
 30
0.0
 11
727.37343
 21
450.897273
 31
0.0
  0
LINE
  5
179
100
AcDbEntity
  8
LC-002-002-----0
370
    50
390
0
  6
ByBlock
 62
     1
100
AcDbLine
 10
727.37343
 20
450.897273
 30
0.0
 11
713.231294
 21
436.755137
 31
0.0
  0
LINE
  5
17A
100
AcDbEntity
  8
LC-002-002-----0
370
    50
390
0
  6
ByBlock
 62
     1
100
AcDbLine
 10
42.826779
 20
454.368242
 30
0.0
 11
42.826863
 21
400.368242
 31
0.0
  0
LINE
  5
17B
100
AcDbEntity
  8
LC-002-002-----0
370
    50
390
0
  6
ByBlock
 62
     1
100
AcDbLine
 10
706.160226
 20
472.110476
 30
0.0
 11
692.018091
 21
457.968341
 31
0.0
  0
LINE
  5
17C
100
AcDbEntity
  8
LC-002-002-----0
370
    50
390
0
  6
ByBlock
 62
     1
100
AcDbLine
 10
715.352614
 20
481.302864
 30
0.0
 11
736.565818
 21
460.089661
 31
0.0
  0
LINE
  5
17D
102
{ACAD_REACTORS
330
440
102
}
100
AcDbEntity
  8
LC-002-002-----0
370
    50
390
0
  6
ByBlock
 62
     1
100
AcDbLine
 10
553.859081
 20
288.367992
 30
0.0
 11
558.859081
 21
288.367992
 31
0.0
  0
LINE
  5
17E
102
{ACAD_REACTORS
330
440
102
}
100
AcDbEntity
  8
LC-002-002-----0
370
    50
390
0
  6
ByBlock
 62
     1
100
AcDbLine
 10
606.359081
 20
284.367992
 30
0.0
 11
606.359081
 21
237.867992
 31
0.0
  0
ARC
  5
17F
102
{ACAD_REACTORS
330
445
102
}
100
AcDbEntity
  8
LC-002-002-----0
370
    25
390
0
  6
DASHED
 62
     2
100
AcDbCircle
 10
98.059509
 20
256.255831
 30
0.0
 40
4.5
100
AcDbArc
 50
278.327207
 51
278.714603
  0
LINE
  5
180
102
{ACAD_REACTORS
330
440
102
}
100
AcDbEntity
  8
LC-002-002-----0
370
    50
390
0
  6
ByBlock
 62
     1
100
AcDbLine
 10
561.359081
 20
341.367992
 30
0.0
 11
561.359081
 21
290.867992
 31
0.0
  0
LINE
  5
181
102
{ACAD_REACTORS
330
440
102
}
100
AcDbEntity
  8
LC-002-002-----0
370
    50
390
0
  6
ByBlock
 62
     1
100
AcDbLine
 10
602.859081
 20
343.867992
 30
0.0
 11
602.859081
 21
366.367992
 31
0.0
  0
LINE
  5
182
102
{ACAD_REACTORS
330
440
102
}
100
AcDbEntity
  8
LC-006-001-----0
370
    50
390
0
  6
ByBlock
 62
     1
100
AcDbLine
 10
606.359081
 20
237.867992
 30
0.0
 11
556.359081
 21
237.867992
 31
0.0
  0
LINE
  5
183
102
{ACAD_REACTORS
330
440
102
}
100
AcDbEntity
  8
LC-002-002-----0
370
    50
390
0
  6
ByBlock
 62
     1
100
AcDbLine
 10
556.359081
 20
237.867992
 30
0.0
 11
558.379807
 21
234.367992
 31
0.0
  0
LINE
  5
184
102
{ACAD_REACTORS
330
440
102
}
100
AcDbEntity
  8
LC-002-002-----0
370
    50
390
0
  6
ByBlock
 62
     1
100
AcDbLine
 10
606.359081
 20
237.867992
 30
0.0
 11
604.338355
 21
234.367992
 31
0.0
  0
LINE
  5
185
102
{ACAD_REACTORS
330
440
102
}
100
AcDbEntity
  8
LC-002-002-----0
370
    25
390
0
 62
     2
100
AcDbLine
 10
581.359081
 20
341.367992
 30
0.0
 11
581.359081
 21
234.367992
 31
0.0
  0
LINE
  5
186
102
{ACAD_REACTORS
330
440
102
}
100
AcDbEntity
  8
LC-002-002-----0
370
    50
390
0
  6
ByBlock
 62
     1
100
AcDbLine
 10
562.359081
 20
341.367992
 30
0.0
 11
559.859081
 21
341.367992
 31
0.0
  0
ARC
  5
187
102
{ACAD_REACTORS
330
440
102
}
100
AcDbEntity
  8
LC-001-002-RND-0
370
    50
390
0
 62
     1
100
AcDbCircle
 10
558.859081
 20
340.367992
 30
0.0
 40
1.0
100
AcDbArc
 50
270.0
 51
0.0
  0
LINE
  5
188
102
{ACAD_REACTORS
330
440
102
}
100
AcDbEntity
  8
LC-002-002-----0
370
    50
390
0
  6
ByBlock
 62
     1
100
AcDbLine
 10
557.859081
 20
339.367992
 30
0.0
 11
558.859081
 21
339.367992
 31
0.0
  0
ARC
  5
189
102
{ACAD_REACTORS
330
440
102
}
100
AcDbEntity
  8
LC-001-002-RND-0
370
    50
390
0
 62
     1
100
AcDbCircle
 10
557.859081
 20
340.367992
 30
0.0
 40
1.0
100
AcDbArc
 50
180.0
 51
270.0
  0
ARC
  5
18A
102
{ACAD_REACTORS
330
440
102
}
100
AcDbEntity
  8
LC-001-002-RND-0
370
    50
390
0
 62
     1
100
AcDbCircle
 10
557.859081
 20
468.367992
 30
0.0
 40
1.0
100
AcDbArc
 50
90.0
 51
180.0
  0
ARC
  5
18B
102
{ACAD_REACTORS
330
440
102
}
100
AcDbEntity
  8
LC-001-002-RND-0
370
    50
390
0
 62
     1
100
AcDbCircle
 10
558.859081
 20
468.367992
 30
0.0
 40
1.0
100
AcDbArc
 50
0.0
 51
90.0
  0
LINE
  5
18C
102
{ACAD_REACTORS
330
440
102
}
100
AcDbEntity
  8
LC-002-002-----0
370
    50
390
0
  6
ByBlock
 62
     1
100
AcDbLine
 10
558.859081
 20
469.367992
 30
0.0
 11
557.859081
 21
469.367992
 31
0.0
  0
LINE
  5
18D
102
{ACAD_REACTORS
330
440
102
}
100
AcDbEntity
  8
LC-002-002-----0
370
    50
390
0
  6
ByBlock
 62
     1
100
AcDbLine
 10
562.359081
 20
341.367992
 30
0.0
 11
600.359081
 21
341.367992
 31
0.0
  0
LINE
  5
18E
102
{ACAD_REACTORS
330
440
102
}
100
AcDbEntity
  8
LC-002-002-----0
370
    50
390
0
  6
ByBlock
 62
     1
100
AcDbLine
 10
559.859081
 20
467.367992
 30
0.0
 11
581.359081
 21
467.367992
 31
0.0
  0
LINE
  5
18F
100
AcDbEntity
  8
LC-002-002-----0
370
    25
390
0
 62
     2
100
AcDbLine
 10
542.859081
 20
414.867992
 30
0.0
 11
556.375225
 21
414.867992
 31
0.0
  0
LINE
  5
192
100
AcDbEntity
  8
LC-007-006-MLN-0
370
    25
390
0
 62
     2
100
AcDbLine
 10
298.458034
 20
426.327992
 30
0.0
 11
298.458034
 21
368.117992
 31
0.0
  0
LINE
  5
193
100
AcDbEntity
  8
LC-002-002-----0
370
    50
390
0
  6
ByBlock
 62
     1
100
AcDbLine
 10
42.82678
 20
448.956174
 30
0.0
 11
43.826645
 21
448.660028
 31
0.0
  0
LINE
  5
194
100
AcDbEntity
  8
LC-002-002-----0
370
    25
390
0
 62
     2
100
AcDbLine
 10
542.859081
 20
439.867992
 30
0.0
 11
555.810885
 21
439.867992
 31
0.0
  0
LINE
  5
195
100
AcDbEntity
  8
LC-002-002-----0
370
    50
390
0
  6
ByBlock
 62
     1
100
AcDbLine
 10
545.859081
 20
484.867992
 30
0.0
 11
553.859081
 21
484.867992
 31
0.0
  0
LINE
  5
196
100
AcDbEntity
  8
LC-002-002-----0
370
    25
390
0
 62
     2
100
AcDbLine
 10
0.824493
 20
427.366154
 30
0.0
 11
0.82446
 21
377.369266
 31
0.0
  0
LINE
  5
197
100
AcDbEntity
  8
LC-002-002-----0
370
    50
390
0
  6
ByBlock
 62
     1
100
AcDbLine
 10
543.859081
 20
478.653955
 30
0.0
 11
545.859081
 21
478.653955
 31
0.0
  0
ARC
  5
198
102
{ACAD_REACTORS
330
440
102
}
100
AcDbEntity
  8
LC-001-002-RND-0
370
    50
390
0
 62
     1
100
AcDbCircle
 10
556.859081
 20
343.367992
 30
0.0
 40
2.0
100
AcDbArc
 50
180.0
 51
270.0
  0
ARC
  5
199
102
{ACAD_REACTORS
330
440
102
}
100
AcDbEntity
  8
LC-001-002-RND-0
370
    50
390
0
 62
     1
100
AcDbCircle
 10
556.859081
 20
465.367992
 30
0.0
 40
2.0
100
AcDbArc
 50
90.0
 51
180.0
  0
LINE
  5
19A
102
{ACAD_REACTORS
330
440
102
}
100
AcDbEntity
  8
LC-002-002-----0
370
    50
390
0
  6
ByBlock
 62
     1
100
AcDbLine
 10
562.759081
 20
447.367992
 30
0.0
 11
562.759081
 21
449.867992
 31
0.0
  0
LINE
  5
19B
100
AcDbEntity
  8
LC-002-002-----0
370
    50
390
0
  6
ByBlock
 62
     1
100
AcDbLine
 10
10.824485
 20
415.369259
 30
0.0
 11
0.824493
 21
427.366154
 31
0.0
  0
LINE
  5
19C
102
{ACAD_REACTORS
330
440
102
}
100
AcDbEntity
  8
LC-002-002-----0
370
    50
390
0
  6
ByBlock
 62
     1
100
AcDbLine
 10
562.759081
 20
404.367992
 30
0.0
 11
575.859081
 21
404.367992
 31
0.0
  0
LINE
  5
19D
102
{ACAD_REACTORS
330
440
102
}
100
AcDbEntity
  8
LC-002-002-----0
370
    50
390
0
  6
ByBlock
 62
     1
100
AcDbLine
 10
562.759081
 20
406.867992
 30
0.0
 11
575.859081
 21
406.867992
 31
0.0
  0
LINE
  5
19E
100
AcDbEntity
  8
LC-007-006-MLN-0
370
    25
390
0
 62
     2
100
AcDbLine
 10
298.458034
 20
494.505177
 30
0.0
 11
298.458034
 21
408.195462
 31
0.0
  0
LINE
  5
19F
102
{ACAD_REACTORS
330
440
102
}
100
AcDbEntity
  8
LC-002-002-----0
370
    50
390
0
  6
ByBlock
 62
     1
100
AcDbLine
 10
575.859081
 20
404.367992
 30
0.0
 11
575.859081
 21
406.867992
 31
0.0
  0
LINE
  5
1A0
102
{ACAD_REACTORS
330
440
102
}
100
AcDbEntity
  8
LC-002-002-----0
370
    50
390
0
  6
ByBlock
 62
     1
100
AcDbLine
 10
562.759081
 20
404.367992
 30
0.0
 11
562.759081
 21
406.867992
 31
0.0
  0
LINE
  5
1A1
102
{ACAD_REACTORS
330
440
102
}
100
AcDbEntity
  8
LC-002-002-----0
370
    50
390
0
  6
ByBlock
 62
     1
100
AcDbLine
 10
562.759081
 20
382.865193
 30
0.0
 11
562.759081
 21
392.865193
 31
0.0
  0
LINE
  5
1A2
102
{ACAD_REACTORS
330
440
102
}
100
AcDbEntity
  8
LC-002-002-----0
370
    50
390
0
  6
ByBlock
 62
     1
100
AcDbLine
 10
575.859081
 20
382.865193
 30
0.0
 11
562.759081
 21
382.865193
 31
0.0
  0
LINE
  5
1A3
102
{ACAD_REACTORS
330
440
102
}
100
AcDbEntity
  8
LC-002-002-----0
370
    50
390
0
  6
ByBlock
 62
     1
100
AcDbLine
 10
575.859081
 20
382.865193
 30
0.0
 11
575.859081
 21
392.865193
 31
0.0
  0
ARC
  5
1A4
102
{ACAD_REACTORS
330
43B
102
}
100
AcDbEntity
  8
LC-002-002-----0
370
    25
390
0
  6
DASHED
 62
     2
100
AcDbCircle
 10
378.458034
 20
427.367992
 30
0.0
 40
42.0
100
AcDbArc
 50
359.831098
 51
26.765501
  0
LINE
  5
1A5
102
{ACAD_REACTORS
330
440
102
}
100
AcDbEntity
  8
LC-002-002-----0
370
    50
390
0
  6
ByBlock
 62
     1
100
AcDbLine
 10
575.859081
 20
392.865193
 30
0.0
 11
562.759081
 21
392.865193
 31
0.0
  0
LINE
  5
1A6
102
{ACAD_REACTORS
330
440
102
}
100
AcDbEntity
  8
LC-002-002-----0
370
    25
390
0
 62
     2
100
AcDbLine
 10
578.366375
 20
387.865193
 30
0.0
 11
561.623901
 21
387.865193
 31
0.0
  0
LINE
  5
1A7
100
AcDbEntity
  8
LC-002-002-----0
370
    50
390
0
  6
ByBlock
 62
     1
100
AcDbLine
 10
736.565818
 20
455.84702
 30
0.0
 11
731.61607
 21
450.897273
 31
0.0
  0
LINE
  5
1A8
100
AcDbEntity
  8
LC-002-002-----0
370
    50
390
0
  6
ByBlock
 62
     1
100
AcDbLine
 10
711.109974
 20
481.302864
 30
0.0
 11
706.160226
 21
476.353117
 31
0.0
  0
ARC
  5
1A9
100
AcDbEntity
  8
LC-001-002-RND-0
370
    50
390
0
 62
     1
100
AcDbCircle
 10
713.231294
 20
479.181544
 30
0.0
 40
3.0
100
AcDbArc
 50
45.0
 51
135.0
  0
ARC
  5
1AA
100
AcDbEntity
  8
LC-001-002-RND-0
370
    50
390
0
 62
     1
100
AcDbCircle
 10
708.281547
 20
474.231797
 30
0.0
 40
3.0
100
AcDbArc
 50
135.0
 51
225.0
  0
ARC
  5
1AB
100
AcDbEntity
  8
LC-001-002-RND-0
370
    50
390
0
 62
     1
100
AcDbCircle
 10
729.49475
 20
453.018593
 30
0.0
 40
3.0
100
AcDbArc
 50
225.0
 51
315.0
  0
ARC
  5
1AC
100
AcDbEntity
  8
LC-001-002-RND-0
370
    50
390
0
 62
     1
100
AcDbCircle
 10
734.444497
 20
457.968341
 30
0.0
 40
3.0
100
AcDbArc
 50
315.0
 51
45.0
  0
LINE
  5
1AD
100
AcDbEntity
  8
LC-002-002-----0
370
    50
390
0
  6
ByBlock
 62
     1
100
AcDbLine
 10
728.43409
 20
463.978748
 30
0.0
 11
723.484342
 21
459.029001
 31
0.0
  0
LINE
  5
1AE
100
AcDbEntity
  8
LC-002-002-----0
370
    50
390
0
  6
ByBlock
 62
     1
100
AcDbLine
 10
719.241702
 20
473.171136
 30
0.0
 11
714.291954
 21
468.221389
 31
0.0
  0
LINE
  5
1AF
100
AcDbEntity
  8
LC-002-002-----0
370
    50
390
0
  6
ByBlock
 62
     1
100
AcDbLine
 10
545.859081
 20
453.367992
 30
0.0
 11
545.859081
 21
401.367992
 31
0.0
  0
LINE
  5
1B0
100
AcDbEntity
  8
LC-002-002-----0
370
    50
390
0
  6
ByBlock
 62
     1
100
AcDbLine
 10
543.859081
 20
453.367992
 30
0.0
 11
545.859081
 21
453.367992
 31
0.0
  0
LINE
  5
1B1
100
AcDbEntity
  8
LC-002-002-----0
370
    50
390
0
  6
ByBlock
 62
     1
100
AcDbLine
 10
543.859081
 20
401.367992
 30
0.0
 11
545.859081
 21
401.367992
 31
0.0
  0
LINE
  5
1B2
100
AcDbEntity
  8
LC-002-002-----0
370
    50
390
0
  6
ByBlock
 62
     1
100
AcDbLine
 10
543.859081
 20
376.082029
 30
0.0
 11
545.859081
 21
376.082029
 31
0.0
  0
LINE
  5
1B3
100
AcDbEntity
  8
LC-002-002-----0
370
    50
390
0
  6
ByBlock
 62
     1
100
AcDbLine
 10
543.859081
 20
401.367992
 30
0.0
 11
543.859081
 21
376.082029
 31
0.0
  0
LINE
  5
1B4
100
AcDbEntity
  8
LC-002-002-----0
370
    50
390
0
  6
ByBlock
 62
     1
100
AcDbLine
 10
545.859081
 20
378.901509
 30
0.0
 11
545.859081
 21
369.867992
 31
0.0
  0
LINE
  5
1B5
100
AcDbEntity
  8
LC-002-002-----0
370
    50
390
0
  6
ByBlock
 62
     1
100
AcDbLine
 10
545.859081
 20
369.867992
 30
0.0
 11
553.859081
 21
369.867992
 31
0.0
  0
ARC
  5
1B6
100
AcDbEntity
  8
LC-001-002-RND-0
370
    50
390
0
 62
     1
100
AcDbCircle
 10
553.859081
 20
483.867992
 30
0.0
 40
1.0
100
AcDbArc
 50
0.0
 51
90.0
  0
LINE
  5
1B7
100
AcDbEntity
  8
LC-002-002-----0
370
    50
390
0
  6
ByBlock
 62
     1
100
AcDbLine
 10
545.859081
 20
453.367992
 30
0.0
 11
545.859081
 21
475.772006
 31
0.0
  0
LINE
  5
1B8
100
AcDbEntity
  8
LC-002-002-----0
370
    50
390
0
  6
ByBlock
 62
     1
100
AcDbLine
 10
545.859081
 20
384.867992
 30
0.0
 11
545.859081
 21
378.867992
 31
0.0
  0
LINE
  5
1B9
100
AcDbEntity
  8
LC-002-002-----0
370
    50
390
0
  6
ByBlock
 62
     1
100
AcDbLine
 10
545.859081
 20
384.867992
 30
0.0
 11
545.859081
 21
401.367992
 31
0.0
  0
LINE
  5
1BA
102
{ACAD_REACTORS
330
43B
102
}
100
AcDbEntity
  8
LC-002-002-----0
370
    50
390
0
  6
ByBlock
 62
     1
100
AcDbLine
 10
410.084332
 20
343.758646
 30
0.0
 11
413.639194
 21
372.367992
 31
0.0
  0
LINE
  5
1BB
100
AcDbEntity
  8
LC-002-002-----0
370
    25
390
0
  6
ByBlock
 62
     2
100
AcDbLine
 10
20.82544
 20
430.367342
 30
0.0
 11
34.824495
 21
430.368172
 31
0.0
  0
ARC
  5
1BC
102
{ACAD_REACTORS
330
43B
102
}
100
AcDbEntity
  8
LC-002-002-----0
370
    50
390
0
  6
ByBlock
 62
     1
100
AcDbCircle
 10
405.121601
 20
344.367992
 30
0.0
 40
5.0
100
AcDbArc
 50
270.0
 51
353.0
  0
ARC
  5
1BD
102
{ACAD_REACTORS
330
43B
102
}
100
AcDbEntity
  8
LC-002-002-----0
370
    50
390
0
  6
ByBlock
 62
     1
100
AcDbCircle
 10
349.476512
 20
349.367992
 30
0.0
 40
10.0
100
AcDbArc
 50
182.183915
 51
270.0
  0
LINE
  5
1BE
100
AcDbEntity
  8
LC-002-002-----0
370
    25
390
0
  6
ByBlock
 62
     2
100
AcDbLine
 10
20.825796
 20
424.367342
 30
0.0
 11
34.824491
 21
424.368172
 31
0.0
  0
LINE
  5
1BF
102
{ACAD_REACTORS
330
43B
102
}
100
AcDbEntity
  8
LC-002-002-----0
370
    50
390
0
  6
ByBlock
 62
     1
100
AcDbLine
 10
403.458034
 20
237.867992
 30
0.0
 11
402.520211
 21
234.367992
 31
0.0
  0
LINE
  5
1C0
102
{ACAD_REACTORS
330
43B
102
}
100
AcDbEntity
  8
LC-002-002-----0
370
    50
390
0
  6
ByBlock
 62
     1
100
AcDbLine
 10
353.458034
 20
237.867992
 30
0.0
 11
354.395856
 21
234.367992
 31
0.0
  0
ARC
  5
1C1
100
AcDbEntity
  8
LC-001-002-RND-0
370
    50
390
0
 62
     1
100
AcDbCircle
 10
553.859081
 20
370.867992
 30
0.0
 40
1.0
100
AcDbArc
 50
270.0
 51
0.0
  0
LINE
  5
1C2
100
AcDbEntity
  8
LC-002-002-----0
370
    50
390
0
  6
ByBlock
 62
     1
100
AcDbLine
 10
545.859081
 20
452.367992
 30
0.0
 11
542.859081
 21
452.367992
 31
0.0
  0
LINE
  5
1C3
100
AcDbEntity
  8
LC-002-002-----0
370
    50
390
0
  6
ByBlock
 62
     1
100
AcDbLine
 10
542.859081
 20
452.367992
 30
0.0
 11
542.859081
 21
402.367992
 31
0.0
  0
LINE
  5
1C4
100
AcDbEntity
  8
LC-002-002-----0
370
    50
390
0
  6
ByBlock
 62
     1
100
AcDbLine
 10
542.859081
 20
402.367992
 30
0.0
 11
545.859081
 21
402.367992
 31
0.0
  0
ARC
  5
1C5
102
{ACAD_REACTORS
330
438
102
}
100
AcDbEntity
  8
LC-001-002-RND-0
370
    50
390
0
 62
     1
100
AcDbCircle
 10
129.167654
 20
284.367992
 30
0.0
 40
4.0
100
AcDbArc
 50
0.0
 51
90.0
  0
ARC
  5
1C6
102
{ACAD_REACTORS
330
438
102
}
100
AcDbEntity
  8
LC-001-002-RND-0
370
    50
390
0
 62
     1
100
AcDbCircle
 10
87.167654
 20
284.367992
 30
0.0
 40
4.0
100
AcDbArc
 50
103.342364
 51
180.0
  0
LINE
  5
1C7
102
{ACAD_REACTORS
330
438
102
}
100
AcDbEntity
  8
LC-002-002-----0
370
    50
390
0
  6
ByBlock
 62
     1
100
AcDbLine
 10
132.667654
 20
340.367992
 30
0.0
 11
132.667654
 21
425.267992
 31
0.0
  0
LINE
  5
1C8
102
{ACAD_REACTORS
330
438
102
}
100
AcDbEntity
  8
LC-002-002-----0
370
    50
390
0
  6
ByBlock
 62
     1
100
AcDbLine
 10
132.667654
 20
447.367992
 30
0.0
 11
132.667654
 21
468.367992
 31
0.0
  0
LINE
  5
1C9
102
{ACAD_REACTORS
330
438
102
}
100
AcDbEntity
  8
LC-002-002-----0
370
    50
390
0
  6
ByBlock
 62
     1
100
AcDbLine
 10
131.167654
 20
339.367992
 30
0.0
 11
131.167654
 21
425.235434
 31
0.0
  0
LINE
  5
1CA
102
{ACAD_REACTORS
330
438
102
}
100
AcDbEntity
  8
LC-002-002-----0
370
    50
390
0
  6
ByBlock
 62
     1
100
AcDbLine
 10
131.167654
 20
447.367992
 30
0.0
 11
131.167654
 21
469.367992
 31
0.0
  0
LINE
  5
1CB
102
{ACAD_REACTORS
330
438
102
}
100
AcDbEntity
  8
LC-002-002-----0
370
    50
390
0
  6
ByBlock
 62
     1
100
AcDbLine
 10
134.667654
 20
343.367992
 30
0.0
 11
134.667654
 21
447.367992
 31
0.0
  0
LINE
  5
1CC
102
{ACAD_REACTORS
330
438
102
}
100
AcDbEntity
  8
LC-002-002-----0
370
    50
390
0
  6
ByBlock
 62
     1
100
AcDbLine
 10
134.667654
 20
447.367992
 30
0.0
 11
134.667654
 21
465.367992
 31
0.0
  0
LINE
  5
1CD
102
{ACAD_REACTORS
330
438
102
}
100
AcDbEntity
  8
LC-002-002-----0
370
    50
390
0
  6
ByBlock
 62
     1
100
AcDbLine
 10
103.596188
 20
454.367992
 30
0.0
 11
95.784005
 21
413.867992
 31
0.0
  0
LINE
  5
1CE
102
{ACAD_REACTORS
330
438
102
}
100
AcDbEntity
  8
LC-002-002-----0
370
    50
390
0
  6
ByBlock
 62
     1
100
AcDbLine
 10
126.767654
 20
449.867992
 30
0.0
 11
113.667654
 21
449.867992
 31
0.0
  0
LINE
  5
1CF
102
{ACAD_REACTORS
330
438
102
}
100
AcDbEntity
  8
LC-002-002-----0
370
    50
390
0
  6
ByBlock
 62
     1
100
AcDbLine
 10
129.667654
 20
340.367992
 30
0.0
 11
129.667654
 21
425.267992
 31
0.0
  0
LINE
  5
1D0
100
AcDbEntity
  8
LC-002-002-----0
370
    50
390
0
  6
ByBlock
 62
     1
100
AcDbLine
 10
43.826641
 20
454.072096
 30
0.0
 11
43.826641
 21
452.290354
 31
0.0
  0
LINE
  5
1D1
102
{ACAD_REACTORS
330
438
102
}
100
AcDbEntity
  8
LC-002-002-----0
370
    50
390
0
  6
ByBlock
 62
     1
100
AcDbLine
 10
129.667654
 20
447.367992
 30
0.0
 11
129.667654
 21
468.367992
 31
0.0
  0
LINE
  5
1D2
102
{ACAD_REACTORS
330
43B
102
}
100
AcDbEntity
  8
LC-002-002-----0
370
    50
390
0
  6
ByBlock
 62
     1
100
AcDbLine
 10
403.458034
 20
284.367992
 30
0.0
 11
403.458034
 21
237.867992
 31
0.0
  0
LINE
  5
1D3
100
AcDbEntity
  8
LC-002-002-----0
370
    25
390
0
  6
ByBlock
 62
     2
100
AcDbLine
 10
20.825445
 20
441.243717
 30
0.0
 11
34.8245
 21
441.243708
 31
0.0
  0
LINE
  5
1D4
100
AcDbEntity
  8
LC-002-002-----0
370
    50
390
0
  6
ByBlock
 62
     1
100
AcDbLine
 10
706.160226
 20
476.353117
 30
0.0
 11
714.291954
 21
468.221389
 31
0.0
  0
LINE
  5
1D5
102
{ACAD_REACTORS
330
43B
102
}
100
AcDbEntity
  8
LC-002-002-----0
370
    50
390
0
  6
ByBlock
 62
     1
100
AcDbLine
 10
353.458034
 20
284.367992
 30
0.0
 11
353.458034
 21
237.867992
 31
0.0
  0
LINE
  5
1D6
102
{ACAD_REACTORS
330
43B
102
}
100
AcDbEntity
  8
LC-002-002-----0
370
    50
390
0
  6
ByBlock
 62
     1
100
AcDbLine
 10
358.458034
 20
339.367992
 30
0.0
 11
358.458034
 21
288.367992
 31
0.0
  0
LINE
  5
1D7
100
AcDbEntity
  8
LC-002-002-----0
370
    50
390
0
  6
ByBlock
 62
     1
100
AcDbLine
 10
34.824481
 20
408.617216
 30
0.0
 11
34.824506
 21
447.119244
 31
0.0
  0
LINE
  5
1D8
100
AcDbEntity
  8
LC-002-002-----0
370
    50
390
0
  6
ByBlock
 62
     1
100
AcDbLine
 10
34.824506
 20
447.119244
 30
0.0
 11
35.824506
 21
447.119243
 31
0.0
  0
ARC
  5
1D9
100
AcDbEntity
  8
LC-002-002-----0
370
    50
390
0
  6
ByBlock
 62
     1
100
AcDbCircle
 10
20.824503
 20
443.119253
 30
0.0
 40
3.0
100
AcDbArc
 50
89.999963
 51
179.999963
  0
LINE
  5
1DA
100
AcDbEntity
  8
LC-002-002-----0
370
    50
390
0
  6
ByBlock
 62
     1
100
AcDbLine
 10
20.824505
 20
446.119253
 30
0.0
 11
34.824505
 21
446.119244
 31
0.0
  0
LINE
  5
1DB
100
AcDbEntity
  8
LC-002-002-----0
370
    50
390
0
  6
ByBlock
 62
     1
100
AcDbLine
 10
20.826846
 20
408.617151
 30
0.0
 11
34.826846
 21
408.617216
 31
0.0
  0
LINE
  5
1DC
100
AcDbEntity
  8
LC-002-002-----0
370
    50
390
0
  6
ByBlock
 62
     1
100
AcDbLine
 10
34.826846
 20
408.617216
 30
0.0
 11
34.826851
 21
407.617216
 31
0.0
  0
LINE
  5
1DD
100
AcDbEntity
  8
LC-002-002-----0
370
    50
390
0
  6
ByBlock
 62
     1
100
AcDbLine
 10
34.826851
 20
407.617216
 30
0.0
 11
35.826851
 21
407.617221
 31
0.0
  0
ARC
  5
1DE
100
AcDbEntity
  8
LC-002-002-----0
370
    50
390
0
  6
ByBlock
 62
     1
100
AcDbCircle
 10
722.806698
 20
467.543745
 30
0.0
 40
8.541667
100
AcDbArc
 50
175.449719
 51
274.550281
  0
LINE
  5
1DF
100
AcDbEntity
  8
LC-002-002-----0
370
    50
390
0
  6
ByBlock
 62
     1
100
AcDbLine
 10
707.065397
 20
378.12735
 30
0.0
 11
683.652765
 21
378.12735
 31
0.0
  0
LINE
  5
1E0
100
AcDbEntity
  8
LC-002-002-----0
370
    25
390
0
  6
ByBlock
 62
     2
100
AcDbLine
 10
707.859081
 20
386.12735
 30
0.0
 11
682.859081
 21
383.940134
 31
0.0
  0
LINE
  5
1E1
100
AcDbEntity
  8
LC-002-002-----0
370
    25
390
0
  6
ByBlock
 62
     2
100
AcDbLine
 10
707.859081
 20
385.123531
 30
0.0
 11
682.859081
 21
382.936314
 31
0.0
  0
LINE
  5
1E2
100
AcDbEntity
  8
LC-002-002-----0
370
    25
390
0
  6
ByBlock
 62
     2
100
AcDbLine
 10
707.859081
 20
384.119711
 30
0.0
 11
682.859081
 21
381.932494
 31
0.0
  0
LINE
  5
1E3
100
AcDbEntity
  8
LC-002-002-----0
370
    25
390
0
  6
ByBlock
 62
     2
100
AcDbLine
 10
707.859081
 20
383.115891
 30
0.0
 11
682.859081
 21
380.928674
 31
0.0
  0
LINE
  5
1E4
100
AcDbEntity
  8
LC-002-002-----0
370
    25
390
0
  6
ByBlock
 62
     2
100
AcDbLine
 10
707.859081
 20
382.112071
 30
0.0
 11
682.859081
 21
379.924854
 31
0.0
  0
LINE
  5
1E5
100
AcDbEntity
  8
LC-002-002-----0
370
    25
390
0
  6
ByBlock
 62
     2
100
AcDbLine
 10
707.859081
 20
381.108251
 30
0.0
 11
682.859081
 21
378.921035
 31
0.0
  0
LINE
  5
1E6
100
AcDbEntity
  8
LC-002-002-----0
370
    25
390
0
  6
ByBlock
 62
     2
100
AcDbLine
 10
707.859081
 20
380.104431
 30
0.0
 11
685.260942
 21
378.12735
 31
0.0
  0
LINE
  5
1E7
100
AcDbEntity
  8
LC-002-002-----0
370
    25
390
0
  6
ByBlock
 62
     2
100
AcDbLine
 10
695.359081
 20
386.037562
 30
0.0
 11
682.859081
 21
384.943954
 31
0.0
  0
LINE
  5
1E8
100
AcDbEntity
  8
LC-002-002-----0
370
    50
390
0
  6
ByBlock
 62
     1
100
AcDbLine
 10
682.859081
 20
378.921035
 30
0.0
 11
683.652765
 21
378.12735
 31
0.0
  0
LINE
  5
1E9
100
AcDbEntity
  8
LC-002-002-----0
370
    50
390
0
  6
ByBlock
 62
     1
100
AcDbLine
 10
707.859081
 20
378.921035
 30
0.0
 11
707.065397
 21
378.12735
 31
0.0
  0
LINE
  5
1EA
102
{ACAD_REACTORS
330
43E
102
}
100
AcDbEntity
  8
LC-002-002-----0
370
    50
390
0
  6
ByBlock
 62
     1
100
AcDbLine
 10
682.859081
 20
378.921035
 30
0.0
 11
682.859081
 21
383.62735
 31
0.0
  0
LINE
  5
1EB
100
AcDbEntity
  8
LC-002-002-----0
370
    50
390
0
  6
ByBlock
 62
     1
100
AcDbLine
 10
723.484342
 20
459.029001
 30
0.0
 11
731.61607
 21
450.897273
 31
0.0
  0
ARC
  5
1EC
100
AcDbEntity
  8
LC-002-002-----0
370
    50
390
0
  6
ByBlock
 62
     1
100
AcDbCircle
 10
719.919346
 20
464.656392
 30
0.0
 40
8.541667
100
AcDbArc
 50
355.449719
 51
94.550281
  0
LINE
  5
1ED
100
AcDbEntity
  8
LC-002-002-----0
370
    50
390
0
  6
ByBlock
 62
     1
100
AcDbLine
 10
711.109974
 20
481.302864
 30
0.0
 11
719.241702
 21
473.171136
 31
0.0
  0
LINE
  5
1EE
100
AcDbEntity
  8
LC-002-002-----0
370
    50
390
0
  6
ByBlock
 62
     1
100
AcDbLine
 10
728.43409
 20
463.978748
 30
0.0
 11
736.565818
 21
455.84702
 31
0.0
  0
LINE
  5
1EF
100
AcDbEntity
  8
LC-002-002-----0
370
    50
390
0
  6
ByBlock
 62
     1
100
AcDbLine
 10
721.363022
 20
483.777738
 30
0.0
 11
739.040692
 21
466.100069
 31
0.0
  0
LINE
  5
1F0
100
AcDbEntity
  8
LC-002-002-----0
370
    50
390
0
  6
ByBlock
 62
     1
100
AcDbLine
 10
739.040692
 20
462.564535
 30
0.0
 11
736.565818
 21
460.089661
 31
0.0
  0
LINE
  5
1F1
100
AcDbEntity
  8
LC-002-002-----0
370
    50
390
0
  6
ByBlock
 62
     1
100
AcDbLine
 10
717.827488
 20
483.777738
 30
0.0
 11
715.352614
 21
481.302864
 31
0.0
  0
ARC
  5
1F2
100
AcDbEntity
  8
LC-001-002-RND-0
370
    50
390
0
 62
     1
100
AcDbCircle
 10
719.595255
 20
482.009971
 30
0.0
 40
2.5
100
AcDbArc
 50
45.0
 51
135.0
  0
LINE
  5
1F3
100
AcDbEntity
  8
LC-002-002-----0
370
    25
390
0
 62
     2
100
AcDbLine
 10
695.359081
 20
427.367992
 30
0.0
 11
639.144217
 21
427.367992
 31
0.0
  0
ARC
  5
1F4
102
{ACAD_REACTORS
330
43D
102
}
100
AcDbEntity
  8
LC-002-002-----0
370
    50
390
0
  6
ByBlock
 62
     1
100
AcDbCircle
 10
378.462305
 20
427.367992
 30
0.0
 40
27.0
100
AcDbArc
 50
293.556464
 51
246.443536
  0
ELLIPSE
  5
1F5
102
{ACAD_REACTORS
330
43D
102
}
100
AcDbEntity
  8
LC-002-002-----0
370
    50
390
0
  6
ByBlock
 62
     1
100
AcDbEllipse
 10
378.462305
 20
450.367992
 30
0.0
 11
5.5
 21
0.0
 31
0.0
210
0.0
220
0.0
230
1.0
 40
0.727273
 41
0.0
 42
6.2831853071795862
  0
ELLIPSE
  5
1F6
102
{ACAD_REACTORS
330
43D
102
}
100
AcDbEntity
  8
LC-002-002-----0
370
    50
390
0
  6
ByBlock
 62
     1
100
AcDbEllipse
 10
362.198849
 20
443.631448
 30
0.0
 11
3.8890872965260108
 21
3.8890872965260117
 31
0.0
210
0.0
220
0.0
230
1.0
 40
0.727273
 41
4.7123889803846897
 42
10.995574287564276
  0
LINE
  5
1F7
100
AcDbEntity
  8
LC-002-002-----0
370
    50
390
0
  6
ByBlock
 62
     1
100
AcDbLine
 10
645.797587
 20
457.867992
 30
0.0
 11
644.698883
 21
457.867992
 31
0.0
  0
LINE
  5
1F8
100
AcDbEntity
  8
LC-002-002-----0
370
    50
390
0
  6
ByBlock
 62
     1
100
AcDbLine
 10
644.698883
 20
457.867992
 30
0.0
 11
644.698883
 21
396.867992
 31
0.0
  0
ARC
  5
1F9
100
AcDbEntity
  8
LC-001-002-RND-0
370
    50
390
0
 62
     1
100
AcDbCircle
 10
645.797587
 20
455.867992
 30
0.0
 40
2.0
100
AcDbArc
 50
2.898577
 51
90.0
  0
LINE
  5
1FA
102
{ACAD_REACTORS
330
441
102
}
100
AcDbEntity
  8
LC-002-002-----0
370
    50
390
0
  6
ByBlock
 62
     1
100
AcDbLine
 10
554.859081
 20
436.667992
 30
0.0
 11
554.859081
 21
418.067992
 31
0.0
  0
LINE
  5
1FB
102
{ACAD_REACTORS
330
441
102
}
100
AcDbEntity
  8
LC-002-002-----0
370
    50
390
0
  6
ByBlock
 62
     1
100
AcDbLine
 10
558.359081
 20
433.361741
 30
0.0
 11
558.359081
 21
418.867992
 31
0.0
  0
LINE
  5
1FC
102
{ACAD_REACTORS
330
441
102
}
100
AcDbEntity
  8
LC-002-002-----0
370
    50
390
0
  6
ByBlock
 62
     1
100
AcDbLine
 10
554.859081
 20
418.067992
 30
0.0
 11
558.423496
 21
418.067992
 31
0.0
  0
LINE
  5
1FD
102
{ACAD_REACTORS
330
441
102
}
100
AcDbEntity
  8
LC-002-002-----0
370
    50
390
0
  6
ByBlock
 62
     1
100
AcDbLine
 10
554.859081
 20
436.667992
 30
0.0
 11
555.359081
 21
436.667992
 31
0.0
  0
LINE
  5
1FE
102
{ACAD_REACTORS
330
441
102
}
100
AcDbEntity
  8
LC-002-002-----0
370
    25
390
0
 62
     2
100
AcDbLine
 10
568.859081
 20
454.367992
 30
0.0
 11
568.859081
 21
427.367992
 31
0.0
  0
LINE
  5
1FF
102
{ACAD_REACTORS
330
441
102
}
100
AcDbEntity
  8
LC-002-002-----0
370
    50
390
0
  6
ByBlock
 62
     1
100
AcDbLine
 10
656.359081
 20
413.867992
 30
0.0
 11
648.559642
 21
413.867992
 31
0.0
  0
LINE
  5
200
102
{ACAD_REACTORS
330
441
102
}
100
AcDbEntity
  8
LC-002-002-----0
370
    50
390
0
  6
ByBlock
 62
     1
100
AcDbLine
 10
555.359081
 20
454.367992
 30
0.0
 11
555.359081
 21
436.667992
 31
0.0
  0
LINE
  5
201
102
{ACAD_REACTORS
330
441
102
}
100
AcDbEntity
  8
LC-002-002-----0
370
    50
390
0
  6
ByBlock
 62
     1
100
AcDbLine
 10
582.359081
 20
454.367992
 30
0.0
 11
582.359081
 21
440.867992
 31
0.0
  0
ARC
  5
202
102
{ACAD_REACTORS
330
441
102
}
100
AcDbEntity
  8
LC-002-002-----0
370
    50
390
0
  6
ByBlock
 62
     1
100
AcDbCircle
 10
555.037198
 20
433.361741
 30
0.0
 40
3.321883
100
AcDbArc
 50
0.0
 51
84.439446
  0
ARC
  5
203
102
{ACAD_REACTORS
330
441
102
}
100
AcDbEntity
  8
LC-001-002-RND-0
370
    50
390
0
 62
     1
100
AcDbCircle
 10
563.359081
 20
418.867992
 30
0.0
 40
5.0
100
AcDbArc
 50
180.0
 51
270.0
  0
LINE
  5
204
102
{ACAD_REACTORS
330
441
102
}
100
AcDbEntity
  8
LC-002-002-----0
370
    50
390
0
  6
ByBlock
 62
     1
100
AcDbLine
 10
656.359081
 20
440.867992
 30
0.0
 11
648.559642
 21
440.867992
 31
0.0
  0
ARC
  5
205
102
{ACAD_REACTORS
330
441
102
}
100
AcDbEntity
  8
LC-001-002-RND-0
370
    25
390
0
  6
DASHED
 62
     2
100
AcDbCircle
 10
569.559081
 20
428.075513
 30
0.0
 40
10.0
100
AcDbArc
 50
180.0
 51
270.0
  0
LINE
  5
206
102
{ACAD_REACTORS
330
441
102
}
100
AcDbEntity
  8
LC-002-002-----0
370
    50
390
0
  6
ByBlock
 62
     1
100
AcDbLine
 10
582.359081
 20
440.867992
 30
0.0
 11
568.859081
 21
427.367992
 31
0.0
  0
LINE
  5
207
102
{ACAD_REACTORS
330
441
102
}
100
AcDbEntity
  8
LC-002-002-----0
370
    50
390
0
  6
ByBlock
 62
     1
100
AcDbLine
 10
657.359081
 20
439.867992
 30
0.0
 11
657.359081
 21
414.867992
 31
0.0
  0
LINE
  5
208
102
{ACAD_REACTORS
330
441
102
}
100
AcDbEntity
  8
LC-002-002-----0
370
    25
390
0
  6
DASHED
 62
     2
100
AcDbLine
 10
617.859081
 20
437.855513
 30
0.0
 11
657.359081
 21
437.855513
 31
0.0
  0
ARC
  5
209
100
AcDbEntity
  8
LC-002-002-----0
370
    50
390
0
  6
ByBlock
 62
     1
100
AcDbCircle
 10
20.826832
 20
411.617151
 30
0.0
 40
3.0
100
AcDbArc
 50
180.000267
 51
270.000229
  0
LINE
  5
20A
100
AcDbEntity
  8
LC-002-002-----0
370
    25
390
0
  6
ByBlock
 62
     2
100
AcDbLine
 10
20.825445
 20
435.243717
 30
0.0
 11
34.8245
 21
435.243708
 31
0.0
  0
LINE
  5
20B
100
AcDbEntity
  8
LC-002-002-----0
370
    50
390
0
  6
ByBlock
 62
     1
100
AcDbLine
 10
17.824483
 20
412.617137
 30
0.0
 11
17.824503
 21
443.119255
 31
0.0
  0
LINE
  5
20C
100
AcDbEntity
  8
LC-002-002-----0
370
    25
390
0
  6
ByBlock
 62
     2
100
AcDbLine
 10
20.82638
 20
419.490966
 30
0.0
 11
34.825435
 21
419.492637
 31
0.0
  0
LINE
  5
20D
100
AcDbEntity
  8
LC-002-002-----0
370
    50
390
0
  6
ByBlock
 62
     1
100
AcDbLine
 10
17.826827
 20
412.617137
 30
0.0
 11
17.826832
 21
411.617137
 31
0.0
  0
LINE
  5
20E
102
{ACAD_REACTORS
330
43B
102
}
100
AcDbEntity
  8
LC-002-002-----0
370
    25
390
0
 62
     2
100
AcDbLine
 10
378.458034
 20
339.367992
 30
0.0
 11
378.458034
 21
288.367992
 31
0.0
  0
LINE
  5
20F
102
{ACAD_REACTORS
330
43B
102
}
100
AcDbEntity
  8
LC-002-002-----0
370
    50
390
0
  6
ByBlock
 62
     1
100
AcDbLine
 10
354.395856
 20
234.367992
 30
0.0
 11
402.520211
 21
234.367992
 31
0.0
  0
LINE
  5
210
102
{ACAD_REACTORS
330
43B
102
}
100
AcDbEntity
  8
LC-002-002-----0
370
    50
390
0
  6
ByBlock
 62
     1
100
AcDbLine
 10
353.458034
 20
237.867992
 30
0.0
 11
403.458034
 21
237.867992
 31
0.0
  0
LINE
  5
211
100
AcDbEntity
  8
LC-002-002-----0
370
    50
390
0
  6
ByBlock
 62
     1
100
AcDbLine
 10
-9.175508
 20
426.369272
 30
0.0
 11
-9.175517
 21
412.369272
 31
0.0
  0
LINE
  5
212
102
{ACAD_REACTORS
330
43B
102
}
100
AcDbEntity
  8
LC-002-002-----0
370
    50
390
0
  6
ByBlock
 62
     1
100
AcDbLine
 10
357.458034
 20
288.367992
 30
0.0
 11
399.458034
 21
288.367992
 31
0.0
  0
LINE
  5
213
100
AcDbEntity
  8
LC-002-002-----0
370
    50
390
0
  6
ByBlock
 62
     1
100
AcDbLine
 10
10.824485
 20
415.369259
 30
0.0
 11
10.824483
 21
412.369259
 31
0.0
  0
ARC
  5
214
100
AcDbEntity
  8
LC-001-002-RND-0
370
    50
390
0
 62
     1
100
AcDbCircle
 10
3.824492
 20
426.369264
 30
0.0
 40
13.0
100
AcDbArc
 50
89.999963
 51
179.999963
  0
LINE
  5
215
100
AcDbEntity
  8
LC-002-002-----0
370
    50
390
0
  6
ByBlock
 62
     1
100
AcDbLine
 10
17.824501
 20
439.369255
 30
0.0
 11
3.824501
 21
439.369264
 31
0.0
  0
LINE
  5
216
102
{ACAD_REACTORS
330
43B
102
}
100
AcDbEntity
  8
LC-002-002-----0
370
    25
390
0
  6
DASHED
 62
     2
100
AcDbLine
 10
336.458051
 20
427.329406
 30
0.0
 11
338.580757
 21
372.367992
 31
0.0
  0
LINE
  5
217
100
AcDbEntity
  8
LC-002-002-----0
370
    25
390
0
  6
ByBlock
 62
     2
100
AcDbLine
 10
20.827093
 20
413.490966
 30
0.0
 11
34.826147
 21
413.492637
 31
0.0
  0
LINE
  5
218
100
AcDbEntity
  8
LC-002-002-----0
370
    50
390
0
  6
ByBlock
 62
     1
100
AcDbLine
 10
43.829172
 20
406.07646
 30
0.0
 11
43.827985
 21
416.07646
 31
0.0
  0
LINE
  5
219
100
AcDbEntity
  8
LC-002-002-----0
370
    50
390
0
  6
ByBlock
 62
     1
100
AcDbLine
 10
43.826645
 20
448.660028
 30
0.0
 11
43.826645
 21
438.660028
 31
0.0
  0
LINE
  5
21A
100
AcDbEntity
  8
LC-002-002-----0
370
    50
390
0
  6
ByBlock
 62
     1
100
AcDbLine
 10
42.82678
 20
433.456174
 30
0.0
 11
43.826645
 21
433.160028
 31
0.0
  0
LINE
  5
21B
100
AcDbEntity
  8
LC-002-002-----0
370
    50
390
0
  6
ByBlock
 62
     1
100
AcDbLine
 10
43.826645
 20
433.160028
 30
0.0
 11
43.826645
 21
427.367992
 31
0.0
  0
LINE
  5
21C
102
{ACAD_REACTORS
330
441
102
}
100
AcDbEntity
  8
LC-002-002-----0
370
    25
390
0
  6
DASHED
 62
     2
100
AcDbLine
 10
578.166602
 20
436.675513
 30
0.0
 11
656.179081
 21
436.675513
 31
0.0
  0
LINE
  5
21D
100
AcDbEntity
  8
LC-002-002-----0
370
    50
390
0
  6
ByBlock
 62
     1
100
AcDbLine
 10
42.828086
 20
416.372488
 30
0.0
 11
43.827985
 21
416.07646
 31
0.0
  0
LINE
  5
21E
100
AcDbEntity
  8
LC-002-002-----0
370
    50
390
0
  6
ByBlock
 62
     1
100
AcDbLine
 10
42.82678
 20
438.363881
 30
0.0
 11
43.826645
 21
438.660028
 31
0.0
  0
LINE
  5
21F
100
AcDbEntity
  8
LC-002-002-----0
370
    50
390
0
  6
ByBlock
 62
     1
100
AcDbLine
 10
42.829343
 20
405.780195
 30
0.0
 11
43.829172
 21
406.07646
 31
0.0
  0
LINE
  5
220
100
AcDbEntity
  8
LC-002-002-----0
370
    50
390
0
  6
ByBlock
 62
     1
100
AcDbLine
 10
43.829607
 20
402.446134
 30
0.0
 11
42.829579
 21
403.827819
 31
0.0
  0
LINE
  5
221
100
AcDbEntity
  8
LC-002-002-----0
370
    50
390
0
  6
ByBlock
 62
     1
100
AcDbLine
 10
43.829811
 20
400.664392
 30
0.0
 11
43.829599
 21
402.446134
 31
0.0
  0
LINE
  5
222
100
AcDbEntity
  8
LC-002-002-----0
370
    50
390
0
  6
ByBlock
 62
     1
100
AcDbLine
 10
42.829877
 20
401.280195
 30
0.0
 11
43.829707
 21
401.57646
 31
0.0
  0
LINE
  5
223
100
AcDbEntity
  8
LC-002-002-----0
370
    50
390
0
  6
ByBlock
 62
     1
100
AcDbLine
 10
42.829984
 20
400.368127
 30
0.0
 11
43.829811
 21
400.664392
 31
0.0
  0
LINE
  5
224
102
{ACAD_REACTORS
330
441
102
}
100
AcDbEntity
  8
LC-002-002-----0
370
    25
390
0
  6
DASHED
 62
     2
100
AcDbLine
 10
569.559081
 20
418.075513
 30
0.0
 11
656.179081
 21
418.075513
 31
0.0
  0
LINE
  5
225
102
{ACAD_REACTORS
330
437
102
}
100
AcDbEntity
  8
LC-002-002-----0
370
    50
390
0
  6
ByBlock
 62
     1
100
AcDbLine
 10
48.826645
 20
443.867992
 30
0.0
 11
48.826645
 21
482.367992
 31
0.0
  0
LINE
  5
226
102
{ACAD_REACTORS
330
438
102
}
100
AcDbEntity
  8
LC-002-002-----0
370
    50
390
0
  6
ByBlock
 62
     1
100
AcDbLine
 10
135.667654
 20
288.367992
 30
0.0
 11
130.667654
 21
288.367992
 31
0.0
  0
LINE
  5
227
102
{ACAD_REACTORS
330
438
102
}
100
AcDbEntity
  8
LC-002-002-----0
370
    50
390
0
  6
ByBlock
 62
     1
100
AcDbLine
 10
83.167654
 20
284.367992
 30
0.0
 11
83.167654
 21
237.867992
 31
0.0
  0
LINE
  5
228
102
{ACAD_REACTORS
330
438
102
}
100
AcDbEntity
  8
LC-002-002-----0
370
    50
390
0
  6
ByBlock
 62
     1
100
AcDbLine
 10
128.167654
 20
341.367992
 30
0.0
 11
128.167654
 21
290.867992
 31
0.0
  0
LINE
  5
229
102
{ACAD_REACTORS
330
438
102
}
100
AcDbEntity
  8
LC-002-002-----0
370
    50
390
0
  6
ByBlock
 62
     1
100
AcDbLine
 10
86.667654
 20
343.867992
 30
0.0
 11
86.667654
 21
366.367992
 31
0.0
  0
LINE
  5
22A
102
{ACAD_REACTORS
330
438
102
}
100
AcDbEntity
  8
LC-006-001-----0
370
    50
390
0
  6
ByBlock
 62
     1
100
AcDbLine
 10
83.167654
 20
237.867992
 30
0.0
 11
133.167654
 21
237.867992
 31
0.0
  0
LINE
  5
22B
102
{ACAD_REACTORS
330
438
102
}
100
AcDbEntity
  8
LC-002-002-----0
370
    50
390
0
  6
ByBlock
 62
     1
100
AcDbLine
 10
133.167654
 20
237.867992
 30
0.0
 11
131.146928
 21
234.367992
 31
0.0
  0
LINE
  5
22C
102
{ACAD_REACTORS
330
438
102
}
100
AcDbEntity
  8
LC-002-002-----0
370
    50
390
0
  6
ByBlock
 62
     1
100
AcDbLine
 10
83.167654
 20
237.867992
 30
0.0
 11
85.18838
 21
234.367992
 31
0.0
  0
LINE
  5
22D
102
{ACAD_REACTORS
330
438
102
}
100
AcDbEntity
  8
LC-002-002-----0
370
    25
390
0
 62
     2
100
AcDbLine
 10
108.167654
 20
427.367992
 30
0.0
 11
108.167654
 21
234.367992
 31
0.0
  0
LINE
  5
22E
102
{ACAD_REACTORS
330
438
102
}
100
AcDbEntity
  8
LC-002-002-----0
370
    50
390
0
  6
ByBlock
 62
     1
100
AcDbLine
 10
127.167654
 20
341.367992
 30
0.0
 11
129.667654
 21
341.367992
 31
0.0
  0
ARC
  5
22F
102
{ACAD_REACTORS
330
438
102
}
100
AcDbEntity
  8
LC-001-002-RND-0
370
    50
390
0
 62
     1
100
AcDbCircle
 10
130.667654
 20
340.367992
 30
0.0
 40
1.0
100
AcDbArc
 50
180.0
 51
270.0
  0
LINE
  5
230
102
{ACAD_REACTORS
330
438
102
}
100
AcDbEntity
  8
LC-002-002-----0
370
    50
390
0
  6
ByBlock
 62
     1
100
AcDbLine
 10
131.667654
 20
339.367992
 30
0.0
 11
130.667654
 21
339.367992
 31
0.0
  0
ARC
  5
231
102
{ACAD_REACTORS
330
438
102
}
100
AcDbEntity
  8
LC-001-002-RND-0
370
    50
390
0
 62
     1
100
AcDbCircle
 10
131.667654
 20
340.367992
 30
0.0
 40
1.0
100
AcDbArc
 50
270.0
 51
0.0
  0
ARC
  5
232
102
{ACAD_REACTORS
330
438
102
}
100
AcDbEntity
  8
LC-001-002-RND-0
370
    50
390
0
 62
     1
100
AcDbCircle
 10
131.667654
 20
468.367992
 30
0.0
 40
1.0
100
AcDbArc
 50
0.0
 51
90.0
  0
ARC
  5
233
102
{ACAD_REACTORS
330
438
102
}
100
AcDbEntity
  8
LC-001-002-RND-0
370
    50
390
0
 62
     1
100
AcDbCircle
 10
130.667654
 20
468.367992
 30
0.0
 40
1.0
100
AcDbArc
 50
90.0
 51
180.0
  0
LINE
  5
234
102
{ACAD_REACTORS
330
438
102
}
100
AcDbEntity
  8
LC-002-002-----0
370
    50
390
0
  6
ByBlock
 62
     1
100
AcDbLine
 10
130.667654
 20
469.367992
 30
0.0
 11
131.667654
 21
469.367992
 31
0.0
  0
LINE
  5
235
102
{ACAD_REACTORS
330
438
102
}
100
AcDbEntity
  8
LC-002-002-----0
370
    50
390
0
  6
ByBlock
 62
     1
100
AcDbLine
 10
127.167654
 20
341.367992
 30
0.0
 11
89.167654
 21
341.367992
 31
0.0
  0
LINE
  5
236
102
{ACAD_REACTORS
330
438
102
}
100
AcDbEntity
  8
LC-002-002-----0
370
    50
390
0
  6
ByBlock
 62
     1
100
AcDbLine
 10
129.667654
 20
467.367992
 30
0.0
 11
108.167654
 21
467.367992
 31
0.0
  0
LINE
  5
237
102
{ACAD_REACTORS
330
441
102
}
100
AcDbEntity
  8
LC-002-002-----0
370
    25
390
0
  6
DASHED
 62
     2
100
AcDbLine
 10
617.859081
 20
416.895513
 30
0.0
 11
657.359081
 21
416.895513
 31
0.0
  0
LINE
  5
238
102
{ACAD_REACTORS
330
441
102
}
100
AcDbEntity
  8
LC-002-002-----0
370
    25
390
0
  6
DASHED
 62
     2
100
AcDbLine
 10
657.359081
 20
437.855513
 30
0.0
 11
656.179081
 21
436.675513
 31
0.0
  0
LINE
  5
239
102
{ACAD_REACTORS
330
441
102
}
100
AcDbEntity
  8
LC-002-002-----0
370
    25
390
0
  6
DASHED
 62
     2
100
AcDbLine
 10
657.359081
 20
416.895513
 30
0.0
 11
656.179081
 21
418.075513
 31
0.0
  0
LINE
  5
23A
102
{ACAD_REACTORS
330
441
102
}
100
AcDbEntity
  8
LC-002-002-----0
370
    50
390
0
  6
ByBlock
 62
     1
100
AcDbLine
 10
555.359081
 20
454.367992
 30
0.0
 11
582.359081
 21
454.367992
 31
0.0
  0
LINE
  5
23B
102
{ACAD_REACTORS
330
441
102
}
100
AcDbEntity
  8
LC-002-002-----0
370
    25
390
0
  6
DASHED
 62
     2
100
AcDbLine
 10
559.559081
 20
454.367992
 30
0.0
 11
559.559081
 21
428.075513
 31
0.0
  0
LINE
  5
23C
102
{ACAD_REACTORS
330
441
102
}
100
AcDbEntity
  8
LC-002-002-----0
370
    25
390
0
  6
DASHED
 62
     2
100
AcDbLine
 10
578.159081
 20
454.367992
 30
0.0
 11
578.159081
 21
436.675513
 31
0.0
  0
LINE
  5
23D
102
{ACAD_REACTORS
330
441
102
}
100
AcDbEntity
  8
LC-002-002-----0
370
    25
390
0
 62
     2
100
AcDbLine
 10
549.298716
 20
427.367992
 30
0.0
 11
661.367153
 21
427.367992
 31
0.0
  0
LINE
  5
23E
100
AcDbEntity
  8
LC-002-002-----0
370
    50
390
0
  6
ByBlock
 62
     1
100
AcDbLine
 10
644.698883
 20
476.13351
 30
0.0
 11
644.698883
 21
378.602474
 31
0.0
  0
ARC
  5
23F
100
AcDbEntity
  8
LC-001-002-RND-0
370
    50
390
0
 62
     1
100
AcDbCircle
 10
645.797587
 20
398.867992
 30
0.0
 40
2.0
100
AcDbArc
 50
270.0
 51
357.101423
  0
LINE
  5
240
100
AcDbEntity
  8
LC-002-002-----0
370
    25
390
0
  6
ByBlock
 62
     2
100
AcDbLine
 10
647.795028
 20
455.969128
 30
0.0
 11
647.795028
 21
398.766856
 31
0.0
  0
LINE
  5
241
100
AcDbEntity
  8
LC-002-002-----0
370
    50
390
0
  6
ByBlock
 62
     1
100
AcDbLine
 10
648.698883
 20
438.117992
 30
0.0
 11
648.698883
 21
416.617992
 31
0.0
  0
LINE
  5
242
100
AcDbEntity
  8
LC-002-002-----0
370
    50
390
0
  6
ByBlock
 62
     1
100
AcDbLine
 10
647.795028
 20
455.969128
 30
0.0
 11
648.698883
 21
438.117992
 31
0.0
  0
LINE
  5
243
100
AcDbEntity
  8
LC-002-002-----0
370
    50
390
0
  6
ByBlock
 62
     1
100
AcDbLine
 10
648.698883
 20
416.617992
 30
0.0
 11
647.795028
 21
398.766856
 31
0.0
  0
LINE
  5
244
102
{ACAD_REACTORS
330
441
102
}
100
AcDbEntity
  8
LC-002-002-----0
370
    50
390
0
  6
ByBlock
 62
     1
100
AcDbLine
 10
639.688714
 20
440.867992
 30
0.0
 11
582.359081
 21
440.867992
 31
0.0
  0
LINE
  5
245
102
{ACAD_REACTORS
330
441
102
}
100
AcDbEntity
  8
LC-002-002-----0
370
    50
390
0
  6
ByBlock
 62
     1
100
AcDbLine
 10
639.688714
 20
413.867992
 30
0.0
 11
563.359081
 21
413.867992
 31
0.0
  0
LINE
  5
246
100
AcDbEntity
  8
LC-002-002-----0
370
    50
390
0
  6
ByBlock
 62
     1
100
AcDbLine
 10
645.797587
 20
396.867992
 30
0.0
 11
644.698883
 21
396.867992
 31
0.0
  0
ELLIPSE
  5
247
102
{ACAD_REACTORS
330
43D
102
}
100
AcDbEntity
  8
LC-002-002-----0
370
    50
390
0
  6
ByBlock
 62
     1
100
AcDbEllipse
 10
355.462305
 20
427.367992
 30
0.0
 11
0.0
 21
5.5
 31
0.0
210
0.0
220
0.0
230
1.0
 40
0.727273
 41
4.7123889803846897
 42
10.995574287564276
  0
LINE
  5
248
100
AcDbEntity
  8
LC-002-002-----0
370
    50
390
0
  6
ByBlock
 62
     1
100
AcDbLine
 10
644.698883
 20
396.867992
 30
0.0
 11
644.698883
 21
396.867992
 31
0.0
  0
ELLIPSE
  5
249
102
{ACAD_REACTORS
330
43D
102
}
100
AcDbEntity
  8
LC-002-002-----0
370
    50
390
0
  6
ByBlock
 62
     1
100
AcDbEllipse
 10
362.198849
 20
411.104536
 30
0.0
 11
3.8890872965897585
 21
-3.889087296589758
 31
0.0
210
0.0
220
0.0
230
1.0
 40
0.727273
 41
1.1041641115733429
 42
0.504547900967726
  0
ELLIPSE
  5
24A
102
{ACAD_REACTORS
330
43D
102
}
100
AcDbEntity
  8
LC-002-002-----0
370
    50
390
0
  6
ByBlock
 62
     1
100
AcDbEllipse
 10
394.725761
 20
411.104536
 30
0.0
 11
3.8890872965781678
 21
3.8890872965781682
 31
0.0
210
0.0
220
0.0
230
1.0
 40
0.727273
 41
2.6370447526047567
 42
2.0374285420337808
  0
ELLIPSE
  5
24B
102
{ACAD_REACTORS
330
43D
102
}
100
AcDbEntity
  8
LC-002-002-----0
370
    50
390
0
  6
ByBlock
 62
     1
100
AcDbEllipse
 10
401.462305
 20
427.367992
 30
0.0
 11
0.0
 21
5.5000000000737614
 31
0.0
210
0.0
220
0.0
230
1.0
 40
0.727273
 41
4.7123889803846897
 42
10.995574287564276
  0
ELLIPSE
  5
24C
102
{ACAD_REACTORS
330
43D
102
}
100
AcDbEntity
  8
LC-002-002-----0
370
    50
390
0
  6
ByBlock
 62
     1
100
AcDbEllipse
 10
394.725761
 20
443.631448
 30
0.0
 11
3.8890872965318066
 21
-3.8890872965318057
 31
0.0
210
0.0
220
0.0
230
1.0
 40
0.727273
 41
0.0
 42
6.2831853071795862
  0
LINE
  5
24D
100
AcDbEntity
  8
LC-002-002-----0
370
    50
390
0
  6
ByBlock
 62
     1
100
AcDbLine
 10
541.359081
 20
444.867992
 30
0.0
 11
541.359081
 21
434.867992
 31
0.0
  0
LINE
  5
24E
100
AcDbEntity
  8
LC-002-002-----0
370
    50
390
0
  6
ByBlock
 62
     1
100
AcDbLine
 10
541.859081
 20
445.367992
 30
0.0
 11
542.359081
 21
445.367992
 31
0.0
  0
LINE
  5
24F
100
AcDbEntity
  8
LC-002-002-----0
370
    50
390
0
  6
ByBlock
 62
     1
100
AcDbLine
 10
541.859081
 20
434.367992
 30
0.0
 11
542.359081
 21
434.367992
 31
0.0
  0
ARC
  5
250
100
AcDbEntity
  8
LC-001-002-RND-0
370
    50
390
0
 62
     1
100
AcDbCircle
 10
541.859081
 20
434.867992
 30
0.0
 40
0.5
100
AcDbArc
 50
180.0
 51
270.0
  0
ARC
  5
251
100
AcDbEntity
  8
LC-001-002-RND-0
370
    50
390
0
 62
     1
100
AcDbCircle
 10
542.359081
 20
434.867992
 30
0.0
 40
0.5
100
AcDbArc
 50
270.0
 51
0.0
  0
ARC
  5
252
100
AcDbEntity
  8
LC-002-002-----0
370
    50
390
0
  6
ByBlock
 62
     1
100
AcDbCircle
 10
550.984081
 20
439.867992
 30
0.0
 40
10.625
100
AcDbArc
 50
154.942385
 51
205.057615
  0
ARC
  5
253
100
AcDbEntity
  8
LC-001-002-RND-0
370
    50
390
0
 62
     1
100
AcDbCircle
 10
542.359081
 20
444.867992
 30
0.0
 40
0.5
100
AcDbArc
 50
0.0
 51
90.0
  0
ARC
  5
254
100
AcDbEntity
  8
LC-001-002-RND-0
370
    50
390
0
 62
     1
100
AcDbCircle
 10
541.859081
 20
444.867992
 30
0.0
 40
0.5
100
AcDbArc
 50
90.0
 51
180.0
  0
LINE
  5
255
100
AcDbEntity
  8
LC-002-002-----0
370
    25
390
0
 62
     2
100
AcDbLine
 10
146.667654
 20
414.867992
 30
0.0
 11
133.15151
 21
414.867992
 31
0.0
  0
LINE
  5
256
100
AcDbEntity
  8
LC-002-002-----0
370
    25
390
0
 62
     2
100
AcDbLine
 10
146.667654
 20
439.867992
 30
0.0
 11
133.71585
 21
439.867992
 31
0.0
  0
LINE
  5
257
100
AcDbEntity
  8
LC-002-002-----0
370
    50
390
0
  6
ByBlock
 62
     1
100
AcDbLine
 10
143.667654
 20
484.867992
 30
0.0
 11
135.667654
 21
484.867992
 31
0.0
  0
LINE
  5
258
100
AcDbEntity
  8
LC-002-002-----0
370
    50
390
0
  6
ByBlock
 62
     1
100
AcDbLine
 10
145.667654
 20
478.653955
 30
0.0
 11
143.667654
 21
478.653955
 31
0.0
  0
ARC
  5
259
102
{ACAD_REACTORS
330
438
102
}
100
AcDbEntity
  8
LC-001-002-RND-0
370
    50
390
0
 62
     1
100
AcDbCircle
 10
132.667654
 20
343.367992
 30
0.0
 40
2.0
100
AcDbArc
 50
270.0
 51
0.0
  0
ARC
  5
25A
102
{ACAD_REACTORS
330
438
102
}
100
AcDbEntity
  8
LC-001-002-RND-0
370
    50
390
0
 62
     1
100
AcDbCircle
 10
132.667654
 20
465.367992
 30
0.0
 40
2.0
100
AcDbArc
 50
0.0
 51
90.0
  0
LINE
  5
25B
102
{ACAD_REACTORS
330
438
102
}
100
AcDbEntity
  8
LC-002-002-----0
370
    50
390
0
  6
ByBlock
 62
     1
100
AcDbLine
 10
126.767654
 20
447.367992
 30
0.0
 11
126.767654
 21
449.867992
 31
0.0
  0
CIRCLE
  5
25C
102
{ACAD_REACTORS
330
43B
102
}
100
AcDbEntity
  8
LC-002-002-----0
370
    25
390
0
  6
DASHED
 62
     2
100
AcDbCircle
 10
331.458034
 20
427.367992
 30
0.0
 40
2.6
  0
CIRCLE
  5
25D
102
{ACAD_REACTORS
330
43B
102
}
100
AcDbEntity
  8
LC-002-002-----0
370
    25
390
0
  6
DASHED
 62
     2
100
AcDbCircle
 10
331.458034
 20
427.367992
 30
0.0
 40
5.0
  0
CIRCLE
  5
25E
102
{ACAD_REACTORS
330
43B
102
}
100
AcDbEntity
  8
LC-002-002-----0
370
    25
390
0
  6
DASHED
 62
     2
100
AcDbCircle
 10
425.458034
 20
427.367992
 30
0.0
 40
2.6
  0
LINE
  5
25F
102
{ACAD_REACTORS
330
438
102
}
100
AcDbEntity
  8
LC-002-002-----0
370
    50
390
0
  6
ByBlock
 62
     1
100
AcDbLine
 10
126.767654
 20
404.367992
 30
0.0
 11
113.667654
 21
404.367992
 31
0.0
  0
CIRCLE
  5
260
102
{ACAD_REACTORS
330
43B
102
}
100
AcDbEntity
  8
LC-002-002-----0
370
    25
390
0
  6
DASHED
 62
     2
100
AcDbCircle
 10
425.458034
 20
427.367992
 30
0.0
 40
5.0
  0
LINE
  5
261
102
{ACAD_REACTORS
330
444
102
}
100
AcDbEntity
  8
LC-002-002-----0
370
    50
390
0
  6
ByBlock
 62
     1
100
AcDbLine
 10
285.458034
 20
410.617992
 30
0.0
 11
311.458034
 21
410.617992
 31
0.0
  0
CIRCLE
  5
262
102
{ACAD_REACTORS
330
43B
102
}
100
AcDbEntity
  8
LC-002-002-----0
370
    25
390
0
  6
DASHED
 62
     2
100
AcDbCircle
 10
333.684112
 20
387.865193
 30
0.0
 40
2.6
  0
ARC
  5
263
102
{ACAD_REACTORS
330
43B
102
}
100
AcDbEntity
  8
LC-002-002-----0
370
    25
390
0
  6
DASHED
 62
     2
100
AcDbCircle
 10
333.684112
 20
387.865193
 30
0.0
 40
5.0
100
AcDbArc
 50
33.009186
 51
331.414343
  0
CIRCLE
  5
264
102
{ACAD_REACTORS
330
43B
102
}
100
AcDbEntity
  8
LC-002-002-----0
370
    25
390
0
  6
DASHED
 62
     2
100
AcDbCircle
 10
419.684112
 20
388.365193
 30
0.0
 40
2.6
  0
ARC
  5
265
102
{ACAD_REACTORS
330
43B
102
}
100
AcDbEntity
  8
LC-002-002-----0
370
    25
390
0
  6
DASHED
 62
     2
100
AcDbCircle
 10
419.684112
 20
388.365193
 30
0.0
 40
5.0
100
AcDbArc
 50
209.283206
 51
221.822378
  0
LINE
  5
266
102
{ACAD_REACTORS
330
43C
102
}
100
AcDbEntity
  8
LC-002-002-----0
370
    25
390
0
  6
DASHED
 62
     2
100
AcDbLine
 10
311.962305
 20
454.367992
 30
0.0
 11
284.962305
 21
454.367992
 31
0.0
  0
LINE
  5
267
102
{ACAD_REACTORS
330
444
102
}
100
AcDbEntity
  8
LC-002-002-----0
370
    50
390
0
  6
ByBlock
 62
     1
100
AcDbLine
 10
313.958034
 20
393.617992
 30
0.0
 11
282.958034
 21
393.617992
 31
0.0
  0
LINE
  5
268
102
{ACAD_REACTORS
330
444
102
}
100
AcDbEntity
  8
LC-002-002-----0
370
    50
390
0
  6
ByBlock
 62
     1
100
AcDbLine
 10
282.958034
 20
393.617992
 30
0.0
 11
282.958034
 21
408.117992
 31
0.0
  0
LINE
  5
269
102
{ACAD_REACTORS
330
438
102
}
100
AcDbEntity
  8
LC-002-002-----0
370
    50
390
0
  6
ByBlock
 62
     1
100
AcDbLine
 10
126.767654
 20
406.867992
 30
0.0
 11
113.667654
 21
406.867992
 31
0.0
  0
LINE
  5
26A
102
{ACAD_REACTORS
330
444
102
}
100
AcDbEntity
  8
LC-002-002-----0
370
    50
390
0
  6
ByBlock
 62
     1
100
AcDbLine
 10
313.958034
 20
408.117992
 30
0.0
 11
313.958034
 21
393.617992
 31
0.0
  0
LINE
  5
26B
102
{ACAD_REACTORS
330
43C
102
}
100
AcDbEntity
  8
LC-002-002-----0
370
    25
390
0
  6
DASHED
 62
     2
100
AcDbLine
 10
284.962305
 20
436.745779
 30
0.0
 11
284.962305
 21
454.367992
 31
0.0
  0
CIRCLE
  5
26C
102
{ACAD_REACTORS
330
43C
102
}
100
AcDbEntity
  8
LC-002-002-----0
370
    25
390
0
  6
DASHED
 62
     2
100
AcDbCircle
 10
318.462305
 20
427.367992
 30
0.0
 40
3.0
  0
LINE
  5
26D
102
{ACAD_REACTORS
330
43C
102
}
100
AcDbEntity
  8
LC-002-002-----0
370
    25
390
0
  6
DASHED
 62
     2
100
AcDbLine
 10
311.962305
 20
436.745779
 30
0.0
 11
311.962305
 21
454.367992
 31
0.0
  0
LINE
  5
26E
102
{ACAD_REACTORS
330
444
102
}
100
AcDbEntity
  8
LC-002-002-----0
370
    50
390
0
  6
ByBlock
 62
     1
100
AcDbLine
 10
285.458034
 20
410.617992
 30
0.0
 11
282.958034
 21
408.117992
 31
0.0
  0
LINE
  5
26F
102
{ACAD_REACTORS
330
444
102
}
100
AcDbEntity
  8
LC-002-002-----0
370
    50
390
0
  6
ByBlock
 62
     1
100
AcDbLine
 10
311.458034
 20
410.617992
 30
0.0
 11
313.958034
 21
408.117992
 31
0.0
  0
LINE
  5
271
102
{ACAD_REACTORS
330
43C
102
}
100
AcDbEntity
  8
LC-008-002-___-0
370
    25
390
0
 62
     2
100
AcDbLine
 10
296.927805
 20
418.195462
 30
0.0
 11
287.276228
 21
419.810103
 31
0.0
  0
LINE
  5
272
102
{ACAD_REACTORS
330
43C
102
}
100
AcDbEntity
  8
LC-008-002-___-0
370
    25
390
0
 62
     2
100
AcDbLine
 10
299.996805
 20
436.540522
 30
0.0
 11
311.962305
 21
434.538778
 31
0.0
  0
LINE
  5
273
102
{ACAD_REACTORS
330
43C
102
}
100
AcDbEntity
  8
LC-002-002-----0
370
    25
390
0
  6
DASHED
 62
     2
100
AcDbLine
 10
319.504232
 20
433.277067
 30
0.0
 11
311.962305
 21
434.538778
 31
0.0
  0
ARC
  5
274
102
{ACAD_REACTORS
330
43C
102
}
100
AcDbEntity
  8
LC-002-002-----0
370
    25
390
0
  6
DASHED
 62
     2
100
AcDbCircle
 10
318.462305
 20
427.367992
 30
0.0
 40
6.0
100
AcDbArc
 50
279.497234
 51
80.0
  0
LINE
  5
275
102
{ACAD_REACTORS
330
43C
102
}
100
AcDbEntity
  8
LC-002-002-----0
370
    25
390
0
  6
DASHED
 62
     2
100
AcDbLine
 10
319.452305
 20
421.450231
 30
0.0
 11
309.648382
 21
419.810103
 31
0.0
  0
LINE
  5
276
102
{ACAD_REACTORS
330
43C
102
}
100
AcDbEntity
  8
LC-002-002-----0
370
    25
390
0
  6
DASHED
 62
     2
100
AcDbLine
 10
277.420378
 20
433.277067
 30
0.0
 11
284.962305
 21
434.538778
 31
0.0
  0
ARC
  5
277
102
{ACAD_REACTORS
330
43C
102
}
100
AcDbEntity
  8
LC-002-002-----0
370
    25
390
0
  6
DASHED
 62
     2
100
AcDbCircle
 10
278.462305
 20
427.367992
 30
0.0
 40
6.0
100
AcDbArc
 50
100.0
 51
260.502766
  0
LINE
  5
278
100
AcDbEntity
  8
LC-002-002-----0
370
    25
390
0
  6
DASHED
 62
     2
100
AcDbLine
 10
243.458034
 20
402.367992
 30
0.0
 11
430.238822
 21
402.367992
 31
0.0
  0
LINE
  5
279
102
{ACAD_REACTORS
330
43C
102
}
100
AcDbEntity
  8
LC-002-002-----0
370
    25
390
0
  6
DASHED
 62
     2
100
AcDbLine
 10
277.472305
 20
421.450231
 30
0.0
 11
287.276228
 21
419.810103
 31
0.0
  0
LINE
  5
27A
102
{ACAD_REACTORS
330
43C
102
}
100
AcDbEntity
  8
LC-008-002-___-0
370
    25
390
0
 62
     2
100
AcDbLine
 10
299.996805
 20
418.195462
 30
0.0
 11
309.648382
 21
419.810103
 31
0.0
  0
CIRCLE
  5
27B
102
{ACAD_REACTORS
330
43C
102
}
100
AcDbEntity
  8
LC-002-002-----0
370
    25
390
0
  6
DASHED
 62
     2
100
AcDbCircle
 10
278.462305
 20
427.367992
 30
0.0
 40
3.0
  0
LINE
  5
27C
102
{ACAD_REACTORS
330
43C
102
}
100
AcDbEntity
  8
LC-008-002-___-0
370
    25
390
0
 62
     2
100
AcDbLine
 10
296.927805
 20
436.540522
 30
0.0
 11
284.962305
 21
434.538778
 31
0.0
  0
LINE
  5
27D
100
AcDbEntity
  8
LC-002-002-----0
370
    50
390
0
  6
ByBlock
 62
     1
100
AcDbLine
 10
430.238822
 20
402.367992
 30
0.0
 11
519.318034
 21
402.367992
 31
0.0
  0
LINE
  5
27E
100
AcDbEntity
  8
LC-002-002-----0
370
    25
390
0
  6
DASHED
 62
     2
100
AcDbLine
 10
243.458034
 20
452.367992
 30
0.0
 11
430.238822
 21
452.367992
 31
0.0
  0
LINE
  5
27F
100
AcDbEntity
  8
LC-002-002-----0
370
    50
390
0
  6
ByBlock
 62
     1
100
AcDbLine
 10
430.238822
 20
452.367992
 30
0.0
 11
519.318034
 21
452.367992
 31
0.0
  0
LINE
  5
280
100
AcDbEntity
  8
LC-002-002-----0
370
    50
390
0
  6
ByBlock
 62
     1
100
AcDbLine
 10
199.318034
 20
402.367992
 30
0.0
 11
243.458034
 21
402.367992
 31
0.0
  0
LINE
  5
281
100
AcDbEntity
  8
LC-002-002-----0
370
    50
390
0
  6
ByBlock
 62
     1
100
AcDbLine
 10
199.318034
 20
452.367992
 30
0.0
 11
243.458034
 21
452.367992
 31
0.0
  0
ARC
  5
282
102
{ACAD_REACTORS
330
443
102
}
100
AcDbEntity
  8
LC-002-002-----0
370
    25
390
0
  6
DASHED
 62
     2
100
AcDbCircle
 10
378.458034
 20
427.367992
 30
0.0
 40
57.5
100
AcDbArc
 50
106.957426
 51
150.287235
  0
LINE
  5
283
102
{ACAD_REACTORS
330
43B
102
}
100
AcDbEntity
  8
LC-002-002-----0
370
    50
390
0
  6
ByBlock
 62
     1
100
AcDbLine
 10
338.580757
 20
372.367992
 30
0.0
 11
339.483775
 21
348.986919
 31
0.0
  0
ARC
  5
284
102
{ACAD_REACTORS
330
443
102
}
100
AcDbEntity
  8
LC-002-002-----0
370
    25
390
0
  6
DASHED
 62
     2
100
AcDbCircle
 10
378.458034
 20
427.367992
 30
0.0
 40
57.5
100
AcDbArc
 50
16.957426
 51
73.042574
  0
LINE
  5
285
102
{ACAD_REACTORS
330
43B
102
}
100
AcDbEntity
  8
LC-002-002-----0
370
    25
390
0
  6
DASHED
 62
     2
100
AcDbLine
 10
415.958034
 20
391.029887
 30
0.0
 11
420.457851
 21
427.244181
 31
0.0
  0
LINE
  5
286
102
{ACAD_REACTORS
330
43B
102
}
100
AcDbEntity
  8
LC-002-002-----0
370
    25
390
0
  6
DASHED
 62
     2
100
AcDbLine
 10
413.639194
 20
372.367992
 30
0.0
 11
415.958034
 21
391.029887
 31
0.0
  0
ARC
  5
287
102
{ACAD_REACTORS
330
43B
102
}
100
AcDbEntity
  8
LC-002-002-----0
370
    25
390
0
  6
DASHED
 62
     2
100
AcDbCircle
 10
419.684112
 20
388.365193
 30
0.0
 40
5.0
100
AcDbArc
 50
221.822378
 51
136.550794
  0
ARC
  5
288
102
{ACAD_REACTORS
330
443
102
}
100
AcDbEntity
  8
LC-002-002-----0
370
    50
390
0
  6
ByBlock
 62
     1
100
AcDbCircle
 10
378.458034
 20
427.367992
 30
0.0
 40
57.5
100
AcDbArc
 50
73.042574
 51
106.957426
  0
ARC
  5
289
102
{ACAD_REACTORS
330
43B
102
}
100
AcDbEntity
  8
LC-002-002-----0
370
    25
390
0
  6
DASHED
 62
     2
100
AcDbCircle
 10
378.458034
 20
427.367992
 30
0.0
 40
42.0
100
AcDbArc
 50
26.765501
 51
180.052638
  0
ARC
  5
28A
102
{ACAD_REACTORS
330
442
102
}
100
AcDbEntity
  8
LC-002-002-----0
370
    50
390
0
  6
ByBlock
 62
     1
100
AcDbCircle
 10
378.462305
 20
427.367992
 30
0.0
 40
19.0
100
AcDbArc
 50
309.720187
 51
230.279778
  0
ARC
  5
28B
102
{ACAD_REACTORS
330
442
102
}
100
AcDbEntity
  8
LC-002-002-----0
370
    50
390
0
  6
ByBlock
 62
     1
100
AcDbCircle
 10
378.462305
 20
427.367992
 30
0.0
 40
14.0
100
AcDbArc
 50
315.584808
 51
224.415063
  0
ARC
  5
28C
102
{ACAD_REACTORS
330
442
102
}
100
AcDbEntity
  8
LC-002-002-----0
370
    50
390
0
  6
ByBlock
 62
     1
100
AcDbCircle
 10
378.462305
 20
427.367992
 30
0.0
 40
13.0
100
AcDbArc
 50
320.28498
 51
219.714892
  0
LINE
  5
28D
102
{ACAD_REACTORS
330
442
102
}
100
AcDbEntity
  8
LC-002-002-----0
370
    50
390
0
  6
ByBlock
 62
     1
100
AcDbLine
 10
387.712305
 20
385.367992
 30
0.0
 11
369.212305
 21
385.367992
 31
0.0
  0
LINE
  5
28E
102
{ACAD_REACTORS
330
442
102
}
100
AcDbEntity
  8
LC-002-002-----0
370
    50
390
0
  6
ByBlock
 62
     1
100
AcDbLine
 10
386.478016
 20
378.367992
 30
0.0
 11
370.424452
 21
378.367992
 31
0.0
  0
LINE
  5
28F
102
{ACAD_REACTORS
330
442
102
}
100
AcDbEntity
  8
LC-002-002-----0
370
    50
390
0
  6
ByBlock
 62
     1
100
AcDbLine
 10
388.462305
 20
392.367992
 30
0.0
 11
368.462305
 21
392.367992
 31
0.0
  0
LINE
  5
290
102
{ACAD_REACTORS
330
442
102
}
100
AcDbEntity
  8
LC-002-002-----0
370
    50
390
0
  6
ByBlock
 62
     1
100
AcDbLine
 10
389.212305
 20
399.367992
 30
0.0
 11
367.712305
 21
399.367992
 31
0.0
  0
LINE
  5
291
102
{ACAD_REACTORS
330
442
102
}
100
AcDbEntity
  8
LC-002-002-----0
370
    50
390
0
  6
ByBlock
 62
     1
100
AcDbLine
 10
389.962305
 20
406.367992
 30
0.0
 11
366.962305
 21
406.367992
 31
0.0
  0
LINE
  5
292
102
{ACAD_REACTORS
330
442
102
}
100
AcDbEntity
  8
LC-002-002-----0
370
    50
390
0
  6
ByBlock
 62
     1
100
AcDbLine
 10
388.462305
 20
413.367992
 30
0.0
 11
388.462305
 21
419.061368
 31
0.0
  0
LINE
  5
293
102
{ACAD_REACTORS
330
442
102
}
100
AcDbEntity
  8
LC-002-002-----0
370
    50
390
0
  6
ByBlock
 62
     1
100
AcDbLine
 10
368.462305
 20
413.367992
 30
0.0
 11
368.462305
 21
419.061368
 31
0.0
  0
LINE
  5
294
102
{ACAD_REACTORS
330
442
102
}
100
AcDbEntity
  8
LC-002-002-----0
370
    50
390
0
  6
ByBlock
 62
     1
100
AcDbLine
 10
366.962305
 20
406.367992
 30
0.0
 11
368.196594
 21
399.367992
 31
0.0
  0
LINE
  5
295
102
{ACAD_REACTORS
330
442
102
}
100
AcDbEntity
  8
LC-002-002-----0
370
    50
390
0
  6
ByBlock
 62
     1
100
AcDbLine
 10
367.712305
 20
399.367992
 30
0.0
 11
368.946594
 21
392.367992
 31
0.0
  0
LINE
  5
296
102
{ACAD_REACTORS
330
442
102
}
100
AcDbEntity
  8
LC-002-002-----0
370
    50
390
0
  6
ByBlock
 62
     1
100
AcDbLine
 10
368.462305
 20
392.367992
 30
0.0
 11
369.696594
 21
385.367992
 31
0.0
  0
LINE
  5
297
102
{ACAD_REACTORS
330
442
102
}
100
AcDbEntity
  8
LC-002-002-----0
370
    50
390
0
  6
ByBlock
 62
     1
100
AcDbLine
 10
369.212305
 20
385.367992
 30
0.0
 11
370.424452
 21
378.493563
 31
0.0
  0
LINE
  5
298
102
{ACAD_REACTORS
330
442
102
}
100
AcDbEntity
  8
LC-002-002-----0
370
    50
390
0
  6
ByBlock
 62
     1
100
AcDbLine
 10
389.962305
 20
406.367992
 30
0.0
 11
388.728016
 21
399.367992
 31
0.0
  0
LINE
  5
299
102
{ACAD_REACTORS
330
442
102
}
100
AcDbEntity
  8
LC-002-002-----0
370
    50
390
0
  6
ByBlock
 62
     1
100
AcDbLine
 10
389.212305
 20
399.367992
 30
0.0
 11
387.978016
 21
392.367992
 31
0.0
  0
LINE
  5
29A
102
{ACAD_REACTORS
330
442
102
}
100
AcDbEntity
  8
LC-002-002-----0
370
    50
390
0
  6
ByBlock
 62
     1
100
AcDbLine
 10
388.462305
 20
392.367992
 30
0.0
 11
387.228016
 21
385.367992
 31
0.0
  0
LINE
  5
29B
102
{ACAD_REACTORS
330
442
102
}
100
AcDbEntity
  8
LC-002-002-----0
370
    50
390
0
  6
ByBlock
 62
     1
100
AcDbLine
 10
387.712305
 20
385.367992
 30
0.0
 11
386.478016
 21
378.367992
 31
0.0
  0
LINE
  5
29C
102
{ACAD_REACTORS
330
442
102
}
100
AcDbEntity
  8
LC-006-001-----0
370
    50
390
0
  6
ByBlock
 62
     1
100
AcDbLine
 10
389.962305
 20
413.367992
 30
0.0
 11
366.962305
 21
413.367992
 31
0.0
  0
LINE
  5
29D
102
{ACAD_REACTORS
330
442
102
}
100
AcDbEntity
  8
LC-002-002-----0
370
    50
390
0
  6
ByBlock
 62
     1
100
AcDbLine
 10
366.962305
 20
413.367992
 30
0.0
 11
366.212305
 21
413.367992
 31
0.0
  0
LINE
  5
29E
102
{ACAD_REACTORS
330
442
102
}
100
AcDbEntity
  8
LC-002-002-----0
370
    50
390
0
  6
ByBlock
 62
     1
100
AcDbLine
 10
389.962305
 20
413.367992
 30
0.0
 11
390.712305
 21
413.367992
 31
0.0
  0
LINE
  5
29F
102
{ACAD_REACTORS
330
442
102
}
100
AcDbEntity
  8
LC-002-002-----0
370
    50
390
0
  6
ByBlock
 62
     1
100
AcDbLine
 10
390.712305
 20
413.367992
 30
0.0
 11
389.478016
 21
406.367992
 31
0.0
  0
LINE
  5
2A0
102
{ACAD_REACTORS
330
442
102
}
100
AcDbEntity
  8
LC-002-002-----0
370
    50
390
0
  6
ByBlock
 62
     1
100
AcDbLine
 10
366.212305
 20
413.367992
 30
0.0
 11
367.446594
 21
406.367992
 31
0.0
  0
LINE
  5
2A1
102
{ACAD_REACTORS
330
444
102
}
100
AcDbEntity
  8
LC-002-002-----0
370
    50
390
0
  6
ByBlock
 62
     1
100
AcDbLine
 10
282.958034
 20
408.117992
 30
0.0
 11
313.958034
 21
408.117992
 31
0.0
  0
LINE
  5
2A2
102
{ACAD_REACTORS
330
444
102
}
100
AcDbEntity
  8
LC-002-002-----0
370
    50
390
0
  6
ByBlock
 62
     1
100
AcDbLine
 10
310.708034
 20
393.617992
 30
0.0
 11
310.708034
 21
391.117992
 31
0.0
  0
LINE
  5
2A3
102
{ACAD_REACTORS
330
444
102
}
100
AcDbEntity
  8
LC-002-002-----0
370
    50
390
0
  6
ByBlock
 62
     1
100
AcDbLine
 10
310.708034
 20
391.117992
 30
0.0
 11
286.208034
 21
391.117992
 31
0.0
  0
LINE
  5
2A4
102
{ACAD_REACTORS
330
444
102
}
100
AcDbEntity
  8
LC-002-002-----0
370
    50
390
0
  6
ByBlock
 62
     1
100
AcDbLine
 10
286.208034
 20
391.117992
 30
0.0
 11
286.208034
 21
393.617992
 31
0.0
  0
LINE
  5
2A5
102
{ACAD_REACTORS
330
444
102
}
100
AcDbEntity
  8
LC-002-002-----0
370
    50
390
0
  6
ByBlock
 62
     1
100
AcDbLine
 10
311.958034
 20
391.117992
 30
0.0
 11
311.958034
 21
386.117992
 31
0.0
  0
LINE
  5
2A6
102
{ACAD_REACTORS
330
444
102
}
100
AcDbEntity
  8
LC-002-002-----0
370
    50
390
0
  6
ByBlock
 62
     1
100
AcDbLine
 10
311.958034
 20
386.117992
 30
0.0
 11
284.958034
 21
386.117992
 31
0.0
  0
LINE
  5
2A7
102
{ACAD_REACTORS
330
444
102
}
100
AcDbEntity
  8
LC-002-002-----0
370
    50
390
0
  6
ByBlock
 62
     1
100
AcDbLine
 10
284.958034
 20
386.117992
 30
0.0
 11
284.958034
 21
391.117992
 31
0.0
  0
LINE
  5
2A8
102
{ACAD_REACTORS
330
444
102
}
100
AcDbEntity
  8
LC-002-002-----0
370
    50
390
0
  6
ByBlock
 62
     1
100
AcDbLine
 10
284.958034
 20
391.117992
 30
0.0
 11
286.208034
 21
391.117992
 31
0.0
  0
LINE
  5
2A9
102
{ACAD_REACTORS
330
444
102
}
100
AcDbEntity
  8
LC-002-002-----0
370
    50
390
0
  6
ByBlock
 62
     1
100
AcDbLine
 10
310.708034
 20
391.117992
 30
0.0
 11
311.958034
 21
391.117992
 31
0.0
  0
ARC
  5
2AA
102
{ACAD_REACTORS
330
444
102
}
100
AcDbEntity
  8
LC-002-002-----0
370
    50
390
0
  6
ByBlock
 62
     1
100
AcDbCircle
 10
287.130641
 20
388.617992
 30
0.0
 40
0.5
100
AcDbArc
 50
136.08159
 51
223.918258
  0
ARC
  5
2AB
102
{ACAD_REACTORS
330
444
102
}
100
AcDbEntity
  8
LC-002-002-----0
370
    50
390
0
  6
ByBlock
 62
     1
100
AcDbCircle
 10
291.833034
 20
384.089867
 30
0.0
 40
7.028125
100
AcDbArc
 50
43.91841
 51
136.081571
  0
ARC
  5
2AC
102
{ACAD_REACTORS
330
444
102
}
100
AcDbEntity
  8
LC-002-002-----0
370
    50
390
0
  6
ByBlock
 62
     1
100
AcDbCircle
 10
296.535427
 20
388.617992
 30
0.0
 40
0.5
100
AcDbArc
 50
316.081648
 51
43.91841
  0
ARC
  5
2AD
102
{ACAD_REACTORS
330
444
102
}
100
AcDbEntity
  8
LC-002-002-----0
370
    50
390
0
  6
ByBlock
 62
     1
100
AcDbCircle
 10
291.833034
 20
393.146117
 30
0.0
 40
7.028125
100
AcDbArc
 50
223.918258
 51
316.08159
  0
ARC
  5
2AE
102
{ACAD_REACTORS
330
444
102
}
100
AcDbEntity
  8
LC-002-002-----0
370
    50
390
0
  6
ByBlock
 62
     1
100
AcDbCircle
 10
300.380641
 20
388.617992
 30
0.0
 40
0.5
100
AcDbArc
 50
136.08159
 51
223.918258
  0
ARC
  5
2AF
102
{ACAD_REACTORS
330
444
102
}
100
AcDbEntity
  8
LC-002-002-----0
370
    50
390
0
  6
ByBlock
 62
     1
100
AcDbCircle
 10
305.083034
 20
384.089867
 30
0.0
 40
7.028125
100
AcDbArc
 50
43.91841
 51
136.081571
  0
ARC
  5
2B0
102
{ACAD_REACTORS
330
444
102
}
100
AcDbEntity
  8
LC-002-002-----0
370
    50
390
0
  6
ByBlock
 62
     1
100
AcDbCircle
 10
309.785427
 20
388.617992
 30
0.0
 40
0.5
100
AcDbArc
 50
316.081648
 51
43.91841
  0
ARC
  5
2B1
102
{ACAD_REACTORS
330
444
102
}
100
AcDbEntity
  8
LC-002-002-----0
370
    50
390
0
  6
ByBlock
 62
     1
100
AcDbCircle
 10
305.083034
 20
393.146117
 30
0.0
 40
7.028125
100
AcDbArc
 50
223.918258
 51
316.08159
  0
LINE
  5
2B2
102
{ACAD_REACTORS
330
444
102
}
100
AcDbEntity
  8
LC-006-001-----0
370
    25
390
0
 62
     2
100
AcDbLine
 10
311.958034
 20
388.617992
 30
0.0
 11
284.958034
 21
388.617992
 31
0.0
  0
ARC
  5
2B3
102
{ACAD_REACTORS
330
444
102
}
100
AcDbEntity
  8
LC-002-002-----0
370
    50
390
0
  6
ByBlock
 62
     1
100
AcDbCircle
 10
283.6247
 20
388.617992
 30
0.0
 40
2.833333
100
AcDbArc
 50
298.072604
 51
61.927571
  0
ARC
  5
2B4
102
{ACAD_REACTORS
330
444
102
}
100
AcDbEntity
  8
LC-002-002-----0
370
    50
390
0
  6
ByBlock
 62
     1
100
AcDbCircle
 10
313.291367
 20
388.617992
 30
0.0
 40
2.833333
100
AcDbArc
 50
118.072449
 51
241.92719
  0
LINE
  5
2B5
102
{ACAD_REACTORS
330
444
102
}
100
AcDbEntity
  8
LC-002-002-----0
370
    50
390
0
  6
ByBlock
 62
     1
100
AcDbLine
 10
311.458034
 20
410.617992
 30
0.0
 11
311.458034
 21
436.745779
 31
0.0
  0
LINE
  5
2B6
102
{ACAD_REACTORS
330
444
102
}
100
AcDbEntity
  8
LC-002-002-----0
370
    50
390
0
  6
ByBlock
 62
     1
100
AcDbLine
 10
285.458034
 20
436.745779
 30
0.0
 11
285.458034
 21
410.617992
 31
0.0
  0
ELLIPSE
  5
2B7
102
{ACAD_REACTORS
330
444
102
}
100
AcDbEntity
  8
LC-002-002-----0
370
    50
390
0
  6
ByBlock
 62
     1
100
AcDbEllipse
 10
298.458034
 20
466.089235
 30
0.0
 11
17.999999999976531
 21
0.0
 31
0.0
210
0.0
220
0.0
230
1.0
 40
0.893333
 41
0.0
 42
0.6032568025328984
  0
ELLIPSE
  5
2B8
102
{ACAD_REACTORS
330
444
102
}
100
AcDbEntity
  8
LC-002-002-----0
370
    50
390
0
  6
ByBlock
 62
     1
100
AcDbEllipse
 10
298.458034
 20
466.089235
 30
0.0
 11
17.999999999976531
 21
0.0
 31
0.0
210
0.0
220
0.0
230
1.0
 40
0.893333
 41
2.5383358517211101
 42
4.3429298504844329
  0
LINE
  5
2B9
102
{ACAD_REACTORS
330
438
102
}
100
AcDbEntity
  8
LC-002-002-----0
370
    50
390
0
  6
ByBlock
 62
     1
100
AcDbLine
 10
113.667654
 20
404.367992
 30
0.0
 11
113.667654
 21
406.867992
 31
0.0
  0
LINE
  5
2BA
102
{ACAD_REACTORS
330
438
102
}
100
AcDbEntity
  8
LC-002-002-----0
370
    50
390
0
  6
ByBlock
 62
     1
100
AcDbLine
 10
126.767654
 20
404.367992
 30
0.0
 11
126.767654
 21
406.867992
 31
0.0
  0
ARC
  5
2BB
102
{ACAD_REACTORS
330
444
102
}
100
AcDbEntity
  8
LC-002-002-----0
370
    50
390
0
  6
ByBlock
 62
     1
100
AcDbCircle
 10
298.458034
 20
475.16963
 30
0.0
 40
15.089328
100
AcDbArc
 50
201.038766
 51
338.961234
  0
ELLIPSE
  5
2BC
102
{ACAD_REACTORS
330
444
102
}
100
AcDbEntity
  8
LC-002-002-----0
370
    50
390
0
  6
ByBlock
 62
     1
100
AcDbEllipse
 10
298.458034
 20
466.089235
 30
0.0
 11
17.999999999976531
 21
0.0
 31
0.0
210
0.0
220
0.0
230
1.0
 40
0.893333
 41
5.0818481102850814
 42
0.0
  0
LINE
  5
2BD
102
{ACAD_REACTORS
330
438
102
}
100
AcDbEntity
  8
LC-002-002-----0
370
    50
390
0
  6
ByBlock
 62
     1
100
AcDbLine
 10
126.767654
 20
382.865193
 30
0.0
 11
126.767654
 21
392.865193
 31
0.0
  0
LINE
  5
2BE
102
{ACAD_REACTORS
330
438
102
}
100
AcDbEntity
  8
LC-002-002-----0
370
    50
390
0
  6
ByBlock
 62
     1
100
AcDbLine
 10
113.667654
 20
382.865193
 30
0.0
 11
126.767654
 21
382.865193
 31
0.0
  0
LINE
  5
2BF
102
{ACAD_REACTORS
330
444
102
}
100
AcDbEntity
  8
LC-002-002-----0
370
    50
390
0
  6
ByBlock
 62
     1
100
AcDbLine
 10
283.458034
 20
436.745779
 30
0.0
 11
313.458034
 21
436.745779
 31
0.0
  0
LINE
  5
2C0
102
{ACAD_REACTORS
330
438
102
}
100
AcDbEntity
  8
LC-002-002-----0
370
    50
390
0
  6
ByBlock
 62
     1
100
AcDbLine
 10
113.667654
 20
382.865193
 30
0.0
 11
113.667654
 21
392.865193
 31
0.0
  0
LINE
  5
2C1
102
{ACAD_REACTORS
330
444
102
}
100
AcDbEntity
  8
LC-002-002-----0
370
    50
390
0
  6
ByBlock
 62
     1
100
AcDbLine
 10
313.458034
 20
457.200681
 30
0.0
 11
313.458034
 21
436.745779
 31
0.0
  0
LINE
  5
2C2
102
{ACAD_REACTORS
330
444
102
}
100
AcDbEntity
  8
LC-002-002-----0
370
    50
390
0
  6
ByBlock
 62
     1
100
AcDbLine
 10
283.458034
 20
457.200681
 30
0.0
 11
283.458034
 21
436.745779
 31
0.0
  0
ARC
  5
2C3
102
{ACAD_REACTORS
330
444
102
}
100
AcDbEntity
  8
LC-002-002-----0
370
    50
390
0
  6
ByBlock
 62
     1
100
AcDbCircle
 10
298.552632
 20
471.122742
 30
0.0
 40
15.285373
100
AcDbArc
 50
170.938229
 51
15.516647
  0
ELLIPSE
  5
2C4
102
{ACAD_REACTORS
330
444
102
}
100
AcDbEntity
  8
LC-002-002-----0
370
    50
390
0
  6
ByBlock
 62
     1
100
AcDbEllipse
 10
298.458034
 20
473.530177
 30
0.0
 11
14.99999999997206
 21
0.0
 31
0.0
210
0.0
220
0.0
230
1.0
 40
0.731667
 41
0.0
 42
6.2831853071795862
  0
LINE
  5
2C5
102
{ACAD_REACTORS
330
438
102
}
100
AcDbEntity
  8
LC-002-002-----0
370
    50
390
0
  6
ByBlock
 62
     1
100
AcDbLine
 10
113.667654
 20
392.865193
 30
0.0
 11
126.767654
 21
392.865193
 31
0.0
  0
LINE
  5
2C6
102
{ACAD_REACTORS
330
438
102
}
100
AcDbEntity
  8
LC-002-002-----0
370
    25
390
0
 62
     2
100
AcDbLine
 10
111.16036
 20
387.865193
 30
0.0
 11
127.902833
 21
387.865193
 31
0.0
  0
ARC
  5
2C7
102
{ACAD_REACTORS
330
444
102
}
100
AcDbEntity
  8
LC-002-002-----0
370
    50
390
0
  6
ByBlock
 62
     1
100
AcDbCircle
 10
298.458034
 20
429.169302
 30
0.0
 40
22.868191
100
AcDbArc
 50
73.486718
 51
106.513282
  0
LINE
  5
2C8
102
{ACAD_REACTORS
330
436
102
}
100
AcDbEntity
  8
LC-002-002-----0
370
    50
390
0
  6
ByBlock
 62
     1
100
AcDbLine
 10
48.826645
 20
372.367992
 30
0.0
 11
48.826645
 21
410.867992
 31
0.0
  0
LINE
  5
2C9
102
{ACAD_REACTORS
330
444
102
}
100
AcDbEntity
  8
LC-002-002-----0
370
    25
390
0
  6
ByBlock
 62
     2
100
AcDbLine
 10
310.958034
 20
386.117992
 30
0.0
 11
285.958034
 21
383.930776
 31
0.0
  0
LINE
  5
2CA
102
{ACAD_REACTORS
330
444
102
}
100
AcDbEntity
  8
LC-002-002-----0
370
    25
390
0
  6
ByBlock
 62
     2
100
AcDbLine
 10
310.958034
 20
379.091253
 30
0.0
 11
299.833608
 21
378.117992
 31
0.0
  0
LINE
  5
2CB
102
{ACAD_REACTORS
330
444
102
}
100
AcDbEntity
  8
LC-002-002-----0
370
    25
390
0
  6
ByBlock
 62
     2
100
AcDbLine
 10
310.958034
 20
380.095073
 30
0.0
 11
288.359895
 21
378.117992
 31
0.0
  0
LINE
  5
2CC
102
{ACAD_REACTORS
330
444
102
}
100
AcDbEntity
  8
LC-002-002-----0
370
    25
390
0
  6
ByBlock
 62
     2
100
AcDbLine
 10
298.458034
 20
386.028204
 30
0.0
 11
285.958034
 21
384.934595
 31
0.0
  0
LINE
  5
2CD
102
{ACAD_REACTORS
330
435
102
}
100
AcDbEntity
  8
LC-002-002-----0
370
    50
390
0
  6
ByBlock
 62
     1
100
AcDbLine
 10
48.826645
 20
372.367992
 30
0.0
 11
44.705325
 21
376.489313
 31
0.0
  0
ARC
  5
2CE
102
{ACAD_REACTORS
330
434
102
}
100
AcDbEntity
  8
LC-002-002-----0
370
    50
390
0
  6
ByBlock
 62
     1
100
AcDbCircle
 10
46.826645
 20
378.610633
 30
0.0
 40
3.0
100
AcDbArc
 50
180.0
 51
225.0
  0
LINE
  5
2CF
102
{ACAD_REACTORS
330
444
102
}
100
AcDbEntity
  8
LC-002-002-----0
370
    25
390
0
  6
ByBlock
 62
     2
100
AcDbLine
 10
310.958034
 20
385.114172
 30
0.0
 11
285.958034
 21
382.926956
 31
0.0
  0
LINE
  5
2D0
102
{ACAD_REACTORS
330
444
102
}
100
AcDbEntity
  8
LC-002-002-----0
370
    25
390
0
  6
ByBlock
 62
     2
100
AcDbLine
 10
310.958034
 20
384.110353
 30
0.0
 11
285.958034
 21
381.923136
 31
0.0
  0
LINE
  5
2D1
102
{ACAD_REACTORS
330
444
102
}
100
AcDbEntity
  8
LC-002-002-----0
370
    25
390
0
  6
ByBlock
 62
     2
100
AcDbLine
 10
310.958034
 20
383.106533
 30
0.0
 11
285.958034
 21
380.919316
 31
0.0
  0
LINE
  5
2D2
102
{ACAD_REACTORS
330
444
102
}
100
AcDbEntity
  8
LC-002-002-----0
370
    25
390
0
  6
ByBlock
 62
     2
100
AcDbLine
 10
310.958034
 20
382.102713
 30
0.0
 11
285.958034
 21
379.915496
 31
0.0
  0
LINE
  5
2D3
102
{ACAD_REACTORS
330
444
102
}
100
AcDbEntity
  8
LC-002-002-----0
370
    25
390
0
  6
ByBlock
 62
     2
100
AcDbLine
 10
310.958034
 20
381.098893
 30
0.0
 11
285.958034
 21
378.911676
 31
0.0
  0
LINE
  5
2D4
102
{ACAD_REACTORS
330
444
102
}
100
AcDbEntity
  8
LC-002-002-----0
370
    50
390
0
  6
ByBlock
 62
     1
100
AcDbLine
 10
285.958034
 20
378.911676
 30
0.0
 11
285.958034
 21
386.117992
 31
0.0
  0
LINE
  5
2D5
102
{ACAD_REACTORS
330
444
102
}
100
AcDbEntity
  8
LC-002-002-----0
370
    50
390
0
  6
ByBlock
 62
     1
100
AcDbLine
 10
285.958034
 20
378.911676
 30
0.0
 11
286.751718
 21
378.117992
 31
0.0
  0
LINE
  5
2D6
102
{ACAD_REACTORS
330
444
102
}
100
AcDbEntity
  8
LC-002-002-----0
370
    50
390
0
  6
ByBlock
 62
     1
100
AcDbLine
 10
310.958034
 20
378.911676
 30
0.0
 11
310.164349
 21
378.117992
 31
0.0
  0
LINE
  5
2D7
102
{ACAD_REACTORS
330
444
102
}
100
AcDbEntity
  8
LC-002-002-----0
370
    50
390
0
  6
ByBlock
 62
     1
100
AcDbLine
 10
310.164349
 20
378.117992
 30
0.0
 11
286.751718
 21
378.117992
 31
0.0
  0
LINE
  5
2D8
102
{ACAD_REACTORS
330
444
102
}
100
AcDbEntity
  8
LC-002-002-----0
370
    50
390
0
  6
ByBlock
 62
     1
100
AcDbLine
 10
310.958034
 20
386.117992
 30
0.0
 11
310.958034
 21
378.911676
 31
0.0
  0
LINE
  5
2D9
102
{ACAD_REACTORS
330
443
102
}
100
AcDbEntity
  8
LC-002-002-----0
370
    25
390
0
  6
DASHED
 62
     2
100
AcDbLine
 10
274.958034
 20
455.867992
 30
0.0
 11
328.51807
 21
455.867992
 31
0.0
  0
LINE
  5
2DA
102
{ACAD_REACTORS
330
443
102
}
100
AcDbEntity
  8
LC-002-002-----0
370
    25
390
0
  6
DASHED
 62
     2
100
AcDbLine
 10
274.958034
 20
398.867992
 30
0.0
 11
328.51807
 21
398.867992
 31
0.0
  0
ARC
  5
2DB
102
{ACAD_REACTORS
330
443
102
}
100
AcDbEntity
  8
LC-001-002-RND-0
370
    25
390
0
  6
DASHED
 62
     2
100
AcDbCircle
 10
274.958034
 20
450.867992
 30
0.0
 40
5.0
100
AcDbArc
 50
90.0
 51
180.0
  0
ARC
  5
2DC
102
{ACAD_REACTORS
330
443
102
}
100
AcDbEntity
  8
LC-001-002-RND-0
370
    25
390
0
  6
DASHED
 62
     2
100
AcDbCircle
 10
274.958034
 20
403.867992
 30
0.0
 40
5.0
100
AcDbArc
 50
180.0
 51
270.0
  0
LINE
  5
2DD
102
{ACAD_REACTORS
330
443
102
}
100
AcDbEntity
  8
LC-007-006-MLN-0
370
    25
390
0
 62
     2
100
AcDbLine
 10
378.458034
 20
492.367992
 30
0.0
 11
378.458034
 21
329.367992
 31
0.0
  0
CIRCLE
  5
2DE
102
{ACAD_REACTORS
330
443
102
}
100
AcDbEntity
  8
LC-002-002-----0
370
    25
390
0
  6
DASHED
 62
     2
100
AcDbCircle
 10
318.458034
 20
427.367992
 30
0.0
 40
1.5
  0
CIRCLE
  5
2DF
102
{ACAD_REACTORS
330
443
102
}
100
AcDbEntity
  8
LC-002-002-----0
370
    25
390
0
  6
DASHED
 62
     2
100
AcDbCircle
 10
278.453762
 20
427.367992
 30
0.0
 40
1.5
  0
CIRCLE
  5
2E0
102
{ACAD_REACTORS
330
443
102
}
100
AcDbEntity
  8
LC-002-002-----0
370
    25
390
0
  6
DASHED
 62
     2
100
AcDbCircle
 10
331.458034
 20
427.367992
 30
0.0
 40
1.5
  0
LINE
  5
2E1
102
{ACAD_REACTORS
330
443
102
}
100
AcDbEntity
  8
LC-002-002-----0
370
    25
390
0
  6
DASHED
 62
     2
100
AcDbLine
 10
269.958034
 20
450.867992
 30
0.0
 11
269.958034
 21
403.867992
 31
0.0
  0
LINE
  5
2E2
102
{ACAD_REACTORS
330
443
102
}
100
AcDbEntity
  8
LC-002-002-----0
370
    25
390
0
 62
     2
100
AcDbLine
 10
378.458034
 20
381.867992
 30
0.0
 11
378.458034
 21
378.867992
 31
0.0
  0
CIRCLE
  5
2E3
102
{ACAD_REACTORS
330
443
102
}
100
AcDbEntity
  8
LC-002-002-----0
370
    25
390
0
  6
DASHED
 62
     2
100
AcDbCircle
 10
425.458034
 20
427.367992
 30
0.0
 40
1.5
  0
LINE
  5
2E4
102
{ACAD_REACTORS
330
433
102
}
100
AcDbEntity
  8
LC-002-002-----0
370
    50
390
0
  6
ByBlock
 62
     1
100
AcDbLine
 10
43.826645
 20
410.367992
 30
0.0
 11
43.826645
 21
378.610633
 31
0.0
  0
LINE
  5
2E5
102
{ACAD_REACTORS
330
432
102
}
100
AcDbEntity
  8
LC-002-002-----0
370
    50
390
0
  6
ByBlock
 62
     1
100
AcDbLine
 10
48.826645
 20
482.192401
 30
0.0
 11
44.705325
 21
478.071081
 31
0.0
  0
ARC
  5
2E6
102
{ACAD_REACTORS
330
431
102
}
100
AcDbEntity
  8
LC-002-002-----0
370
    50
390
0
  6
ByBlock
 62
     1
100
AcDbCircle
 10
46.826645
 20
475.949761
 30
0.0
 40
3.0
100
AcDbArc
 50
135.0
 51
180.0
  0
LINE
  5
2E7
100
AcDbEntity
  8
LC-002-002-----0
370
    50
390
0
  6
ByBlock
 62
     1
100
AcDbLine
 10
43.826645
 20
475.949761
 30
0.0
 11
43.826645
 21
410.367992
 31
0.0
  0
LINE
  5
2E8
100
AcDbEntity
  8
LC-002-002-----0
370
    50
390
0
  6
ByBlock
 62
     1
100
AcDbLine
 10
10.824484
 20
412.369259
 30
0.0
 11
12.324484
 21
412.369258
 31
0.0
  0
LINE
  5
2E9
100
AcDbEntity
  8
LC-002-002-----0
370
    50
390
0
  6
ByBlock
 62
     1
100
AcDbLine
 10
143.667654
 20
453.367992
 30
0.0
 11
143.667654
 21
401.367992
 31
0.0
  0
LINE
  5
2EA
100
AcDbEntity
  8
LC-002-002-----0
370
    50
390
0
  6
ByBlock
 62
     1
100
AcDbLine
 10
145.667654
 20
453.367992
 30
0.0
 11
143.667654
 21
453.367992
 31
0.0
  0
LINE
  5
2EB
100
AcDbEntity
  8
LC-002-002-----0
370
    50
390
0
  6
ByBlock
 62
     1
100
AcDbLine
 10
145.667654
 20
401.367992
 30
0.0
 11
143.667654
 21
401.367992
 31
0.0
  0
LINE
  5
2EC
100
AcDbEntity
  8
LC-002-002-----0
370
    50
390
0
  6
ByBlock
 62
     1
100
AcDbLine
 10
145.667654
 20
376.082029
 30
0.0
 11
143.667654
 21
376.082029
 31
0.0
  0
LINE
  5
2ED
100
AcDbEntity
  8
LC-002-002-----0
370
    50
390
0
  6
ByBlock
 62
     1
100
AcDbLine
 10
145.667654
 20
401.367992
 30
0.0
 11
145.667654
 21
376.082029
 31
0.0
  0
LINE
  5
2EE
100
AcDbEntity
  8
LC-002-002-----0
370
    50
390
0
  6
ByBlock
 62
     1
100
AcDbLine
 10
143.667654
 20
378.901509
 30
0.0
 11
143.667654
 21
369.867992
 31
0.0
  0
LINE
  5
2EF
100
AcDbEntity
  8
LC-002-002-----0
370
    50
390
0
  6
ByBlock
 62
     1
100
AcDbLine
 10
143.667654
 20
369.867992
 30
0.0
 11
135.667654
 21
369.867992
 31
0.0
  0
ARC
  5
2F0
100
AcDbEntity
  8
LC-001-002-RND-0
370
    50
390
0
 62
     1
100
AcDbCircle
 10
135.667654
 20
483.867992
 30
0.0
 40
1.0
100
AcDbArc
 50
90.0
 51
180.0
  0
LINE
  5
2F1
100
AcDbEntity
  8
LC-002-002-----0
370
    50
390
0
  6
ByBlock
 62
     1
100
AcDbLine
 10
143.667654
 20
453.367992
 30
0.0
 11
143.667654
 21
475.772006
 31
0.0
  0
LINE
  5
2F2
100
AcDbEntity
  8
LC-002-002-----0
370
    50
390
0
  6
ByBlock
 62
     1
100
AcDbLine
 10
143.667654
 20
384.867992
 30
0.0
 11
143.667654
 21
378.867992
 31
0.0
  0
LINE
  5
2F3
100
AcDbEntity
  8
LC-002-002-----0
370
    50
390
0
  6
ByBlock
 62
     1
100
AcDbLine
 10
143.667654
 20
384.867992
 30
0.0
 11
143.667654
 21
401.367992
 31
0.0
  0
ARC
  5
2F4
100
AcDbEntity
  8
LC-001-002-RND-0
370
    50
390
0
 62
     1
100
AcDbCircle
 10
135.667654
 20
370.867992
 30
0.0
 40
1.0
100
AcDbArc
 50
180.0
 51
270.0
  0
LINE
  5
2F5
100
AcDbEntity
  8
LC-002-002-----0
370
    50
390
0
  6
ByBlock
 62
     1
100
AcDbLine
 10
143.667654
 20
452.367992
 30
0.0
 11
146.667654
 21
452.367992
 31
0.0
  0
LINE
  5
2F6
100
AcDbEntity
  8
LC-002-002-----0
370
    50
390
0
  6
ByBlock
 62
     1
100
AcDbLine
 10
146.667654
 20
452.367992
 30
0.0
 11
146.667654
 21
402.367992
 31
0.0
  0
LINE
  5
2F7
100
AcDbEntity
  8
LC-002-002-----0
370
    50
390
0
  6
ByBlock
 62
     1
100
AcDbLine
 10
146.667654
 20
402.367992
 30
0.0
 11
143.667654
 21
402.367992
 31
0.0
  0
LINE
  5
2F8
100
AcDbEntity
  8
LC-002-002-----0
370
    50
390
0
  6
ByBlock
 62
     1
100
AcDbLine
 10
10.824483
 20
412.369259
 30
0.0
 11
-10.675516
 21
412.369273
 31
0.0
  0
LINE
  5
2F9
100
AcDbEntity
  8
LC-002-002-----0
370
    50
390
0
  6
ByBlock
 62
     1
100
AcDbLine
 10
-10.175521
 20
405.369273
 30
0.0
 11
10.824479
 21
405.369259
 31
0.0
  0
LINE
  5
2FA
100
AcDbEntity
  8
LC-002-002-----0
370
    50
390
0
  6
ByBlock
 62
     1
100
AcDbLine
 10
-9.675525
 20
398.369273
 30
0.0
 11
10.684727
 21
398.369259
 31
0.0
  0
LINE
  5
2FB
100
AcDbEntity
  8
LC-002-002-----0
370
    50
390
0
  6
ByBlock
 62
     1
100
AcDbLine
 10
-9.17553
 20
391.369272
 30
0.0
 11
9.954175
 21
391.36926
 31
0.0
  0
LINE
  5
2FC
100
AcDbEntity
  8
LC-002-002-----0
370
    50
390
0
  6
ByBlock
 62
     1
100
AcDbLine
 10
-8.675535
 20
384.369272
 30
0.0
 11
9.920922
 21
384.36926
 31
0.0
  0
LINE
  5
2FD
100
AcDbEntity
  8
LC-002-002-----0
370
    50
390
0
  6
ByBlock
 62
     1
100
AcDbLine
 10
-7.675539
 20
377.369271
 30
0.0
 11
9.324461
 21
377.36926
 31
0.0
  0
LINE
  5
2FE
100
AcDbEntity
  8
LC-002-002-----0
370
    50
390
0
  6
ByBlock
 62
     1
100
AcDbLine
 10
12.324484
 20
412.369258
 30
0.0
 11
10.824479
 21
405.369259
 31
0.0
  0
LINE
  5
2FF
100
AcDbEntity
  8
LC-002-002-----0
370
    50
390
0
  6
ByBlock
 62
     1
100
AcDbLine
 10
11.824479
 20
405.369259
 30
0.0
 11
10.684727
 21
398.369259
 31
0.0
  0
LINE
  5
300
100
AcDbEntity
  8
LC-002-002-----0
370
    50
390
0
  6
ByBlock
 62
     1
100
AcDbLine
 10
11.324475
 20
398.369259
 30
0.0
 11
9.954175
 21
391.36926
 31
0.0
  0
LINE
  5
301
100
AcDbEntity
  8
LC-002-002-----0
370
    50
390
0
  6
ByBlock
 62
     1
100
AcDbLine
 10
10.82447
 20
391.369259
 30
0.0
 11
9.920922
 21
384.36926
 31
0.0
  0
LINE
  5
302
100
AcDbEntity
  8
LC-002-002-----0
370
    50
390
0
  6
ByBlock
 62
     1
100
AcDbLine
 10
10.324465
 20
384.36926
 30
0.0
 11
9.324461
 21
377.36926
 31
0.0
  0
LINE
  5
303
100
AcDbEntity
  8
LC-002-002-----0
370
    50
390
0
  6
ByBlock
 62
     1
100
AcDbLine
 10
-10.675786
 20
412.369537
 30
0.0
 11
-9.175786
 21
405.369537
 31
0.0
  0
LINE
  5
304
100
AcDbEntity
  8
LC-002-002-----0
370
    50
390
0
  6
ByBlock
 62
     1
100
AcDbLine
 10
-10.175786
 20
405.369537
 30
0.0
 11
-9.036039
 21
398.369537
 31
0.0
  0
LINE
  5
305
100
AcDbEntity
  8
LC-002-002-----0
370
    50
390
0
  6
ByBlock
 62
     1
100
AcDbLine
 10
-9.675786
 20
398.369537
 30
0.0
 11
-8.305491
 21
391.369537
 31
0.0
  0
LINE
  5
306
100
AcDbEntity
  8
LC-002-002-----0
370
    50
390
0
  6
ByBlock
 62
     1
100
AcDbLine
 10
-9.175786
 20
391.369537
 30
0.0
 11
-8.272243
 21
384.369537
 31
0.0
  0
LINE
  5
307
100
AcDbEntity
  8
LC-002-002-----0
370
    50
390
0
  6
ByBlock
 62
     1
100
AcDbLine
 10
-8.675786
 20
384.369537
 30
0.0
 11
-7.675786
 21
377.369537
 31
0.0
  0
LINE
  5
308
100
AcDbEntity
  8
LC-002-002-----0
370
    50
390
0
  6
ByBlock
 62
     1
100
AcDbLine
 10
10.824479
 20
405.369259
 30
0.0
 11
11.824479
 21
405.369259
 31
0.0
  0
LINE
  5
309
100
AcDbEntity
  8
LC-002-002-----0
370
    50
390
0
  6
ByBlock
 62
     1
100
AcDbLine
 10
10.684727
 20
398.369259
 30
0.0
 11
11.324475
 21
398.369259
 31
0.0
  0
LINE
  5
30A
100
AcDbEntity
  8
LC-002-002-----0
370
    50
390
0
  6
ByBlock
 62
     1
100
AcDbLine
 10
9.954175
 20
391.36926
 30
0.0
 11
10.82447
 21
391.369259
 31
0.0
  0
LINE
  5
30B
100
AcDbEntity
  8
LC-002-002-----0
370
    50
390
0
  6
ByBlock
 62
     1
100
AcDbLine
 10
9.920922
 20
384.36926
 30
0.0
 11
10.324465
 21
384.36926
 31
0.0
  0
LINE
  5
30C
100
AcDbEntity
  8
LC-002-002-----0
370
    50
390
0
  6
ByBlock
 62
     1
100
AcDbLine
 10
17.824485
 20
415.369255
 30
0.0
 11
10.824485
 21
415.369259
 31
0.0
  0
LINE
  5
30D
102
{ACAD_REACTORS
330
430
102
}
100
AcDbEntity
  8
LC-002-002-----0
370
    25
390
0
  6
ByBlock
 62
     2
100
AcDbLine
 10
68.826645
 20
442.367992
 30
0.0
 11
48.826645
 21
442.367992
 31
0.0
  0
LINE
  5
30E
102
{ACAD_REACTORS
330
430
102
}
100
AcDbEntity
  8
LC-002-002-----0
370
    25
390
0
  6
ByBlock
 62
     2
100
AcDbLine
 10
68.826645
 20
412.367992
 30
0.0
 11
48.826645
 21
412.367992
 31
0.0
  0
LINE
  5
30F
102
{ACAD_REACTORS
330
430
102
}
100
AcDbEntity
  8
LC-002-002-----0
370
    50
390
0
  6
ByBlock
 62
     1
100
AcDbLine
 10
73.826645
 20
438.867992
 30
0.0
 11
76.826645
 21
438.867992
 31
0.0
  0
LINE
  5
310
102
{ACAD_REACTORS
330
430
102
}
100
AcDbEntity
  8
LC-002-002-----0
370
    50
390
0
  6
ByBlock
 62
     1
100
AcDbLine
 10
68.826645
 20
443.867992
 30
0.0
 11
48.826645
 21
443.867992
 31
0.0
  0
LINE
  5
311
102
{ACAD_REACTORS
330
430
102
}
100
AcDbEntity
  8
LC-002-002-----0
370
    50
390
0
  6
ByBlock
 62
     1
100
AcDbLine
 10
68.826645
 20
410.867992
 30
0.0
 11
48.826645
 21
410.867992
 31
0.0
  0
LINE
  5
312
102
{ACAD_REACTORS
330
430
102
}
100
AcDbEntity
  8
LC-002-002-----0
370
    50
390
0
  6
ByBlock
 62
     1
100
AcDbLine
 10
71.826645
 20
440.867992
 30
0.0
 11
68.826645
 21
443.867992
 31
0.0
  0
LINE
  5
313
102
{ACAD_REACTORS
330
430
102
}
100
AcDbEntity
  8
LC-002-002-----0
370
    50
390
0
  6
ByBlock
 62
     1
100
AcDbLine
 10
71.826645
 20
413.867992
 30
0.0
 11
68.826645
 21
410.867992
 31
0.0
  0
LINE
  5
314
102
{ACAD_REACTORS
330
430
102
}
100
AcDbEntity
  8
LC-002-002-----0
370
    50
390
0
  6
ByBlock
 62
     1
100
AcDbLine
 10
73.826645
 20
438.867992
 30
0.0
 11
73.826645
 21
415.867992
 31
0.0
  0
LINE
  5
315
102
{ACAD_REACTORS
330
430
102
}
100
AcDbEntity
  8
LC-002-002-----0
370
    50
390
0
  6
ByBlock
 62
     1
100
AcDbLine
 10
73.918078
 20
416.032757
 30
0.0
 11
76.826645
 21
416.032757
 31
0.0
  0
LINE
  5
316
102
{ACAD_REACTORS
330
430
102
}
100
AcDbEntity
  8
LC-002-002-----0
370
    50
390
0
  6
ByBlock
 62
     1
100
AcDbLine
 10
94.626645
 20
446.867992
 30
0.0
 11
94.626645
 21
440.867992
 31
0.0
  0
LINE
  5
317
102
{ACAD_REACTORS
330
430
102
}
100
AcDbEntity
  8
LC-002-002-----0
370
    50
390
0
  6
ByBlock
 62
     1
100
AcDbLine
 10
94.626645
 20
413.867992
 30
0.0
 11
94.626645
 21
407.867992
 31
0.0
  0
LINE
  5
318
102
{ACAD_REACTORS
330
430
102
}
100
AcDbEntity
  8
LC-002-002-----0
370
    50
390
0
  6
ByBlock
 62
     1
100
AcDbLine
 10
93.126645
 20
446.867992
 30
0.0
 11
93.126645
 21
440.867992
 31
0.0
  0
LINE
  5
319
102
{ACAD_REACTORS
330
430
102
}
100
AcDbEntity
  8
LC-002-002-----0
370
    50
390
0
  6
ByBlock
 62
     1
100
AcDbLine
 10
93.126645
 20
413.867992
 30
0.0
 11
93.126645
 21
407.867992
 31
0.0
  0
LINE
  5
31A
102
{ACAD_REACTORS
330
430
102
}
100
AcDbEntity
  8
LC-002-002-----0
370
    50
390
0
  6
ByBlock
 62
     1
100
AcDbLine
 10
93.126645
 20
438.29583
 30
0.0
 11
93.126645
 21
416.440154
 31
0.0
  0
LINE
  5
31B
102
{ACAD_REACTORS
330
430
102
}
100
AcDbEntity
  8
LC-002-002-----0
370
    50
390
0
  6
ByBlock
 62
     1
100
AcDbLine
 10
94.626645
 20
436.675513
 30
0.0
 11
94.626645
 21
418.075513
 31
0.0
  0
LINE
  5
31C
102
{ACAD_REACTORS
330
430
102
}
100
AcDbEntity
  8
LC-002-002-----0
370
    50
390
0
  6
ByBlock
 62
     1
100
AcDbLine
 10
76.826645
 20
444.867992
 30
0.0
 11
76.826645
 21
440.867992
 31
0.0
  0
LINE
  5
31D
102
{ACAD_REACTORS
330
430
102
}
100
AcDbEntity
  8
LC-002-002-----0
370
    25
390
0
 62
     2
100
AcDbLine
 10
0.824493
 20
427.367992
 30
0.0
 11
146.667654
 21
427.367992
 31
0.0
  0
LINE
  5
31E
102
{ACAD_REACTORS
330
430
102
}
100
AcDbEntity
  8
LC-002-002-----0
370
    50
390
0
  6
ByBlock
 62
     1
100
AcDbLine
 10
76.826645
 20
438.867992
 30
0.0
 11
76.826645
 21
416.032757
 31
0.0
  0
LINE
  5
31F
102
{ACAD_REACTORS
330
430
102
}
100
AcDbEntity
  8
LC-002-002-----0
370
    50
390
0
  6
ByBlock
 62
     1
100
AcDbLine
 10
76.826645
 20
413.867992
 30
0.0
 11
76.826645
 21
409.867992
 31
0.0
  0
LINE
  5
320
102
{ACAD_REACTORS
330
430
102
}
100
AcDbEntity
  8
LC-002-002-----0
370
    50
390
0
  6
ByBlock
 62
     1
100
AcDbLine
 10
48.826645
 20
436.675513
 30
0.0
 11
48.826645
 21
418.075513
 31
0.0
  0
LINE
  5
321
102
{ACAD_REACTORS
330
430
102
}
100
AcDbEntity
  8
LC-002-002-----0
370
    50
390
0
  6
ByBlock
 62
     1
100
AcDbLine
 10
48.826645
 20
418.401391
 30
0.0
 11
48.826645
 21
410.867992
 31
0.0
  0
LINE
  5
322
102
{ACAD_REACTORS
330
430
102
}
100
AcDbEntity
  8
LC-002-002-----0
370
    50
390
0
  6
ByBlock
 62
     1
100
AcDbLine
 10
94.626645
 20
410.867992
 30
0.0
 11
94.626645
 21
410.867992
 31
0.0
  0
LINE
  5
323
102
{ACAD_REACTORS
330
430
102
}
100
AcDbEntity
  8
LC-002-002-----0
370
    50
390
0
  6
ByBlock
 62
     1
100
AcDbLine
 10
77.326645
 20
441.859926
 30
0.0
 11
77.326645
 21
444.295563
 31
0.0
  0
LINE
  5
324
102
{ACAD_REACTORS
330
430
102
}
100
AcDbEntity
  8
LC-002-002-----0
370
    50
390
0
  6
ByBlock
 62
     1
100
AcDbLine
 10
94.626645
 20
443.867992
 30
0.0
 11
94.626645
 21
443.867992
 31
0.0
  0
LINE
  5
325
102
{ACAD_REACTORS
330
430
102
}
100
AcDbEntity
  8
LC-002-002-----0
370
    50
390
0
  6
ByBlock
 62
     1
100
AcDbLine
 10
93.126645
 20
419.904256
 30
0.0
 11
77.326645
 21
419.904256
 31
0.0
  0
LINE
  5
326
102
{ACAD_REACTORS
330
430
102
}
100
AcDbEntity
  8
LC-002-002-----0
370
    50
390
0
  6
ByBlock
 62
     1
100
AcDbLine
 10
77.326645
 20
429.367992
 30
0.0
 11
77.326645
 21
425.367992
 31
0.0
  0
LINE
  5
327
102
{ACAD_REACTORS
330
430
102
}
100
AcDbEntity
  8
LC-002-002-----0
370
    50
390
0
  6
ByBlock
 62
     1
100
AcDbLine
 10
93.126645
 20
416.440154
 30
0.0
 11
77.326645
 21
416.440154
 31
0.0
  0
LINE
  5
328
102
{ACAD_REACTORS
330
430
102
}
100
AcDbEntity
  8
LC-002-002-----0
370
    50
390
0
  6
ByBlock
 62
     1
100
AcDbLine
 10
77.326645
 20
419.904256
 30
0.0
 11
77.326645
 21
416.440154
 31
0.0
  0
LINE
  5
329
102
{ACAD_REACTORS
330
430
102
}
100
AcDbEntity
  8
LC-002-002-----0
370
    50
390
0
  6
ByBlock
 62
     1
100
AcDbLine
 10
93.126645
 20
412.876059
 30
0.0
 11
77.326645
 21
412.876059
 31
0.0
  0
LINE
  5
32A
102
{ACAD_REACTORS
330
430
102
}
100
AcDbEntity
  8
LC-002-002-----0
370
    50
390
0
  6
ByBlock
 62
     1
100
AcDbLine
 10
77.326645
 20
412.876059
 30
0.0
 11
77.326645
 21
410.440422
 31
0.0
  0
LINE
  5
32B
102
{ACAD_REACTORS
330
430
102
}
100
AcDbEntity
  8
LC-002-002-----0
370
    50
390
0
  6
ByBlock
 62
     1
100
AcDbLine
 10
77.326645
 20
434.831728
 30
0.0
 11
77.326645
 21
438.29583
 31
0.0
  0
LINE
  5
32C
102
{ACAD_REACTORS
330
430
102
}
100
AcDbEntity
  8
LC-002-002-----0
370
    50
390
0
  6
ByBlock
 62
     1
100
AcDbLine
 10
93.126645
 20
410.440422
 30
0.0
 11
77.326645
 21
410.440422
 31
0.0
  0
LINE
  5
32D
102
{ACAD_REACTORS
330
430
102
}
100
AcDbEntity
  8
LC-002-002-----0
370
    50
390
0
  6
ByBlock
 62
     1
100
AcDbLine
 10
93.126645
 20
434.831728
 30
0.0
 11
77.326645
 21
434.831728
 31
0.0
  0
LINE
  5
32E
102
{ACAD_REACTORS
330
430
102
}
100
AcDbEntity
  8
LC-002-002-----0
370
    50
390
0
  6
ByBlock
 62
     1
100
AcDbLine
 10
93.126645
 20
438.29583
 30
0.0
 11
77.326645
 21
438.29583
 31
0.0
  0
LINE
  5
32F
102
{ACAD_REACTORS
330
430
102
}
100
AcDbEntity
  8
LC-002-002-----0
370
    50
390
0
  6
ByBlock
 62
     1
100
AcDbLine
 10
93.126645
 20
429.367992
 30
0.0
 11
77.326645
 21
429.367992
 31
0.0
  0
LINE
  5
330
102
{ACAD_REACTORS
330
430
102
}
100
AcDbEntity
  8
LC-002-002-----0
370
    50
390
0
  6
ByBlock
 62
     1
100
AcDbLine
 10
93.126645
 20
425.367992
 30
0.0
 11
77.326645
 21
425.367992
 31
0.0
  0
LINE
  5
331
102
{ACAD_REACTORS
330
430
102
}
100
AcDbEntity
  8
LC-002-002-----0
370
    50
390
0
  6
ByBlock
 62
     1
100
AcDbLine
 10
93.126645
 20
441.859926
 30
0.0
 11
77.326645
 21
441.859926
 31
0.0
  0
LINE
  5
332
102
{ACAD_REACTORS
330
430
102
}
100
AcDbEntity
  8
LC-002-002-----0
370
    50
390
0
  6
ByBlock
 62
     1
100
AcDbLine
 10
93.126645
 20
444.295563
 30
0.0
 11
77.326645
 21
444.295563
 31
0.0
  0
ARC
  5
333
102
{ACAD_REACTORS
330
430
102
}
100
AcDbEntity
  8
LC-001-002-RND-0
370
    50
390
0
 62
     1
100
AcDbCircle
 10
77.826645
 20
444.867992
 30
0.0
 40
1.0
100
AcDbArc
 50
90.0
 51
180.0
  0
LINE
  5
334
102
{ACAD_REACTORS
330
430
102
}
100
AcDbEntity
  8
LC-002-002-----0
370
    50
390
0
  6
ByBlock
 62
     1
100
AcDbLine
 10
77.826645
 20
445.867992
 30
0.0
 11
93.126645
 21
445.867992
 31
0.0
  0
LINE
  5
335
102
{ACAD_REACTORS
330
430
102
}
100
AcDbEntity
  8
LC-002-002-----0
370
    50
390
0
  6
ByBlock
 62
     1
100
AcDbLine
 10
93.126645
 20
446.867992
 30
0.0
 11
94.626645
 21
446.867992
 31
0.0
  0
LINE
  5
336
102
{ACAD_REACTORS
330
430
102
}
100
AcDbEntity
  8
LC-002-002-----0
370
    50
390
0
  6
ByBlock
 62
     1
100
AcDbLine
 10
93.126645
 20
407.867992
 30
0.0
 11
94.626645
 21
407.867992
 31
0.0
  0
LINE
  5
337
102
{ACAD_REACTORS
330
430
102
}
100
AcDbEntity
  8
LC-002-002-----0
370
    50
390
0
  6
ByBlock
 62
     1
100
AcDbLine
 10
77.826645
 20
408.867992
 30
0.0
 11
93.126645
 21
408.867992
 31
0.0
  0
ARC
  5
338
102
{ACAD_REACTORS
330
430
102
}
100
AcDbEntity
  8
LC-001-002-RND-0
370
    50
390
0
 62
     1
100
AcDbCircle
 10
77.826645
 20
409.867992
 30
0.0
 40
1.0
100
AcDbArc
 50
180.0
 51
270.0
  0
LINE
  5
339
102
{ACAD_REACTORS
330
430
102
}
100
AcDbEntity
  8
LC-002-002-----0
370
    50
390
0
  6
ByBlock
 62
     1
100
AcDbLine
 10
94.626645
 20
418.075513
 30
0.0
 11
94.626645
 21
413.867992
 31
0.0
  0
LINE
  5
33A
102
{ACAD_REACTORS
330
430
102
}
100
AcDbEntity
  8
LC-002-002-----0
370
    50
390
0
  6
ByBlock
 62
     1
100
AcDbLine
 10
93.1009
 20
413.885382
 30
0.0
 11
93.1009
 21
416.440154
 31
0.0
  0
LINE
  5
33B
102
{ACAD_REACTORS
330
430
102
}
100
AcDbEntity
  8
LC-002-002-----0
370
    50
390
0
  6
ByBlock
 62
     1
100
AcDbLine
 10
76.826645
 20
413.867992
 30
0.0
 11
76.826645
 21
416.032757
 31
0.0
  0
LINE
  5
33C
102
{ACAD_REACTORS
330
430
102
}
100
AcDbEntity
  8
LC-002-002-----0
370
    50
390
0
  6
ByBlock
 62
     1
100
AcDbLine
 10
73.826645
 20
415.867992
 30
0.0
 11
71.826645
 21
413.867992
 31
0.0
  0
LINE
  5
33D
102
{ACAD_REACTORS
330
430
102
}
100
AcDbEntity
  8
LC-002-002-----0
370
    50
390
0
  6
ByBlock
 62
     1
100
AcDbLine
 10
94.626645
 20
436.675513
 30
0.0
 11
94.626645
 21
440.867992
 31
0.0
  0
LINE
  5
33E
102
{ACAD_REACTORS
330
430
102
}
100
AcDbEntity
  8
LC-002-002-----0
370
    50
390
0
  6
ByBlock
 62
     1
100
AcDbLine
 10
93.126645
 20
440.867992
 30
0.0
 11
93.126645
 21
438.29583
 31
0.0
  0
LINE
  5
33F
102
{ACAD_REACTORS
330
430
102
}
100
AcDbEntity
  8
LC-002-002-----0
370
    50
390
0
  6
ByBlock
 62
     1
100
AcDbLine
 10
76.826645
 20
438.867992
 30
0.0
 11
76.826645
 21
440.867992
 31
0.0
  0
LINE
  5
340
102
{ACAD_REACTORS
330
430
102
}
100
AcDbEntity
  8
LC-002-002-----0
370
    50
390
0
  6
ByBlock
 62
     1
100
AcDbLine
 10
73.826645
 20
438.867992
 30
0.0
 11
71.826645
 21
440.867992
 31
0.0
  0
LINE
  5
341
102
{ACAD_REACTORS
330
430
102
}
100
AcDbEntity
  8
LC-002-002-----0
370
    50
390
0
  6
ByBlock
 62
     1
100
AcDbLine
 10
48.826645
 20
436.675513
 30
0.0
 11
48.826645
 21
443.867992
 31
0.0
  0
LINE
  5
342
100
AcDbEntity
  8
LC-002-002-----0
370
    50
390
0
  6
ByBlock
 62
     1
100
AcDbLine
 10
112.167654
 20
432.367992
 30
0.0
 11
112.167654
 21
422.367992
 31
0.0
  0
LINE
  5
343
100
AcDbEntity
  8
LC-002-002-----0
370
    50
390
0
  6
ByBlock
 62
     1
100
AcDbLine
 10
112.667654
 20
432.867992
 30
0.0
 11
113.167654
 21
432.867992
 31
0.0
  0
LINE
  5
344
100
AcDbEntity
  8
LC-002-002-----0
370
    50
390
0
  6
ByBlock
 62
     1
100
AcDbLine
 10
112.667654
 20
421.867992
 30
0.0
 11
113.167654
 21
421.867992
 31
0.0
  0
ARC
  5
345
100
AcDbEntity
  8
LC-001-002-RND-0
370
    50
390
0
 62
     1
100
AcDbCircle
 10
112.667654
 20
422.367992
 30
0.0
 40
0.5
100
AcDbArc
 50
180.0
 51
270.0
  0
LINE
  5
346
100
AcDbEntity
  8
LC-002-002-----0
370
    50
390
0
  6
ByBlock
 62
     1
100
AcDbLine
 10
126.667654
 20
429.467992
 30
0.0
 11
134.667654
 21
429.467992
 31
0.0
  0
LINE
  5
347
100
AcDbEntity
  8
LC-002-002-----0
370
    50
390
0
  6
ByBlock
 62
     1
100
AcDbLine
 10
126.667654
 20
425.267992
 30
0.0
 11
134.667654
 21
425.267992
 31
0.0
  0
ARC
  5
348
100
AcDbEntity
  8
LC-001-002-RND-0
370
    50
390
0
 62
     1
100
AcDbCircle
 10
113.167654
 20
422.367992
 30
0.0
 40
0.5
100
AcDbArc
 50
270.0
 51
0.0
  0
ARC
  5
349
100
AcDbEntity
  8
LC-002-002-----0
370
    50
390
0
  6
ByBlock
 62
     1
100
AcDbCircle
 10
121.792654
 20
427.367992
 30
0.0
 40
10.625
100
AcDbArc
 50
154.942385
 51
205.057615
  0
ARC
  5
34A
100
AcDbEntity
  8
LC-001-002-RND-0
370
    50
390
0
 62
     1
100
AcDbCircle
 10
113.167654
 20
432.367992
 30
0.0
 40
0.5
100
AcDbArc
 50
0.0
 51
90.0
  0
ARC
  5
34B
100
AcDbEntity
  8
LC-001-002-RND-0
370
    50
390
0
 62
     1
100
AcDbCircle
 10
112.667654
 20
432.367992
 30
0.0
 40
0.5
100
AcDbArc
 50
90.0
 51
180.0
  0
LINE
  5
34C
100
AcDbEntity
  8
LC-002-002-----0
370
    25
390
0
  6
ByBlock
 62
     2
100
AcDbLine
 10
20.825445
 20
430.367342
 30
0.0
 11
20.825445
 21
424.367342
 31
0.0
  0
LINE
  5
34D
100
AcDbEntity
  8
LC-002-002-----0
370
    50
390
0
  6
ByBlock
 62
     1
100
AcDbLine
 10
35.826847
 20
407.367769
 30
0.0
 11
35.82667
 21
447.367119
 31
0.0
  0
LINE
  5
34E
100
AcDbEntity
  8
LC-002-002-----0
370
    25
390
0
  6
ByBlock
 62
     2
100
AcDbLine
 10
20.825445
 20
419.490966
 30
0.0
 11
20.825445
 21
413.490966
 31
0.0
  0
LINE
  5
34F
100
AcDbEntity
  8
LC-002-002-----0
370
    50
390
0
  6
ByBlock
 62
     1
100
AcDbLine
 10
148.167654
 20
444.867992
 30
0.0
 11
148.167654
 21
434.867992
 31
0.0
  0
LINE
  5
350
100
AcDbEntity
  8
LC-002-002-----0
370
    50
390
0
  6
ByBlock
 62
     1
100
AcDbLine
 10
147.667654
 20
445.367992
 30
0.0
 11
147.167654
 21
445.367992
 31
0.0
  0
LINE
  5
351
100
AcDbEntity
  8
LC-002-002-----0
370
    50
390
0
  6
ByBlock
 62
     1
100
AcDbLine
 10
147.667654
 20
434.367992
 30
0.0
 11
147.167654
 21
434.367992
 31
0.0
  0
ARC
  5
352
100
AcDbEntity
  8
LC-001-002-RND-0
370
    50
390
0
 62
     1
100
AcDbCircle
 10
147.667654
 20
434.867992
 30
0.0
 40
0.5
100
AcDbArc
 50
270.0
 51
0.0
  0
ARC
  5
353
100
AcDbEntity
  8
LC-001-002-RND-0
370
    50
390
0
 62
     1
100
AcDbCircle
 10
147.167654
 20
434.867992
 30
0.0
 40
0.5
100
AcDbArc
 50
180.0
 51
270.0
  0
ARC
  5
354
100
AcDbEntity
  8
LC-002-002-----0
370
    50
390
0
  6
ByBlock
 62
     1
100
AcDbCircle
 10
138.542654
 20
439.867992
 30
0.0
 40
10.625
100
AcDbArc
 50
334.942385
 51
25.057615
  0
ARC
  5
355
100
AcDbEntity
  8
LC-002-002-----0
370
    50
390
0
  6
ByBlock
 62
     1
100
AcDbCircle
 10
244.318034
 20
439.867992
 30
0.0
 40
4.25
100
AcDbArc
 50
101.674586
 51
258.325414
  0
CIRCLE
  5
356
100
AcDbEntity
  8
LC-002-002-----0
370
    50
390
0
  6
ByBlock
 62
     1
100
AcDbCircle
 10
234.318034
 20
427.367992
 30
0.0
 40
4.25
  0
CIRCLE
  5
357
100
AcDbEntity
  8
LC-002-002-----0
370
    50
390
0
  6
ByBlock
 62
     1
100
AcDbCircle
 10
444.318034
 20
439.867992
 30
0.0
 40
4.25
  0
ARC
  5
358
100
AcDbEntity
  8
LC-002-002-----0
370
    50
390
0
  6
ByBlock
 62
     1
100
AcDbCircle
 10
244.318034
 20
414.867992
 30
0.0
 40
4.25
100
AcDbArc
 50
101.674586
 51
258.325414
  0
CIRCLE
  5
359
100
AcDbEntity
  8
LC-002-002-----0
370
    50
390
0
  6
ByBlock
 62
     1
100
AcDbCircle
 10
474.318034
 20
427.367992
 30
0.0
 40
4.25
  0
CIRCLE
  5
35A
100
AcDbEntity
  8
LC-002-002-----0
370
    50
390
0
  6
ByBlock
 62
     1
100
AcDbCircle
 10
204.318034
 20
439.867992
 30
0.0
 40
4.25
  0
ARC
  5
35B
100
AcDbEntity
  8
LC-002-002-----0
370
    50
390
0
  6
ByBlock
 62
     1
100
AcDbCircle
 10
468.54697
 20
436.907992
 30
0.0
 40
1.5
100
AcDbArc
 50
90.0
 51
156.828899
  0
CIRCLE
  5
35C
100
AcDbEntity
  8
LC-002-002-----0
370
    50
390
0
  6
ByBlock
 62
     1
100
AcDbCircle
 10
444.318034
 20
414.867992
 30
0.0
 40
4.25
  0
ARC
  5
35D
100
AcDbEntity
  8
LC-001-002-RND-0
370
    50
390
0
 62
     1
100
AcDbCircle
 10
147.167654
 20
444.867992
 30
0.0
 40
0.5
100
AcDbArc
 50
90.0
 51
180.0
  0
ARC
  5
35E
100
AcDbEntity
  8
LC-001-002-RND-0
370
    50
390
0
 62
     1
100
AcDbCircle
 10
147.667654
 20
444.867992
 30
0.0
 40
0.5
100
AcDbArc
 50
0.0
 51
90.0
  0
LINE
  5
35F
100
AcDbEntity
  8
LC-002-002-----0
370
    50
390
0
  6
ByBlock
 62
     1
100
AcDbLine
 10
450.068034
 20
431.617992
 30
0.0
 11
458.568034
 21
431.617992
 31
0.0
  0
CIRCLE
  5
360
100
AcDbEntity
  8
LC-002-002-----0
370
    50
390
0
  6
ByBlock
 62
     1
100
AcDbCircle
 10
204.318034
 20
414.867992
 30
0.0
 40
4.25
  0
ARC
  5
361
100
AcDbEntity
  8
LC-002-002-----0
370
    50
390
0
  6
ByBlock
 62
     1
100
AcDbCircle
 10
468.54697
 20
417.827992
 30
0.0
 40
1.5
100
AcDbArc
 50
203.171101
 51
270.0
  0
LINE
  5
362
100
AcDbEntity
  8
LC-002-002-----0
370
    25
390
0
 62
     2
100
AcDbLine
 10
199.98371
 20
427.367992
 30
0.0
 11
519.318034
 21
427.367992
 31
0.0
  0
ARC
  5
363
100
AcDbEntity
  8
LC-002-002-----0
370
    50
390
0
  6
ByBlock
 62
     1
100
AcDbCircle
 10
470.178034
 20
441.507992
 30
0.0
 40
3.1
100
AcDbArc
 50
270.0
 51
90.0
  0
ARC
  5
364
100
AcDbEntity
  8
LC-002-002-----0
370
    50
390
0
  6
ByBlock
 62
     1
100
AcDbCircle
 10
458.458034
 20
441.507992
 30
0.0
 40
3.1
100
AcDbArc
 50
90.0
 51
270.0
  0
LINE
  5
365
100
AcDbEntity
  8
LC-002-002-----0
370
    50
390
0
  6
ByBlock
 62
     1
100
AcDbLine
 10
470.178034
 20
444.607992
 30
0.0
 11
458.458034
 21
444.607992
 31
0.0
  0
LINE
  5
366
100
AcDbEntity
  8
LC-002-002-----0
370
    50
390
0
  6
ByBlock
 62
     1
100
AcDbLine
 10
470.178034
 20
438.407992
 30
0.0
 11
468.54697
 21
438.407992
 31
0.0
  0
LINE
  5
367
100
AcDbEntity
  8
LC-002-002-----0
370
    50
390
0
  6
ByBlock
 62
     1
100
AcDbLine
 10
458.458034
 20
438.407992
 30
0.0
 11
460.089098
 21
438.407992
 31
0.0
  0
ARC
  5
368
100
AcDbEntity
  8
LC-002-002-----0
370
    50
390
0
  6
ByBlock
 62
     1
100
AcDbCircle
 10
464.318034
 20
438.717992
 30
0.0
 40
3.1
100
AcDbArc
 50
203.171101
 51
336.828899
  0
ARC
  5
369
100
AcDbEntity
  8
LC-002-002-----0
370
    50
390
0
  6
ByBlock
 62
     1
100
AcDbCircle
 10
460.089098
 20
436.907992
 30
0.0
 40
1.5
100
AcDbArc
 50
23.171101
 51
90.0
  0
ARC
  5
36A
100
AcDbEntity
  8
LC-002-002-----0
370
    50
390
0
  6
ByBlock
 62
     1
100
AcDbCircle
 10
458.568034
 20
427.367992
 30
0.0
 40
4.25
100
AcDbArc
 50
270.0
 51
90.0
  0
LINE
  5
36B
100
AcDbEntity
  8
LC-002-002-----0
370
    50
390
0
  6
ByBlock
 62
     1
100
AcDbLine
 10
450.068034
 20
423.117992
 30
0.0
 11
458.568034
 21
423.117992
 31
0.0
  0
ARC
  5
36C
100
AcDbEntity
  8
LC-002-002-----0
370
    50
390
0
  6
ByBlock
 62
     1
100
AcDbCircle
 10
450.068034
 20
427.367992
 30
0.0
 40
4.25
100
AcDbArc
 50
90.0
 51
270.0
  0
ARC
  5
36D
100
AcDbEntity
  8
LC-002-002-----0
370
    50
390
0
  6
ByBlock
 62
     1
100
AcDbCircle
 10
470.178034
 20
413.227992
 30
0.0
 40
3.1
100
AcDbArc
 50
270.0
 51
90.0
  0
ARC
  5
36E
100
AcDbEntity
  8
LC-002-002-----0
370
    50
390
0
  6
ByBlock
 62
     1
100
AcDbCircle
 10
458.458034
 20
413.227992
 30
0.0
 40
3.1
100
AcDbArc
 50
90.0
 51
270.0
  0
LINE
  5
36F
100
AcDbEntity
  8
LC-002-002-----0
370
    50
390
0
  6
ByBlock
 62
     1
100
AcDbLine
 10
470.178034
 20
410.127992
 30
0.0
 11
458.458034
 21
410.127992
 31
0.0
  0
LINE
  5
370
100
AcDbEntity
  8
LC-002-002-----0
370
    50
390
0
  6
ByBlock
 62
     1
100
AcDbLine
 10
470.178034
 20
416.327992
 30
0.0
 11
468.54697
 21
416.327992
 31
0.0
  0
LINE
  5
371
100
AcDbEntity
  8
LC-002-002-----0
370
    50
390
0
  6
ByBlock
 62
     1
100
AcDbLine
 10
458.458034
 20
416.327992
 30
0.0
 11
460.089098
 21
416.327992
 31
0.0
  0
ARC
  5
372
100
AcDbEntity
  8
LC-002-002-----0
370
    50
390
0
  6
ByBlock
 62
     1
100
AcDbCircle
 10
464.318034
 20
416.017992
 30
0.0
 40
3.1
100
AcDbArc
 50
23.171101
 51
156.828899
  0
ARC
  5
373
100
AcDbEntity
  8
LC-002-002-----0
370
    50
390
0
  6
ByBlock
 62
     1
100
AcDbCircle
 10
460.089098
 20
417.827992
 30
0.0
 40
1.5
100
AcDbArc
 50
270.0
 51
336.828899
  0
CIRCLE
  5
374
100
AcDbEntity
  8
LC-002-002-----0
370
    50
390
0
  6
ByBlock
 62
     1
100
AcDbCircle
 10
484.318034
 20
439.867992
 30
0.0
 40
4.25
  0
LINE
  5
375
100
AcDbEntity
  8
LC-002-002-----0
370
    50
390
0
  6
ByBlock
 62
     1
100
AcDbLine
 10
210.068034
 20
423.117992
 30
0.0
 11
218.568034
 21
423.117992
 31
0.0
  0
LINE
  5
376
100
AcDbEntity
  8
LC-002-002-----0
370
    50
390
0
  6
ByBlock
 62
     1
100
AcDbLine
 10
210.068034
 20
431.617992
 30
0.0
 11
218.568034
 21
431.617992
 31
0.0
  0
ARC
  5
377
100
AcDbEntity
  8
LC-002-002-----0
370
    50
390
0
  6
ByBlock
 62
     1
100
AcDbCircle
 10
210.068034
 20
427.367992
 30
0.0
 40
4.25
100
AcDbArc
 50
90.0
 51
270.0
  0
ARC
  5
378
100
AcDbEntity
  8
LC-002-002-----0
370
    50
390
0
  6
ByBlock
 62
     1
100
AcDbCircle
 10
218.568034
 20
427.367992
 30
0.0
 40
4.25
100
AcDbArc
 50
270.0
 51
90.0
  0
CIRCLE
  5
379
100
AcDbEntity
  8
LC-002-002-----0
370
    50
390
0
  6
ByBlock
 62
     1
100
AcDbCircle
 10
484.318034
 20
414.867992
 30
0.0
 40
4.25
  0
ARC
  5
37A
100
AcDbEntity
  8
LC-002-002-----0
370
    50
390
0
  6
ByBlock
 62
     1
100
AcDbCircle
 10
230.178034
 20
413.227992
 30
0.0
 40
3.1
100
AcDbArc
 50
270.0
 51
90.0
  0
ARC
  5
37B
100
AcDbEntity
  8
LC-002-002-----0
370
    50
390
0
  6
ByBlock
 62
     1
100
AcDbCircle
 10
218.458034
 20
413.227992
 30
0.0
 40
3.1
100
AcDbArc
 50
90.0
 51
270.0
  0
LINE
  5
37C
100
AcDbEntity
  8
LC-002-002-----0
370
    50
390
0
  6
ByBlock
 62
     1
100
AcDbLine
 10
230.178034
 20
410.127992
 30
0.0
 11
218.458034
 21
410.127992
 31
0.0
  0
LINE
  5
37D
100
AcDbEntity
  8
LC-002-002-----0
370
    50
390
0
  6
ByBlock
 62
     1
100
AcDbLine
 10
230.178034
 20
416.327992
 30
0.0
 11
228.54697
 21
416.327992
 31
0.0
  0
LINE
  5
37E
100
AcDbEntity
  8
LC-002-002-----0
370
    50
390
0
  6
ByBlock
 62
     1
100
AcDbLine
 10
218.458034
 20
416.327992
 30
0.0
 11
220.089098
 21
416.327992
 31
0.0
  0
ARC
  5
37F
100
AcDbEntity
  8
LC-002-002-----0
370
    50
390
0
  6
ByBlock
 62
     1
100
AcDbCircle
 10
224.318034
 20
416.017992
 30
0.0
 40
3.1
100
AcDbArc
 50
23.171101
 51
156.828899
  0
ARC
  5
380
100
AcDbEntity
  8
LC-002-002-----0
370
    50
390
0
  6
ByBlock
 62
     1
100
AcDbCircle
 10
220.089098
 20
417.827992
 30
0.0
 40
1.5
100
AcDbArc
 50
270.0
 51
336.828899
  0
ARC
  5
381
100
AcDbEntity
  8
LC-002-002-----0
370
    50
390
0
  6
ByBlock
 62
     1
100
AcDbCircle
 10
228.54697
 20
417.827992
 30
0.0
 40
1.5
100
AcDbArc
 50
203.171101
 51
270.0
  0
ARC
  5
382
100
AcDbEntity
  8
LC-002-002-----0
370
    50
390
0
  6
ByBlock
 62
     1
100
AcDbCircle
 10
230.178034
 20
441.507992
 30
0.0
 40
3.1
100
AcDbArc
 50
270.0
 51
90.0
  0
ARC
  5
383
100
AcDbEntity
  8
LC-002-002-----0
370
    50
390
0
  6
ByBlock
 62
     1
100
AcDbCircle
 10
218.458034
 20
441.507992
 30
0.0
 40
3.1
100
AcDbArc
 50
90.0
 51
270.0
  0
LINE
  5
384
100
AcDbEntity
  8
LC-002-002-----0
370
    50
390
0
  6
ByBlock
 62
     1
100
AcDbLine
 10
230.178034
 20
444.607992
 30
0.0
 11
218.458034
 21
444.607992
 31
0.0
  0
LINE
  5
385
100
AcDbEntity
  8
LC-002-002-----0
370
    50
390
0
  6
ByBlock
 62
     1
100
AcDbLine
 10
230.178034
 20
438.407992
 30
0.0
 11
228.54697
 21
438.407992
 31
0.0
  0
LINE
  5
386
100
AcDbEntity
  8
LC-002-002-----0
370
    50
390
0
  6
ByBlock
 62
     1
100
AcDbLine
 10
218.458034
 20
438.407992
 30
0.0
 11
220.089098
 21
438.407992
 31
0.0
  0
ARC
  5
387
100
AcDbEntity
  8
LC-002-002-----0
370
    50
390
0
  6
ByBlock
 62
     1
100
AcDbCircle
 10
224.318034
 20
438.717992
 30
0.0
 40
3.1
100
AcDbArc
 50
203.171101
 51
336.828899
  0
ARC
  5
388
100
AcDbEntity
  8
LC-002-002-----0
370
    50
390
0
  6
ByBlock
 62
     1
100
AcDbCircle
 10
220.089098
 20
436.907992
 30
0.0
 40
1.5
100
AcDbArc
 50
23.171101
 51
90.0
  0
ARC
  5
389
100
AcDbEntity
  8
LC-002-002-----0
370
    50
390
0
  6
ByBlock
 62
     1
100
AcDbCircle
 10
228.54697
 20
436.907992
 30
0.0
 40
1.5
100
AcDbArc
 50
90.0
 51
156.828899
  0
ARC
  5
38A
100
AcDbEntity
  8
LC-002-002-----0
370
    50
390
0
  6
ByBlock
 62
     1
100
AcDbCircle
 10
490.068034
 20
427.367992
 30
0.0
 40
4.25
100
AcDbArc
 50
90.0
 51
270.0
  0
LINE
  5
38B
100
AcDbEntity
  8
LC-002-002-----0
370
    50
390
0
  6
ByBlock
 62
     1
100
AcDbLine
 10
490.068034
 20
431.617992
 30
0.0
 11
491.318034
 21
431.617992
 31
0.0
  0
LINE
  5
38C
100
AcDbEntity
  8
LC-002-002-----0
370
    50
390
0
  6
ByBlock
 62
     1
100
AcDbLine
 10
490.068034
 20
423.117992
 30
0.0
 11
491.318034
 21
423.117992
 31
0.0
  0
CIRCLE
  5
38D
100
AcDbEntity
  8
LC-002-002-----0
370
    50
390
0
  6
ByBlock
 62
     1
100
AcDbCircle
 10
514.318034
 20
427.367992
 30
0.0
 40
4.25
  0
ARC
  5
38E
100
AcDbEntity
  8
LC-002-002-----0
370
    50
390
0
  6
ByBlock
 62
     1
100
AcDbCircle
 10
510.178034
 20
441.507992
 30
0.0
 40
3.1
100
AcDbArc
 50
270.0
 51
90.0
  0
ARC
  5
38F
100
AcDbEntity
  8
LC-002-002-----0
370
    50
390
0
  6
ByBlock
 62
     1
100
AcDbCircle
 10
498.458034
 20
441.507992
 30
0.0
 40
3.1
100
AcDbArc
 50
90.0
 51
270.0
  0
LINE
  5
390
100
AcDbEntity
  8
LC-002-002-----0
370
    50
390
0
  6
ByBlock
 62
     1
100
AcDbLine
 10
510.178034
 20
444.607992
 30
0.0
 11
498.458034
 21
444.607992
 31
0.0
  0
LINE
  5
391
100
AcDbEntity
  8
LC-002-002-----0
370
    50
390
0
  6
ByBlock
 62
     1
100
AcDbLine
 10
510.178034
 20
438.407992
 30
0.0
 11
508.54697
 21
438.407992
 31
0.0
  0
LINE
  5
392
100
AcDbEntity
  8
LC-002-002-----0
370
    50
390
0
  6
ByBlock
 62
     1
100
AcDbLine
 10
498.458034
 20
438.407992
 30
0.0
 11
500.089098
 21
438.407992
 31
0.0
  0
ARC
  5
393
100
AcDbEntity
  8
LC-002-002-----0
370
    50
390
0
  6
ByBlock
 62
     1
100
AcDbCircle
 10
504.318034
 20
438.717992
 30
0.0
 40
3.1
100
AcDbArc
 50
203.171101
 51
336.828899
  0
ARC
  5
394
100
AcDbEntity
  8
LC-002-002-----0
370
    50
390
0
  6
ByBlock
 62
     1
100
AcDbCircle
 10
500.089098
 20
436.907992
 30
0.0
 40
1.5
100
AcDbArc
 50
23.171101
 51
90.0
  0
ARC
  5
395
100
AcDbEntity
  8
LC-002-002-----0
370
    50
390
0
  6
ByBlock
 62
     1
100
AcDbCircle
 10
508.54697
 20
436.907992
 30
0.0
 40
1.5
100
AcDbArc
 50
90.0
 51
156.828899
  0
ARC
  5
396
100
AcDbEntity
  8
LC-002-002-----0
370
    50
390
0
  6
ByBlock
 62
     1
100
AcDbCircle
 10
510.178034
 20
413.227992
 30
0.0
 40
3.1
100
AcDbArc
 50
270.0
 51
90.0
  0
ARC
  5
397
100
AcDbEntity
  8
LC-002-002-----0
370
    50
390
0
  6
ByBlock
 62
     1
100
AcDbCircle
 10
498.458034
 20
413.227992
 30
0.0
 40
3.1
100
AcDbArc
 50
90.0
 51
270.0
  0
LINE
  5
398
100
AcDbEntity
  8
LC-002-002-----0
370
    50
390
0
  6
ByBlock
 62
     1
100
AcDbLine
 10
510.178034
 20
410.127992
 30
0.0
 11
498.458034
 21
410.127992
 31
0.0
  0
LINE
  5
399
100
AcDbEntity
  8
LC-002-002-----0
370
    50
390
0
  6
ByBlock
 62
     1
100
AcDbLine
 10
510.178034
 20
416.327992
 30
0.0
 11
508.54697
 21
416.327992
 31
0.0
  0
LINE
  5
39A
100
AcDbEntity
  8
LC-002-002-----0
370
    50
390
0
  6
ByBlock
 62
     1
100
AcDbLine
 10
498.458034
 20
416.327992
 30
0.0
 11
500.089098
 21
416.327992
 31
0.0
  0
ARC
  5
39B
100
AcDbEntity
  8
LC-002-002-----0
370
    50
390
0
  6
ByBlock
 62
     1
100
AcDbCircle
 10
504.318034
 20
416.017992
 30
0.0
 40
3.1
100
AcDbArc
 50
23.171101
 51
156.828899
  0
ARC
  5
39C
100
AcDbEntity
  8
LC-002-002-----0
370
    50
390
0
  6
ByBlock
 62
     1
100
AcDbCircle
 10
500.089098
 20
417.827992
 30
0.0
 40
1.5
100
AcDbArc
 50
270.0
 51
336.828899
  0
ARC
  5
39D
100
AcDbEntity
  8
LC-002-002-----0
370
    50
390
0
  6
ByBlock
 62
     1
100
AcDbCircle
 10
508.54697
 20
417.827992
 30
0.0
 40
1.5
100
AcDbArc
 50
203.171101
 51
270.0
  0
ARC
  5
39E
100
AcDbEntity
  8
LC-002-002-----0
370
    50
390
0
  6
ByBlock
 62
     1
100
AcDbCircle
 10
498.568034
 20
427.367992
 30
0.0
 40
4.25
100
AcDbArc
 50
270.0
 51
90.0
  0
LINE
  5
39F
100
AcDbEntity
  8
LC-002-002-----0
370
    50
390
0
  6
ByBlock
 62
     1
100
AcDbLine
 10
490.068034
 20
423.117992
 30
0.0
 11
498.568034
 21
423.117992
 31
0.0
  0
LINE
  5
3A0
100
AcDbEntity
  8
LC-002-002-----0
370
    50
390
0
  6
ByBlock
 62
     1
100
AcDbLine
 10
490.068034
 20
431.617992
 30
0.0
 11
498.568034
 21
431.617992
 31
0.0
  0
LINE
  5
3A1
100
AcDbEntity
  8
LC-002-002-----0
370
    50
390
0
  6
ByBlock
 62
     1
100
AcDbLine
 10
199.318034
 20
452.367992
 30
0.0
 11
199.318034
 21
402.367992
 31
0.0
  0
LINE
  5
3A2
100
AcDbEntity
  8
LC-002-002-----0
370
    50
390
0
  6
ByBlock
 62
     1
100
AcDbLine
 10
519.318034
 20
452.367992
 30
0.0
 11
519.318034
 21
402.367992
 31
0.0
  0
LINE
  5
3A3
102
{ACAD_REACTORS
330
443
102
}
100
AcDbEntity
  8
LC-002-002-----0
370
    25
390
0
 62
     2
100
AcDbLine
 10
378.458034
 20
465.845895
 30
0.0
 11
378.458034
 21
448.473349
 31
0.0
  0
ARC
  5
3A4
100
AcDbEntity
  8
LC-001-002-RND-0
370
    50
390
0
 62
     1
100
AcDbCircle
 10
-47.74619
 20
464.332302
 30
0.0
 40
2.5
100
AcDbArc
 50
135.0
 51
225.0
  0
LINE
  5
3A5
100
AcDbEntity
  8
LC-002-002-----0
370
    50
390
0
  6
ByBlock
 62
     1
100
AcDbLine
 10
-10.30246
 20
410.62735
 30
0.0
 11
-18.832346
 21
410.62735
 31
0.0
  0
LINE
  5
3A6
100
AcDbEntity
  8
LC-002-002-----0
370
    50
390
0
  6
ByBlock
 62
     1
100
AcDbLine
 10
-21.332346
 20
393.62735
 30
0.0
 11
-8.747473
 21
393.62735
 31
0.0
  0
LINE
  5
3A7
100
AcDbEntity
  8
LC-002-002-----0
370
    50
390
0
  6
ByBlock
 62
     1
100
AcDbLine
 10
-21.332346
 20
408.12735
 30
0.0
 11
-21.332346
 21
393.62735
 31
0.0
  0
LINE
  5
3A8
100
AcDbEntity
  8
LC-002-002-----0
370
    50
390
0
  6
ByBlock
 62
     1
100
AcDbLine
 10
-18.832346
 20
410.62735
 30
0.0
 11
-21.332346
 21
408.12735
 31
0.0
  0
LINE
  5
3A9
100
AcDbEntity
  8
LC-002-002-----0
370
    50
390
0
  6
ByBlock
 62
     1
100
AcDbLine
 10
-9.766746
 20
408.12735
 30
0.0
 11
-21.332346
 21
408.12735
 31
0.0
  0
LINE
  5
3AA
100
AcDbEntity
  8
LC-002-002-----0
370
    50
390
0
  6
ByBlock
 62
     1
100
AcDbLine
 10
-18.082346
 20
393.62735
 30
0.0
 11
-18.082346
 21
391.12735
 31
0.0
  0
LINE
  5
3AB
100
AcDbEntity
  8
LC-002-002-----0
370
    50
390
0
  6
ByBlock
 62
     1
100
AcDbLine
 10
-19.332346
 20
391.12735
 30
0.0
 11
-19.332346
 21
386.12735
 31
0.0
  0
LINE
  5
3AC
100
AcDbEntity
  8
LC-002-002-----0
370
    50
390
0
  6
ByBlock
 62
     1
100
AcDbLine
 10
-18.082346
 20
391.12735
 30
0.0
 11
-19.332346
 21
391.12735
 31
0.0
  0
ARC
  5
3AD
100
AcDbEntity
  8
LC-002-002-----0
370
    50
390
0
  6
ByBlock
 62
     1
100
AcDbCircle
 10
-12.457346
 20
384.099225
 30
0.0
 40
7.028125
100
AcDbArc
 50
60.8064
 51
136.08159
  0
ARC
  5
3AE
100
AcDbEntity
  8
LC-002-002-----0
370
    50
390
0
  6
ByBlock
 62
     1
100
AcDbCircle
 10
-17.159739
 20
388.62735
 30
0.0
 40
0.5
100
AcDbArc
 50
136.08159
 51
223.918352
  0
ARC
  5
3AF
100
AcDbEntity
  8
LC-002-002-----0
370
    50
390
0
  6
ByBlock
 62
     1
100
AcDbCircle
 10
-12.457346
 20
393.155475
 30
0.0
 40
7.028125
100
AcDbArc
 50
223.91841
 51
302.857159
  0
LINE
  5
3B0
100
AcDbEntity
  8
LC-006-001-----0
370
    25
390
0
 62
     2
100
AcDbLine
 10
-19.332346
 20
388.62735
 30
0.0
 11
-8.821831
 21
388.62735
 31
0.0
  0
ARC
  5
3B1
100
AcDbEntity
  8
LC-002-002-----0
370
    50
390
0
  6
ByBlock
 62
     1
100
AcDbCircle
 10
-20.66568
 20
388.62735
 30
0.0
 40
2.833333
100
AcDbArc
 50
298.07281
 51
61.927551
  0
LINE
  5
3B2
100
AcDbEntity
  8
LC-002-002-----0
370
    50
390
0
  6
ByBlock
 62
     1
100
AcDbLine
 10
-18.332346
 20
386.12735
 30
0.0
 11
-18.332346
 21
378.921035
 31
0.0
  0
LINE
  5
3B3
100
AcDbEntity
  8
LC-002-002-----0
370
    50
390
0
  6
ByBlock
 62
     1
100
AcDbLine
 10
-4.082346
 20
456.37735
 30
0.0
 11
-22.113569
 21
438.346127
 31
0.0
  0
LINE
  5
3B4
100
AcDbEntity
  8
LC-002-002-----0
370
    25
390
0
 62
     2
100
AcDbLine
 10
-40.675122
 20
474.938903
 30
0.0
 11
-5.832346
 21
440.096127
 31
0.0
  0
ARC
  5
3B5
100
AcDbEntity
  8
LC-002-002-----0
370
    50
390
0
  6
ByBlock
 62
     1
100
AcDbCircle
 10
14.238722
 20
445.12735
 30
0.0
 40
5.0
100
AcDbArc
 50
224.999942
 51
270.0
  0
LINE
  5
3B6
100
AcDbEntity
  8
LC-002-002-----0
370
    50
390
0
  6
ByBlock
 62
     1
100
AcDbLine
 10
10.703188
 20
441.591816
 30
0.0
 11
-4.082346
 21
456.37735
 31
0.0
  0
LINE
  5
3B7
100
AcDbEntity
  8
LC-002-002-----0
370
    50
390
0
  6
ByBlock
 62
     1
100
AcDbLine
 10
-22.113569
 20
438.346127
 30
0.0
 11
-20.296812
 21
436.529371
 31
0.0
  0
ARC
  5
3B8
100
AcDbEntity
  8
LC-002-002-----0
370
    50
390
0
  6
ByBlock
 62
     1
100
AcDbCircle
 10
-23.832346
 20
432.993837
 30
0.0
 40
5.0
100
AcDbArc
 50
0.000152
 51
45.0
  0
LINE
  5
3B9
100
AcDbEntity
  8
LC-002-002-----0
370
    50
390
0
  6
ByBlock
 62
     1
100
AcDbLine
 10
-18.832346
 20
410.62735
 30
0.0
 11
-18.832346
 21
432.993837
 31
0.0
  0
LINE
  5
3BA
100
AcDbEntity
  8
LC-002-002-----0
370
    50
390
0
  6
ByBlock
 62
     1
100
AcDbLine
 10
-2.491356
 20
457.968341
 30
0.0
 11
-4.082346
 21
456.37735
 31
0.0
  0
LINE
  5
3BB
100
AcDbEntity
  8
LC-002-002-----0
370
    50
390
0
  6
ByBlock
 62
     1
100
AcDbLine
 10
-23.704559
 20
436.755137
 30
0.0
 11
-22.113569
 21
438.346127
 31
0.0
  0
LINE
  5
3BC
100
AcDbEntity
  8
LC-002-002-----0
370
    50
390
0
  6
ByBlock
 62
     1
100
AcDbLine
 10
-16.633492
 20
472.110476
 30
0.0
 11
-37.846695
 21
450.897273
 31
0.0
  0
LINE
  5
3BD
100
AcDbEntity
  8
LC-002-002-----0
370
    50
390
0
  6
ByBlock
 62
     1
100
AcDbLine
 10
-37.846695
 20
450.897273
 30
0.0
 11
-23.704559
 21
436.755137
 31
0.0
  0
LINE
  5
3BE
100
AcDbEntity
  8
LC-002-002-----0
370
    50
390
0
  6
ByBlock
 62
     1
100
AcDbLine
 10
-16.633492
 20
472.110476
 30
0.0
 11
-2.491356
 21
457.968341
 31
0.0
  0
LINE
  5
3BF
100
AcDbEntity
  8
LC-002-002-----0
370
    50
390
0
  6
ByBlock
 62
     1
100
AcDbLine
 10
-25.82588
 20
481.302864
 30
0.0
 11
-47.039083
 21
460.089661
 31
0.0
  0
LINE
  5
3C0
100
AcDbEntity
  8
LC-002-002-----0
370
    50
390
0
  6
ByBlock
 62
     1
100
AcDbLine
 10
-47.039083
 20
455.84702
 30
0.0
 11
-42.089336
 21
450.897273
 31
0.0
  0
LINE
  5
3C1
100
AcDbEntity
  8
LC-002-002-----0
370
    50
390
0
  6
ByBlock
 62
     1
100
AcDbLine
 10
-21.583239
 20
481.302864
 30
0.0
 11
-16.633492
 21
476.353117
 31
0.0
  0
ARC
  5
3C2
100
AcDbEntity
  8
LC-001-002-RND-0
370
    50
390
0
 62
     1
100
AcDbCircle
 10
-23.704559
 20
479.181544
 30
0.0
 40
3.0
100
AcDbArc
 50
45.0
 51
135.0
  0
ARC
  5
3C3
100
AcDbEntity
  8
LC-001-002-RND-0
370
    50
390
0
 62
     1
100
AcDbCircle
 10
-18.754812
 20
474.231797
 30
0.0
 40
3.0
100
AcDbArc
 50
315.0
 51
45.0
  0
ARC
  5
3C4
100
AcDbEntity
  8
LC-001-002-RND-0
370
    50
390
0
 62
     1
100
AcDbCircle
 10
-39.968015
 20
453.018593
 30
0.0
 40
3.0
100
AcDbArc
 50
225.0
 51
315.0
  0
ARC
  5
3C5
100
AcDbEntity
  8
LC-001-002-RND-0
370
    50
390
0
 62
     1
100
AcDbCircle
 10
-44.917763
 20
457.968341
 30
0.0
 40
3.0
100
AcDbArc
 50
135.0
 51
225.0
  0
LINE
  5
3C6
100
AcDbEntity
  8
LC-002-002-----0
370
    50
390
0
  6
ByBlock
 62
     1
100
AcDbLine
 10
-38.907355
 20
463.978748
 30
0.0
 11
-33.957608
 21
459.029001
 31
0.0
  0
LINE
  5
3C7
100
AcDbEntity
  8
LC-002-002-----0
370
    50
390
0
  6
ByBlock
 62
     1
100
AcDbLine
 10
-29.714967
 20
473.171136
 30
0.0
 11
-24.76522
 21
468.221389
 31
0.0
  0
LINE
  5
3C8
100
AcDbEntity
  8
LC-002-002-----0
370
    50
390
0
  6
ByBlock
 62
     1
100
AcDbLine
 10
-16.633492
 20
476.353117
 30
0.0
 11
-24.76522
 21
468.221389
 31
0.0
  0
ARC
  5
3C9
100
AcDbEntity
  8
LC-002-002-----0
370
    50
390
0
  6
ByBlock
 62
     1
100
AcDbCircle
 10
-33.279964
 20
467.543745
 30
0.0
 40
8.541667
100
AcDbArc
 50
265.449719
 51
4.550281
  0
LINE
  5
3CA
100
AcDbEntity
  8
LC-002-002-----0
370
    50
390
0
  6
ByBlock
 62
     1
100
AcDbLine
 10
-17.538662
 20
378.12735
 30
0.0
 11
-7.784045
 21
378.12735
 31
0.0
  0
LINE
  5
3CB
100
AcDbEntity
  8
LC-002-002-----0
370
    25
390
0
  6
ByBlock
 62
     2
100
AcDbLine
 10
-18.332346
 20
386.12735
 30
0.0
 11
-8.386824
 21
385.25723
 31
0.0
  0
LINE
  5
3CC
100
AcDbEntity
  8
LC-002-002-----0
370
    25
390
0
  6
ByBlock
 62
     2
100
AcDbLine
 10
-18.332346
 20
385.123531
 30
0.0
 11
-8.662644
 21
384.277541
 31
0.0
  0
LINE
  5
3CD
100
AcDbEntity
  8
LC-002-002-----0
370
    25
390
0
  6
ByBlock
 62
     2
100
AcDbLine
 10
-18.332346
 20
384.119711
 30
0.0
 11
-8.517426
 21
383.261016
 31
0.0
  0
LINE
  5
3CE
100
AcDbEntity
  8
LC-002-002-----0
370
    25
390
0
  6
ByBlock
 62
     2
100
AcDbLine
 10
-18.332346
 20
383.115891
 30
0.0
 11
-8.372208
 21
382.244492
 31
0.0
  0
LINE
  5
3CF
100
AcDbEntity
  8
LC-002-002-----0
370
    25
390
0
  6
ByBlock
 62
     2
100
AcDbLine
 10
-18.332346
 20
382.112071
 30
0.0
 11
-8.22699
 21
381.227967
 31
0.0
  0
LINE
  5
3D0
100
AcDbEntity
  8
LC-002-002-----0
370
    25
390
0
  6
ByBlock
 62
     2
100
AcDbLine
 10
-18.332346
 20
381.108251
 30
0.0
 11
-8.081772
 21
380.211442
 31
0.0
  0
LINE
  5
3D1
100
AcDbEntity
  8
LC-002-002-----0
370
    25
390
0
  6
ByBlock
 62
     2
100
AcDbLine
 10
-18.332346
 20
380.104431
 30
0.0
 11
-7.936555
 21
379.194917
 31
0.0
  0
LINE
  5
3D2
100
AcDbEntity
  8
LC-002-002-----0
370
    50
390
0
  6
ByBlock
 62
     1
100
AcDbLine
 10
-18.332346
 20
378.921035
 30
0.0
 11
-17.538662
 21
378.12735
 31
0.0
  0
LINE
  5
3D3
100
AcDbEntity
  8
LC-002-002-----0
370
    50
390
0
  6
ByBlock
 62
     1
100
AcDbLine
 10
-33.957608
 20
459.029001
 30
0.0
 11
-42.089336
 21
450.897273
 31
0.0
  0
ARC
  5
3D4
100
AcDbEntity
  8
LC-002-002-----0
370
    50
390
0
  6
ByBlock
 62
     1
100
AcDbCircle
 10
-30.392611
 20
464.656392
 30
0.0
 40
8.541667
100
AcDbArc
 50
85.449719
 51
184.550281
  0
LINE
  5
3D5
100
AcDbEntity
  8
LC-002-002-----0
370
    50
390
0
  6
ByBlock
 62
     1
100
AcDbLine
 10
-21.583239
 20
481.302864
 30
0.0
 11
-29.714967
 21
473.171136
 31
0.0
  0
LINE
  5
3D6
100
AcDbEntity
  8
LC-002-002-----0
370
    50
390
0
  6
ByBlock
 62
     1
100
AcDbLine
 10
-38.907355
 20
463.978748
 30
0.0
 11
-47.039083
 21
455.84702
 31
0.0
  0
LINE
  5
3D7
100
AcDbEntity
  8
LC-002-002-----0
370
    50
390
0
  6
ByBlock
 62
     1
100
AcDbLine
 10
-31.836287
 20
483.777738
 30
0.0
 11
-49.513957
 21
466.100069
 31
0.0
  0
LINE
  5
3D8
100
AcDbEntity
  8
LC-002-002-----0
370
    50
390
0
  6
ByBlock
 62
     1
100
AcDbLine
 10
-49.513957
 20
462.564535
 30
0.0
 11
-47.039083
 21
460.089661
 31
0.0
  0
LINE
  5
3D9
100
AcDbEntity
  8
LC-002-002-----0
370
    50
390
0
  6
ByBlock
 62
     1
100
AcDbLine
 10
-28.300753
 20
483.777738
 30
0.0
 11
-25.82588
 21
481.302864
 31
0.0
  0
ARC
  5
3DA
100
AcDbEntity
  8
LC-001-002-RND-0
370
    50
390
0
 62
     1
100
AcDbCircle
 10
-30.06852
 20
482.009971
 30
0.0
 40
2.5
100
AcDbArc
 50
45.0
 51
135.0
  0
LINE
  5
3DB
100
AcDbEntity
  8
LC-002-002-----0
370
    50
390
0
  6
ByBlock
 62
     1
100
AcDbLine
 10
14.238722
 20
440.12735
 30
0.0
 11
17.824501
 21
440.127348
 31
0.0
  0
LINE
  5
3DC
100
AcDbEntity
  8
LC-002-002-----0
370
    50
390
0
  6
ByBlock
 62
     1
100
AcDbLine
 10
-18.082346
 20
391.12735
 30
0.0
 11
-9.144525
 21
391.12735
 31
0.0
  0
LINE
  5
3DD
100
AcDbEntity
  8
LC-002-002-----0
370
    50
390
0
  6
ByBlock
 62
     1
100
AcDbLine
 10
-19.332346
 20
386.12735
 30
0.0
 11
-8.499137
 21
386.12735
 31
0.0
  0
LINE
  5
3DE
100
AcDbEntity
  8
LC-002-002-----0
370
    50
390
0
  6
ByBlock
 62
     1
100
AcDbLine
 10
243.458034
 20
374.867992
 30
0.0
 11
243.458034
 21
479.867992
 31
0.0
  0
LINE
  5
3DF
100
AcDbEntity
  8
LC-002-002-----0
370
    50
390
0
  6
ByBlock
 62
     1
100
AcDbLine
 10
430.958034
 20
482.367992
 30
0.0
 11
395.228543
 21
482.367992
 31
0.0
  0
LINE
  5
3E0
100
AcDbEntity
  8
LC-002-002-----0
370
    50
390
0
  6
ByBlock
 62
     1
100
AcDbLine
 10
430.958034
 20
372.367992
 30
0.0
 11
245.958034
 21
372.367992
 31
0.0
  0
LINE
  5
3E1
100
AcDbEntity
  8
LC-002-002-----0
370
    50
390
0
  6
ByBlock
 62
     1
100
AcDbLine
 10
433.458034
 20
374.867992
 30
0.0
 11
433.458034
 21
479.867992
 31
0.0
  0
LINE
  5
3E2
100
AcDbEntity
  8
LC-002-002-----0
370
    50
390
0
  6
ByBlock
 62
     1
100
AcDbLine
 10
432.458034
 20
374.867992
 30
0.0
 11
432.458034
 21
479.867992
 31
0.0
  0
LINE
  5
3E3
100
AcDbEntity
  8
LC-002-002-----0
370
    50
390
0
  6
ByBlock
 62
     1
100
AcDbLine
 10
244.458034
 20
374.867992
 30
0.0
 11
244.458034
 21
479.867992
 31
0.0
  0
LINE
  5
3E4
100
AcDbEntity
  8
LC-002-002-----0
370
    50
390
0
  6
ByBlock
 62
     1
100
AcDbLine
 10
430.958034
 20
481.367992
 30
0.0
 11
398.21278
 21
481.367992
 31
0.0
  0
LINE
  5
3E5
100
AcDbEntity
  8
LC-002-002-----0
370
    50
390
0
  6
ByBlock
 62
     1
100
AcDbLine
 10
430.958034
 20
373.367992
 30
0.0
 11
245.958034
 21
373.367992
 31
0.0
  0
ARC
  5
3E6
100
AcDbEntity
  8
LC-001-002-RND-0
370
    50
390
0
 62
     1
100
AcDbCircle
 10
245.958034
 20
374.867992
 30
0.0
 40
1.5
100
AcDbArc
 50
180.0
 51
270.0
  0
ARC
  5
3E7
100
AcDbEntity
  8
LC-001-002-RND-0
370
    50
390
0
 62
     1
100
AcDbCircle
 10
245.958034
 20
479.867992
 30
0.0
 40
1.5
100
AcDbArc
 50
90.0
 51
180.0
  0
ARC
  5
3E8
100
AcDbEntity
  8
LC-001-002-RND-0
370
    50
390
0
 62
     1
100
AcDbCircle
 10
430.958034
 20
479.867992
 30
0.0
 40
1.5
100
AcDbArc
 50
0.0
 51
90.0
  0
ARC
  5
3E9
100
AcDbEntity
  8
LC-001-002-RND-0
370
    50
390
0
 62
     1
100
AcDbCircle
 10
430.958034
 20
374.867992
 30
0.0
 40
1.5
100
AcDbArc
 50
270.0
 51
0.0
  0
ARC
  5
3EA
100
AcDbEntity
  8
LC-001-002-RND-0
370
    50
390
0
 62
     1
100
AcDbCircle
 10
430.958034
 20
374.867992
 30
0.0
 40
2.5
100
AcDbArc
 50
270.0
 51
0.0
  0
ARC
  5
3EB
100
AcDbEntity
  8
LC-001-002-RND-0
370
    50
390
0
 62
     1
100
AcDbCircle
 10
430.958034
 20
479.867992
 30
0.0
 40
2.5
100
AcDbArc
 50
0.0
 51
90.0
  0
ARC
  5
3EC
100
AcDbEntity
  8
LC-001-002-RND-0
370
    50
390
0
 62
     1
100
AcDbCircle
 10
245.958034
 20
479.867992
 30
0.0
 40
2.5
100
AcDbArc
 50
90.0
 51
180.0
  0
ARC
  5
3ED
100
AcDbEntity
  8
LC-001-002-RND-0
370
    50
390
0
 62
     1
100
AcDbCircle
 10
245.958034
 20
374.867992
 30
0.0
 40
2.5
100
AcDbArc
 50
180.0
 51
270.0
  0
LINE
  5
3EE
100
AcDbEntity
  8
LC-002-002-----0
370
    25
390
0
  6
ByBlock
 62
     2
100
AcDbLine
 10
428.158034
 20
377.667992
 30
0.0
 11
248.758034
 21
377.667992
 31
0.0
  0
LINE
  5
3EF
100
AcDbEntity
  8
LC-002-002-----0
370
    25
390
0
  6
ByBlock
 62
     2
100
AcDbLine
 10
428.158034
 20
477.067992
 30
0.0
 11
248.758034
 21
477.067992
 31
0.0
  0
LINE
  5
3F0
100
AcDbEntity
  8
LC-002-002-----0
370
    25
390
0
  6
ByBlock
 62
     2
100
AcDbLine
 10
248.758034
 20
377.667992
 30
0.0
 11
248.758034
 21
477.067992
 31
0.0
  0
LINE
  5
3F1
100
AcDbEntity
  8
LC-002-002-----0
370
    25
390
0
  6
ByBlock
 62
     2
100
AcDbLine
 10
428.158034
 20
377.667992
 30
0.0
 11
428.158034
 21
477.067992
 31
0.0
  0
LINE
  5
3F2
100
AcDbEntity
  8
LC-002-002-----0
370
    25
390
0
  6
ByBlock
 62
     2
100
AcDbLine
 10
428.158034
 20
477.067992
 30
0.0
 11
432.018696
 21
480.928654
 31
0.0
  0
LINE
  5
3F3
100
AcDbEntity
  8
LC-002-002-----0
370
    25
390
0
  6
ByBlock
 62
     2
100
AcDbLine
 10
244.897371
 20
373.80733
 30
0.0
 11
248.758034
 21
377.667992
 31
0.0
  0
LINE
  5
3F4
100
AcDbEntity
  8
LC-002-002-----0
370
    25
390
0
  6
ByBlock
 62
     2
100
AcDbLine
 10
248.758034
 20
477.067992
 30
0.0
 11
244.897369
 21
480.928657
 31
0.0
  0
LINE
  5
3F5
100
AcDbEntity
  8
LC-002-002-----0
370
    25
390
0
  6
ByBlock
 62
     2
100
AcDbLine
 10
432.018692
 20
373.807334
 30
0.0
 11
428.158034
 21
377.667992
 31
0.0
  0
LINE
  5
3F6
100
AcDbEntity
  8
LC-002-002-----0
370
    50
390
0
  6
ByBlock
 62
     1
100
AcDbLine
 10
289.564368
 20
482.367992
 30
0.0
 11
245.958034
 21
482.367992
 31
0.0
  0
LINE
  5
3F7
100
AcDbEntity
  8
LC-002-002-----0
370
    50
390
0
  6
ByBlock
 62
     1
100
AcDbLine
 10
287.95817
 20
481.367992
 30
0.0
 11
245.958034
 21
481.367992
 31
0.0
  0
LINE
  5
3F8
100
AcDbEntity
  8
LC-002-002-----0
370
    50
390
0
  6
ByBlock
 62
     1
100
AcDbLine
 10
358.703287
 20
481.367992
 30
0.0
 11
308.957897
 21
481.367992
 31
0.0
  0
LINE
  5
3F9
100
AcDbEntity
  8
LC-002-002-----0
370
    50
390
0
  6
ByBlock
 62
     1
100
AcDbLine
 10
361.687524
 20
482.367992
 30
0.0
 11
307.3517
 21
482.367992
 31
0.0
  0
DIMENSION
  5
414
100
AcDbEntity
  8
LC-004-003-----0
370
    25
390
0
 62
     2
100
AcDbDimension
  2
*D6
 10
338.458034
 20
565.98
 30
0.0
 11
338.458034
 21
565.98
 31
0.0
 71
     5
 72
     1
 41
1.0
 42
0.0
  3
LC-DIM-L-0140-02-02
100
AcDbAlignedDimension
 13
243.458034
 23
479.867992
 33
0.0
 14
433.458034
 24
479.867992
 34
0.0
100
AcDbRotatedDimension
  0
DIMENSION
  5
42E
100
AcDbEntity
  8
LC-004-003-----0
370
    25
390
0
 62
     2
100
AcDbDimension
  2
*D7
 10
486.474021
 20
497.076
 30
0.0
 11
486.474021
 21
497.076
 31
0.0
 71
     5
 72
     1
 41
1.0
 42
0.0
  3
LC-DIM-L-0140-02-02
100
AcDbAlignedDimension
 13
430.958034
 23
482.367992
 33
0.0
 14
430.958034
 24
372.367992
 34
0.0
 50
90.0
100
AcDbRotatedDimension
  0
ENDSEC
  0
SECTION
  2
OBJECTS
  0
DICTIONARY
  5
19
100
AcDbDictionary
280
     0
281
     1
  3
ACAD_GROUP
350
1A
  3
ACAD_MLINESTYLE
350
1B
  3
ACAD_LAYOUT
350
1E
  3
ACAD_PLOTSETTINGS
350
22
  3
ACAD_PLOTSTYLENAME
350
1F
  0
DICTIONARY
  5
1A
102
{ACAD_REACTORS
330
19
102
}
100
AcDbDictionary
280
     0
281
     1
  3
GRP1403
350
430
  3
GRP1131
350
431
  3
GRP1130
350
432
  3
GRP1129
350
433
  3
GRP1128
350
434
  3
GRP1127
350
435
  3
GRP1126
350
436
  3
GRP1125
350
437
  3
GRP1144
350
438
  3
GRP101
350
439
  3
GRP100
350
43A
  3
GRP661
350
43B
  3
GRP690
350
43C
  3
GRP427
350
43D
  3
GRP452
350
43E
  3
GRP450
350
43F
  3
GRP448
350
440
  3
GRP453
350
441
  3
GRP737
350
442
  3
GRP219
350
443
  3
GRP795
350
444
  3
Flansch1
350
445
  0
DICTIONARY
  5
1B
102
{ACAD_REACTORS
330
19
102
}
100
AcDbDictionary
280
     0
281
     1
  3
Standard
350
1C
  0
MLINESTYLE
  5
1C
102
{ACAD_REACTORS
330
1B
102
}
100
AcDbMlineStyle
  2
Standard
 70
     0
  3

 62
     0
 51
90.0
 52
90.0
 71
     2
 49
0.5
 62
   256
  6
ByLayer
 49
-0.5
 62
   256
  6
ByLayer
  0
ACDBDICTIONARYWDFLT
  5
1F
102
{ACAD_REACTORS
330
19
102
}
100
AcDbDictionary
281
     1
  3
Normal
350
1D
100
AcDbDictionaryWithDefault
340
1D
  0
ACDBPLACEHOLDER
  5
1D
102
{ACAD_REACTORS
330
1F
102
}
  0
LAYOUT
  5
20
102
{ACAD_REACTORS
330
1E
102
}
100
AcDbPlotSettings
  1

  2

  4

  6

 40
0.0
 41
0.0
 42
0.0
 43
0.0
 44
0.0
 45
0.0
 46
0.0
 47
0.0
 48
0.0
 49
0.0
140
0.0
141
0.0
142
1.0
143
1.0
 70
  1152
 72
     0
 73
     0
 74
     0
  7

 75
     0
147
1.0
148
0.0
149
0.0
100
AcDbLayout
  1
Model
 70
     0
 71
     0
 10
0.0
 20
0.0
 11
0.0
 21
0.0
 12
0.0
 22
0.0
 32
0.0
 14
0.0
 24
0.0
 34
0.0
 15
0.0
 25
0.0
 35
0.0
146
0.0
 13
0.0
 23
0.0
 33
0.0
 16
0.0
 26
0.0
 36
0.0
 17
0.0
 27
0.0
 37
0.0
 76
     0
330
A
331
0
345
0
346
0
  0
LAYOUT
  5
21
102
{ACAD_REACTORS
330
1E
102
}
100
AcDbPlotSettings
  1

  2

  4

  6

 40
0.0
 41
0.0
 42
0.0
 43
0.0
 44
0.0
 45
0.0
 46
0.0
 47
0.0
 48
0.0
 49
0.0
140
0.0
141
0.0
142
1.0
143
1.0
 70
   128
 72
     0
 73
     0
 74
     0
  7

 75
     0
147
1.0
148
0.0
149
0.0
100
AcDbLayout
  1
Layout1
 70
     0
 71
     0
 10
0.0
 20
0.0
 11
0.0
 21
0.0
 12
0.0
 22
0.0
 32
0.0
 14
0.0
 24
0.0
 34
0.0
 15
0.0
 25
0.0
 35
0.0
146
0.0
 13
0.0
 23
0.0
 33
0.0
 16
0.0
 26
0.0
 36
0.0
 17
0.0
 27
0.0
 37
0.0
 76
     0
330
B
331
0
345
0
346
0
  0
DICTIONARY
  5
1E
102
{ACAD_REACTORS
330
19
102
}
100
AcDbDictionary
280
     0
281
     1
  3
Layout1
350
21
  3
Model
350
20
  0
DICTIONARY
  5
22
102
{ACAD_REACTORS
330
19
102
}
100
AcDbDictionary
280
     0
281
     1
  0
GROUP
  5
430
102
{ACAD_REACTORS
330
1A
102
}
100
AcDbGroup
300
GRP1403
 70
     0
 71
     1
340
30D
340
30E
340
30F
340
310
340
311
340
312
340
313
340
314
340
315
340
316
340
317
340
318
340
319
340
31A
340
31B
340
31C
340
31D
340
31E
340
31F
340
320
340
321
340
322
340
323
340
324
340
325
340
326
340
327
340
328
340
329
340
32A
340
32B
340
32C
340
32D
340
32E
340
32F
340
330
340
331
340
332
340
333
340
334
340
335
340
336
340
337
340
338
340
339
340
33A
340
33B
340
33C
340
33D
340
33E
340
33F
340
340
340
341
  0
GROUP
  5
431
102
{ACAD_REACTORS
330
1A
102
}
100
AcDbGroup
300
GRP1131
 70
     0
 71
     1
340
2E6
  0
GROUP
  5
432
102
{ACAD_REACTORS
330
1A
102
}
100
AcDbGroup
300
GRP1130
 70
     0
 71
     1
340
2E5
  0
GROUP
  5
433
102
{ACAD_REACTORS
330
1A
102
}
100
AcDbGroup
300
GRP1129
 70
     0
 71
     1
340
2E4
  0
GROUP
  5
434
102
{ACAD_REACTORS
330
1A
102
}
100
AcDbGroup
300
GRP1128
 70
     0
 71
     1
340
2CE
  0
GROUP
  5
435
102
{ACAD_REACTORS
330
1A
102
}
100
AcDbGroup
300
GRP1127
 70
     0
 71
     1
340
2CD
  0
GROUP
  5
436
102
{ACAD_REACTORS
330
1A
102
}
100
AcDbGroup
300
GRP1126
 70
     0
 71
     1
340
2C8
  0
GROUP
  5
437
102
{ACAD_REACTORS
330
1A
102
}
100
AcDbGroup
300
GRP1125
 70
     0
 71
     1
340
225
  0
GROUP
  5
438
102
{ACAD_REACTORS
330
1A
102
}
100
AcDbGroup
300
GRP1144
 70
     0
 71
     1
340
3B
340
3C
340
3E
340
121
340
122
340
123
340
124
340
126
340
127
340
129
340
12A
340
12B
340
12C
340
12D
340
12E
340
130
340
132
340
136
340
137
340
138
340
139
340
13A
340
13C
340
13E
340
13F
340
140
340
155
340
156
340
1C5
340
1C6
340
1C7
340
1C8
340
1C9
340
1CA
340
1CB
340
1CC
340
1CD
340
1CE
340
1CF
340
1D1
340
226
340
227
340
228
340
229
340
22A
340
22B
340
22C
340
22D
340
22E
340
22F
340
230
340
231
340
232
340
233
340
234
340
235
340
236
340
259
340
25A
340
25B
340
25F
340
269
340
2B9
340
2BA
340
2BD
340
2BE
340
2C0
340
2C5
340
2C6
  0
GROUP
  5
439
102
{ACAD_REACTORS
330
1A
102
}
100
AcDbGroup
300
GRP101
 70
     0
 71
     1
340
111
  0
GROUP
  5
43A
102
{ACAD_REACTORS
330
1A
102
}
100
AcDbGroup
300
GRP100
 70
     0
 71
     1
340
EE
  0
GROUP
  5
43B
102
{ACAD_REACTORS
330
1A
102
}
100
AcDbGroup
300
GRP661
 70
     0
 71
     1
340
2B
340
38
340
3D
340
1A4
340
1BA
340
1BC
340
1BD
340
1BF
340
1C0
340
1D2
340
1D5
340
1D6
340
20E
340
20F
340
210
340
212
340
216
340
25C
340
25D
340
25E
340
260
340
262
340
263
340
264
340
265
340
283
340
285
340
286
340
287
340
289
  0
GROUP
  5
43C
102
{ACAD_REACTORS
330
1A
102
}
100
AcDbGroup
300
GRP690
 70
     0
 71
     1
340
266
340
26B
340
26C
340
26D
340
271
340
272
340
273
340
274
340
275
340
276
340
277
340
279
340
27A
340
27B
340
27C
  0
GROUP
  5
43D
102
{ACAD_REACTORS
330
1A
102
}
100
AcDbGroup
300
GRP427
 70
     0
 71
     1
340
1F4
340
1F5
340
1F6
340
247
340
249
340
24A
340
24B
340
24C
  0
GROUP
  5
43E
102
{ACAD_REACTORS
330
1A
102
}
100
AcDbGroup
300
GRP452
 70
     0
 71
     1
340
1EA
  0
GROUP
  5
43F
102
{ACAD_REACTORS
330
1A
102
}
100
AcDbGroup
300
GRP450
 70
     0
 71
     1
340
10A
  0
GROUP
  5
440
102
{ACAD_REACTORS
330
1A
102
}
100
AcDbGroup
300
GRP448
 70
     0
 71
     1
340
FD
340
FE
340
FF
340
100
340
101
340
102
340
103
340
104
340
105
340
106
340
107
340
10B
340
10C
340
10D
340
110
340
114
340
115
340
116
340
125
340
141
340
142
340
143
340
144
340
14D
340
14E
340
14F
340
150
340
151
340
157
340
158
340
15A
340
17D
340
17E
340
180
340
181
340
182
340
183
340
184
340
185
340
186
340
187
340
188
340
189
340
18A
340
18B
340
18C
340
18D
340
18E
340
198
340
199
340
19A
340
19C
340
19D
340
19F
340
1A0
340
1A1
340
1A2
340
1A3
340
1A5
340
1A6
  0
GROUP
  5
441
102
{ACAD_REACTORS
330
1A
102
}
100
AcDbGroup
300
GRP453
 70
     0
 71
     1
340
F9
340
108
340
109
340
1FA
340
1FB
340
1FC
340
1FD
340
1FE
340
1FF
340
200
340
201
340
202
340
203
340
204
340
205
340
206
340
207
340
208
340
21C
340
224
340
237
340
238
340
239
340
23A
340
23B
340
23C
340
23D
340
244
340
245
  0
GROUP
  5
442
102
{ACAD_REACTORS
330
1A
102
}
100
AcDbGroup
300
GRP737
 70
     0
 71
     1
340
28A
340
28B
340
28C
340
28D
340
28E
340
28F
340
290
340
291
340
292
340
293
340
294
340
295
340
296
340
297
340
298
340
299
340
29A
340
29B
340
29C
340
29D
340
29E
340
29F
340
2A0
  0
GROUP
  5
443
102
{ACAD_REACTORS
330
1A
102
}
100
AcDbGroup
300
GRP219
 70
     0
 71
     1
340
3F
340
D0
340
D1
340
282
340
284
340
288
340
2D9
340
2DA
340
2DB
340
2DC
340
2DD
340
2DE
340
2DF
340
2E0
340
2E1
340
2E2
340
2E3
340
3A3
  0
GROUP
  5
444
102
{ACAD_REACTORS
330
1A
102
}
100
AcDbGroup
300
GRP795
 70
     0
 71
     1
340
261
340
267
340
268
340
26A
340
26E
340
26F
340
2A1
340
2A2
340
2A3
340
2A4
340
2A5
340
2A6
340
2A7
340
2A8
340
2A9
340
2AA
340
2AB
340
2AC
340
2AD
340
2AE
340
2AF
340
2B0
340
2B1
340
2B2
340
2B3
340
2B4
340
2B5
340
2B6
340
2B7
340
2B8
340
2BB
340
2BC
340
2BF
340
2C1
340
2C2
340
2C3
340
2C4
340
2C7
340
2C9
340
2CA
340
2CB
340
2CC
340
2CF
340
2D0
340
2D1
340
2D2
340
2D3
340
2D4
340
2D5
340
2D6
340
2D7
340
2D8
  0
GROUP
  5
445
102
{ACAD_REACTORS
330
1A
102
}
100
AcDbGroup
300
Flansch1
 70
     0
 71
     1
340
17F
  0
ENDSEC
  0
EOF
