  0
SECTION
  2
HEADER
  9
$ACADVER
  1
AC1009
  9
$INSBASE
 10
0.0
 20
0.0
 30
0.0
  9
$EXTMIN
 10
0.0
 20
0.0
 30
0.0
  9
$EXTMAX
 10
840.0
 20
594.0
 30
0.0
  9
$LIMMIN
 10
0.0
 20
0.0
  9
$LIMMAX
 10
840.0
 20
594.0
  9
$ORTHOMODE
 70
     0
  9
$REGENMODE
 70
     1
  9
$FILLMODE
 70
     1
  9
$QTEXTMODE
 70
     0
  9
$MIRRTEXT
 70
     1
  9
$DRAGMODE
 70
     2
  9
$LTSCALE
 40
2.0
  9
$OSMODE
 70
     0
  9
$ATTMODE
 70
     1
  9
$TEXTSIZE
 40
0.2
  9
$TRACEWID
 40
0.05
  9
$TEXTSTYLE
  7
STANDARD
  9
$CLAYER
  8
0
  9
$CELTYPE
  6
BYLAYER
  9
$CECOLOR
 62
     7
  9
$DIMSCALE
 40
2.0
  9
$DIMASZ
 40
3.5
  9
$DIMEXO
 40
0.0625
  9
$DIMDLI
 40
0.38
  9
$DIMRND
 40
0.0
  9
$DIMDLE
 40
0.0
  9
$DIMEXE
 40
0.18
  9
$DIMTP
 40
0.0
  9
$DIMTM
 40
0.0
  9
$DIMTXT
 40
3.5
  9
$DIMCEN
 40
0.09
  9
$DIMTSZ
 40
0.0
  9
$DIMTOL
 70
     0
  9
$DIMLIM
 70
     0
  9
$DIMTIH
 70
     1
  9
$DIMTOH
 70
     1
  9
$DIMSE1
 70
     0
  9
$DIMSE2
 70
     0
  9
$DIMTAD
 70
     1
  9
$DIMZIN
 70
     0
  9
$DIMBLK
  1

  9
$DIMASO
 70
     1
  9
$DIMSHO
 70
     1
  9
$DIMPOST
  1

  9
$DIMAPOST
  1

  9
$DIMALT
 70
     0
  9
$DIMALTD
 70
     2
  9
$DIMALTF
 40
25.4
  9
$DIMLFAC
 40
1.0
  9
$DIMTOFL
 70
     0
  9
$DIMTVP
 40
0.0
  9
$DIMTIX
 70
     0
  9
$DIMSOXD
 70
     0
  9
$DIMSAH
 70
     0
  9
$DIMBLK1
  1

  9
$DIMBLK2
  1

  9
$DIMSTYLE
  2
STANDARD
  9
$DIMCLRD
 70
     0
  9
$DIMCLRE
 70
     0
  9
$DIMCLRT
 70
     0
  9
$DIMTFAC
 40
1.0
  9
$DIMGAP
 40
0.09
  9
$LUNITS
 70
     2
  9
$LUPREC
 70
     2
  9
$AXISMODE
 70
     0
  9
$AXISUNIT
 10
0.0
 20
0.0
  9
$SKETCHINC
 40
0.1
  9
$FILLETRAD
 40
0.0
  9
$AUNITS
 70
     0
  9
$AUPREC
 70
     0
  9
$MENU
  1
acad
  9
$ELEVATION
 40
0.0
  9
$PELEVATION
 40
0.0
  9
$THICKNESS
 40
0.0
  9
$LIMCHECK
 70
     0
  9
$BLIPMODE
 70
     1
  9
$CHAMFERA
 40
0.0
  9
$CHAMFERB
 40
0.0
  9
$SKPOLY
 70
     0
  9
$TDCREATE
 40
0.000000000
  9
$TDUPDATE
 40
0.000000000
  9
$TDINDWG
 40
0.0000000000
  9
$TDUSRTIMER
 40
0.0000000000
  9
$USRTIMER
 70
     1
  9
$ANGBASE
 50
0.0
  9
$ANGDIR
 70
     0
  9
$PDMODE
 70
     0
  9
$PDSIZE
 40
0.0
  9
$PLINEWID
 40
0.0
  9
$COORDS
 70
     0
  9
$SPLFRAME
 70
     0
  9
$SPLINETYPE
 70
     6
  9
$SPLINESEGS
 70
     8
  9
$ATTDIA
 70
     0
  9
$ATTREQ
 70
     1
  9
$HANDLING
 70
     1
  9
$HANDSEED
  5
288
  9
$SURFTAB1
 70
     6
  9
$SURFTAB2
 70
     6
  9
$SURFTYPE
 70
     6
  9
$SURFU
 70
     6
  9
$SURFV
 70
     6
  9
$UCSNAME
  2

  9
$UCSORG
 10
0.0
 20
0.0
 30
0.0
  9
$UCSXDIR
 10
1.0
 20
0.0
 30
0.0
  9
$UCSYDIR
 10
0.0
 20
1.0
 30
0.0
  9
$PUCSNAME
  2

  9
$PUCSORG
 10
0.0
 20
0.0
 30
0.0
  9
$PUCSXDIR
 10
1.0
 20
0.0
 30
0.0
  9
$PUCSYDIR
 10
0.0
 20
1.0
 30
0.0
  9
$USERI1
 70
     0
  9
$USERI2
 70
     0
  9
$USERI3
 70
     0
  9
$USERI4
 70
     0
  9
$USERI5
 70
     0
  9
$USERR1
 40
0.0
  9
$USERR2
 40
0.0
  9
$USERR3
 40
0.0
  9
$USERR4
 40
0.0
  9
$USERR5
 40
0.0
  9
$WORLDVIEW
 70
     1
  9
$SHADEDGE
 70
     3
  9
$SHADEDIF
 70
    70
  9
$TILEMODE
 70
     1
  9
$MAXACTVP
 70
    16
  9
$PINSBASE
 10
0.0
 20
0.0
 30
0.0
  9
$PLIMCHECK
 70
     0
  9
$PEXTMIN
 10
1.000000E+20
 20
1.000000E+20
 30
1.000000E+20
  9
$PEXTMAX
 10
-1.000000E+20
 20
-1.000000E+20
 30
-1.000000E+20
  9
$PLIMMIN
 10
0.0
 20
0.0
  9
$PLIMMAX
 10
840.0
 20
594.0
  9
$UNITMODE
 70
     0
  9
$VISRETAIN
 70
     0
  9
$PLINEGEN
 70
     1
  9
$PSLTSCALE
 70
     0
  9
$TREEDEPTH
 70
  3020
  9
$DWGCODEPAGE
  3
dos850
  0
ENDSEC
  0
SECTION
  2
TABLES
  0
TABLE
  2
VPORT
 70
     1
  0
VPORT
  2
*ACTIVE
 70
     0
 10
0.0
 20
0.0
 11
1.0
 21
1.0
 12
420.0
 22
297.0
 13
0.0
 23
0.0
 14
1.0
 24
1.0
 15
0.0
 25
0.0
 16
0.0
 26
0.0
 36
1.0
 17
0.0
 27
0.0
 37
0.0
 40
594.0
 41
1.604229
 42
50.0
 43
0.0
 44
0.0
 50
0.0
 51
0.0
 71
     0
 72
   100
 73
     1
 74
     1
 75
     0
 76
     0
 77
     0
 78
     0
  0
ENDTAB
  0
TABLE
  2
LTYPE
 70
     3
  0
LTYPE
  2
CONTINUOUS
 70
    64
  3
Solid line
 72
    65
 73
     0
 40
0.0
  0
LTYPE
  2
DASHED
 70
    64
  3
__ __ __ __ __
 72
    65
 73
     2
 40
6.25
 49
5.0
 49
-1.25
  0
LTYPE
  2
DASHDOT
 70
    64
  3
__ . __ . __ . __ . __
 72
    65
 73
     4
 40
7.5
 49
5.0
 49
-1.25
 49
0.0
 49
-1.25
  0
ENDTAB
  0
TABLE
  2
LAYER
 70
    12
  0
LAYER
  2
0
 70
     0
 62
     7
  6
CONTINUOUS
  0
LAYER
  2
LC-INFO-1-2-MM-A3-0
 70
     1
 62
    -1
  6
CONTINUOUS
  0
LAYER
  2
LC-003-003-MTH-0
 70
     0
 62
     2
  6
CONTINUOUS
  0
LAYER
  2
LC-004-003-MTG-0
 70
     0
 62
     2
  6
CONTINUOUS
  0
LAYER
  2
LC-002-003-----0
 70
     0
 62
     2
  6
CONTINUOUS
  0
LAYER
  2
LC-006-005-----0
 70
     0
 62
     2
  6
CONTINUOUS
  0
LAYER
  2
LC-007-000-----0
 70
     0
 62
     7
  6
CONTINUOUS
  0
LAYER
  2
LC-009-000-----0
 70
     0
 62
     7
  6
CONTINUOUS
  0
LAYER
  2
LC-001-002-----0
 70
     0
 62
     2
  6
DASHDOT
  0
LAYER
  2
LC-005-002-RND-0
 70
     0
 62
     1
  6
CONTINUOUS
  0
LAYER
  2
LC-008-001-----0
 70
     0
 62
     2
  6
DASHDOT
  0
LAYER
  2
LC-000
 70
     0
 62
     7
  6
CONTINUOUS
  0
ENDTAB
  0
TABLE
  2
STYLE
 70
     4
  0
STYLE
  2
STANDARD
 70
     0
 40
0.0
 41
1.0
 50
0.0
 71
     0
 42
0.0
  3
txt
  4

  0
STYLE
  2
LC-STANDARD
 70
    64
 40
0.0
 41
1.0
 50
0.0
 71
     0
 42
3.5
  3
MONOTXT
  4

  0
STYLE
  2
LC-TXTSTYLE-150-400-0-0-D2
 70
    64
 40
0.0
 41
1.0
 50
15.0
 71
     0
 42
3.5
  3
MONOTXT
  4

  0
STYLE
  2
LC-TXTSTYLE-150-400-0-0-D3
 70
    64
 40
0.0
 41
1.0
 50
15.0
 71
     0
 42
3.5
  3
LC-STANDARD
  4

  0
ENDTAB
  0
TABLE
  2
VIEW
 70
     0
  0
ENDTAB
  0
TABLE
  2
UCS
 70
     0
  0
ENDTAB
  0
TABLE
  2
APPID
 70
     1
  0
APPID
  2
ACAD
 70
     0
  0
ENDTAB
  0
TABLE
  2
DIMSTYLE
 70
     3
  0
DIMSTYLE
  2
STANDARD
 70
     0
  3

  4

  5

  6

  7

 40
1.0
 41
0.18
 42
0.0625
 43
0.38
 44
0.18
 45
0.0
 46
0.0
 47
0.0
 48
0.0
 71
     0
 72
     0
 73
     1
 74
     1
 75
     0
 76
     0
 77
     0
 78
     0
140
0.18
141
0.09
142
0.0
143
25.4
144
1.0
145
0.0
146
1.0
147
0.09
170
     0
171
     2
172
     0
173
     0
174
     0
175
     0
176
     0
177
     0
178
     0
  0
DIMSTYLE
  2
LC-STANDARD
 70
     0
  3

  4

  5

  6

  7

 40
1.0
 41
3.5
 42
0.0
 43
7.5
 44
1.8
 45
0.0
 46
0.0
 47
0.0
 48
0.0
 71
     0
 72
     0
 73
     0
 74
     0
 75
     0
 76
     0
 77
     1
 78
     8
140
3.5
141
0.0
142
0.0
143
25.4
144
1.0
145
0.0
146
0.71
147
1.5
170
     0
171
     2
172
     1
173
     0
174
     0
175
     0
176
     0
177
     0
178
     3
  0
DIMSTYLE
  2
LC-DIM-L-0090-02-02
 70
     0
  3

  4

  5

  6

  7

 40
2.0
 41
3.5
 42
0.0
 43
7.5
 44
1.8
 45
0.0
 46
0.0
 47
0.0
 48
0.0
 71
     0
 72
     0
 73
     0
 74
     0
 75
     0
 76
     0
 77
     1
 78
     8
140
9.0
141
0.0
142
0.0
143
25.4
144
1.0
145
0.0
146
0.71
147
1.5
170
     0
171
     2
172
     0
173
     0
174
     0
175
     0
176
     2
177
     2
178
     6
  0
ENDTAB
  0
ENDSEC
  0
SECTION
  2
BLOCKS
  0
BLOCK
  8
0
  5
23
  2
*D0
 70
    65
 10
0.0
 20
0.0
 30
0.0
  3
*D0
  0
LINE
  8
LC-003-003-MTH-0
  6
CONTINUOUS
  5
25
 10
279.560924
 20
324.706213
 30
0.0
 11
346.8
 21
324.706213
 31
0.0
  0
LINE
  8
LC-003-003-MTH-0
  6
CONTINUOUS
  5
26
 10
253.060474
 20
393.456357
 30
0.0
 11
346.8
 21
393.456357
 31
0.0
  0
LINE
  8
LC-004-003-MTG-0
  6
CONTINUOUS
  5
28
 10
336.0
 20
324.706213
 30
0.0
 11
336.0
 21
393.456357
 31
0.0
  0
LINE
  8
LC-002-003-----0
  6
CONTINUOUS
  5
2A
 10
333.650529
 20
342.55222
 30
0.0
 11
336.0
 21
324.706213
 31
0.0
  0
LINE
  8
LC-002-003-----0
  6
CONTINUOUS
  5
2B
 10
336.0
 20
324.706213
 30
0.0
 11
338.349471
 21
342.55222
 31
0.0
  0
LINE
  8
LC-002-003-----0
  6
CONTINUOUS
  5
2C
 10
338.349471
 20
342.55222
 30
0.0
 11
333.650529
 21
342.55222
 31
0.0
  0
LINE
  8
LC-002-003-----0
  6
CONTINUOUS
  5
2D
 10
334.261391
 20
342.592259
 30
0.0
 11
336.0
 21
329.386213
 31
0.0
  0
LINE
  8
LC-002-003-----0
  6
CONTINUOUS
  5
2E
 10
336.0
 20
329.386213
 30
0.0
 11
337.738609
 21
342.592259
 31
0.0
  0
LINE
  8
LC-002-003-----0
  6
CONTINUOUS
  5
2F
 10
334.872254
 20
342.632297
 30
0.0
 11
336.0
 21
334.066213
 31
0.0
  0
LINE
  8
LC-002-003-----0
  6
CONTINUOUS
  5
30
 10
336.0
 20
334.066213
 30
0.0
 11
337.127746
 21
342.632297
 31
0.0
  0
LINE
  8
LC-002-003-----0
  6
CONTINUOUS
  5
31
 10
335.483116
 20
342.672335
 30
0.0
 11
336.0
 21
338.746213
 31
0.0
  0
LINE
  8
LC-002-003-----0
  6
CONTINUOUS
  5
32
 10
336.0
 20
338.746213
 30
0.0
 11
336.516884
 21
342.672335
 31
0.0
  0
LINE
  8
LC-002-003-----0
  6
CONTINUOUS
  5
33
 10
338.349471
 20
375.61035
 30
0.0
 11
336.0
 21
393.456357
 31
0.0
  0
LINE
  8
LC-002-003-----0
  6
CONTINUOUS
  5
34
 10
336.0
 20
393.456357
 30
0.0
 11
333.650529
 21
375.61035
 31
0.0
  0
LINE
  8
LC-002-003-----0
  6
CONTINUOUS
  5
35
 10
333.650529
 20
375.61035
 30
0.0
 11
338.349471
 21
375.61035
 31
0.0
  0
LINE
  8
LC-002-003-----0
  6
CONTINUOUS
  5
36
 10
337.738609
 20
375.570312
 30
0.0
 11
336.0
 21
388.776357
 31
0.0
  0
LINE
  8
LC-002-003-----0
  6
CONTINUOUS
  5
37
 10
336.0
 20
388.776357
 30
0.0
 11
334.261391
 21
375.570312
 31
0.0
  0
LINE
  8
LC-002-003-----0
  6
CONTINUOUS
  5
38
 10
337.127746
 20
375.530274
 30
0.0
 11
336.0
 21
384.096357
 31
0.0
  0
LINE
  8
LC-002-003-----0
  6
CONTINUOUS
  5
39
 10
336.0
 20
384.096357
 30
0.0
 11
334.872254
 21
375.530274
 31
0.0
  0
LINE
  8
LC-002-003-----0
  6
CONTINUOUS
  5
3A
 10
336.516884
 20
375.490236
 30
0.0
 11
336.0
 21
379.416357
 31
0.0
  0
LINE
  8
LC-002-003-----0
  6
CONTINUOUS
  5
3B
 10
336.0
 20
379.416357
 30
0.0
 11
335.483116
 21
375.490236
 31
0.0
  0
TEXT
  8
LC-002-003-----0
  6
CONTINUOUS
 62
     6
  5
3D
 10
325.568001
 20
350.013539
 30
0.0
 40
18.0
  1
72
 50
90.0
 41
0.9
 51
15.0
  7
LC-TXTSTYLE-150-400-0-0-D0
 72
     1
 11
325.568001
 21
361.876531
 31
0.0
  0
ENDBLK
  8
0
  5
3E
  0
BLOCK
  8
0
  5
40
  2
*X1
 70
    65
 10
201.061359
 20
302.848522
 30
0.0
  3
*X1
  0
LINE
  8
LC-006-005-----0
  6
CONTINUOUS
  5
42
 10
210.061359
 20
305.278063
 30
0.0
 11
209.9909
 21
305.348522
 31
0.0
  0
LINE
  8
LC-006-005-----0
  6
CONTINUOUS
  5
43
 10
209.629412
 20
305.144325
 30
0.0
 11
209.425215
 21
305.348522
 31
0.0
  0
LINE
  8
LC-006-005-----0
  6
CONTINUOUS
  5
44
 10
209.18327
 20
305.024781
 30
0.0
 11
208.859529
 21
305.348522
 31
0.0
  0
LINE
  8
LC-006-005-----0
  6
CONTINUOUS
  5
45
 10
208.737128
 20
304.905238
 30
0.0
 11
208.293844
 21
305.348522
 31
0.0
  0
LINE
  8
LC-006-005-----0
  6
CONTINUOUS
  5
46
 10
208.290986
 20
304.785695
 30
0.0
 11
207.728158
 21
305.348522
 31
0.0
  0
LINE
  8
LC-006-005-----0
  6
CONTINUOUS
  5
47
 10
207.844844
 20
304.666151
 30
0.0
 11
207.162473
 21
305.348522
 31
0.0
  0
LINE
  8
LC-006-005-----0
  6
CONTINUOUS
  5
48
 10
207.398702
 20
304.546608
 30
0.0
 11
206.596787
 21
305.348522
 31
0.0
  0
LINE
  8
LC-006-005-----0
  6
CONTINUOUS
  5
49
 10
206.95256
 20
304.427065
 30
0.0
 11
206.031102
 21
305.348522
 31
0.0
  0
LINE
  8
LC-006-005-----0
  6
CONTINUOUS
  5
4A
 10
206.506418
 20
304.307521
 30
0.0
 11
205.465417
 21
305.348522
 31
0.0
  0
LINE
  8
LC-006-005-----0
  6
CONTINUOUS
  5
4B
 10
206.060276
 20
304.187978
 30
0.0
 11
204.899731
 21
305.348522
 31
0.0
  0
LINE
  8
LC-006-005-----0
  6
CONTINUOUS
  5
4C
 10
205.614134
 20
304.068434
 30
0.0
 11
204.334046
 21
305.348522
 31
0.0
  0
LINE
  8
LC-006-005-----0
  6
CONTINUOUS
  5
4D
 10
205.167992
 20
303.948891
 30
0.0
 11
203.76836
 21
305.348522
 31
0.0
  0
LINE
  8
LC-006-005-----0
  6
CONTINUOUS
  5
4E
 10
204.72185
 20
303.829348
 30
0.0
 11
203.202675
 21
305.348522
 31
0.0
  0
LINE
  8
LC-006-005-----0
  6
CONTINUOUS
  5
4F
 10
204.275707
 20
303.709804
 30
0.0
 11
202.63699
 21
305.348522
 31
0.0
  0
LINE
  8
LC-006-005-----0
  6
CONTINUOUS
  5
50
 10
203.829565
 20
303.590261
 30
0.0
 11
202.071304
 21
305.348522
 31
0.0
  0
LINE
  8
LC-006-005-----0
  6
CONTINUOUS
  5
51
 10
203.383423
 20
303.470717
 30
0.0
 11
201.505619
 21
305.348522
 31
0.0
  0
LINE
  8
LC-006-005-----0
  6
CONTINUOUS
  5
52
 10
202.937281
 20
303.351174
 30
0.0
 11
201.061359
 21
305.227096
 31
0.0
  0
LINE
  8
LC-006-005-----0
  6
CONTINUOUS
  5
53
 10
202.491139
 20
303.231631
 30
0.0
 11
201.061359
 21
304.661411
 31
0.0
  0
LINE
  8
LC-006-005-----0
  6
CONTINUOUS
  5
54
 10
202.044997
 20
303.112087
 30
0.0
 11
201.061359
 21
304.095725
 31
0.0
  0
LINE
  8
LC-006-005-----0
  6
CONTINUOUS
  5
55
 10
201.598855
 20
302.992544
 30
0.0
 11
201.061359
 21
303.53004
 31
0.0
  0
LINE
  8
LC-006-005-----0
  6
CONTINUOUS
  5
56
 10
201.152713
 20
302.873
 30
0.0
 11
201.061359
 21
302.964354
 31
0.0
  0
ENDBLK
  8
0
  5
57
  0
BLOCK
  8
0
  5
59
  2
BLK1
 70
    64
 10
0.0
 20
0.0
 30
0.0
  3
BLK1
  0
ENDBLK
  8
0
  5
5A
  0
BLOCK
  8
0
  5
5C
  2
*X3
 70
    65
 10
201.061359
 20
344.063904
 30
0.0
  3
*X3
  0
LINE
  8
LC-006-005-----0
  6
CONTINUOUS
  5
5D
 10
209.742127
 20
344.063904
 30
0.0
 11
209.504445
 21
344.301586
 31
0.0
  0
LINE
  8
LC-006-005-----0
  6
CONTINUOUS
  5
5E
 10
209.176442
 20
344.063904
 30
0.0
 11
208.731705
 21
344.508641
 31
0.0
  0
LINE
  8
LC-006-005-----0
  6
CONTINUOUS
  5
5F
 10
208.610756
 20
344.063904
 30
0.0
 11
207.958964
 21
344.715696
 31
0.0
  0
LINE
  8
LC-006-005-----0
  6
CONTINUOUS
  5
60
 10
208.045071
 20
344.063904
 30
0.0
 11
207.186223
 21
344.922751
 31
0.0
  0
LINE
  8
LC-006-005-----0
  6
CONTINUOUS
  5
61
 10
207.479386
 20
344.063904
 30
0.0
 11
206.413483
 21
345.129807
 31
0.0
  0
LINE
  8
LC-006-005-----0
  6
CONTINUOUS
  5
62
 10
206.9137
 20
344.063904
 30
0.0
 11
205.640742
 21
345.336862
 31
0.0
  0
LINE
  8
LC-006-005-----0
  6
CONTINUOUS
  5
63
 10
206.348015
 20
344.063904
 30
0.0
 11
204.868001
 21
345.543917
 31
0.0
  0
LINE
  8
LC-006-005-----0
  6
CONTINUOUS
  5
64
 10
205.782329
 20
344.063904
 30
0.0
 11
204.095261
 21
345.750972
 31
0.0
  0
LINE
  8
LC-006-005-----0
  6
CONTINUOUS
  5
65
 10
205.216644
 20
344.063904
 30
0.0
 11
203.32252
 21
345.958028
 31
0.0
  0
LINE
  8
LC-006-005-----0
  6
CONTINUOUS
  5
66
 10
204.650958
 20
344.063904
 30
0.0
 11
202.549779
 21
346.165083
 31
0.0
  0
LINE
  8
LC-006-005-----0
  6
CONTINUOUS
  5
67
 10
204.085273
 20
344.063904
 30
0.0
 11
201.777039
 21
346.372138
 31
0.0
  0
LINE
  8
LC-006-005-----0
  6
CONTINUOUS
  5
68
 10
203.519588
 20
344.063904
 30
0.0
 11
201.061359
 21
346.522132
 31
0.0
  0
LINE
  8
LC-006-005-----0
  6
CONTINUOUS
  5
69
 10
202.953902
 20
344.063904
 30
0.0
 11
201.061359
 21
345.956447
 31
0.0
  0
LINE
  8
LC-006-005-----0
  6
CONTINUOUS
  5
6A
 10
202.388217
 20
344.063904
 30
0.0
 11
201.061359
 21
345.390761
 31
0.0
  0
LINE
  8
LC-006-005-----0
  6
CONTINUOUS
  5
6B
 10
201.822531
 20
344.063904
 30
0.0
 11
201.061359
 21
344.825076
 31
0.0
  0
LINE
  8
LC-006-005-----0
  6
CONTINUOUS
  5
6C
 10
201.256846
 20
344.063904
 30
0.0
 11
201.061359
 21
344.25939
 31
0.0
  0
ENDBLK
  8
0
  5
6D
  0
BLOCK
  8
0
  5
6F
  2
BLK2
 70
    64
 10
0.0
 20
0.0
 30
0.0
  3
BLK2
  0
ENDBLK
  8
0
  5
70
  0
BLOCK
  8
0
  5
72
  2
*X5
 70
    65
 10
267.061309
 20
302.849269
 30
0.0
  3
*X5
  0
LINE
  8
LC-006-005-----0
  6
CONTINUOUS
  5
73
 10
276.061318
 20
304.897613
 30
0.0
 11
275.609671
 21
305.34926
 31
0.0
  0
LINE
  8
LC-006-005-----0
  6
CONTINUOUS
  5
74
 10
276.06133
 20
304.331916
 30
0.0
 11
275.043997
 21
305.349249
 31
0.0
  0
LINE
  8
LC-006-005-----0
  6
CONTINUOUS
  5
75
 10
276.061341
 20
303.76622
 30
0.0
 11
274.478323
 21
305.349238
 31
0.0
  0
LINE
  8
LC-006-005-----0
  6
CONTINUOUS
  5
76
 10
276.061352
 20
303.200523
 30
0.0
 11
273.912649
 21
305.349226
 31
0.0
  0
LINE
  8
LC-006-005-----0
  6
CONTINUOUS
  5
77
 10
275.768439
 20
302.927751
 30
0.0
 11
273.346975
 21
305.349215
 31
0.0
  0
LINE
  8
LC-006-005-----0
  6
CONTINUOUS
  5
78
 10
274.995721
 20
303.134783
 30
0.0
 11
272.7813
 21
305.349204
 31
0.0
  0
LINE
  8
LC-006-005-----0
  6
CONTINUOUS
  5
79
 10
274.223003
 20
303.341816
 30
0.0
 11
272.215626
 21
305.349193
 31
0.0
  0
LINE
  8
LC-006-005-----0
  6
CONTINUOUS
  5
7A
 10
273.450285
 20
303.548849
 30
0.0
 11
271.649952
 21
305.349181
 31
0.0
  0
LINE
  8
LC-006-005-----0
  6
CONTINUOUS
  5
7B
 10
272.677567
 20
303.755881
 30
0.0
 11
271.084278
 21
305.34917
 31
0.0
  0
LINE
  8
LC-006-005-----0
  6
CONTINUOUS
  5
7C
 10
271.904849
 20
303.962914
 30
0.0
 11
270.518604
 21
305.349159
 31
0.0
  0
LINE
  8
LC-006-005-----0
  6
CONTINUOUS
  5
7D
 10
271.13213
 20
304.169947
 30
0.0
 11
269.95293
 21
305.349147
 31
0.0
  0
LINE
  8
LC-006-005-----0
  6
CONTINUOUS
  5
7E
 10
270.359412
 20
304.376979
 30
0.0
 11
269.387256
 21
305.349136
 31
0.0
  0
LINE
  8
LC-006-005-----0
  6
CONTINUOUS
  5
7F
 10
269.586694
 20
304.584012
 30
0.0
 11
268.821581
 21
305.349125
 31
0.0
  0
LINE
  8
LC-006-005-----0
  6
CONTINUOUS
  5
80
 10
268.813976
 20
304.791045
 30
0.0
 11
268.255907
 21
305.349114
 31
0.0
  0
LINE
  8
LC-006-005-----0
  6
CONTINUOUS
  5
81
 10
268.041258
 20
304.998078
 30
0.0
 11
267.690233
 21
305.349102
 31
0.0
  0
LINE
  8
LC-006-005-----0
  6
CONTINUOUS
  5
82
 10
267.26854
 20
305.20511
 30
0.0
 11
267.124559
 21
305.349091
 31
0.0
  0
ENDBLK
  8
0
  5
83
  0
BLOCK
  8
0
  5
85
  2
*X6
 70
    65
 10
201.061359
 20
301.206213
 30
0.0
  3
*X6
  0
LINE
  8
LC-006-005-----0
  6
CONTINUOUS
  5
86
 10
272.922626
 20
301.206897
 30
0.0
 11
274.881196
 21
303.165468
 31
0.0
  0
LINE
  8
LC-006-005-----0
  6
CONTINUOUS
  5
87
 10
270.094143
 20
301.206841
 30
0.0
 11
272.650449
 21
303.763147
 31
0.0
  0
LINE
  8
LC-006-005-----0
  6
CONTINUOUS
  5
88
 10
267.265659
 20
301.206785
 30
0.0
 11
270.419701
 21
304.360826
 31
0.0
  0
LINE
  8
LC-006-005-----0
  6
CONTINUOUS
  5
89
 10
264.437176
 20
301.206728
 30
0.0
 11
267.68666
 21
304.456213
 31
0.0
  0
LINE
  8
LC-006-005-----0
  6
CONTINUOUS
  5
8A
 10
262.71004
 20
302.30802
 30
0.0
 11
264.858233
 21
304.456213
 31
0.0
  0
LINE
  8
LC-006-005-----0
  6
CONTINUOUS
  5
8B
 10
260.029806
 20
302.456213
 30
0.0
 11
262.029806
 21
304.456213
 31
0.0
  0
LINE
  8
LC-006-005-----0
  6
CONTINUOUS
  5
8C
 10
257.201379
 20
302.456213
 30
0.0
 11
259.201379
 21
304.456213
 31
0.0
  0
LINE
  8
LC-006-005-----0
  6
CONTINUOUS
  5
8D
 10
254.372952
 20
302.456213
 30
0.0
 11
256.372952
 21
304.456213
 31
0.0
  0
LINE
  8
LC-006-005-----0
  6
CONTINUOUS
  5
8E
 10
251.544525
 20
302.456213
 30
0.0
 11
253.544525
 21
304.456213
 31
0.0
  0
LINE
  8
LC-006-005-----0
  6
CONTINUOUS
  5
8F
 10
248.716098
 20
302.456213
 30
0.0
 11
250.716098
 21
304.456213
 31
0.0
  0
LINE
  8
LC-006-005-----0
  6
CONTINUOUS
  5
90
 10
245.88767
 20
302.456213
 30
0.0
 11
247.88767
 21
304.456213
 31
0.0
  0
LINE
  8
LC-006-005-----0
  6
CONTINUOUS
  5
91
 10
243.059243
 20
302.456213
 30
0.0
 11
245.059243
 21
304.456213
 31
0.0
  0
LINE
  8
LC-006-005-----0
  6
CONTINUOUS
  5
92
 10
240.230816
 20
302.456213
 30
0.0
 11
242.230816
 21
304.456213
 31
0.0
  0
LINE
  8
LC-006-005-----0
  6
CONTINUOUS
  5
93
 10
237.402389
 20
302.456213
 30
0.0
 11
239.402389
 21
304.456213
 31
0.0
  0
LINE
  8
LC-006-005-----0
  6
CONTINUOUS
  5
94
 10
234.573962
 20
302.456213
 30
0.0
 11
236.573962
 21
304.456213
 31
0.0
  0
LINE
  8
LC-006-005-----0
  6
CONTINUOUS
  5
95
 10
231.745535
 20
302.456213
 30
0.0
 11
233.745535
 21
304.456213
 31
0.0
  0
LINE
  8
LC-006-005-----0
  6
CONTINUOUS
  5
96
 10
228.917108
 20
302.456213
 30
0.0
 11
230.917108
 21
304.456213
 31
0.0
  0
LINE
  8
LC-006-005-----0
  6
CONTINUOUS
  5
97
 10
226.088681
 20
302.456213
 30
0.0
 11
228.088681
 21
304.456213
 31
0.0
  0
LINE
  8
LC-006-005-----0
  6
CONTINUOUS
  5
98
 10
223.260253
 20
302.456213
 30
0.0
 11
225.260253
 21
304.456213
 31
0.0
  0
LINE
  8
LC-006-005-----0
  6
CONTINUOUS
  5
99
 10
220.431826
 20
302.456213
 30
0.0
 11
222.431826
 21
304.456213
 31
0.0
  0
LINE
  8
LC-006-005-----0
  6
CONTINUOUS
  5
9A
 10
217.603399
 20
302.456213
 30
0.0
 11
219.603399
 21
304.456213
 31
0.0
  0
LINE
  8
LC-006-005-----0
  6
CONTINUOUS
  5
9B
 10
214.774972
 20
302.456213
 30
0.0
 11
216.774972
 21
304.456213
 31
0.0
  0
LINE
  8
LC-006-005-----0
  6
CONTINUOUS
  5
9C
 10
210.696545
 20
301.206213
 30
0.0
 11
213.946545
 21
304.456213
 31
0.0
  0
LINE
  8
LC-006-005-----0
  6
CONTINUOUS
  5
9D
 10
207.868118
 20
301.206213
 30
0.0
 11
211.118118
 21
304.456213
 31
0.0
  0
LINE
  8
LC-006-005-----0
  6
CONTINUOUS
  5
9E
 10
205.039691
 20
301.206213
 30
0.0
 11
208.289691
 21
304.456213
 31
0.0
  0
LINE
  8
LC-006-005-----0
  6
CONTINUOUS
  5
9F
 10
202.261313
 20
301.256263
 30
0.0
 11
204.875594
 21
303.870543
 31
0.0
  0
ENDBLK
  8
0
  5
A0
  0
BLOCK
  8
0
  5
A2
  2
BLK3
 70
    64
 10
0.0
 20
0.0
 30
0.0
  3
BLK3
  0
ENDBLK
  8
0
  5
A3
  0
BLOCK
  8
0
  5
A5
  2
*X8
 70
    65
 10
267.060536
 20
344.064472
 30
0.0
  3
*X8
  0
LINE
  8
LC-006-005-----0
  6
CONTINUOUS
  5
A6
 10
276.060496
 20
346.193472
 30
0.0
 11
275.767759
 21
346.486208
 31
0.0
  0
LINE
  8
LC-006-005-----0
  6
CONTINUOUS
  5
A7
 10
276.060507
 20
345.627775
 30
0.0
 11
275.321625
 21
346.366657
 31
0.0
  0
LINE
  8
LC-006-005-----0
  6
CONTINUOUS
  5
A8
 10
276.060518
 20
345.062078
 30
0.0
 11
274.87549
 21
346.247106
 31
0.0
  0
LINE
  8
LC-006-005-----0
  6
CONTINUOUS
  5
A9
 10
276.060529
 20
344.496382
 30
0.0
 11
274.429356
 21
346.127555
 31
0.0
  0
LINE
  8
LC-006-005-----0
  6
CONTINUOUS
  5
AA
 10
275.926578
 20
344.064648
 30
0.0
 11
273.983221
 21
346.008004
 31
0.0
  0
LINE
  8
LC-006-005-----0
  6
CONTINUOUS
  5
AB
 10
275.360903
 20
344.064637
 30
0.0
 11
273.537087
 21
345.888454
 31
0.0
  0
LINE
  8
LC-006-005-----0
  6
CONTINUOUS
  5
AC
 10
274.795229
 20
344.064626
 30
0.0
 11
273.090952
 21
345.768903
 31
0.0
  0
LINE
  8
LC-006-005-----0
  6
CONTINUOUS
  5
AD
 10
274.229555
 20
344.064614
 30
0.0
 11
272.644818
 21
345.649352
 31
0.0
  0
LINE
  8
LC-006-005-----0
  6
CONTINUOUS
  5
AE
 10
273.663881
 20
344.064603
 30
0.0
 11
272.198683
 21
345.529801
 31
0.0
  0
LINE
  8
LC-006-005-----0
  6
CONTINUOUS
  5
AF
 10
273.098207
 20
344.064592
 30
0.0
 11
271.752549
 21
345.41025
 31
0.0
  0
LINE
  8
LC-006-005-----0
  6
CONTINUOUS
  5
B0
 10
272.532533
 20
344.064581
 30
0.0
 11
271.306414
 21
345.290699
 31
0.0
  0
LINE
  8
LC-006-005-----0
  6
CONTINUOUS
  5
B1
 10
271.966858
 20
344.064569
 30
0.0
 11
270.86028
 21
345.171148
 31
0.0
  0
LINE
  8
LC-006-005-----0
  6
CONTINUOUS
  5
B2
 10
271.401184
 20
344.064558
 30
0.0
 11
270.414145
 21
345.051597
 31
0.0
  0
LINE
  8
LC-006-005-----0
  6
CONTINUOUS
  5
B3
 10
270.83551
 20
344.064547
 30
0.0
 11
269.968011
 21
344.932046
 31
0.0
  0
LINE
  8
LC-006-005-----0
  6
CONTINUOUS
  5
B4
 10
270.269836
 20
344.064536
 30
0.0
 11
269.521876
 21
344.812495
 31
0.0
  0
LINE
  8
LC-006-005-----0
  6
CONTINUOUS
  5
B5
 10
269.704162
 20
344.064524
 30
0.0
 11
269.075742
 21
344.692944
 31
0.0
  0
LINE
  8
LC-006-005-----0
  6
CONTINUOUS
  5
B6
 10
269.138488
 20
344.064513
 30
0.0
 11
268.629607
 21
344.573394
 31
0.0
  0
LINE
  8
LC-006-005-----0
  6
CONTINUOUS
  5
B7
 10
268.572814
 20
344.064502
 30
0.0
 11
268.183473
 21
344.453843
 31
0.0
  0
LINE
  8
LC-006-005-----0
  6
CONTINUOUS
  5
B8
 10
268.007139
 20
344.06449
 30
0.0
 11
267.737338
 21
344.334292
 31
0.0
  0
LINE
  8
LC-006-005-----0
  6
CONTINUOUS
  5
B9
 10
267.441465
 20
344.064479
 30
0.0
 11
267.291204
 21
344.214741
 31
0.0
  0
ENDBLK
  8
0
  5
BA
  0
BLOCK
  8
0
  5
BC
  2
BLK4
 70
    64
 10
0.0
 20
0.0
 30
0.0
  3
BLK4
  0
ENDBLK
  8
0
  5
BD
  0
BLOCK
  8
0
  5
BF
  2
*X10
 70
    65
 10
201.06092
 20
344.956213
 30
0.0
  3
*X10
  0
LINE
  8
LC-006-005-----0
  6
CONTINUOUS
  5
C0
 10
223.333847
 20
344.956213
 30
0.0
 11
226.060913
 21
347.683279
 31
0.0
  0
LINE
  8
LC-006-005-----0
  6
CONTINUOUS
  5
C1
 10
220.505419
 20
344.956213
 30
0.0
 11
222.505419
 21
346.956213
 31
0.0
  0
LINE
  8
LC-006-005-----0
  6
CONTINUOUS
  5
C2
 10
224.060904
 20
348.511698
 30
0.0
 11
226.060884
 21
350.511678
 31
0.0
  0
LINE
  8
LC-006-005-----0
  6
CONTINUOUS
  5
C3
 10
217.676992
 20
344.956213
 30
0.0
 11
219.676992
 21
346.956213
 31
0.0
  0
LINE
  8
LC-006-005-----0
  6
CONTINUOUS
  5
C4
 10
224.060876
 20
351.340097
 30
0.0
 11
226.060856
 21
353.340077
 31
0.0
  0
LINE
  8
LC-006-005-----0
  6
CONTINUOUS
  5
C5
 10
214.848565
 20
344.956213
 30
0.0
 11
216.848565
 21
346.956213
 31
0.0
  0
LINE
  8
LC-006-005-----0
  6
CONTINUOUS
  5
C6
 10
222.70472
 20
352.812368
 30
0.0
 11
226.060828
 21
356.168476
 31
0.0
  0
LINE
  8
LC-006-005-----0
  6
CONTINUOUS
  5
C7
 10
212.020138
 20
344.956213
 30
0.0
 11
214.290529
 21
347.226604
 31
0.0
  0
LINE
  8
LC-006-005-----0
  6
CONTINUOUS
  5
C8
 10
222.310837
 20
355.246912
 30
0.0
 11
226.0608
 21
358.996875
 31
0.0
  0
LINE
  8
LC-006-005-----0
  6
CONTINUOUS
  5
C9
 10
209.191711
 20
344.956213
 30
0.0
 11
212.441711
 21
348.206213
 31
0.0
  0
LINE
  8
LC-006-005-----0
  6
CONTINUOUS
  5
CA
 10
222.310809
 20
358.075311
 30
0.0
 11
226.060772
 21
361.825274
 31
0.0
  0
LINE
  8
LC-006-005-----0
  6
CONTINUOUS
  5
CB
 10
206.510801
 20
345.10373
 30
0.0
 11
209.613284
 21
348.206213
 31
0.0
  0
LINE
  8
LC-006-005-----0
  6
CONTINUOUS
  5
CC
 10
222.310781
 20
360.90371
 30
0.0
 11
225.363284
 21
363.956213
 31
0.0
  0
LINE
  8
LC-006-005-----0
  6
CONTINUOUS
  5
CD
 10
204.280091
 20
345.701447
 30
0.0
 11
206.784857
 21
348.206213
 31
0.0
  0
LINE
  8
LC-006-005-----0
  6
CONTINUOUS
  5
CE
 10
202.049381
 20
346.299164
 30
0.0
 11
203.95643
 21
348.206213
 31
0.0
  0
ENDBLK
  8
0
  5
CF
  0
BLOCK
  8
0
  5
D1
  2
*X11
 70
    65
 10
251.06075
 20
344.956462
 30
0.0
  3
*X11
  0
LINE
  8
LC-006-005-----0
  6
CONTINUOUS
  5
D2
 10
275.778375
 20
346.489053
 30
0.0
 11
276.060922
 21
346.7716
 31
0.0
  0
LINE
  8
LC-006-005-----0
  6
CONTINUOUS
  5
D3
 10
271.914559
 20
345.453664
 30
0.0
 11
274.667827
 21
348.206932
 31
0.0
  0
LINE
  8
LC-006-005-----0
  6
CONTINUOUS
  5
D4
 10
268.589279
 20
344.956811
 30
0.0
 11
271.839344
 21
348.206876
 31
0.0
  0
LINE
  8
LC-006-005-----0
  6
CONTINUOUS
  5
D5
 10
265.760795
 20
344.956755
 30
0.0
 11
269.01086
 21
348.20682
 31
0.0
  0
LINE
  8
LC-006-005-----0
  6
CONTINUOUS
  5
D6
 10
262.932312
 20
344.956698
 30
0.0
 11
266.182377
 21
348.206763
 31
0.0
  0
LINE
  8
LC-006-005-----0
  6
CONTINUOUS
  5
D7
 10
260.103828
 20
344.956642
 30
0.0
 11
262.103868
 21
346.956682
 31
0.0
  0
LINE
  8
LC-006-005-----0
  6
CONTINUOUS
  5
D8
 10
257.275345
 20
344.956586
 30
0.0
 11
259.275385
 21
346.956626
 31
0.0
  0
LINE
  8
LC-006-005-----0
  6
CONTINUOUS
  5
D9
 10
254.446861
 20
344.956529
 30
0.0
 11
256.446901
 21
346.956569
 31
0.0
  0
LINE
  8
LC-006-005-----0
  6
CONTINUOUS
  5
DA
 10
251.618378
 20
344.956473
 30
0.0
 11
253.618418
 21
346.956513
 31
0.0
  0
LINE
  8
LC-006-005-----0
  6
CONTINUOUS
  5
DB
 10
251.060917
 20
347.227439
 30
0.0
 11
253.060897
 21
349.227419
 31
0.0
  0
LINE
  8
LC-006-005-----0
  6
CONTINUOUS
  5
DC
 10
251.060889
 20
350.055838
 30
0.0
 11
254.810852
 21
353.805801
 31
0.0
  0
LINE
  8
LC-006-005-----0
  6
CONTINUOUS
  5
DD
 10
251.060861
 20
352.884237
 30
0.0
 11
254.810823
 21
356.6342
 31
0.0
  0
LINE
  8
LC-006-005-----0
  6
CONTINUOUS
  5
DE
 10
251.060833
 20
355.712636
 30
0.0
 11
254.810795
 21
359.462599
 31
0.0
  0
LINE
  8
LC-006-005-----0
  6
CONTINUOUS
  5
DF
 10
251.060804
 20
358.541035
 30
0.0
 11
254.768545
 21
362.248776
 31
0.0
  0
LINE
  8
LC-006-005-----0
  6
CONTINUOUS
  5
E0
 10
251.060776
 20
361.369434
 30
0.0
 11
253.354303
 21
363.662961
 31
0.0
  0
ENDBLK
  8
0
  5
E1
  0
BLOCK
  8
0
  5
E3
  2
*X12
 70
    65
 10
224.060732
 20
351.956106
 30
0.0
  3
*X12
  0
LINE
  8
LC-006-005-----0
  6
CONTINUOUS
  5
E4
 10
229.56072
 20
367.237403
 30
0.0
 11
229.310988
 21
367.487135
 31
0.0
  0
LINE
  8
LC-006-005-----0
  6
CONTINUOUS
  5
E5
 10
229.560746
 20
364.40895
 30
0.0
 11
227.310725
 21
366.658971
 31
0.0
  0
LINE
  8
LC-006-005-----0
  6
CONTINUOUS
  5
E6
 10
229.560773
 20
361.580496
 30
0.0
 11
225.185181
 21
365.956088
 31
0.0
  0
LINE
  8
LC-006-005-----0
  6
CONTINUOUS
  5
E7
 10
229.560799
 20
358.752043
 30
0.0
 11
226.060767
 21
362.252075
 31
0.0
  0
LINE
  8
LC-006-005-----0
  6
CONTINUOUS
  5
E8
 10
229.560825
 20
355.92359
 30
0.0
 11
228.060811
 21
357.423604
 31
0.0
  0
LINE
  8
LC-006-005-----0
  6
CONTINUOUS
  5
E9
 10
227.528305
 20
357.95611
 30
0.0
 11
226.060796
 21
359.423619
 31
0.0
  0
LINE
  8
LC-006-005-----0
  6
CONTINUOUS
  5
EA
 10
229.560852
 20
353.095136
 30
0.0
 11
227.699876
 21
354.956112
 31
0.0
  0
LINE
  8
LC-006-005-----0
  6
CONTINUOUS
  5
EB
 10
227.871447
 20
351.956113
 30
0.0
 11
226.060852
 21
353.766709
 31
0.0
  0
ENDBLK
  8
0
  5
EC
  0
BLOCK
  8
0
  5
EE
  2
*X13
 70
    65
 10
247.560729
 20
351.956297
 30
0.0
  3
*X13
  0
LINE
  8
LC-006-005-----0
  6
CONTINUOUS
  5
EF
 10
252.249297
 20
364.347816
 30
0.0
 11
250.640788
 21
365.956325
 31
0.0
  0
LINE
  8
LC-006-005-----0
  6
CONTINUOUS
  5
F0
 10
249.810724
 20
366.786389
 30
0.0
 11
248.823511
 21
367.773602
 31
0.0
  0
LINE
  8
LC-006-005-----0
  6
CONTINUOUS
  5
F1
 10
251.060763
 20
362.707923
 30
0.0
 11
247.56073
 21
366.207957
 31
0.0
  0
LINE
  8
LC-006-005-----0
  6
CONTINUOUS
  5
F2
 10
251.060791
 20
359.879468
 30
0.0
 11
247.560756
 21
363.379503
 31
0.0
  0
LINE
  8
LC-006-005-----0
  6
CONTINUOUS
  5
F3
 10
250.155511
 20
357.956321
 30
0.0
 11
247.560782
 21
360.55105
 31
0.0
  0
LINE
  8
LC-006-005-----0
  6
CONTINUOUS
  5
F4
 10
251.060841
 20
354.222564
 30
0.0
 11
250.327082
 21
354.956322
 31
0.0
  0
LINE
  8
LC-006-005-----0
  6
CONTINUOUS
  5
F5
 10
249.060822
 20
356.222582
 30
0.0
 11
247.560808
 21
357.722596
 31
0.0
  0
LINE
  8
LC-006-005-----0
  6
CONTINUOUS
  5
F6
 10
250.279758
 20
352.17522
 30
0.0
 11
247.560835
 21
354.894143
 31
0.0
  0
LINE
  8
LC-006-005-----0
  6
CONTINUOUS
  5
F7
 10
247.670253
 20
351.956298
 30
0.0
 11
247.560861
 21
352.065689
 31
0.0
  0
ENDBLK
  8
0
  5
F8
  0
BLOCK
  8
0
  5
FA
  2
*X14
 70
    65
 10
197.561359
 20
296.206213
 30
0.0
  3
*X14
  0
LINE
  8
LC-006-005-----0
  6
CONTINUOUS
  5
FB
 10
214.561359
 20
300.212378
 30
0.0
 11
214.067524
 21
300.706213
 31
0.0
  0
LINE
  8
LC-006-005-----0
  6
CONTINUOUS
  5
FC
 10
214.561359
 20
297.38395
 30
0.0
 11
211.239097
 21
300.706213
 31
0.0
  0
LINE
  8
LC-006-005-----0
  6
CONTINUOUS
  5
FD
 10
212.910669
 20
296.206213
 30
0.0
 11
212.061359
 21
297.055523
 31
0.0
  0
LINE
  8
LC-006-005-----0
  6
CONTINUOUS
  5
FE
 10
210.410669
 20
298.706213
 30
0.0
 11
208.410669
 21
300.706213
 31
0.0
  0
LINE
  8
LC-006-005-----0
  6
CONTINUOUS
  5
FF
 10
207.582242
 20
298.706213
 30
0.0
 11
205.582242
 21
300.706213
 31
0.0
  0
LINE
  8
LC-006-005-----0
  6
CONTINUOUS
  5
100
 10
204.753815
 20
298.706213
 30
0.0
 11
202.753815
 21
300.706213
 31
0.0
  0
LINE
  8
LC-006-005-----0
  6
CONTINUOUS
  5
101
 10
201.061359
 20
302.398669
 30
0.0
 11
199.93874
 21
303.521288
 31
0.0
  0
LINE
  8
LC-006-005-----0
  6
CONTINUOUS
  5
102
 10
201.925388
 20
298.706213
 30
0.0
 11
198.289013
 21
302.342588
 31
0.0
  0
LINE
  8
LC-006-005-----0
  6
CONTINUOUS
  5
103
 10
199.096961
 20
298.706213
 30
0.0
 11
197.561538
 21
300.241636
 31
0.0
  0
ENDBLK
  8
0
  5
104
  0
BLOCK
  8
0
  5
106
  2
*X15
 70
    65
 10
197.561359
 20
345.706213
 30
0.0
  3
*X15
  0
LINE
  8
LC-006-005-----0
  6
CONTINUOUS
  5
107
 10
214.561359
 20
351.124066
 30
0.0
 11
212.479212
 21
353.206213
 31
0.0
  0
LINE
  8
LC-006-005-----0
  6
CONTINUOUS
  5
108
 10
214.150785
 20
348.706213
 30
0.0
 11
212.061359
 21
350.795639
 31
0.0
  0
LINE
  8
LC-006-005-----0
  6
CONTINUOUS
  5
109
 10
211.322358
 20
348.706213
 30
0.0
 11
209.322358
 21
350.706213
 31
0.0
  0
LINE
  8
LC-006-005-----0
  6
CONTINUOUS
  5
10A
 10
208.493931
 20
348.706213
 30
0.0
 11
206.493931
 21
350.706213
 31
0.0
  0
LINE
  8
LC-006-005-----0
  6
CONTINUOUS
  5
10B
 10
205.665503
 20
348.706213
 30
0.0
 11
203.665503
 21
350.706213
 31
0.0
  0
LINE
  8
LC-006-005-----0
  6
CONTINUOUS
  5
10C
 10
202.837076
 20
348.706213
 30
0.0
 11
200.837076
 21
350.706213
 31
0.0
  0
LINE
  8
LC-006-005-----0
  6
CONTINUOUS
  5
10D
 10
201.061359
 20
347.653503
 30
0.0
 11
198.274117
 21
350.440745
 31
0.0
  0
LINE
  8
LC-006-005-----0
  6
CONTINUOUS
  5
10E
 10
200.022489
 20
345.863946
 30
0.0
 11
197.719092
 21
348.167343
 31
0.0
  0
ENDBLK
  8
0
  5
10F
  0
BLOCK
  8
0
  5
111
  2
BLK5
 70
    64
 10
0.0
 20
0.0
 30
0.0
  3
BLK5
  0
ENDBLK
  8
0
  5
112
  0
BLOCK
  8
0
  5
114
  2
*X17
 70
    65
 10
262.560356
 20
345.70696
 30
0.0
  3
*X17
  0
LINE
  8
LC-006-005-----0
  6
CONTINUOUS
  5
115
 10
279.474534
 20
348.436288
 30
0.0
 11
277.203839
 21
350.706983
 31
0.0
  0
LINE
  8
LC-006-005-----0
  6
CONTINUOUS
  5
116
 10
278.44108
 20
346.641315
 30
0.0
 11
274.375468
 21
350.706926
 31
0.0
  0
LINE
  8
LC-006-005-----0
  6
CONTINUOUS
  5
117
 10
276.517089
 20
345.736878
 30
0.0
 11
276.060496
 21
346.193472
 31
0.0
  0
LINE
  8
LC-006-005-----0
  6
CONTINUOUS
  5
118
 10
273.547058
 20
348.70691
 30
0.0
 11
271.547097
 21
350.70687
 31
0.0
  0
LINE
  8
LC-006-005-----0
  6
CONTINUOUS
  5
119
 10
270.718687
 20
348.706854
 30
0.0
 11
268.718727
 21
350.706814
 31
0.0
  0
LINE
  8
LC-006-005-----0
  6
CONTINUOUS
  5
11A
 10
267.890316
 20
348.706797
 30
0.0
 11
265.890356
 21
350.706757
 31
0.0
  0
LINE
  8
LC-006-005-----0
  6
CONTINUOUS
  5
11B
 10
265.060389
 20
351.536724
 30
0.0
 11
263.390406
 21
353.206708
 31
0.0
  0
LINE
  8
LC-006-005-----0
  6
CONTINUOUS
  5
11C
 10
265.061945
 20
348.706741
 30
0.0
 11
262.560396
 21
351.20829
 31
0.0
  0
ENDBLK
  8
0
  5
11D
  0
BLOCK
  8
0
  5
11F
  2
*X18
 70
    65
 10
262.561402
 20
296.206691
 30
0.0
  3
*X18
  0
LINE
  8
LC-006-005-----0
  6
CONTINUOUS
  5
120
 10
279.560903
 20
300.266658
 30
0.0
 11
276.12111
 21
303.706451
 31
0.0
  0
LINE
  8
LC-006-005-----0
  6
CONTINUOUS
  5
121
 10
278.292129
 20
298.707004
 30
0.0
 11
276.061397
 21
300.937736
 31
0.0
  0
LINE
  8
LC-006-005-----0
  6
CONTINUOUS
  5
122
 10
275.463758
 20
298.706948
 30
0.0
 11
273.463798
 21
300.706908
 31
0.0
  0
LINE
  8
LC-006-005-----0
  6
CONTINUOUS
  5
123
 10
272.635387
 20
298.706892
 30
0.0
 11
270.635427
 21
300.706852
 31
0.0
  0
LINE
  8
LC-006-005-----0
  6
CONTINUOUS
  5
124
 10
269.807017
 20
298.706835
 30
0.0
 11
267.807056
 21
300.706796
 31
0.0
  0
LINE
  8
LC-006-005-----0
  6
CONTINUOUS
  5
125
 10
266.978646
 20
298.706779
 30
0.0
 11
264.978686
 21
300.706739
 31
0.0
  0
LINE
  8
LC-006-005-----0
  6
CONTINUOUS
  5
126
 10
265.06146
 20
297.795538
 30
0.0
 11
262.56141
 21
300.295588
 31
0.0
  0
LINE
  8
LC-006-005-----0
  6
CONTINUOUS
  5
127
 10
263.821855
 20
296.206716
 30
0.0
 11
262.561466
 21
297.467104
 31
0.0
  0
ENDBLK
  8
0
  5
128
  0
BLOCK
  8
0
  5
12A
  2
BLK6
 70
    64
 10
0.0
 20
0.0
 30
0.0
  3
BLK6
  0
ENDBLK
  8
0
  5
12B
  0
BLOCK
  8
0
  5
12D
  2
*D20
 70
    65
 10
0.0
 20
0.0
 30
0.0
  3
*D20
  0
LINE
  8
LC-003-003-MTH-0
  6
CONTINUOUS
  5
12E
 10
201.061359
 20
300.706213
 30
0.0
 11
201.061359
 21
241.2
 31
0.0
  0
LINE
  8
LC-003-003-MTH-0
  6
CONTINUOUS
  5
12F
 10
276.061402
 20
300.70696
 30
0.0
 11
276.061402
 21
241.2
 31
0.0
  0
LINE
  8
LC-004-003-MTG-0
  6
CONTINUOUS
  5
130
 10
201.061359
 20
252.0
 30
0.0
 11
276.061402
 21
252.0
 31
0.0
  0
LINE
  8
LC-002-003-----0
  6
CONTINUOUS
  5
131
 10
218.907367
 20
254.349471
 30
0.0
 11
201.061359
 21
252.0
 31
0.0
  0
LINE
  8
LC-002-003-----0
  6
CONTINUOUS
  5
132
 10
201.061359
 20
252.0
 30
0.0
 11
218.907367
 21
249.650529
 31
0.0
  0
LINE
  8
LC-002-003-----0
  6
CONTINUOUS
  5
133
 10
218.907367
 20
249.650529
 30
0.0
 11
218.907367
 21
254.349471
 31
0.0
  0
LINE
  8
LC-002-003-----0
  6
CONTINUOUS
  5
134
 10
218.947405
 20
253.738609
 30
0.0
 11
205.741359
 21
252.0
 31
0.0
  0
LINE
  8
LC-002-003-----0
  6
CONTINUOUS
  5
135
 10
205.741359
 20
252.0
 30
0.0
 11
218.947405
 21
250.261391
 31
0.0
  0
LINE
  8
LC-002-003-----0
  6
CONTINUOUS
  5
136
 10
218.987443
 20
253.127746
 30
0.0
 11
210.421359
 21
252.0
 31
0.0
  0
LINE
  8
LC-002-003-----0
  6
CONTINUOUS
  5
137
 10
210.421359
 20
252.0
 30
0.0
 11
218.987443
 21
250.872254
 31
0.0
  0
LINE
  8
LC-002-003-----0
  6
CONTINUOUS
  5
138
 10
219.027481
 20
252.516884
 30
0.0
 11
215.101359
 21
252.0
 31
0.0
  0
LINE
  8
LC-002-003-----0
  6
CONTINUOUS
  5
139
 10
215.101359
 20
252.0
 30
0.0
 11
219.027481
 21
251.483116
 31
0.0
  0
LINE
  8
LC-002-003-----0
  6
CONTINUOUS
  5
13A
 10
258.215394
 20
249.650529
 30
0.0
 11
276.061402
 21
252.0
 31
0.0
  0
LINE
  8
LC-002-003-----0
  6
CONTINUOUS
  5
13B
 10
276.061402
 20
252.0
 30
0.0
 11
258.215394
 21
254.349471
 31
0.0
  0
LINE
  8
LC-002-003-----0
  6
CONTINUOUS
  5
13C
 10
258.215394
 20
254.349471
 30
0.0
 11
258.215394
 21
249.650529
 31
0.0
  0
LINE
  8
LC-002-003-----0
  6
CONTINUOUS
  5
13D
 10
258.175356
 20
250.261391
 30
0.0
 11
271.381402
 21
252.0
 31
0.0
  0
LINE
  8
LC-002-003-----0
  6
CONTINUOUS
  5
13E
 10
271.381402
 20
252.0
 30
0.0
 11
258.175356
 21
253.738609
 31
0.0
  0
LINE
  8
LC-002-003-----0
  6
CONTINUOUS
  5
13F
 10
258.135318
 20
250.872254
 30
0.0
 11
266.701402
 21
252.0
 31
0.0
  0
LINE
  8
LC-002-003-----0
  6
CONTINUOUS
  5
140
 10
266.701402
 20
252.0
 30
0.0
 11
258.135318
 21
253.127746
 31
0.0
  0
LINE
  8
LC-002-003-----0
  6
CONTINUOUS
  5
141
 10
258.09528
 20
251.483116
 30
0.0
 11
262.021402
 21
252.0
 31
0.0
  0
LINE
  8
LC-002-003-----0
  6
CONTINUOUS
  5
142
 10
262.021402
 20
252.0
 30
0.0
 11
258.09528
 21
252.516884
 31
0.0
  0
TEXT
  8
LC-002-003-----0
  6
CONTINUOUS
 62
     6
  5
143
 10
229.493634
 20
262.431999
 30
0.0
 40
18.0
  1
75
 51
15.0
  7
LC-TXTSTYLE-150-400-0-0-D0
 72
     1
 11
241.356626
 21
262.431999
 31
0.0
  0
ENDBLK
  8
0
  5
144
  0
BLOCK
  8
0
  5
146
  2
*D21
 70
    65
 10
0.0
 20
0.0
 30
0.0
  3
*D21
  0
LINE
  8
LC-003-003-MTH-0
  6
CONTINUOUS
  5
147
 10
207.061343
 20
304.456213
 30
0.0
 11
169.2
 21
304.456213
 31
0.0
  0
LINE
  8
LC-003-003-MTH-0
  6
CONTINUOUS
  5
148
 10
207.06094
 20
344.956213
 30
0.0
 11
169.2
 21
344.956213
 31
0.0
  0
LINE
  8
LC-002-003-----0
  6
CONTINUOUS
  5
149
 10
182.349471
 20
286.610205
 30
0.0
 11
180.0
 21
304.456213
 31
0.0
  0
LINE
  8
LC-002-003-----0
  6
CONTINUOUS
  5
14A
 10
180.0
 20
304.456213
 30
0.0
 11
177.650529
 21
286.610205
 31
0.0
  0
LINE
  8
LC-002-003-----0
  6
CONTINUOUS
  5
14B
 10
177.650529
 20
286.610205
 30
0.0
 11
182.349471
 21
286.610205
 31
0.0
  0
LINE
  8
LC-002-003-----0
  6
CONTINUOUS
  5
14C
 10
181.738609
 20
286.570167
 30
0.0
 11
180.0
 21
299.776213
 31
0.0
  0
LINE
  8
LC-002-003-----0
  6
CONTINUOUS
  5
14D
 10
180.0
 20
299.776213
 30
0.0
 11
178.261391
 21
286.570167
 31
0.0
  0
LINE
  8
LC-002-003-----0
  6
CONTINUOUS
  5
14E
 10
181.127746
 20
286.530129
 30
0.0
 11
180.0
 21
295.096213
 31
0.0
  0
LINE
  8
LC-002-003-----0
  6
CONTINUOUS
  5
14F
 10
180.0
 20
295.096213
 30
0.0
 11
178.872254
 21
286.530129
 31
0.0
  0
LINE
  8
LC-002-003-----0
  6
CONTINUOUS
  5
150
 10
180.516884
 20
286.490091
 30
0.0
 11
180.0
 21
290.416213
 31
0.0
  0
LINE
  8
LC-002-003-----0
  6
CONTINUOUS
  5
151
 10
180.0
 20
290.416213
 30
0.0
 11
179.483116
 21
286.490091
 31
0.0
  0
LINE
  8
LC-002-003-----0
  6
CONTINUOUS
  5
152
 10
177.650529
 20
362.80222
 30
0.0
 11
180.0
 21
344.956213
 31
0.0
  0
LINE
  8
LC-002-003-----0
  6
CONTINUOUS
  5
153
 10
180.0
 20
344.956213
 30
0.0
 11
182.349471
 21
362.80222
 31
0.0
  0
LINE
  8
LC-002-003-----0
  6
CONTINUOUS
  5
154
 10
182.349471
 20
362.80222
 30
0.0
 11
177.650529
 21
362.80222
 31
0.0
  0
LINE
  8
LC-002-003-----0
  6
CONTINUOUS
  5
155
 10
178.261391
 20
362.842259
 30
0.0
 11
180.0
 21
349.636213
 31
0.0
  0
LINE
  8
LC-002-003-----0
  6
CONTINUOUS
  5
156
 10
180.0
 20
349.636213
 30
0.0
 11
181.738609
 21
362.842259
 31
0.0
  0
LINE
  8
LC-002-003-----0
  6
CONTINUOUS
  5
157
 10
178.872254
 20
362.882297
 30
0.0
 11
180.0
 21
354.316213
 31
0.0
  0
LINE
  8
LC-002-003-----0
  6
CONTINUOUS
  5
158
 10
180.0
 20
354.316213
 30
0.0
 11
181.127746
 21
362.882297
 31
0.0
  0
LINE
  8
LC-002-003-----0
  6
CONTINUOUS
  5
159
 10
179.483116
 20
362.922335
 30
0.0
 11
180.0
 21
358.996213
 31
0.0
  0
LINE
  8
LC-002-003-----0
  6
CONTINUOUS
  5
15A
 10
180.0
 20
358.996213
 30
0.0
 11
180.516884
 21
362.922335
 31
0.0
  0
LINE
  8
LC-004-003-MTG-0
  6
CONTINUOUS
  5
15B
 10
180.0
 20
279.256213
 30
0.0
 11
180.0
 21
435.358733
 31
0.0
  0
TEXT
  8
LC-002-003-----0
  6
CONTINUOUS
 62
     6
  5
15C
 10
169.568001
 20
372.231459
 30
0.0
 40
18.0
  1
DN40
 50
90.0
 51
15.0
  7
LC-TXTSTYLE-150-400-0-0-D0
  0
ENDBLK
  8
0
  5
15D
  0
BLOCK
  8
0
  5
15F
  2
*X22
 70
    65
 10
226.06082
 20
355.456106
 30
0.0
  3
*X22
  0
LINE
  8
LC-006-005-----0
  6
CONTINUOUS
  5
160
 10
227.855194
 20
357.063536
 30
0.0
 11
227.66825
 21
357.250479
 31
0.0
  0
LINE
  8
LC-006-005-----0
  6
DASHED
  5
162
 10
227.890095
 20
355.897264
 30
0.0
 11
226.501978
 21
357.28538
 31
0.0
  0
LINE
  8
LC-006-005-----0
  6
DASHED
  5
163
 10
227.604718
 20
355.616955
 30
0.0
 11
226.221669
 21
357.000004
 31
0.0
  0
ENDBLK
  8
0
  5
164
  0
BLOCK
  8
0
  5
166
  2
*X23
 70
    65
 10
249.06082
 20
355.45632
 30
0.0
  3
*X23
  0
LINE
  8
LC-006-005-----0
  6
CONTINUOUS
  5
167
 10
251.060387
 20
356.48576
 30
0.0
 11
250.09026
 21
357.455887
 31
0.0
  0
LINE
  8
LC-006-005-----0
  6
DASHED
  5
168
 10
250.71489
 20
355.699886
 30
0.0
 11
249.304386
 21
357.11039
 31
0.0
  0
LINE
  8
LC-006-005-----0
  6
DASHED
  5
169
 10
250.350035
 20
355.499056
 30
0.0
 11
249.103556
 21
356.745534
 31
0.0
  0
ENDBLK
  8
0
  5
16A
  0
BLOCK
  8
0
  5
16C
  2
*X24
 70
    65
 10
218.810886
 20
349.456016
 30
0.0
  3
*X24
  0
LINE
  8
LC-006-005-----0
  6
CONTINUOUS
  5
16D
 10
218.810894
 20
349.702871
 30
0.0
 11
219.057747
 21
349.456019
 31
0.0
  0
LINE
  8
LC-006-005-----0
  6
CONTINUOUS
  5
16E
 10
219.810861
 20
352.945543
 30
0.0
 11
221.810881
 21
350.945526
 31
0.0
  0
LINE
  8
LC-006-005-----0
  6
CONTINUOUS
  5
16F
 10
219.810819
 20
357.188223
 30
0.0
 11
221.810839
 21
355.188206
 31
0.0
  0
LINE
  8
LC-006-005-----0
  6
CONTINUOUS
  5
170
 10
219.810777
 20
361.430903
 30
0.0
 11
221.810797
 21
359.430886
 31
0.0
  0
LINE
  8
LC-006-005-----0
  6
CONTINUOUS
  5
171
 10
219.994488
 20
365.48983
 30
0.0
 11
221.810755
 21
363.673566
 31
0.0
  0
LINE
  8
LC-006-005-----0
  6
CONTINUOUS
  5
172
 10
222.312558
 20
367.414402
 30
0.0
 11
223.770896
 21
365.956066
 31
0.0
  0
ENDBLK
  8
0
  5
173
  0
BLOCK
  8
0
  5
175
  2
*X25
 70
    65
 10
251.312849
 20
349.454025
 30
0.0
  3
*X25
  0
LINE
  8
LC-006-005-----0
  6
CONTINUOUS
  5
176
 10
255.312909
 20
351.384645
 30
0.0
 11
257.243523
 21
349.454034
 31
0.0
  0
LINE
  8
LC-006-005-----0
  6
CONTINUOUS
  5
177
 10
255.31289
 20
355.627303
 30
0.0
 11
257.312899
 21
353.627296
 31
0.0
  0
LINE
  8
LC-006-005-----0
  6
CONTINUOUS
  5
178
 10
255.31287
 20
359.86996
 30
0.0
 11
257.312879
 21
357.869954
 31
0.0
  0
LINE
  8
LC-006-005-----0
  6
CONTINUOUS
  5
179
 10
251.971454
 20
367.45401
 30
0.0
 11
253.471449
 21
365.954017
 31
0.0
  0
LINE
  8
LC-006-005-----0
  6
CONTINUOUS
  5
17A
 10
255.31285
 20
364.112618
 30
0.0
 11
257.312859
 21
362.112611
 31
0.0
  0
ENDBLK
  8
0
  5
17B
  0
BLOCK
  8
0
  5
17D
  2
BLK7
 70
    64
 10
0.0
 20
0.0
 30
0.0
  3
BLK7
  0
ENDBLK
  8
0
  5
17E
  0
ENDSEC
  0
SECTION
  2
ENTITIES
  0
VIEWPORT
  8
LC-000
  5
27D
 67
     1
 68
     1
 10
420.0
 20
297.0
 30
0.0
 40
840.0
 41
594.0
 69
     1
1001
ACAD
1000
MVIEW
1002
{
1070
    16
1010
0.0
1020
0.0
1030
0.0
1010
0.0
1020
0.0
1030
1.0
1040
0.0
1040
594.0
1040
420.0
1040
297.0
1040
50.0
1040
0.0
1040
0.0
1070
     0
1070
   100
1070
     1
1070
     1
1070
     0
1070
     0
1070
     0
1070
     0
1040
0.0
1040
0.0
1040
0.0
1040
1.0
1040
1.0
1040
0.0
1040
0.0
1070
     0
1002
{
1002
}
1002
}
  0
VIEWPORT
  8
0
  5
27E
 67
     1
 68
     1
 10
0.0
 20
0.0
 30
0.0
 40
0.0
 41
0.0
 69
     1
1001
ACAD
1000
MVIEW
1002
{
1070
    16
1010
0.0
1020
0.0
1030
0.0
1010
0.0
1020
0.0
1030
1.0
1040
0.0
1040
594.0
1040
0.0
1040
0.0
1040
50.0
1040
0.0
1040
0.0
1070
     0
1070
   100
1070
     0
1070
     1
1070
     0
1070
     0
1070
     0
1070
     0
1040
0.0
1040
0.0
1040
0.0
1040
0.5
1040
0.5
1040
0.5
1040
0.5
1070
     0
1002
{
1002
}
1002
}
  0
DIMENSION
  8
0
  5
17F
  2
*D0
 10
336.0
 20
359.081285
 30
0.0
 11
336.0
 21
359.081285
 31
0.0
  1
72
 13
253.060474
 23
393.456357
 33
0.0
 14
279.560924
 24
324.706213
 34
0.0
 50
90.0
  3
LC-DIM-L-0090-02-02
  0
INSERT
  8
0
  5
180
  2
*X1
 10
201.061359
 20
302.848522
 30
0.0
  0
INSERT
  8
0
  5
182
  2
BLK1
 10
0.0
 20
0.0
 30
0.0
  0
INSERT
  8
0
  5
183
  2
*X3
 10
201.061359
 20
344.063904
 30
0.0
  0
INSERT
  8
0
  5
184
  2
BLK2
 10
0.0
 20
0.0
 30
0.0
  0
INSERT
  8
0
  5
185
  2
*X5
 10
267.061309
 20
302.849269
 30
0.0
  0
INSERT
  8
0
  5
186
  2
*X6
 10
201.061359
 20
301.206213
 30
0.0
  0
INSERT
  8
0
  5
187
  2
BLK3
 10
0.0
 20
0.0
 30
0.0
  0
INSERT
  8
0
  5
188
  2
*X8
 10
267.060536
 20
344.064472
 30
0.0
  0
INSERT
  8
0
  5
189
  2
BLK4
 10
0.0
 20
0.0
 30
0.0
  0
INSERT
  8
0
  5
18A
  2
*X10
 10
201.06092
 20
344.956213
 30
0.0
  0
INSERT
  8
0
  5
18B
  2
*X11
 10
251.06075
 20
344.956462
 30
0.0
  0
INSERT
  8
0
  5
18C
  2
*X12
 10
224.060732
 20
351.956106
 30
0.0
  0
INSERT
  8
0
  5
18D
  2
*X13
 10
247.560729
 20
351.956297
 30
0.0
  0
INSERT
  8
0
  5
18E
  2
*X14
 10
197.561359
 20
296.206213
 30
0.0
  0
INSERT
  8
0
  5
18F
  2
*X15
 10
197.561359
 20
345.706213
 30
0.0
  0
INSERT
  8
0
  5
190
  2
BLK5
 10
0.0
 20
0.0
 30
0.0
  0
INSERT
  8
0
  5
191
  2
*X17
 10
262.560356
 20
345.70696
 30
0.0
  0
INSERT
  8
0
  5
192
  2
*X18
 10
262.561402
 20
296.206691
 30
0.0
  0
INSERT
  8
0
  5
193
  2
BLK6
 10
0.0
 20
0.0
 30
0.0
  0
DIMENSION
  8
0
  5
194
  2
*D20
 10
238.56138
 20
252.0
 30
0.0
 11
238.56138
 21
252.0
 31
0.0
 13
201.061359
 23
300.706213
 33
0.0
 14
276.061402
 24
300.70696
 34
0.0
  3
LC-DIM-L-0090-02-02
  0
DIMENSION
  8
0
  5
195
  2
*D21
 10
180.0
 20
324.706213
 30
0.0
 11
180.0
 21
324.706213
 31
0.0
  1
DN40
 13
207.061343
 23
304.456213
 33
0.0
 14
207.06094
 24
344.956213
 34
0.0
 50
90.0
  3
LC-DIM-L-0090-02-02
  0
INSERT
  8
0
  5
196
  2
*X22
 10
226.06082
 20
355.456106
 30
0.0
  0
INSERT
  8
0
  5
197
  2
*X23
 10
249.06082
 20
355.45632
 30
0.0
  0
INSERT
  8
0
  5
198
  2
*X24
 10
218.810886
 20
349.456016
 30
0.0
  0
INSERT
  8
0
  5
199
  2
*X25
 10
251.312849
 20
349.454025
 30
0.0
  0
INSERT
  8
0
  5
19B
  2
BLK7
 10
0.0
 20
0.0
 30
0.0
  0
LINE
  8
LC-001-002-----0
  5
19E
 10
197.561359
 20
324.706213
 30
0.0
 11
279.560924
 21
324.706213
 31
0.0
  0
LINE
  8
LC-001-002-----0
  6
CONTINUOUS
 62
     1
  5
19F
 10
276.061363
 20
302.456213
 30
0.0
 11
276.06092
 21
346.95696
 31
0.0
  0
LINE
  8
LC-001-002-----0
  6
CONTINUOUS
 62
     1
  5
1A0
 10
201.060924
 20
346.56402
 30
0.0
 11
201.06092
 21
346.956213
 31
0.0
  0
LINE
  8
LC-001-002-----0
  6
CONTINUOUS
 62
     1
  5
1A1
 10
214.56092
 20
346.956213
 30
0.0
 11
224.06092
 21
346.956213
 31
0.0
  0
LINE
  8
LC-001-002-----0
  6
CONTINUOUS
 62
     1
  5
1A2
 10
214.561363
 20
302.456213
 30
0.0
 11
262.561363
 21
302.456213
 31
0.0
  0
LINE
  8
LC-001-002-----0
  6
CONTINUOUS
 62
     1
  5
1A3
 10
207.061343
 20
304.456213
 30
0.0
 11
270.063685
 21
304.456213
 31
0.0
  0
LINE
  8
LC-001-002-----0
  6
CONTINUOUS
 62
     1
  5
1A4
 10
201.061359
 20
346.563904
 30
0.0
 11
201.061359
 21
344.063904
 31
0.0
  0
LINE
  8
LC-001-002-----0
  6
CONTINUOUS
 62
     1
  5
1A5
 10
207.06094
 20
344.956213
 30
0.0
 11
226.06094
 21
344.956213
 31
0.0
  0
LINE
  8
LC-001-002-----0
  6
CONTINUOUS
 62
     1
  5
1A6
 10
267.039197
 20
305.266558
 30
0.0
 11
276.061359
 21
302.849269
 31
0.0
  0
LINE
  8
LC-001-002-----0
  6
CONTINUOUS
 62
     1
  5
1A7
 10
202.31092
 20
348.206213
 30
0.0
 11
213.31092
 21
348.206213
 31
0.0
  0
LINE
  8
LC-001-002-----0
  6
CONTINUOUS
 62
     1
  5
1A8
 10
202.311363
 20
301.206213
 30
0.0
 11
213.311363
 21
301.206213
 31
0.0
  0
LINE
  8
LC-001-002-----0
  6
CONTINUOUS
 62
     1
  5
1A9
 10
214.561363
 20
302.456213
 30
0.0
 11
213.311363
 21
301.206213
 31
0.0
  0
LINE
  8
LC-001-002-----0
  6
CONTINUOUS
 62
     1
  5
1AA
 10
224.060474
 20
393.456069
 30
0.0
 11
253.060474
 21
393.456357
 31
0.0
  0
LINE
  8
LC-001-002-----0
  6
CONTINUOUS
 62
     1
  5
1AB
 10
221.060569
 20
383.456039
 30
0.0
 11
221.060504
 21
390.456041
 31
0.0
  0
LINE
  8
LC-001-002-----0
  6
CONTINUOUS
 62
     1
  5
1AC
 10
201.061363
 20
302.456213
 30
0.0
 11
202.311363
 21
301.206213
 31
0.0
  0
LINE
  8
LC-001-002-----0
  6
CONTINUOUS
 62
     1
  5
1AD
 10
201.06092
 20
346.956213
 30
0.0
 11
202.31092
 21
348.206213
 31
0.0
  0
LINE
  8
LC-001-002-----0
  6
CONTINUOUS
 62
     1
  5
1AE
 10
214.56092
 20
346.956213
 30
0.0
 11
213.31092
 21
348.206213
 31
0.0
  0
LINE
  8
LC-001-002-----0
  6
CONTINUOUS
 62
     1
  5
1AF
 10
201.061359
 20
302.848522
 30
0.0
 11
201.061359
 21
305.348522
 31
0.0
  0
LINE
  8
LC-001-002-----0
  6
CONTINUOUS
 62
     1
  5
1B0
 10
207.061343
 20
344.956213
 30
0.0
 11
201.061359
 21
346.563904
 31
0.0
  0
LINE
  8
LC-001-002-----0
  6
CONTINUOUS
 62
     1
  5
1B1
 10
256.060569
 20
383.456387
 30
0.0
 11
256.060504
 21
390.456385
 31
0.0
  0
LINE
  8
LC-001-002-----0
  6
CONTINUOUS
 62
     1
  5
1B2
 10
221.060569
 20
383.456039
 30
0.0
 11
256.060569
 21
383.456387
 31
0.0
  0
ARC
  8
LC-005-002-RND-0
  6
CONTINUOUS
  5
1B4
 10
224.060504
 20
390.456069
 30
0.0
 40
3.0
 50
90.000571
 51
180.000533
  0
ARC
  8
LC-005-002-RND-0
  6
CONTINUOUS
  5
1B5
 10
253.060504
 20
390.456357
 30
0.0
 40
3.0
 50
0.000533
 51
90.000571
  0
LINE
  8
LC-001-002-----0
  6
CONTINUOUS
 62
     1
  5
1B6
 10
221.560685
 20
370.956044
 30
0.0
 11
255.560685
 21
370.956382
 31
0.0
  0
LINE
  8
LC-001-002-----0
  6
CONTINUOUS
 62
     1
  5
1B7
 10
224.060685
 20
370.956069
 30
0.0
 11
224.060569
 21
383.456069
 31
0.0
  0
LINE
  8
LC-001-002-----0
  6
CONTINUOUS
 62
     1
  5
1B8
 10
253.060685
 20
370.956357
 30
0.0
 11
253.060569
 21
383.456357
 31
0.0
  0
LINE
  8
LC-001-002-----0
  6
CONTINUOUS
 62
     1
  5
1B9
 10
226.060853
 20
352.956097
 30
0.0
 11
226.060834
 21
354.956097
 31
0.0
  0
LINE
  8
LC-001-002-----0
  6
CONTINUOUS
 62
     1
  5
1BA
 10
251.060853
 20
352.956329
 30
0.0
 11
251.060834
 21
354.956329
 31
0.0
  0
LINE
  8
LC-001-002-----0
  6
CONTINUOUS
 62
     1
  5
1BB
 10
226.06075
 20
363.956097
 30
0.0
 11
226.06075
 21
363.956097
 31
0.0
  0
LINE
  8
LC-001-002-----0
  6
CONTINUOUS
  5
1BC
 10
214.561363
 20
302.456213
 30
0.0
 11
201.061359
 21
302.456213
 31
0.0
  0
LINE
  8
LC-001-002-----0
  6
CONTINUOUS
 62
     1
  5
1BD
 10
207.061343
 20
304.456213
 30
0.0
 11
201.061359
 21
302.848522
 31
0.0
  0
LINE
  8
LC-001-002-----0
  6
CONTINUOUS
  5
1BE
 10
214.56092
 20
346.956213
 30
0.0
 11
201.06092
 21
346.956213
 31
0.0
  0
LINE
  8
LC-001-002-----0
  6
CONTINUOUS
 62
     1
  5
1BF
 10
201.061359
 20
305.348522
 30
0.0
 11
210.061359
 21
305.348522
 31
0.0
  0
LINE
  8
LC-001-002-----0
  6
CONTINUOUS
 62
     1
  5
1C0
 10
210.061359
 20
305.260065
 30
0.0
 11
210.061359
 21
344.063904
 31
0.0
  0
LINE
  8
LC-001-002-----0
  6
CONTINUOUS
 62
     1
  5
1C1
 10
201.061359
 20
302.848522
 30
0.0
 11
210.061359
 21
305.260065
 31
0.0
  0
LINE
  8
LC-001-002-----0
  6
CONTINUOUS
 62
     1
  5
1C2
 10
201.061359
 20
344.063904
 30
0.0
 11
210.061359
 21
344.063904
 31
0.0
  0
LINE
  8
LC-001-002-----0
  6
CONTINUOUS
 62
     1
  5
1C3
 10
210.061359
 20
344.152361
 30
0.0
 11
210.061359
 21
344.063904
 31
0.0
  0
LINE
  8
LC-001-002-----0
  6
CONTINUOUS
 62
     1
  5
1C4
 10
201.061359
 20
346.563904
 30
0.0
 11
210.061359
 21
344.152361
 31
0.0
  0
LINE
  8
LC-001-002-----0
  6
CONTINUOUS
 62
     1
  5
1C5
 10
276.061359
 20
302.849269
 30
0.0
 11
276.061309
 21
305.349269
 31
0.0
  0
LINE
  8
LC-001-002-----0
  6
CONTINUOUS
 62
     1
  5
1C6
 10
276.061309
 20
305.349269
 30
0.0
 11
267.061309
 21
305.34909
 31
0.0
  0
LINE
  8
LC-001-002-----0
  6
CONTINUOUS
 62
     1
  5
1C7
 10
267.061311
 20
305.260633
 30
0.0
 11
267.060538
 21
344.064472
 31
0.0
  0
LINE
  8
LC-001-002-----0
  6
CONTINUOUS
 62
     1
  5
1C8
 10
276.060488
 20
346.564651
 30
0.0
 11
276.060538
 21
344.064651
 31
0.0
  0
LINE
  8
LC-001-002-----0
  6
CONTINUOUS
 62
     1
  5
1C9
 10
276.060538
 20
344.064651
 30
0.0
 11
267.060538
 21
344.064472
 31
0.0
  0
LINE
  8
LC-001-002-----0
  6
CONTINUOUS
 62
     1
  5
1CA
 10
267.060536
 20
344.152929
 30
0.0
 11
267.060538
 21
344.064472
 31
0.0
  0
LINE
  8
LC-001-002-----0
  6
CONTINUOUS
 62
     1
  5
1CB
 10
276.060488
 20
346.564651
 30
0.0
 11
267.060536
 21
344.152929
 31
0.0
  0
LINE
  8
LC-001-002-----0
  6
CONTINUOUS
 62
     1
  5
1CC
 10
276.061363
 20
302.45696
 30
0.0
 11
274.811388
 21
301.206935
 31
0.0
  0
LINE
  8
LC-001-002-----0
  6
CONTINUOUS
 62
     1
  5
1CD
 10
274.811388
 20
301.206935
 30
0.0
 11
263.811388
 21
301.206716
 31
0.0
  0
LINE
  8
LC-001-002-----0
  6
CONTINUOUS
 62
     1
  5
1CE
 10
262.561363
 20
302.456691
 30
0.0
 11
263.811388
 21
301.206716
 31
0.0
  0
LINE
  8
LC-001-002-----0
  6
CONTINUOUS
  5
1CF
 10
262.561363
 20
302.456691
 30
0.0
 11
276.061367
 21
302.45696
 31
0.0
  0
LINE
  8
LC-001-002-----0
  6
CONTINUOUS
 62
     1
  5
1D0
 10
276.06092
 20
346.95696
 30
0.0
 11
274.810895
 21
348.206935
 31
0.0
  0
LINE
  8
LC-001-002-----0
  6
CONTINUOUS
 62
     1
  5
1D1
 10
274.810895
 20
348.206935
 30
0.0
 11
263.810895
 21
348.206716
 31
0.0
  0
LINE
  8
LC-001-002-----0
  6
CONTINUOUS
 62
     1
  5
1D2
 10
262.56092
 20
346.956691
 30
0.0
 11
263.810895
 21
348.206716
 31
0.0
  0
LINE
  8
LC-001-002-----0
  6
CONTINUOUS
  5
1D3
 10
262.56092
 20
346.956691
 30
0.0
 11
276.06092
 21
346.95696
 31
0.0
  0
LINE
  8
LC-001-002-----0
  6
CONTINUOUS
 62
     1
  5
1D4
 10
270.060536
 20
344.95684
 30
0.0
 11
276.060488
 21
346.564651
 31
0.0
  0
LINE
  8
LC-001-002-----0
  6
CONTINUOUS
 62
     1
  5
1D5
 10
224.06075
 20
363.956213
 30
0.0
 11
226.06075
 21
363.956213
 31
0.0
  0
LINE
  8
LC-001-002-----0
  6
CONTINUOUS
 62
     1
  5
1D6
 10
253.06092
 20
346.956213
 30
0.0
 11
253.060875
 21
351.456213
 31
0.0
  0
LINE
  8
LC-001-002-----0
  6
CONTINUOUS
 62
     1
  5
1D7
 10
224.06092
 20
346.956213
 30
0.0
 11
224.060875
 21
351.456213
 31
0.0
  0
LINE
  8
LC-001-002-----0
  6
CONTINUOUS
 62
     1
  5
1D8
 10
251.06094
 20
344.956213
 30
0.0
 11
251.06075
 21
363.956213
 31
0.0
  0
LINE
  8
LC-001-002-----0
  6
CONTINUOUS
 62
     1
  5
1D9
 10
226.06094
 20
344.956213
 30
0.0
 11
226.06075
 21
363.956213
 31
0.0
  0
LINE
  8
LC-001-002-----0
  6
CONTINUOUS
 62
     1
  5
1DA
 10
253.06092
 20
346.956213
 30
0.0
 11
262.56092
 21
346.956213
 31
0.0
  0
ARC
  8
LC-001-002-----0
  6
CONTINUOUS
 62
     1
  5
1DB
 10
238.56094
 20
351.643672
 30
0.0
 40
14.176463
 50
208.146637
 51
331.853363
  0
LINE
  8
LC-001-002-----0
  6
CONTINUOUS
 62
     1
  5
1DC
 10
251.06094
 20
344.956213
 30
0.0
 11
270.058195
 21
344.956213
 31
0.0
  0
LINE
  8
LC-001-002-----0
  6
CONTINUOUS
 62
     1
  5
1DD
 10
221.560704
 20
368.956044
 30
0.0
 11
255.560704
 21
368.956382
 31
0.0
  0
LINE
  8
LC-001-002-----0
  6
CONTINUOUS
 62
     1
  5
1DE
 10
254.810859
 20
353.206197
 30
0.0
 11
254.810769
 21
362.206194
 31
0.0
  0
LINE
  8
LC-001-002-----0
  6
CONTINUOUS
 62
     1
  5
1DF
 10
221.560704
 20
368.956044
 30
0.0
 11
221.560685
 21
370.956044
 31
0.0
  0
LINE
  8
LC-001-002-----0
  6
CONTINUOUS
 62
     1
  5
1E0
 10
224.060875
 20
351.456213
 30
0.0
 11
222.310858
 21
353.20623
 31
0.0
  0
LINE
  8
LC-001-002-----0
  6
CONTINUOUS
 62
     1
  5
1E1
 10
224.06075
 20
363.956213
 30
0.0
 11
222.310768
 21
362.20623
 31
0.0
  0
LINE
  8
LC-001-002-----0
  6
CONTINUOUS
 62
     1
  5
1E2
 10
253.06075
 20
363.956213
 30
0.0
 11
254.810768
 21
362.206196
 31
0.0
  0
LINE
  8
LC-001-002-----0
  6
CONTINUOUS
 62
     1
  5
1E3
 10
253.060875
 20
351.456213
 30
0.0
 11
254.810858
 21
353.206196
 31
0.0
  0
LINE
  8
LC-001-002-----0
  6
CONTINUOUS
 62
     1
  5
1E4
 10
222.310858
 20
353.20623
 30
0.0
 11
222.310768
 21
362.20623
 31
0.0
  0
LINE
  8
LC-001-002-----0
  6
CONTINUOUS
  5
1E5
 10
224.060875
 20
351.456213
 30
0.0
 11
224.060875
 21
363.956213
 31
0.0
  0
LINE
  8
LC-001-002-----0
  6
CONTINUOUS
  5
1E6
 10
253.06075
 20
351.456213
 30
0.0
 11
253.06075
 21
363.956213
 31
0.0
  0
LINE
  8
LC-001-002-----0
  6
CONTINUOUS
 62
     1
  5
1E7
 10
251.06075
 20
363.956213
 30
0.0
 11
253.06075
 21
363.956213
 31
0.0
  0
LINE
  8
LC-001-002-----0
  6
CONTINUOUS
 62
     1
  5
1E8
 10
201.061359
 20
302.456213
 30
0.0
 11
201.061359
 21
346.56402
 31
0.0
  0
LINE
  8
LC-001-002-----0
  6
CONTINUOUS
 62
     1
  5
1E9
 10
212.061359
 20
353.206213
 30
0.0
 11
214.561359
 21
353.206213
 31
0.0
  0
LINE
  8
LC-001-002-----0
  6
CONTINUOUS
 62
     1
  5
1EA
 10
212.061359
 20
296.206213
 30
0.0
 11
214.561359
 21
296.206213
 31
0.0
  0
LINE
  8
LC-001-002-----0
  6
CONTINUOUS
 62
     1
  5
1EB
 10
214.561359
 20
296.206213
 30
0.0
 11
214.561359
 21
300.706213
 31
0.0
  0
LINE
  8
LC-001-002-----0
  6
CONTINUOUS
 62
     1
  5
1EC
 10
197.561359
 20
300.206213
 30
0.0
 11
199.87076
 21
296.206213
 31
0.0
  0
LINE
  8
LC-001-002-----0
  6
CONTINUOUS
 62
     1
  5
1ED
 10
212.061359
 20
296.206213
 30
0.0
 11
212.061359
 21
298.706213
 31
0.0
  0
LINE
  8
LC-001-002-----0
  6
CONTINUOUS
 62
     1
  5
1EE
 10
255.560704
 20
368.956382
 30
0.0
 11
255.560685
 21
370.956382
 31
0.0
  0
LINE
  8
LC-001-002-----0
  6
CONTINUOUS
  5
1EF
 10
227.310704
 20
368.956101
 30
0.0
 11
228.849841
 21
367.440203
 31
0.0
  0
LINE
  8
LC-001-002-----0
  6
CONTINUOUS
 62
     1
  5
1F0
 10
251.06075
 20
363.956329
 30
0.0
 11
251.06075
 21
363.956329
 31
0.0
  0
LINE
  8
LC-001-002-----0
  6
CONTINUOUS
 62
     1
  5
1F1
 10
198.427385
 20
350.706213
 30
0.0
 11
212.061359
 21
350.706213
 31
0.0
  0
LINE
  8
LC-001-002-----0
  6
CONTINUOUS
  5
1F2
 10
228.849841
 20
367.440203
 30
0.0
 11
230.957355
 21
367.654688
 31
0.0
  0
LINE
  8
LC-001-002-----0
  6
CONTINUOUS
  5
1F3
 10
230.957355
 20
367.654688
 30
0.0
 11
233.256462
 21
366.046053
 31
0.0
  0
LINE
  8
LC-001-002-----0
  6
CONTINUOUS
 62
     1
  5
1F4
 10
198.427385
 20
298.706213
 30
0.0
 11
212.061359
 21
298.706213
 31
0.0
  0
LINE
  8
LC-001-002-----0
  6
CONTINUOUS
 62
     1
  5
1F5
 10
201.061359
 20
348.706213
 30
0.0
 11
214.561359
 21
348.706213
 31
0.0
  0
LINE
  8
LC-001-002-----0
  6
CONTINUOUS
  5
1F6
 10
233.256462
 20
366.046053
 30
0.0
 11
235.938752
 21
367.440203
 31
0.0
  0
LINE
  8
LC-001-002-----0
  6
CONTINUOUS
  5
1F7
 10
235.938752
 20
367.440203
 30
0.0
 11
239.195819
 21
364.651903
 31
0.0
  0
LINE
  8
LC-001-002-----0
  6
CONTINUOUS
  5
1F8
 10
239.195819
 20
364.651903
 30
0.0
 11
242.261294
 21
367.440203
 31
0.0
  0
LINE
  8
LC-001-002-----0
  6
CONTINUOUS
  5
1F9
 10
242.261294
 20
367.440203
 30
0.0
 11
244.751993
 21
366.260538
 31
0.0
  0
LINE
  8
LC-001-002-----0
  6
CONTINUOUS
 62
     1
  5
1FA
 10
226.060806
 20
357.956097
 30
0.0
 11
226.06075
 21
363.956097
 31
0.0
  0
LINE
  8
LC-001-002-----0
  6
CONTINUOUS
 62
     1
  5
1FB
 10
251.060806
 20
357.956329
 30
0.0
 11
251.06075
 21
363.956329
 31
0.0
  0
LINE
  8
LC-001-002-----0
  6
CONTINUOUS
  5
1FC
 10
244.751993
 20
366.260538
 30
0.0
 11
247.560729
 21
366.260705
 31
0.0
  0
LINE
  8
LC-001-002-----0
  6
CONTINUOUS
  5
1FD
 10
247.560729
 20
366.260705
 30
0.0
 11
249.810704
 21
368.956325
 31
0.0
  0
LINE
  8
LC-001-002-----0
  6
CONTINUOUS
 62
     1
  5
1FE
 10
225.560685
 20
370.956083
 30
0.0
 11
225.560606
 21
379.456083
 31
0.0
  0
LINE
  8
LC-001-002-----0
  6
CONTINUOUS
 62
     1
  5
1FF
 10
251.560685
 20
370.956342
 30
0.0
 11
251.560606
 21
379.456342
 31
0.0
  0
LINE
  8
LC-001-002-----0
  6
CONTINUOUS
 62
     1
  5
200
 10
226.810685
 20
370.956096
 30
0.0
 11
226.81062
 21
377.956096
 31
0.0
  0
LINE
  8
LC-001-002-----0
  6
CONTINUOUS
 62
     1
  5
201
 10
250.310685
 20
370.95633
 30
0.0
 11
250.31062
 21
377.95633
 31
0.0
  0
LINE
  8
LC-001-002-----0
  6
CONTINUOUS
 62
     1
  5
202
 10
225.560606
 20
379.456083
 30
0.0
 11
251.560606
 21
379.456342
 31
0.0
  0
LINE
  8
LC-001-002-----0
  6
CONTINUOUS
 62
     1
  5
203
 10
226.81062
 20
377.956096
 30
0.0
 11
250.31062
 21
377.95633
 31
0.0
  0
LINE
  8
LC-001-002-----0
  6
CONTINUOUS
 62
     1
  5
204
 10
233.560685
 20
370.956163
 30
0.0
 11
233.56062
 21
377.956163
 31
0.0
  0
LINE
  8
LC-001-002-----0
  6
CONTINUOUS
 62
     1
  5
205
 10
243.560685
 20
370.956263
 30
0.0
 11
243.56062
 21
377.956263
 31
0.0
  0
LINE
  8
LC-001-002-----0
  6
CONTINUOUS
 62
     1
  5
206
 10
244.310685
 20
370.956263
 30
0.0
 11
244.31062
 21
377.956263
 31
0.0
  0
LINE
  8
LC-001-002-----0
  6
CONTINUOUS
 62
     1
  5
207
 10
232.810685
 20
370.956163
 30
0.0
 11
232.81062
 21
377.956163
 31
0.0
  0
LINE
  8
LC-001-002-----0
  6
CONTINUOUS
 62
     1
  5
208
 10
238.56062
 20
377.956213
 30
0.0
 11
238.560685
 21
370.956213
 31
0.0
  0
LINE
  8
LC-001-002-----0
  5
209
 10
238.56062
 20
377.956213
 30
0.0
 11
238.560476
 21
393.456213
 31
0.0
  0
LINE
  8
LC-001-002-----0
  6
CONTINUOUS
 62
     1
  5
20A
 10
201.061359
 20
300.706213
 30
0.0
 11
214.561359
 21
300.706213
 31
0.0
  0
LINE
  8
LC-001-002-----0
  6
CONTINUOUS
 62
     1
  5
20B
 10
201.061359
 20
300.706213
 30
0.0
 11
201.061359
 21
348.706213
 31
0.0
  0
LINE
  8
LC-001-002-----0
  6
CONTINUOUS
 62
     1
  5
20C
 10
201.061359
 20
303.706213
 30
0.0
 11
201.061359
 21
303.706213
 31
0.0
  0
LINE
  8
LC-001-002-----0
  6
CONTINUOUS
 62
     1
  5
20D
 10
212.061359
 20
350.706213
 30
0.0
 11
212.061359
 21
353.206213
 31
0.0
  0
LINE
  8
LC-001-002-----0
  6
CONTINUOUS
 62
     1
  5
20E
 10
265.060356
 20
353.206741
 30
0.0
 11
262.560356
 21
353.206691
 31
0.0
  0
LINE
  8
LC-001-002-----0
  6
CONTINUOUS
 62
     1
  5
20F
 10
265.061491
 20
296.206741
 30
0.0
 11
262.561491
 21
296.206691
 31
0.0
  0
LINE
  8
LC-001-002-----0
  6
CONTINUOUS
 62
     1
  5
210
 10
214.561359
 20
300.706213
 30
0.0
 11
213.686361
 21
301.581211
 31
0.0
  0
LINE
  8
LC-001-002-----0
  6
CONTINUOUS
 62
     1
  5
211
 10
201.061359
 20
300.706213
 30
0.0
 11
201.936361
 21
301.581215
 31
0.0
  0
LINE
  8
LC-001-002-----0
  6
CONTINUOUS
 62
     1
  5
212
 10
214.561359
 20
348.706213
 30
0.0
 11
213.686139
 21
347.830993
 31
0.0
  0
LINE
  8
LC-001-002-----0
  6
CONTINUOUS
 62
     1
  5
213
 10
201.061359
 20
348.706213
 30
0.0
 11
201.936139
 21
347.831433
 31
0.0
  0
ARC
  8
LC-005-002-RND-0
  6
CONTINUOUS
  5
214
 10
201.061359
 20
300.206213
 30
0.0
 40
3.5
 50
90.0
 51
180.0
  0
LINE
  8
LC-008-001-----0
  5
216
 10
238.561014
 20
337.467209
 30
0.0
 11
238.56087
 21
351.956213
 31
0.0
  0
LINE
  8
LC-001-002-----0
  6
CONTINUOUS
 62
     1
  5
217
 10
199.582085
 20
296.706213
 30
0.0
 11
212.061359
 21
296.706213
 31
0.0
  0
LINE
  8
LC-001-002-----0
  6
CONTINUOUS
 62
     1
  5
218
 10
199.87076
 20
296.206213
 30
0.0
 11
212.061359
 21
296.206213
 31
0.0
  0
LINE
  8
LC-001-002-----0
  6
CONTINUOUS
 62
     1
  5
219
 10
197.561359
 20
300.206213
 30
0.0
 11
197.561359
 21
324.706213
 31
0.0
  0
ARC
  8
LC-005-002-RND-0
  6
CONTINUOUS
  5
21A
 10
201.061359
 20
349.206213
 30
0.0
 40
3.5
 50
180.0
 51
270.0
  0
LINE
  8
LC-001-002-----0
  6
CONTINUOUS
 62
     1
  5
21B
 10
197.561359
 20
349.206213
 30
0.0
 11
199.87076
 21
353.206213
 31
0.0
  0
LINE
  8
LC-001-002-----0
  6
CONTINUOUS
 62
     1
  5
21C
 10
199.582085
 20
352.706213
 30
0.0
 11
212.061359
 21
352.706213
 31
0.0
  0
LINE
  8
LC-001-002-----0
  6
CONTINUOUS
 62
     1
  5
21D
 10
199.87076
 20
353.206213
 30
0.0
 11
212.061359
 21
353.206213
 31
0.0
  0
LINE
  8
LC-001-002-----0
  6
CONTINUOUS
 62
     1
  5
21E
 10
197.561359
 20
349.206213
 30
0.0
 11
197.561359
 21
324.706213
 31
0.0
  0
LINE
  8
LC-001-002-----0
  6
CONTINUOUS
 62
     1
  5
21F
 10
214.561359
 20
348.706213
 30
0.0
 11
214.561359
 21
353.206213
 31
0.0
  0
LINE
  8
LC-001-002-----0
  6
CONTINUOUS
 62
     1
  5
220
 10
279.561412
 20
300.20703
 30
0.0
 11
277.25209
 21
296.206984
 31
0.0
  0
LINE
  8
LC-001-002-----0
  6
CONTINUOUS
 62
     1
  5
221
 10
265.061491
 20
296.206741
 30
0.0
 11
265.061442
 21
298.706741
 31
0.0
  0
LINE
  8
LC-001-002-----0
  6
CONTINUOUS
 62
     1
  5
222
 10
278.69438
 20
350.707012
 30
0.0
 11
265.060406
 21
350.706741
 31
0.0
  0
LINE
  8
LC-001-002-----0
  6
CONTINUOUS
 62
     1
  5
223
 10
278.695416
 20
298.707012
 30
0.0
 11
265.061442
 21
298.706741
 31
0.0
  0
LINE
  8
LC-001-002-----0
  6
CONTINUOUS
 62
     1
  5
224
 10
276.060446
 20
348.70696
 30
0.0
 11
262.560446
 21
348.706691
 31
0.0
  0
LINE
  8
LC-001-002-----0
  6
CONTINUOUS
 62
     1
  5
225
 10
276.061402
 20
300.70696
 30
0.0
 11
262.561402
 21
300.706691
 31
0.0
  0
LINE
  8
LC-001-002-----0
  6
CONTINUOUS
 62
     1
  5
226
 10
276.061402
 20
300.70696
 30
0.0
 11
276.060446
 21
348.70696
 31
0.0
  0
LINE
  8
LC-001-002-----0
  6
CONTINUOUS
 62
     1
  5
227
 10
276.061342
 20
303.70696
 30
0.0
 11
276.061342
 21
303.70696
 31
0.0
  0
LINE
  8
LC-001-002-----0
  6
CONTINUOUS
 62
     1
  5
228
 10
265.060406
 20
350.706741
 30
0.0
 11
265.060356
 21
353.206741
 31
0.0
  0
LINE
  8
LC-001-002-----0
  6
CONTINUOUS
 62
     1
  5
229
 10
262.560446
 20
348.706691
 30
0.0
 11
262.560356
 21
353.206691
 31
0.0
  0
LINE
  8
LC-001-002-----0
  6
CONTINUOUS
 62
     1
  5
22A
 10
262.561491
 20
296.206691
 30
0.0
 11
262.561402
 21
300.706691
 31
0.0
  0
LINE
  8
LC-001-002-----0
  6
CONTINUOUS
 62
     1
  5
22B
 10
279.560436
 20
349.20703
 30
0.0
 11
279.560924
 21
324.70703
 31
0.0
  0
LINE
  8
LC-001-002-----0
  6
CONTINUOUS
 62
     1
  5
22C
 10
262.561402
 20
300.706691
 30
0.0
 11
263.436382
 21
301.581707
 31
0.0
  0
LINE
  8
LC-001-002-----0
  6
CONTINUOUS
 62
     1
  5
22D
 10
276.060446
 20
348.70696
 30
0.0
 11
275.185683
 21
347.832162
 31
0.0
  0
LINE
  8
LC-001-002-----0
  6
CONTINUOUS
 62
     1
  5
22E
 10
276.061402
 20
300.70696
 30
0.0
 11
275.186382
 21
301.581945
 31
0.0
  0
ARC
  8
LC-005-002-RND-0
  6
CONTINUOUS
  5
22F
 10
276.061412
 20
300.20696
 30
0.0
 40
3.5
 50
0.001141
 51
90.001141
  0
LINE
  8
LC-001-002-----0
  6
CONTINUOUS
 62
     1
  5
230
 10
277.540756
 20
296.706989
 30
0.0
 11
265.061482
 21
296.706741
 31
0.0
  0
LINE
  8
LC-001-002-----0
  6
CONTINUOUS
 62
     1
  5
231
 10
277.25209
 20
296.206984
 30
0.0
 11
265.061491
 21
296.206741
 31
0.0
  0
LINE
  8
LC-001-002-----0
  6
CONTINUOUS
 62
     1
  5
232
 10
279.561412
 20
300.20703
 30
0.0
 11
279.560924
 21
324.70703
 31
0.0
  0
ARC
  8
LC-005-002-RND-0
  6
CONTINUOUS
  5
233
 10
276.060436
 20
349.20696
 30
0.0
 40
3.5
 50
270.001141
 51
0.001141
  0
LINE
  8
LC-001-002-----0
  6
CONTINUOUS
 62
     1
  5
234
 10
279.560436
 20
349.20703
 30
0.0
 11
277.250955
 21
353.206984
 31
0.0
  0
LINE
  8
LC-001-002-----0
  6
CONTINUOUS
 62
     1
  5
235
 10
277.53964
 20
352.706989
 30
0.0
 11
265.060366
 21
352.706741
 31
0.0
  0
LINE
  8
LC-001-002-----0
  6
CONTINUOUS
 62
     1
  5
236
 10
277.250955
 20
353.206984
 30
0.0
 11
265.060356
 21
353.206741
 31
0.0
  0
LINE
  8
LC-001-002-----0
  6
CONTINUOUS
 62
     1
  5
237
 10
262.560446
 20
348.706691
 30
0.0
 11
263.435683
 21
347.831489
 31
0.0
  0
LINE
  8
LC-001-002-----0
  6
CONTINUOUS
 62
     1
  5
238
 10
225.061359
 20
304.456213
 30
0.0
 11
225.061359
 21
305.956213
 31
0.0
  0
LINE
  8
LC-001-002-----0
  6
CONTINUOUS
 62
     1
  5
239
 10
252.061327
 20
304.456213
 30
0.0
 11
252.061297
 21
305.956213
 31
0.0
  0
LINE
  8
LC-001-002-----0
  6
CONTINUOUS
 62
     1
  5
23A
 10
225.061359
 20
305.956213
 30
0.0
 11
252.061297
 21
305.956213
 31
0.0
  0
LINE
  8
LC-001-002-----0
  5
23B
 10
238.56075
 20
363.956213
 30
0.0
 11
238.560685
 21
370.956213
 31
0.0
  0
LINE
  8
LC-001-002-----0
  6
CONTINUOUS
 62
     1
  5
23C
 10
229.560862
 20
351.956129
 30
0.0
 11
229.560717
 21
367.51255
 31
0.0
  0
LINE
  8
LC-001-002-----0
  6
CONTINUOUS
 62
     1
  5
23D
 10
247.560862
 20
351.956297
 30
0.0
 11
247.560729
 21
366.260705
 31
0.0
  0
LINE
  8
LC-001-002-----0
  6
CONTINUOUS
 62
     1
  5
23E
 10
227.060862
 20
351.956106
 30
0.0
 11
250.060862
 21
351.95632
 31
0.0
  0
LINE
  8
LC-001-002-----0
  6
CONTINUOUS
 62
     1
  5
23F
 10
224.060732
 20
365.956078
 30
0.0
 11
224.060732
 21
365.956078
 31
0.0
  0
LINE
  8
LC-001-002-----0
  6
CONTINUOUS
 62
     1
  5
240
 10
227.310732
 20
365.956108
 30
0.0
 11
227.310704
 21
368.956101
 31
0.0
  0
LINE
  8
LC-001-002-----0
  6
CONTINUOUS
 62
     1
  5
241
 10
249.810732
 20
365.956318
 30
0.0
 11
249.810704
 21
368.956325
 31
0.0
  0
LINE
  8
LC-001-002-----0
  6
CONTINUOUS
 62
     1
  5
242
 10
253.060732
 20
365.956348
 30
0.0
 11
253.060732
 21
365.956348
 31
0.0
  0
LINE
  8
LC-001-002-----0
  6
CONTINUOUS
 62
     1
  5
243
 10
226.060853
 20
352.956097
 30
0.0
 11
226.060834
 21
354.956097
 31
0.0
  0
LINE
  8
LC-001-002-----0
  6
CONTINUOUS
 62
     1
  5
244
 10
251.060853
 20
352.956329
 30
0.0
 11
251.060834
 21
354.956329
 31
0.0
  0
LINE
  8
LC-001-002-----0
  6
CONTINUOUS
 62
     1
  5
245
 10
226.06075
 20
363.956097
 30
0.0
 11
226.06075
 21
363.956097
 31
0.0
  0
LINE
  8
LC-001-002-----0
  6
CONTINUOUS
 62
     1
  5
246
 10
223.310869
 20
352.206219
 30
0.0
 11
223.310881
 21
350.956059
 31
0.0
  0
LINE
  8
LC-001-002-----0
  6
CONTINUOUS
 62
     1
  5
247
 10
253.810869
 20
352.206207
 30
0.0
 11
253.810881
 21
350.956363
 31
0.0
  0
LINE
  8
LC-001-002-----0
  6
CONTINUOUS
 62
     1
  5
248
 10
224.060732
 20
365.956078
 30
0.0
 11
227.310732
 21
365.956108
 31
0.0
  0
LINE
  8
LC-001-002-----0
  6
CONTINUOUS
 62
     1
  5
249
 10
249.810732
 20
365.956318
 30
0.0
 11
253.060732
 21
365.956348
 31
0.0
  0
LINE
  8
LC-001-002-----0
  6
CONTINUOUS
 62
     1
  5
24A
 10
251.06075
 20
363.956329
 30
0.0
 11
251.06075
 21
363.956329
 31
0.0
  0
ARC
  8
LC-005-002-RND-0
  6
CONTINUOUS
  5
24B
 10
226.060732
 20
365.956097
 30
0.0
 40
2.0
 50
180.000533
 51
270.000533
  0
ARC
  8
LC-005-002-RND-0
  6
CONTINUOUS
  5
24C
 10
251.060732
 20
365.956329
 30
0.0
 40
2.0
 50
270.000533
 51
0.000533
  0
LINE
  8
LC-001-002-----0
  6
CONTINUOUS
 62
     1
  5
24D
 10
226.060834
 20
354.956097
 30
0.0
 11
228.060834
 21
354.956115
 31
0.0
  0
LINE
  8
LC-001-002-----0
  6
CONTINUOUS
 62
     1
  5
24E
 10
226.060806
 20
357.956097
 30
0.0
 11
228.060806
 21
357.956115
 31
0.0
  0
LINE
  8
LC-001-002-----0
  6
CONTINUOUS
 62
     1
  5
24F
 10
228.060834
 20
354.956115
 30
0.0
 11
228.060806
 21
357.956115
 31
0.0
  0
LINE
  8
LC-001-002-----0
  6
CONTINUOUS
 62
     1
  5
250
 10
249.060834
 20
354.956311
 30
0.0
 11
249.060806
 21
357.956311
 31
0.0
  0
LINE
  8
LC-001-002-----0
  6
CONTINUOUS
 62
     1
  5
251
 10
226.060806
 20
357.956097
 30
0.0
 11
226.06075
 21
363.956097
 31
0.0
  0
LINE
  8
LC-001-002-----0
  6
CONTINUOUS
 62
     1
  5
252
 10
251.060806
 20
357.956329
 30
0.0
 11
251.06075
 21
363.956329
 31
0.0
  0
LINE
  8
LC-001-002-----0
  6
CONTINUOUS
 62
     1
  5
253
 10
249.060806
 20
357.956311
 30
0.0
 11
251.060806
 21
357.956329
 31
0.0
  0
LINE
  8
LC-001-002-----0
  6
CONTINUOUS
 62
     1
  5
254
 10
249.060834
 20
354.956311
 30
0.0
 11
251.060834
 21
354.956329
 31
0.0
  0
LINE
  8
LC-001-002-----0
  6
CONTINUOUS
 62
     1
  5
255
 10
226.060853
 20
352.956097
 30
0.0
 11
227.060862
 21
351.956106
 31
0.0
  0
LINE
  8
LC-001-002-----0
  6
CONTINUOUS
 62
     1
  5
256
 10
251.060853
 20
352.956329
 30
0.0
 11
250.060862
 21
351.95632
 31
0.0
  0
CIRCLE
  8
LC-001-002-----0
  6
CONTINUOUS
 62
     1
  5
257
 10
250.06082
 20
356.45632
 30
0.0
 40
1.0
  0
CIRCLE
  8
LC-001-002-----0
  6
CONTINUOUS
 62
     1
  5
258
 10
227.06082
 20
356.456106
 30
0.0
 40
1.0
  0
LINE
  8
LC-001-002-----0
  6
CONTINUOUS
 62
     1
  5
259
 10
221.810896
 20
349.456046
 30
0.0
 11
223.310881
 21
350.956059
 31
0.0
  0
LINE
  8
LC-001-002-----0
  6
CONTINUOUS
 62
     1
  5
25A
 10
221.810742
 20
364.956046
 30
0.0
 11
223.310757
 21
363.456059
 31
0.0
  0
LINE
  8
LC-001-002-----0
  6
CONTINUOUS
 62
     1
  5
25B
 10
223.310757
 20
363.456059
 30
0.0
 11
223.310759
 21
363.206222
 31
0.0
  0
LINE
  8
LC-001-002-----0
  6
CONTINUOUS
 62
     1
  5
25C
 10
253.810757
 20
363.456363
 30
0.0
 11
253.810759
 21
363.206204
 31
0.0
  0
LINE
  8
LC-001-002-----0
  6
CONTINUOUS
 62
     1
  5
25D
 10
255.310896
 20
349.45638
 30
0.0
 11
253.810881
 21
350.956363
 31
0.0
  0
LINE
  8
LC-001-002-----0
  6
CONTINUOUS
 62
     1
  5
25E
 10
255.310742
 20
364.95638
 30
0.0
 11
253.810757
 21
363.456363
 31
0.0
  0
LINE
  8
LC-001-002-----0
  6
CONTINUOUS
 62
     1
  5
25F
 10
219.810772
 20
361.953781
 30
0.0
 11
219.310772
 21
361.953776
 31
0.0
  0
LINE
  8
LC-001-002-----0
  6
CONTINUOUS
 62
     1
  5
260
 10
219.310772
 20
361.953776
 30
0.0
 11
219.310886
 21
350.456022
 31
0.0
  0
LINE
  8
LC-001-002-----0
  6
CONTINUOUS
 62
     1
  5
261
 10
257.310772
 20
361.954154
 30
0.0
 11
257.810772
 21
361.95416
 31
0.0
  0
LINE
  8
LC-001-002-----0
  6
CONTINUOUS
 62
     1
  5
262
 10
257.810772
 20
361.95416
 30
0.0
 11
257.810886
 21
350.456405
 31
0.0
  0
LINE
  8
LC-001-002-----0
  6
CONTINUOUS
 62
     1
  5
263
 10
219.810886
 20
350.456026
 30
0.0
 11
218.810886
 21
350.456016
 31
0.0
  0
LINE
  8
LC-001-002-----0
  6
CONTINUOUS
 62
     1
  5
264
 10
218.810886
 20
350.456016
 30
0.0
 11
218.810896
 21
349.456016
 31
0.0
  0
LINE
  8
LC-001-002-----0
  6
CONTINUOUS
 62
     1
  5
265
 10
218.810896
 20
349.456016
 30
0.0
 11
221.810896
 21
349.456046
 31
0.0
  0
LINE
  8
LC-001-002-----0
  6
CONTINUOUS
 62
     1
  5
266
 10
221.810896
 20
349.456046
 30
0.0
 11
221.810886
 21
350.456046
 31
0.0
  0
ARC
  8
LC-001-002-----0
  6
CONTINUOUS
 62
     1
  5
267
 10
222.810747
 20
364.456056
 30
0.0
 40
3.0
 50
90.000571
 51
180.000571
  0
LINE
  8
LC-001-002-----0
  6
CONTINUOUS
 62
     1
  5
268
 10
219.810747
 20
364.456026
 30
0.0
 11
219.810886
 21
350.456026
 31
0.0
  0
LINE
  8
LC-001-002-----0
  6
CONTINUOUS
 62
     1
  5
269
 10
225.310732
 20
365.956081
 30
0.0
 11
222.810732
 21
365.956056
 31
0.0
  0
ARC
  8
LC-001-002-----0
  6
CONTINUOUS
 62
     1
  5
26A
 10
222.810742
 20
364.956056
 30
0.0
 40
1.0
 50
90.000571
 51
180.000571
  0
LINE
  8
LC-001-002-----0
  6
CONTINUOUS
 62
     1
  5
26B
 10
221.810742
 20
364.956046
 30
0.0
 11
221.810886
 21
350.456046
 31
0.0
  0
LINE
  8
LC-001-002-----0
  6
CONTINUOUS
 62
     1
  5
26C
 10
257.312849
 20
364.454035
 30
0.0
 11
257.312914
 21
350.454035
 31
0.0
  0
LINE
  8
LC-001-002-----0
  6
CONTINUOUS
 62
     1
  5
26D
 10
257.312914
 20
350.454035
 30
0.0
 11
258.312914
 21
350.454039
 31
0.0
  0
LINE
  8
LC-001-002-----0
  6
CONTINUOUS
 62
     1
  5
26E
 10
258.312914
 20
350.454039
 30
0.0
 11
258.312918
 21
349.454039
 31
0.0
  0
LINE
  8
LC-001-002-----0
  6
CONTINUOUS
 62
     1
  5
26F
 10
258.312918
 20
349.454039
 30
0.0
 11
255.312918
 21
349.454025
 31
0.0
  0
LINE
  8
LC-001-002-----0
  6
CONTINUOUS
 62
     1
  5
270
 10
255.312846
 20
364.954025
 30
0.0
 11
255.312914
 21
350.454025
 31
0.0
  0
LINE
  8
LC-001-002-----0
  6
CONTINUOUS
 62
     1
  5
271
 10
255.312918
 20
349.454025
 30
0.0
 11
255.312914
 21
350.454025
 31
0.0
  0
ARC
  8
LC-001-002-----0
  6
CONTINUOUS
 62
     1
  5
272
 10
254.312849
 20
364.454021
 30
0.0
 40
3.0
 50
0.000304
 51
90.000267
  0
LINE
  8
LC-001-002-----0
  6
CONTINUOUS
 62
     1
  5
273
 10
251.812842
 20
365.954009
 30
0.0
 11
254.312842
 21
365.954021
 31
0.0
  0
ARC
  8
LC-001-002-----0
  6
CONTINUOUS
 62
     1
  5
274
 10
254.312846
 20
364.954021
 30
0.0
 40
1.0
 50
0.000304
 51
90.000267
  0
LINE
  8
LC-001-002-----0
  6
CONTINUOUS
 62
     1
  5
275
 10
223.810717
 20
367.456066
 30
0.0
 11
222.810717
 21
367.456056
 31
0.0
  0
ARC
  8
LC-001-002-----0
  6
CONTINUOUS
 62
     1
  5
276
 10
223.810732
 20
365.956066
 30
0.0
 40
1.5
 50
0.000723
 51
90.000571
  0
LINE
  8
LC-001-002-----0
  6
CONTINUOUS
 62
     1
  5
277
 10
225.310732
 20
365.956081
 30
0.0
 11
225.310732
 21
365.956081
 31
0.0
  0
LINE
  8
LC-001-002-----0
  6
CONTINUOUS
 62
     1
  5
278
 10
253.312835
 20
367.454016
 30
0.0
 11
254.312835
 21
367.454021
 31
0.0
  0
ARC
  8
LC-001-002-----0
  6
CONTINUOUS
 62
     1
  5
279
 10
253.312842
 20
365.954016
 30
0.0
 40
1.5
 50
90.000267
 51
180.000267
  0
LINE
  8
LC-001-002-----0
  6
CONTINUOUS
 62
     1
  5
27A
 10
251.812842
 20
365.954009
 30
0.0
 11
251.812842
 21
365.954009
 31
0.0
  0
LINE
  8
LC-008-001-----0
  5
27B
 10
238.56087
 20
351.956213
 30
0.0
 11
238.56075
 21
363.956213
 31
0.0
  0
ENDSEC
  0
EOF
