  0
SECTION
  2
HEADER
  9
$ACADVER
  1
AC1015
  9
$ACADMAINTVER
 70
     6
  9
$DWGCODEPAGE
  3
DOS850
  9
$INSBASE
 10
249.451696
 20
-143.1
 30
0.0
  9
$EXTMIN
 10
249.451696
 20
-143.1
 30
0.0
  9
$EXTMAX
 10
1437.451696
 20
696.9
 30
0.0
  9
$LIMMIN
 10
249.451696
 20
-143.1
  9
$LIMMAX
 10
1437.451696
 20
696.9
  9
$ORTHOMODE
 70
     0
  9
$REGENMODE
 70
     1
  9
$FILLMODE
 70
     1
  9
$QTEXTMODE
 70
     0
  9
$MIRRTEXT
 70
     1
  9
$LTSCALE
 40
2.0
  9
$ATTMODE
 70
     1
  9
$TEXTSIZE
 40
2.5
  9
$TRACEWID
 40
1.0
  9
$TEXTSTYLE
  7
Standard
  9
$CLAYER
  8
0
  9
$CELTYPE
  6
ByLayer
  9
$CECOLOR
 62
     7
  9
$CELTSCALE
 40
1.0
  9
$DISPSILH
 70
     0
  9
$DIMSCALE
 40
2.0
  9
$DIMASZ
 40
3.5
  9
$DIMEXO
 40
0.625
  9
$DIMDLI
 40
3.75
  9
$DIMRND
 40
0.0
  9
$DIMDLE
 40
0.0
  9
$DIMEXE
 40
1.25
  9
$DIMTP
 40
0.0
  9
$DIMTM
 40
0.0
  9
$DIMTXT
 40
3.5
  9
$DIMCEN
 40
2.5
  9
$DIMTSZ
 40
0.0
  9
$DIMTOL
 70
     0
  9
$DIMLIM
 70
     0
  9
$DIMTIH
 70
     0
  9
$DIMTOH
 70
     0
  9
$DIMSE1
 70
     0
  9
$DIMSE2
 70
     0
  9
$DIMTAD
 70
     1
  9
$DIMZIN
 70
     8
  9
$DIMBLK
  1

  9
$DIMASO
 70
     1
  9
$DIMSHO
 70
     1
  9
$DIMPOST
  1

  9
$DIMAPOST
  1

  9
$DIMALT
 70
     0
  9
$DIMALTD
 70
     3
  9
$DIMALTF
 40
0.03937
  9
$DIMLFAC
 40
1.0
  9
$DIMTOFL
 70
     1
  9
$DIMTVP
 40
0.0
  9
$DIMTIX
 70
     0
  9
$DIMSOXD
 70
     0
  9
$DIMSAH
 70
     0
  9
$DIMBLK1
  1

  9
$DIMBLK2
  1

  9
$DIMSTYLE
  2
ISO-25
  9
$DIMCLRD
 70
     0
  9
$DIMCLRE
 70
     0
  9
$DIMCLRT
 70
     0
  9
$DIMTFAC
 40
1.0
  9
$DIMGAP
 40
0.625
  9
$DIMJUST
 70
     0
  9
$DIMSD1
 70
     0
  9
$DIMSD2
 70
     0
  9
$DIMTOLJ
 70
     0
  9
$DIMTZIN
 70
     8
  9
$DIMALTZ
 70
     0
  9
$DIMALTTZ
 70
     0
  9
$DIMUPT
 70
     0
  9
$DIMDEC
 70
     2
  9
$DIMTDEC
 70
     2
  9
$DIMALTU
 70
     2
  9
$DIMALTTD
 70
     3
  9
$DIMTXSTY
  7
Standard
  9
$DIMAUNIT
 70
     0
  9
$DIMADEC
 70
     0
  9
$DIMALTRND
 40
0.0
  9
$DIMAZIN
 70
     0
  9
$DIMDSEP
 70
    44
  9
$DIMATFIT
 70
     3
  9
$DIMFRAC
 70
     0
  9
$DIMLDRBLK
  1

  9
$DIMLUNIT
 70
     2
  9
$DIMLWD
 70
    -2
  9
$DIMLWE
 70
    -2
  9
$DIMTMOVE
 70
     0
  9
$LUNITS
 70
     2
  9
$LUPREC
 70
     4
  9
$SKETCHINC
 40
1.0
  9
$FILLETRAD
 40
10.0
  9
$AUNITS
 70
     0
  9
$AUPREC
 70
     0
  9
$MENU
  1
.
  9
$ELEVATION
 40
0.0
  9
$PELEVATION
 40
0.0
  9
$THICKNESS
 40
0.0
  9
$LIMCHECK
 70
     0
  9
$CHAMFERA
 40
10.0
  9
$CHAMFERB
 40
10.0
  9
$CHAMFERC
 40
20.0
  9
$CHAMFERD
 40
0.0
  9
$SKPOLY
 70
     0
  9
$TDCREATE
 40
2453777.374022303
  9
$TDUCREATE
 40
2453777.332355637
  9
$TDUPDATE
 40
2453777.374022315
  9
$TDUUPDATE
 40
2453777.332355648
  9
$TDINDWG
 40
0.0000000116
  9
$TDUSRTIMER
 40
0.0000000116
  9
$USRTIMER
 70
     1
  9
$ANGBASE
 50
0.0
  9
$ANGDIR
 70
     0
  9
$PDMODE
 70
     0
  9
$PDSIZE
 40
0.0
  9
$PLINEWID
 40
0.0
  9
$SPLFRAME
 70
     0
  9
$SPLINETYPE
 70
     6
  9
$SPLINESEGS
 70
     8
  9
$HANDSEED
  5
5B0
  9
$SURFTAB1
 70
     6
  9
$SURFTAB2
 70
     6
  9
$SURFTYPE
 70
     6
  9
$SURFU
 70
     6
  9
$SURFV
 70
     6
  9
$UCSBASE
  2

  9
$UCSNAME
  2

  9
$UCSORG
 10
0.0
 20
0.0
 30
0.0
  9
$UCSXDIR
 10
1.0
 20
0.0
 30
0.0
  9
$UCSYDIR
 10
0.0
 20
1.0
 30
0.0
  9
$UCSORTHOREF
  2

  9
$UCSORTHOVIEW
 70
     0
  9
$UCSORGTOP
 10
0.0
 20
0.0
 30
0.0
  9
$UCSORGBOTTOM
 10
0.0
 20
0.0
 30
0.0
  9
$UCSORGLEFT
 10
0.0
 20
0.0
 30
0.0
  9
$UCSORGRIGHT
 10
0.0
 20
0.0
 30
0.0
  9
$UCSORGFRONT
 10
0.0
 20
0.0
 30
0.0
  9
$UCSORGBACK
 10
0.0
 20
0.0
 30
0.0
  9
$PUCSBASE
  2

  9
$PUCSNAME
  2

  9
$PUCSORG
 10
0.0
 20
0.0
 30
0.0
  9
$PUCSXDIR
 10
1.0
 20
0.0
 30
0.0
  9
$PUCSYDIR
 10
0.0
 20
1.0
 30
0.0
  9
$PUCSORTHOREF
  2

  9
$PUCSORTHOVIEW
 70
     0
  9
$PUCSORGTOP
 10
0.0
 20
0.0
 30
0.0
  9
$PUCSORGBOTTOM
 10
0.0
 20
0.0
 30
0.0
  9
$PUCSORGLEFT
 10
0.0
 20
0.0
 30
0.0
  9
$PUCSORGRIGHT
 10
0.0
 20
0.0
 30
0.0
  9
$PUCSORGFRONT
 10
0.0
 20
0.0
 30
0.0
  9
$PUCSORGBACK
 10
0.0
 20
0.0
 30
0.0
  9
$USERI1
 70
     0
  9
$USERI2
 70
     0
  9
$USERI3
 70
     0
  9
$USERI4
 70
     0
  9
$USERI5
 70
     0
  9
$USERR1
 40
0.0
  9
$USERR2
 40
0.0
  9
$USERR3
 40
0.0
  9
$USERR4
 40
0.0
  9
$USERR5
 40
0.0
  9
$WORLDVIEW
 70
     1
  9
$SHADEDGE
 70
     3
  9
$SHADEDIF
 70
    70
  9
$TILEMODE
 70
     1
  9
$MAXACTVP
 70
    64
  9
$PINSBASE
 10
0.0
 20
0.0
 30
0.0
  9
$PLIMCHECK
 70
     0
  9
$PEXTMIN
 10
249.451696
 20
-143.1
 30
0.0
  9
$PEXTMAX
 10
1437.451696
 20
696.9
 30
0.0
  9
$PLIMMIN
 10
249.451696
 20
-143.1
  9
$PLIMMAX
 10
1437.451696
 20
696.9
  9
$UNITMODE
 70
     0
  9
$VISRETAIN
 70
     1
  9
$PLINEGEN
 70
     0
  9
$PSLTSCALE
 70
     1
  9
$TREEDEPTH
 70
  3020
  9
$CMLSTYLE
  2
Standard
  9
$CMLJUST
 70
     0
  9
$CMLSCALE
 40
20.0
  9
$PROXYGRAPHICS
 70
     1
  9
$MEASUREMENT
 70
     1
  9
$CELWEIGHT
370
    -1
  9
$ENDCAPS
280
     0
  9
$JOINSTYLE
280
     0
  9
$LWDISPLAY
290
     0
  9
$INSUNITS
 70
     4
  9
$HYPERLINKBASE
  1

  9
$STYLESHEET
  1

  9
$XEDIT
290
     1
  9
$CEPSNTYPE
380
     0
  9
$PSTYLEMODE
290
     1
  9
$FINGERPRINTGUID
  2
{FAEB1C30-E019-11D5-929B-00C0DF256EC4}
  9
$VERSIONGUID
  2
{FAEB1C32-E019-11D5-929B-00C0DF256EC4}
  9
$EXTNAMES
290
     1
  9
$PSVPSCALE
 40
0.0
  9
$OLESTARTUP
290
     0
  0
ENDSEC
  0
SECTION
  2
CLASSES
  0
CLASS
  1
ACDBDICTIONARYWDFLT
  2
AcDbDictionaryWithDefault
  3
ObjectDBX Classes
 90
        0
280
     0
281
     0
  0
CLASS
  1
ACDBPLACEHOLDER
  2
AcDbPlaceHolder
  3
ObjectDBX Classes
 90
        0
280
     0
281
     0
  0
CLASS
  1
LAYOUT
  2
AcDbLayout
  3
ObjectDBX Classes
 90
        0
280
     0
281
     0
  0
ENDSEC
  0
SECTION
  2
TABLES
  0
TABLE
  2
VPORT
  5
8
330
0
100
AcDbSymbolTable
 70
     2
  0
VPORT
  5
29
330
8
100
AcDbSymbolTableRecord
100
AcDbViewportTableRecord
  2
*ACTIVE
 70
     0
 10
0.0
 20
0.0
 11
1.0
 21
1.0
 12
843.451696
 22
276.9
 13
0.0
 23
0.0
 14
1.0
 24
1.0
 15
0.0
 25
0.0
 16
0.0
 26
0.0
 36
1.0
 17
0.0
 27
0.0
 37
0.0
 40
840.0
 41
1.414286
 42
50.0
 43
0.0
 44
0.0
 50
0.0
 51
0.0
 71
    16
 72
   100
 73
     1
 74
     0
 75
     0
 76
     0
 77
     0
 78
     0
281
     0
 65
     0
110
0.0
120
0.0
130
0.0
111
1.0
121
0.0
131
0.0
112
0.0
122
1.0
132
0.0
 79
     0
146
0.0
  0
ENDTAB
  0
TABLE
  2
LTYPE
  5
5
330
0
100
AcDbSymbolTable
 70
     3
  0
LTYPE
  5
14
330
5
100
AcDbSymbolTableRecord
100
AcDbLinetypeTableRecord
  2
ByBlock
 70
     0
  3

 72
    65
 73
     0
 40
0.0
  0
LTYPE
  5
15
330
5
100
AcDbSymbolTableRecord
100
AcDbLinetypeTableRecord
  2
ByLayer
 70
     0
  3

 72
    65
 73
     0
 40
0.0
  0
LTYPE
  5
16
330
5
100
AcDbSymbolTableRecord
100
AcDbLinetypeTableRecord
  2
Continuous
 70
     0
  3
Solid line
 72
    65
 73
     0
 40
0.0
  0
LTYPE
  5
2A
330
5
100
AcDbSymbolTableRecord
100
AcDbLinetypeTableRecord
  2
DASHED
 70
     0
  3
__ __ __ __ __
 72
    65
 73
     2
 40
6.25
 49
5.0
 74
     4
 75
     0
340
0
 46
1.0
 50
0.0
 44
0.0
 45
0.0
 49
-1.25
 74
     4
 75
     0
340
0
 46
1.0
 50
0.0
 44
0.0
 45
0.0
  0
LTYPE
  5
63
330
5
100
AcDbSymbolTableRecord
100
AcDbLinetypeTableRecord
  2
CENTER
 70
     0
  3
__ . __ . __ . __ . __
 72
    65
 73
     4
 40
7.5
 49
5.0
 74
     4
 75
     0
340
0
 46
1.0
 50
0.0
 44
0.0
 45
0.0
 49
-1.25
 74
     4
 75
     0
340
0
 46
1.0
 50
0.0
 44
0.0
 45
0.0
 49
0.0
 74
     4
 75
     0
340
0
 46
1.0
 50
0.0
 44
0.0
 45
0.0
 49
-1.25
 74
     4
 75
     0
340
0
 46
1.0
 50
0.0
 44
0.0
 45
0.0
  0
ENDTAB
  0
TABLE
  2
LAYER
  5
2
330
0
100
AcDbSymbolTable
 70
    12
  0
LAYER
  5
10
330
2
100
AcDbSymbolTableRecord
100
AcDbLayerTableRecord
  2
0
 70
     0
 62
     7
  6
Continuous
370
    -3
390
F
  0
LAYER
  5
2B
330
2
100
AcDbSymbolTableRecord
100
AcDbLayerTableRecord
  2
LC-INFO-1-2-mm-A2-0
 70
     1
 62
     7
  6
ByBlock
370
    -3
390
F
  0
LAYER
  5
2C
330
2
100
AcDbSymbolTableRecord
100
AcDbLayerTableRecord
  2
LC-CUT-HIDDEN
 70
     0
 62
     7
  6
DASHED
370
    -3
390
F
  0
LAYER
  5
2D
330
2
100
AcDbSymbolTableRecord
100
AcDbLayerTableRecord
  2
LC-VIEWPORT
 70
     0
 62
     7
  6
ByBlock
370
    -3
390
F
  0
LAYER
  5
2E
330
2
100
AcDbSymbolTableRecord
100
AcDbLayerTableRecord
  2
LC-3D-HIDDEN
 70
     0
 62
     9
  6
DASHED
370
    -3
390
F
  0
LAYER
  5
31
330
2
100
AcDbSymbolTableRecord
100
AcDbLayerTableRecord
  2
LC-001-002-RND-0
 70
     0
 62
     1
  6
ByBlock
370
    -3
390
F
  0
LAYER
  5
34
330
2
100
AcDbSymbolTableRecord
100
AcDbLayerTableRecord
  2
LC-002-002-----0
 70
     0
 62
     1
  6
ByBlock
370
    -3
390
F
  0
LAYER
  5
3D
330
2
100
AcDbSymbolTableRecord
100
AcDbLayerTableRecord
  2
LC-003-003-----0
 70
     0
 62
     2
  6
ByBlock
370
    -3
390
F
  0
LAYER
  5
3F
330
2
100
AcDbSymbolTableRecord
100
AcDbLayerTableRecord
  2
Defpoints
 70
     0
 62
     7
  6
Continuous
290
     0
370
    -3
390
F
  0
LAYER
  5
64
330
2
100
AcDbSymbolTableRecord
100
AcDbLayerTableRecord
  2
LC-004-006-MLN-0
 70
     0
 62
     2
  6
CENTER
370
    -3
390
F
  0
LAYER
  5
C4
330
2
100
AcDbSymbolTableRecord
100
AcDbLayerTableRecord
  2
LC-005-005-----0
 70
     0
 62
     2
  6
ByBlock
370
    -3
390
F
  0
LAYER
  5
281
330
2
100
AcDbSymbolTableRecord
100
AcDbLayerTableRecord
  2
LC-006-002-___-0
 70
     0
 62
     2
  6
DASHED
370
    -3
390
F
  0
ENDTAB
  0
TABLE
  2
STYLE
  5
3
330
0
100
AcDbSymbolTable
 70
     4
  0
STYLE
  5
11
330
3
100
AcDbSymbolTableRecord
100
AcDbTextStyleTableRecord
  2
Standard
 70
     0
 40
0.0
 41
1.0
 50
0.0
 71
     0
 42
2.5
  3
txt
  4

  0
STYLE
  5
2F
330
3
100
AcDbSymbolTableRecord
100
AcDbTextStyleTableRecord
  2
LCTX0-400-0-0-DIN-Schrift
 70
     0
 40
0.0
 41
0.8
 50
0.0
 71
     0
 42
3.5
  3
MONOTXT
  4

  0
STYLE
  5
30
330
3
100
AcDbSymbolTableRecord
100
AcDbTextStyleTableRecord
  2
LCTX15-400-0-0-Arial
 70
     0
 40
0.0
 41
0.9
 50
0.0
 71
     0
 42
3.5
  3

  4

1001
ACAD
1000
Arial
1071
 16777218
  0
STYLE
  5
3B
330
3
100
AcDbSymbolTableRecord
100
AcDbTextStyleTableRecord
  2
LCTX15-400-0-0pDIN-Schrift
 70
     0
 40
2.5
 41
0.8
 50
15.0
 71
     0
 42
3.5
  3
STANDARD
  4

  0
ENDTAB
  0
TABLE
  2
VIEW
  5
6
330
0
100
AcDbSymbolTable
 70
     0
  0
ENDTAB
  0
TABLE
  2
UCS
  5
7
330
0
100
AcDbSymbolTable
 70
     0
  0
ENDTAB
  0
TABLE
  2
APPID
  5
9
330
0
100
AcDbSymbolTable
 70
     1
  0
APPID
  5
12
330
9
100
AcDbSymbolTableRecord
100
AcDbRegAppTableRecord
  2
ACAD
 70
     0
  0
ENDTAB
  0
TABLE
  2
DIMSTYLE
  5
A
330
0
100
AcDbSymbolTable
 70
     2
100
AcDbDimStyleTable
  0
DIMSTYLE
105
27
330
A
100
AcDbSymbolTableRecord
100
AcDbDimStyleTableRecord
  2
ISO-25
 70
     0
 41
2.5
 42
0.625
 43
3.75
 44
1.25
 73
     0
 74
     0
 77
     1
 78
     8
140
2.5
141
2.5
143
0.03937
147
0.625
171
     3
172
     1
271
     2
272
     2
274
     3
278
    44
283
     0
284
     8
340
11
  0
DIMSTYLE
105
3C
102
{ACAD_REACTORS
330
3E
330
4C
330
312
330
321
330
443
330
450
330
59B
102
}
330
A
100
AcDbSymbolTableRecord
100
AcDbDimStyleTableRecord
  2
LC-DIM-L-0140-02-02
 70
     0
 40
2.0
 41
14.0
 42
0.0
 43
7.5
 44
1.8
 73
     0
 74
     0
 77
     1
 78
     8
 79
     2
140
14.0
141
0.0
146
0.71
147
1.5
176
     2
177
     2
178
     2
179
     2
271
     2
278
    44
289
     1
340
3B
  0
ENDTAB
  0
TABLE
  2
BLOCK_RECORD
  5
1
330
0
100
AcDbSymbolTable
 70
    21
  0
BLOCK_RECORD
  5
1F
330
1
100
AcDbSymbolTableRecord
100
AcDbBlockTableRecord
  2
*Model_Space
340
22
  0
BLOCK_RECORD
  5
1B
330
1
100
AcDbSymbolTableRecord
100
AcDbBlockTableRecord
  2
*Paper_Space
340
1E
  0
BLOCK_RECORD
  5
23
330
1
100
AcDbSymbolTableRecord
100
AcDbBlockTableRecord
  2
*Paper_Space0
340
26
  0
BLOCK_RECORD
  5
40
330
1
100
AcDbSymbolTableRecord
100
AcDbBlockTableRecord
  2
*D1
340
0
  0
BLOCK_RECORD
  5
4D
330
1
100
AcDbSymbolTableRecord
100
AcDbBlockTableRecord
  2
*D2
340
0
  0
BLOCK_RECORD
  5
C1
330
1
100
AcDbSymbolTableRecord
100
AcDbBlockTableRecord
  2
*X13
340
0
102
{BLKREFS
331
1A2
102
}
  0
BLOCK_RECORD
  5
1A3
330
1
100
AcDbSymbolTableRecord
100
AcDbBlockTableRecord
  2
*X24
340
0
102
{BLKREFS
331
273
102
}
  0
BLOCK_RECORD
  5
284
330
1
100
AcDbSymbolTableRecord
100
AcDbBlockTableRecord
  2
*X35
340
0
102
{BLKREFS
331
293
102
}
  0
BLOCK_RECORD
  5
2B3
330
1
100
AcDbSymbolTableRecord
100
AcDbBlockTableRecord
  2
*X46
340
0
102
{BLKREFS
331
2B9
102
}
  0
BLOCK_RECORD
  5
2BA
330
1
100
AcDbSymbolTableRecord
100
AcDbBlockTableRecord
  2
*X57
340
0
102
{BLKREFS
331
2C2
102
}
  0
BLOCK_RECORD
  5
2C5
330
1
100
AcDbSymbolTableRecord
100
AcDbBlockTableRecord
  2
*X68
340
0
102
{BLKREFS
331
2D3
102
}
  0
BLOCK_RECORD
  5
313
330
1
100
AcDbSymbolTableRecord
100
AcDbBlockTableRecord
  2
*D9
340
0
  0
BLOCK_RECORD
  5
322
330
1
100
AcDbSymbolTableRecord
100
AcDbBlockTableRecord
  2
*D10
340
0
  0
BLOCK_RECORD
  5
34D
330
1
100
AcDbSymbolTableRecord
100
AcDbBlockTableRecord
  2
*X711
340
0
102
{BLKREFS
331
354
102
}
  0
BLOCK_RECORD
  5
374
330
1
100
AcDbSymbolTableRecord
100
AcDbBlockTableRecord
  2
*X812
340
0
102
{BLKREFS
331
37C
102
}
  0
BLOCK_RECORD
  5
3A3
330
1
100
AcDbSymbolTableRecord
100
AcDbBlockTableRecord
  2
*X913
340
0
102
{BLKREFS
331
3BE
102
}
  0
BLOCK_RECORD
  5
3BF
330
1
100
AcDbSymbolTableRecord
100
AcDbBlockTableRecord
  2
*X1014
340
0
102
{BLKREFS
331
3CC
102
}
  0
BLOCK_RECORD
  5
3F0
330
1
100
AcDbSymbolTableRecord
100
AcDbBlockTableRecord
  2
*X1115
340
0
102
{BLKREFS
331
40B
102
}
  0
BLOCK_RECORD
  5
40C
330
1
100
AcDbSymbolTableRecord
100
AcDbBlockTableRecord
  2
*X1216
340
0
102
{BLKREFS
331
41A
102
}
  0
BLOCK_RECORD
  5
444
330
1
100
AcDbSymbolTableRecord
100
AcDbBlockTableRecord
  2
*D17
340
0
  0
BLOCK_RECORD
  5
451
330
1
100
AcDbSymbolTableRecord
100
AcDbBlockTableRecord
  2
*D18
340
0
  0
BLOCK_RECORD
  5
4FD
330
1
100
AcDbSymbolTableRecord
100
AcDbBlockTableRecord
  2
*X1319
340
0
102
{BLKREFS
331
59A
102
}
  0
BLOCK_RECORD
  5
59C
330
1
100
AcDbSymbolTableRecord
100
AcDbBlockTableRecord
  2
*D20
340
0
  0
ENDTAB
  0
ENDSEC
  0
SECTION
  2
BLOCKS
  0
BLOCK
  5
20
330
1F
100
AcDbEntity
  8
0
100
AcDbBlockBegin
  2
*Model_Space
 70
     0
 71
     0
 10
0.0
 20
0.0
 30
0.0
  3
*Model_Space
  1

  0
ENDBLK
  5
21
330
1F
100
AcDbEntity
  8
0
100
AcDbBlockEnd
  0
BLOCK
  5
1C
330
1B
100
AcDbEntity
 67
     1
  8
0
100
AcDbBlockBegin
  2
*Paper_Space
 70
     0
 71
     0
 10
0.0
 20
0.0
 30
0.0
  3
*Paper_Space
  1

  0
ENDBLK
  5
1D
330
1B
100
AcDbEntity
 67
     1
  8
0
100
AcDbBlockEnd
  0
BLOCK
  5
24
330
23
100
AcDbEntity
  8
0
100
AcDbBlockBegin
  2
*Paper_Space0
 70
     0
 71
     0
 10
0.0
 20
0.0
 30
0.0
  3
*Paper_Space0
  1

  0
ENDBLK
  5
25
330
23
100
AcDbEntity
  8
0
100
AcDbBlockEnd
  0
BLOCK
  5
4A
330
40
100
AcDbEntity
  8
0
100
AcDbBlockBegin
  2
*D1
 70
     1
 71
     0
 10
0.0
 20
0.0
 30
0.0
  3
*D1
  1

  0
LINE
  5
41
330
40
100
AcDbEntity
  8
LC-003-003-----0
 62
     2
370
    -2
100
AcDbLine
 10
714.559655
 20
448.065914
 30
0.0
 11
714.559655
 21
407.119914
 31
0.0
  0
LINE
  5
42
330
40
100
AcDbEntity
  8
LC-003-003-----0
 62
     2
370
    -2
100
AcDbLine
 10
861.559655
 20
448.065914
 30
0.0
 11
861.559655
 21
407.119914
 31
0.0
  0
LINE
  5
43
330
40
100
AcDbEntity
  8
LC-003-003-----0
 62
     2
370
    -2
100
AcDbLine
 10
742.559655
 20
410.719914
 30
0.0
 11
833.559655
 21
410.719914
 31
0.0
  0
SOLID
  5
44
330
40
100
AcDbEntity
  8
LC-003-003-----0
 62
     2
100
AcDbTrace
 10
742.559655
 20
415.386581
 30
0.0
 11
742.559655
 21
406.053247
 31
0.0
 12
714.559655
 22
410.719914
 32
0.0
 13
714.559655
 23
410.719914
 33
0.0
  0
SOLID
  5
45
330
40
100
AcDbEntity
  8
LC-003-003-----0
 62
     2
100
AcDbTrace
 10
833.559655
 20
406.053247
 30
0.0
 11
833.559655
 21
415.386581
 31
0.0
 12
861.559655
 22
410.719914
 32
0.0
 13
861.559655
 23
410.719914
 33
0.0
  0
MTEXT
  5
46
330
40
100
AcDbEntity
  8
LC-003-003-----0
 62
     2
100
AcDbMText
 10
788.059655
 20
441.519914
 30
0.0
 40
28.0
 41
0.0
 71
     5
 72
     1
  1
%%c\A1;147
  7
LCTX15-400-0-0pDIN-Schrift
 73
     1
 44
1.0
  0
POINT
  5
47
330
40
100
AcDbEntity
  8
Defpoints
 62
     0
100
AcDbPoint
 10
714.559655
 20
448.065914
 30
0.0
  0
POINT
  5
48
330
40
100
AcDbEntity
  8
Defpoints
 62
     0
100
AcDbPoint
 10
861.559655
 20
448.065914
 30
0.0
  0
POINT
  5
49
330
40
100
AcDbEntity
  8
Defpoints
 62
     0
100
AcDbPoint
 10
861.559655
 20
410.719914
 30
0.0
  0
ENDBLK
  5
4B
330
40
100
AcDbEntity
  8
0
100
AcDbBlockEnd
  0
BLOCK
  5
57
330
4D
100
AcDbEntity
  8
0
100
AcDbBlockBegin
  2
*D2
 70
     1
 71
     0
 10
0.0
 20
0.0
 30
0.0
  3
*D2
  1

  0
LINE
  5
4E
330
4D
100
AcDbEntity
  8
LC-003-003-----0
 62
     2
370
    -2
100
AcDbLine
 10
743.059655
 20
38.565914
 30
0.0
 11
743.059655
 21
-17.035979
 31
0.0
  0
LINE
  5
4F
330
4D
100
AcDbEntity
  8
LC-003-003-----0
 62
     2
370
    -2
100
AcDbLine
 10
833.059655
 20
38.565914
 30
0.0
 11
833.059655
 21
-17.035979
 31
0.0
  0
LINE
  5
50
330
4D
100
AcDbEntity
  8
LC-003-003-----0
 62
     2
370
    -2
100
AcDbLine
 10
771.059655
 20
-13.435979
 30
0.0
 11
805.059655
 21
-13.435979
 31
0.0
  0
SOLID
  5
51
330
4D
100
AcDbEntity
  8
LC-003-003-----0
 62
     2
100
AcDbTrace
 10
771.059655
 20
-8.769312
 30
0.0
 11
771.059655
 21
-18.102645
 31
0.0
 12
743.059655
 22
-13.435979
 32
0.0
 13
743.059655
 23
-13.435979
 33
0.0
  0
SOLID
  5
52
330
4D
100
AcDbEntity
  8
LC-003-003-----0
 62
     2
100
AcDbTrace
 10
805.059655
 20
-18.102645
 30
0.0
 11
805.059655
 21
-8.769312
 31
0.0
 12
833.059655
 22
-13.435979
 32
0.0
 13
833.059655
 23
-13.435979
 33
0.0
  0
MTEXT
  5
53
330
4D
100
AcDbEntity
  8
LC-003-003-----0
 62
     2
100
AcDbMText
 10
783.207191
 20
17.364021
 30
0.0
 40
28.0
 41
0.0
 71
     5
 72
     1
  1
%%c\A1;90
  7
LCTX15-400-0-0pDIN-Schrift
 73
     1
 44
1.0
  0
POINT
  5
54
330
4D
100
AcDbEntity
  8
Defpoints
 62
     0
100
AcDbPoint
 10
743.059655
 20
38.565914
 30
0.0
  0
POINT
  5
55
330
4D
100
AcDbEntity
  8
Defpoints
 62
     0
100
AcDbPoint
 10
833.059655
 20
38.565914
 30
0.0
  0
POINT
  5
56
330
4D
100
AcDbEntity
  8
Defpoints
 62
     0
100
AcDbPoint
 10
833.059655
 20
-13.435979
 30
0.0
  0
ENDBLK
  5
58
330
4D
100
AcDbEntity
  8
0
100
AcDbBlockEnd
  0
BLOCK
  5
C2
330
C1
100
AcDbEntity
  8
0
100
AcDbBlockBegin
  2
*X13
 70
     1
 71
     0
 10
0.0
 20
0.0
 30
0.0
  3
*X13
  1

  4
*X1
  0
LINE
  5
C5
330
C1
100
AcDbEntity
  8
LC-005-005-----0
 62
     7
370
    25
100
AcDbLine
 10
744.209572
 20
34.274364
 30
0.0
 11
746.059655
 21
36.124446
 31
0.0
  0
LINE
  5
C6
330
C1
100
AcDbEntity
  8
LC-005-005-----0
 62
     7
370
    25
100
AcDbLine
 10
743.611855
 20
36.505074
 30
0.0
 11
746.059655
 21
38.952874
 31
0.0
  0
LINE
  5
C7
330
C1
100
AcDbEntity
  8
LC-005-005-----0
 62
     7
370
    25
100
AcDbLine
 10
743.059655
 20
38.781301
 30
0.0
 11
746.059655
 21
41.781301
 31
0.0
  0
LINE
  5
C8
330
C1
100
AcDbEntity
  8
LC-005-005-----0
 62
     7
370
    25
100
AcDbLine
 10
743.059655
 20
41.609728
 30
0.0
 11
746.059655
 21
44.609728
 31
0.0
  0
LINE
  5
C9
330
C1
100
AcDbEntity
  8
LC-005-005-----0
 62
     7
370
    25
100
AcDbLine
 10
743.059655
 20
44.438155
 30
0.0
 11
746.059655
 21
47.438155
 31
0.0
  0
LINE
  5
CA
330
C1
100
AcDbEntity
  8
LC-005-005-----0
 62
     7
370
    25
100
AcDbLine
 10
743.059655
 20
47.266582
 30
0.0
 11
746.059655
 21
50.266582
 31
0.0
  0
LINE
  5
CB
330
C1
100
AcDbEntity
  8
LC-005-005-----0
 62
     7
370
    25
100
AcDbLine
 10
743.059655
 20
50.095009
 30
0.0
 11
746.059655
 21
53.095009
 31
0.0
  0
LINE
  5
CC
330
C1
100
AcDbEntity
  8
LC-005-005-----0
 62
     7
370
    25
100
AcDbLine
 10
743.059655
 20
52.923436
 30
0.0
 11
746.059655
 21
55.923436
 31
0.0
  0
LINE
  5
CD
330
C1
100
AcDbEntity
  8
LC-005-005-----0
 62
     7
370
    25
100
AcDbLine
 10
743.059655
 20
55.751863
 30
0.0
 11
746.059655
 21
58.751863
 31
0.0
  0
LINE
  5
CE
330
C1
100
AcDbEntity
  8
LC-005-005-----0
 62
     7
370
    25
100
AcDbLine
 10
743.059655
 20
58.580291
 30
0.0
 11
746.059655
 21
61.580291
 31
0.0
  0
LINE
  5
CF
330
C1
100
AcDbEntity
  8
LC-005-005-----0
 62
     7
370
    25
100
AcDbLine
 10
743.059655
 20
61.408718
 30
0.0
 11
746.059655
 21
64.408718
 31
0.0
  0
LINE
  5
D0
330
C1
100
AcDbEntity
  8
LC-005-005-----0
 62
     7
370
    25
100
AcDbLine
 10
743.059655
 20
64.237145
 30
0.0
 11
746.059655
 21
67.237145
 31
0.0
  0
LINE
  5
D1
330
C1
100
AcDbEntity
  8
LC-005-005-----0
 62
     7
370
    25
100
AcDbLine
 10
743.059655
 20
67.065572
 30
0.0
 11
746.059655
 21
70.065572
 31
0.0
  0
LINE
  5
D2
330
C1
100
AcDbEntity
  8
LC-005-005-----0
 62
     7
370
    25
100
AcDbLine
 10
743.059655
 20
69.893999
 30
0.0
 11
746.059655
 21
72.893999
 31
0.0
  0
LINE
  5
D3
330
C1
100
AcDbEntity
  8
LC-005-005-----0
 62
     7
370
    25
100
AcDbLine
 10
743.059655
 20
72.722426
 30
0.0
 11
746.059655
 21
75.722426
 31
0.0
  0
LINE
  5
D4
330
C1
100
AcDbEntity
  8
LC-005-005-----0
 62
     7
370
    25
100
AcDbLine
 10
743.059655
 20
75.550853
 30
0.0
 11
746.059655
 21
78.550853
 31
0.0
  0
LINE
  5
D5
330
C1
100
AcDbEntity
  8
LC-005-005-----0
 62
     7
370
    25
100
AcDbLine
 10
743.059655
 20
78.37928
 30
0.0
 11
746.059655
 21
81.37928
 31
0.0
  0
LINE
  5
D6
330
C1
100
AcDbEntity
  8
LC-005-005-----0
 62
     7
370
    25
100
AcDbLine
 10
743.059655
 20
81.207708
 30
0.0
 11
746.059655
 21
84.207708
 31
0.0
  0
LINE
  5
D7
330
C1
100
AcDbEntity
  8
LC-005-005-----0
 62
     7
370
    25
100
AcDbLine
 10
743.059655
 20
84.036135
 30
0.0
 11
746.059655
 21
87.036135
 31
0.0
  0
LINE
  5
D8
330
C1
100
AcDbEntity
  8
LC-005-005-----0
 62
     7
370
    25
100
AcDbLine
 10
743.059655
 20
86.864562
 30
0.0
 11
746.059655
 21
89.864562
 31
0.0
  0
LINE
  5
D9
330
C1
100
AcDbEntity
  8
LC-005-005-----0
 62
     7
370
    25
100
AcDbLine
 10
743.059655
 20
89.692989
 30
0.0
 11
746.059655
 21
92.692989
 31
0.0
  0
LINE
  5
DA
330
C1
100
AcDbEntity
  8
LC-005-005-----0
 62
     7
370
    25
100
AcDbLine
 10
743.059655
 20
92.521416
 30
0.0
 11
746.059655
 21
95.521416
 31
0.0
  0
LINE
  5
DB
330
C1
100
AcDbEntity
  8
LC-005-005-----0
 62
     7
370
    25
100
AcDbLine
 10
743.059655
 20
95.349843
 30
0.0
 11
746.059655
 21
98.349843
 31
0.0
  0
LINE
  5
DC
330
C1
100
AcDbEntity
  8
LC-005-005-----0
 62
     7
370
    25
100
AcDbLine
 10
743.059655
 20
98.17827
 30
0.0
 11
746.059655
 21
101.17827
 31
0.0
  0
LINE
  5
DD
330
C1
100
AcDbEntity
  8
LC-005-005-----0
 62
     7
370
    25
100
AcDbLine
 10
743.059655
 20
101.006697
 30
0.0
 11
746.059655
 21
104.006697
 31
0.0
  0
LINE
  5
DE
330
C1
100
AcDbEntity
  8
LC-005-005-----0
 62
     7
370
    25
100
AcDbLine
 10
743.059655
 20
103.835125
 30
0.0
 11
746.059655
 21
106.835125
 31
0.0
  0
LINE
  5
DF
330
C1
100
AcDbEntity
  8
LC-005-005-----0
 62
     7
370
    25
100
AcDbLine
 10
743.059655
 20
106.663552
 30
0.0
 11
746.059655
 21
109.663552
 31
0.0
  0
LINE
  5
E0
330
C1
100
AcDbEntity
  8
LC-005-005-----0
 62
     7
370
    25
100
AcDbLine
 10
743.059655
 20
109.491979
 30
0.0
 11
746.059655
 21
112.491979
 31
0.0
  0
LINE
  5
E1
330
C1
100
AcDbEntity
  8
LC-005-005-----0
 62
     7
370
    25
100
AcDbLine
 10
743.059655
 20
112.320406
 30
0.0
 11
746.059655
 21
115.320406
 31
0.0
  0
LINE
  5
E2
330
C1
100
AcDbEntity
  8
LC-005-005-----0
 62
     7
370
    25
100
AcDbLine
 10
743.059655
 20
115.148833
 30
0.0
 11
746.059655
 21
118.148833
 31
0.0
  0
LINE
  5
E3
330
C1
100
AcDbEntity
  8
LC-005-005-----0
 62
     7
370
    25
100
AcDbLine
 10
743.059655
 20
117.97726
 30
0.0
 11
746.059655
 21
120.97726
 31
0.0
  0
LINE
  5
E4
330
C1
100
AcDbEntity
  8
LC-005-005-----0
 62
     7
370
    25
100
AcDbLine
 10
743.059655
 20
120.805687
 30
0.0
 11
746.059655
 21
123.805687
 31
0.0
  0
LINE
  5
E5
330
C1
100
AcDbEntity
  8
LC-005-005-----0
 62
     7
370
    25
100
AcDbLine
 10
743.059655
 20
123.634114
 30
0.0
 11
746.059655
 21
126.634114
 31
0.0
  0
LINE
  5
E6
330
C1
100
AcDbEntity
  8
LC-005-005-----0
 62
     7
370
    25
100
AcDbLine
 10
743.059655
 20
126.462542
 30
0.0
 11
746.059655
 21
129.462542
 31
0.0
  0
LINE
  5
E7
330
C1
100
AcDbEntity
  8
LC-005-005-----0
 62
     7
370
    25
100
AcDbLine
 10
743.059655
 20
129.290969
 30
0.0
 11
746.059655
 21
132.290969
 31
0.0
  0
LINE
  5
E8
330
C1
100
AcDbEntity
  8
LC-005-005-----0
 62
     7
370
    25
100
AcDbLine
 10
743.059655
 20
132.119396
 30
0.0
 11
746.059655
 21
135.119396
 31
0.0
  0
LINE
  5
E9
330
C1
100
AcDbEntity
  8
LC-005-005-----0
 62
     7
370
    25
100
AcDbLine
 10
743.059655
 20
134.947823
 30
0.0
 11
746.059655
 21
137.947823
 31
0.0
  0
LINE
  5
EA
330
C1
100
AcDbEntity
  8
LC-005-005-----0
 62
     7
370
    25
100
AcDbLine
 10
743.059655
 20
137.77625
 30
0.0
 11
746.059655
 21
140.77625
 31
0.0
  0
LINE
  5
EB
330
C1
100
AcDbEntity
  8
LC-005-005-----0
 62
     7
370
    25
100
AcDbLine
 10
743.059655
 20
140.604677
 30
0.0
 11
746.059655
 21
143.604677
 31
0.0
  0
LINE
  5
EC
330
C1
100
AcDbEntity
  8
LC-005-005-----0
 62
     7
370
    25
100
AcDbLine
 10
743.059655
 20
143.433104
 30
0.0
 11
746.059655
 21
146.433104
 31
0.0
  0
LINE
  5
ED
330
C1
100
AcDbEntity
  8
LC-005-005-----0
 62
     7
370
    25
100
AcDbLine
 10
743.059655
 20
146.261531
 30
0.0
 11
746.059655
 21
149.261531
 31
0.0
  0
LINE
  5
EE
330
C1
100
AcDbEntity
  8
LC-005-005-----0
 62
     7
370
    25
100
AcDbLine
 10
743.059655
 20
149.089959
 30
0.0
 11
746.059655
 21
152.089959
 31
0.0
  0
LINE
  5
EF
330
C1
100
AcDbEntity
  8
LC-005-005-----0
 62
     7
370
    25
100
AcDbLine
 10
743.059655
 20
151.918386
 30
0.0
 11
746.059655
 21
154.918386
 31
0.0
  0
LINE
  5
F0
330
C1
100
AcDbEntity
  8
LC-005-005-----0
 62
     7
370
    25
100
AcDbLine
 10
743.059655
 20
154.746813
 30
0.0
 11
746.059655
 21
157.746813
 31
0.0
  0
LINE
  5
F1
330
C1
100
AcDbEntity
  8
LC-005-005-----0
 62
     7
370
    25
100
AcDbLine
 10
743.059655
 20
157.57524
 30
0.0
 11
746.059655
 21
160.57524
 31
0.0
  0
LINE
  5
F2
330
C1
100
AcDbEntity
  8
LC-005-005-----0
 62
     7
370
    25
100
AcDbLine
 10
743.059655
 20
160.403667
 30
0.0
 11
746.059655
 21
163.403667
 31
0.0
  0
LINE
  5
F3
330
C1
100
AcDbEntity
  8
LC-005-005-----0
 62
     7
370
    25
100
AcDbLine
 10
743.059655
 20
163.232094
 30
0.0
 11
746.059655
 21
166.232094
 31
0.0
  0
LINE
  5
F4
330
C1
100
AcDbEntity
  8
LC-005-005-----0
 62
     7
370
    25
100
AcDbLine
 10
743.059655
 20
166.060521
 30
0.0
 11
746.059655
 21
169.060521
 31
0.0
  0
LINE
  5
F5
330
C1
100
AcDbEntity
  8
LC-005-005-----0
 62
     7
370
    25
100
AcDbLine
 10
743.059655
 20
168.888948
 30
0.0
 11
746.059655
 21
171.888948
 31
0.0
  0
LINE
  5
F6
330
C1
100
AcDbEntity
  8
LC-005-005-----0
 62
     7
370
    25
100
AcDbLine
 10
743.059655
 20
171.717376
 30
0.0
 11
746.059655
 21
174.717376
 31
0.0
  0
LINE
  5
F7
330
C1
100
AcDbEntity
  8
LC-005-005-----0
 62
     7
370
    25
100
AcDbLine
 10
743.059655
 20
174.545803
 30
0.0
 11
746.059655
 21
177.545803
 31
0.0
  0
LINE
  5
F8
330
C1
100
AcDbEntity
  8
LC-005-005-----0
 62
     7
370
    25
100
AcDbLine
 10
743.059655
 20
177.37423
 30
0.0
 11
746.059655
 21
180.37423
 31
0.0
  0
LINE
  5
F9
330
C1
100
AcDbEntity
  8
LC-005-005-----0
 62
     7
370
    25
100
AcDbLine
 10
743.059655
 20
180.202657
 30
0.0
 11
746.059655
 21
183.202657
 31
0.0
  0
LINE
  5
FA
330
C1
100
AcDbEntity
  8
LC-005-005-----0
 62
     7
370
    25
100
AcDbLine
 10
743.059655
 20
183.031084
 30
0.0
 11
746.059655
 21
186.031084
 31
0.0
  0
LINE
  5
FB
330
C1
100
AcDbEntity
  8
LC-005-005-----0
 62
     7
370
    25
100
AcDbLine
 10
743.059655
 20
185.859511
 30
0.0
 11
746.059655
 21
188.859511
 31
0.0
  0
LINE
  5
FC
330
C1
100
AcDbEntity
  8
LC-005-005-----0
 62
     7
370
    25
100
AcDbLine
 10
743.059655
 20
188.687938
 30
0.0
 11
746.059655
 21
191.687938
 31
0.0
  0
LINE
  5
FD
330
C1
100
AcDbEntity
  8
LC-005-005-----0
 62
     7
370
    25
100
AcDbLine
 10
743.059655
 20
191.516365
 30
0.0
 11
746.059655
 21
194.516365
 31
0.0
  0
LINE
  5
FE
330
C1
100
AcDbEntity
  8
LC-005-005-----0
 62
     7
370
    25
100
AcDbLine
 10
743.059655
 20
194.344793
 30
0.0
 11
746.059655
 21
197.344793
 31
0.0
  0
LINE
  5
FF
330
C1
100
AcDbEntity
  8
LC-005-005-----0
 62
     7
370
    25
100
AcDbLine
 10
743.059655
 20
197.17322
 30
0.0
 11
746.059655
 21
200.17322
 31
0.0
  0
LINE
  5
100
330
C1
100
AcDbEntity
  8
LC-005-005-----0
 62
     7
370
    25
100
AcDbLine
 10
743.059655
 20
200.001647
 30
0.0
 11
746.059655
 21
203.001647
 31
0.0
  0
LINE
  5
101
330
C1
100
AcDbEntity
  8
LC-005-005-----0
 62
     7
370
    25
100
AcDbLine
 10
743.059655
 20
202.830074
 30
0.0
 11
746.059655
 21
205.830074
 31
0.0
  0
LINE
  5
102
330
C1
100
AcDbEntity
  8
LC-005-005-----0
 62
     7
370
    25
100
AcDbLine
 10
743.059655
 20
205.658501
 30
0.0
 11
746.059655
 21
208.658501
 31
0.0
  0
LINE
  5
103
330
C1
100
AcDbEntity
  8
LC-005-005-----0
 62
     7
370
    25
100
AcDbLine
 10
743.059655
 20
208.486928
 30
0.0
 11
746.059655
 21
211.486928
 31
0.0
  0
LINE
  5
104
330
C1
100
AcDbEntity
  8
LC-005-005-----0
 62
     7
370
    25
100
AcDbLine
 10
743.059655
 20
211.315355
 30
0.0
 11
746.059655
 21
214.315355
 31
0.0
  0
LINE
  5
105
330
C1
100
AcDbEntity
  8
LC-005-005-----0
 62
     7
370
    25
100
AcDbLine
 10
743.059655
 20
214.143782
 30
0.0
 11
746.059655
 21
217.143782
 31
0.0
  0
LINE
  5
106
330
C1
100
AcDbEntity
  8
LC-005-005-----0
 62
     7
370
    25
100
AcDbLine
 10
743.059655
 20
216.97221
 30
0.0
 11
746.059655
 21
219.97221
 31
0.0
  0
LINE
  5
107
330
C1
100
AcDbEntity
  8
LC-005-005-----0
 62
     7
370
    25
100
AcDbLine
 10
743.059655
 20
219.800637
 30
0.0
 11
746.059655
 21
222.800637
 31
0.0
  0
LINE
  5
108
330
C1
100
AcDbEntity
  8
LC-005-005-----0
 62
     7
370
    25
100
AcDbLine
 10
743.059655
 20
222.629064
 30
0.0
 11
746.059655
 21
225.629064
 31
0.0
  0
LINE
  5
109
330
C1
100
AcDbEntity
  8
LC-005-005-----0
 62
     7
370
    25
100
AcDbLine
 10
743.059655
 20
225.457491
 30
0.0
 11
746.059655
 21
228.457491
 31
0.0
  0
LINE
  5
10A
330
C1
100
AcDbEntity
  8
LC-005-005-----0
 62
     7
370
    25
100
AcDbLine
 10
743.059655
 20
228.285918
 30
0.0
 11
746.059655
 21
231.285918
 31
0.0
  0
LINE
  5
10B
330
C1
100
AcDbEntity
  8
LC-005-005-----0
 62
     7
370
    25
100
AcDbLine
 10
743.059655
 20
231.114345
 30
0.0
 11
746.059655
 21
234.114345
 31
0.0
  0
LINE
  5
10C
330
C1
100
AcDbEntity
  8
LC-005-005-----0
 62
     7
370
    25
100
AcDbLine
 10
743.059655
 20
233.942772
 30
0.0
 11
746.059655
 21
236.942772
 31
0.0
  0
LINE
  5
10D
330
C1
100
AcDbEntity
  8
LC-005-005-----0
 62
     7
370
    25
100
AcDbLine
 10
743.059655
 20
236.771199
 30
0.0
 11
746.059655
 21
239.771199
 31
0.0
  0
LINE
  5
10E
330
C1
100
AcDbEntity
  8
LC-005-005-----0
 62
     7
370
    25
100
AcDbLine
 10
743.059655
 20
239.599627
 30
0.0
 11
746.059655
 21
242.599627
 31
0.0
  0
LINE
  5
10F
330
C1
100
AcDbEntity
  8
LC-005-005-----0
 62
     7
370
    25
100
AcDbLine
 10
743.059655
 20
242.428054
 30
0.0
 11
746.059655
 21
245.428054
 31
0.0
  0
LINE
  5
110
330
C1
100
AcDbEntity
  8
LC-005-005-----0
 62
     7
370
    25
100
AcDbLine
 10
743.059655
 20
245.256481
 30
0.0
 11
746.059655
 21
248.256481
 31
0.0
  0
LINE
  5
111
330
C1
100
AcDbEntity
  8
LC-005-005-----0
 62
     7
370
    25
100
AcDbLine
 10
743.059655
 20
248.084908
 30
0.0
 11
746.059655
 21
251.084908
 31
0.0
  0
LINE
  5
112
330
C1
100
AcDbEntity
  8
LC-005-005-----0
 62
     7
370
    25
100
AcDbLine
 10
743.059655
 20
250.913335
 30
0.0
 11
746.059655
 21
253.913335
 31
0.0
  0
LINE
  5
113
330
C1
100
AcDbEntity
  8
LC-005-005-----0
 62
     7
370
    25
100
AcDbLine
 10
743.059655
 20
253.741762
 30
0.0
 11
746.059655
 21
256.741762
 31
0.0
  0
LINE
  5
114
330
C1
100
AcDbEntity
  8
LC-005-005-----0
 62
     7
370
    25
100
AcDbLine
 10
743.059655
 20
256.570189
 30
0.0
 11
746.059655
 21
259.570189
 31
0.0
  0
LINE
  5
115
330
C1
100
AcDbEntity
  8
LC-005-005-----0
 62
     7
370
    25
100
AcDbLine
 10
743.059655
 20
259.398616
 30
0.0
 11
746.059655
 21
262.398616
 31
0.0
  0
LINE
  5
116
330
C1
100
AcDbEntity
  8
LC-005-005-----0
 62
     7
370
    25
100
AcDbLine
 10
743.059655
 20
262.227044
 30
0.0
 11
746.059655
 21
265.227044
 31
0.0
  0
LINE
  5
117
330
C1
100
AcDbEntity
  8
LC-005-005-----0
 62
     7
370
    25
100
AcDbLine
 10
743.059655
 20
265.055471
 30
0.0
 11
746.059655
 21
268.055471
 31
0.0
  0
LINE
  5
118
330
C1
100
AcDbEntity
  8
LC-005-005-----0
 62
     7
370
    25
100
AcDbLine
 10
743.059655
 20
267.883898
 30
0.0
 11
746.059655
 21
270.883898
 31
0.0
  0
LINE
  5
119
330
C1
100
AcDbEntity
  8
LC-005-005-----0
 62
     7
370
    25
100
AcDbLine
 10
743.059655
 20
270.712325
 30
0.0
 11
746.059655
 21
273.712325
 31
0.0
  0
LINE
  5
11A
330
C1
100
AcDbEntity
  8
LC-005-005-----0
 62
     7
370
    25
100
AcDbLine
 10
743.059655
 20
273.540752
 30
0.0
 11
746.059655
 21
276.540752
 31
0.0
  0
LINE
  5
11B
330
C1
100
AcDbEntity
  8
LC-005-005-----0
 62
     7
370
    25
100
AcDbLine
 10
743.059655
 20
276.369179
 30
0.0
 11
746.059655
 21
279.369179
 31
0.0
  0
LINE
  5
11C
330
C1
100
AcDbEntity
  8
LC-005-005-----0
 62
     7
370
    25
100
AcDbLine
 10
743.059655
 20
279.197606
 30
0.0
 11
746.059655
 21
282.197606
 31
0.0
  0
LINE
  5
11D
330
C1
100
AcDbEntity
  8
LC-005-005-----0
 62
     7
370
    25
100
AcDbLine
 10
743.059655
 20
282.026033
 30
0.0
 11
746.059655
 21
285.026033
 31
0.0
  0
LINE
  5
11E
330
C1
100
AcDbEntity
  8
LC-005-005-----0
 62
     7
370
    25
100
AcDbLine
 10
743.059655
 20
284.854461
 30
0.0
 11
746.059655
 21
287.854461
 31
0.0
  0
LINE
  5
11F
330
C1
100
AcDbEntity
  8
LC-005-005-----0
 62
     7
370
    25
100
AcDbLine
 10
743.059655
 20
287.682888
 30
0.0
 11
746.059655
 21
290.682888
 31
0.0
  0
LINE
  5
120
330
C1
100
AcDbEntity
  8
LC-005-005-----0
 62
     7
370
    25
100
AcDbLine
 10
743.059655
 20
290.511315
 30
0.0
 11
746.059655
 21
293.511315
 31
0.0
  0
LINE
  5
121
330
C1
100
AcDbEntity
  8
LC-005-005-----0
 62
     7
370
    25
100
AcDbLine
 10
743.059655
 20
293.339742
 30
0.0
 11
746.059655
 21
296.339742
 31
0.0
  0
LINE
  5
122
330
C1
100
AcDbEntity
  8
LC-005-005-----0
 62
     7
370
    25
100
AcDbLine
 10
743.059655
 20
296.168169
 30
0.0
 11
746.059655
 21
299.168169
 31
0.0
  0
LINE
  5
123
330
C1
100
AcDbEntity
  8
LC-005-005-----0
 62
     7
370
    25
100
AcDbLine
 10
743.059655
 20
298.996596
 30
0.0
 11
746.059655
 21
301.996596
 31
0.0
  0
LINE
  5
124
330
C1
100
AcDbEntity
  8
LC-005-005-----0
 62
     7
370
    25
100
AcDbLine
 10
743.059655
 20
301.825023
 30
0.0
 11
746.059655
 21
304.825023
 31
0.0
  0
LINE
  5
125
330
C1
100
AcDbEntity
  8
LC-005-005-----0
 62
     7
370
    25
100
AcDbLine
 10
743.059655
 20
304.65345
 30
0.0
 11
746.059655
 21
307.65345
 31
0.0
  0
LINE
  5
126
330
C1
100
AcDbEntity
  8
LC-005-005-----0
 62
     7
370
    25
100
AcDbLine
 10
743.059655
 20
307.481878
 30
0.0
 11
746.059655
 21
310.481878
 31
0.0
  0
LINE
  5
127
330
C1
100
AcDbEntity
  8
LC-005-005-----0
 62
     7
370
    25
100
AcDbLine
 10
743.059655
 20
310.310305
 30
0.0
 11
746.059655
 21
313.310305
 31
0.0
  0
LINE
  5
128
330
C1
100
AcDbEntity
  8
LC-005-005-----0
 62
     7
370
    25
100
AcDbLine
 10
743.059655
 20
313.138732
 30
0.0
 11
746.059655
 21
316.138732
 31
0.0
  0
LINE
  5
129
330
C1
100
AcDbEntity
  8
LC-005-005-----0
 62
     7
370
    25
100
AcDbLine
 10
743.059655
 20
315.967159
 30
0.0
 11
746.059655
 21
318.967159
 31
0.0
  0
LINE
  5
12A
330
C1
100
AcDbEntity
  8
LC-005-005-----0
 62
     7
370
    25
100
AcDbLine
 10
743.059655
 20
318.795586
 30
0.0
 11
746.059655
 21
321.795586
 31
0.0
  0
LINE
  5
12B
330
C1
100
AcDbEntity
  8
LC-005-005-----0
 62
     7
370
    25
100
AcDbLine
 10
743.059655
 20
321.624013
 30
0.0
 11
746.059655
 21
324.624013
 31
0.0
  0
LINE
  5
12C
330
C1
100
AcDbEntity
  8
LC-005-005-----0
 62
     7
370
    25
100
AcDbLine
 10
743.059655
 20
324.45244
 30
0.0
 11
746.059655
 21
327.45244
 31
0.0
  0
LINE
  5
12D
330
C1
100
AcDbEntity
  8
LC-005-005-----0
 62
     7
370
    25
100
AcDbLine
 10
743.059655
 20
327.280867
 30
0.0
 11
746.059655
 21
330.280867
 31
0.0
  0
LINE
  5
12E
330
C1
100
AcDbEntity
  8
LC-005-005-----0
 62
     7
370
    25
100
AcDbLine
 10
743.059655
 20
330.109295
 30
0.0
 11
746.059655
 21
333.109295
 31
0.0
  0
LINE
  5
12F
330
C1
100
AcDbEntity
  8
LC-005-005-----0
 62
     7
370
    25
100
AcDbLine
 10
743.059655
 20
332.937722
 30
0.0
 11
746.059655
 21
335.937722
 31
0.0
  0
LINE
  5
130
330
C1
100
AcDbEntity
  8
LC-005-005-----0
 62
     7
370
    25
100
AcDbLine
 10
743.059655
 20
335.766149
 30
0.0
 11
746.059655
 21
338.766149
 31
0.0
  0
LINE
  5
131
330
C1
100
AcDbEntity
  8
LC-005-005-----0
 62
     7
370
    25
100
AcDbLine
 10
743.059655
 20
338.594576
 30
0.0
 11
746.059655
 21
341.594576
 31
0.0
  0
LINE
  5
132
330
C1
100
AcDbEntity
  8
LC-005-005-----0
 62
     7
370
    25
100
AcDbLine
 10
743.059655
 20
341.423003
 30
0.0
 11
746.059655
 21
344.423003
 31
0.0
  0
LINE
  5
133
330
C1
100
AcDbEntity
  8
LC-005-005-----0
 62
     7
370
    25
100
AcDbLine
 10
743.059655
 20
344.25143
 30
0.0
 11
746.059655
 21
347.25143
 31
0.0
  0
LINE
  5
134
330
C1
100
AcDbEntity
  8
LC-005-005-----0
 62
     7
370
    25
100
AcDbLine
 10
743.059655
 20
347.079857
 30
0.0
 11
746.059655
 21
350.079857
 31
0.0
  0
LINE
  5
135
330
C1
100
AcDbEntity
  8
LC-005-005-----0
 62
     7
370
    25
100
AcDbLine
 10
743.059655
 20
349.908284
 30
0.0
 11
746.059655
 21
352.908284
 31
0.0
  0
LINE
  5
136
330
C1
100
AcDbEntity
  8
LC-005-005-----0
 62
     7
370
    25
100
AcDbLine
 10
743.059655
 20
352.736712
 30
0.0
 11
746.059655
 21
355.736712
 31
0.0
  0
LINE
  5
137
330
C1
100
AcDbEntity
  8
LC-005-005-----0
 62
     7
370
    25
100
AcDbLine
 10
743.059655
 20
355.565139
 30
0.0
 11
746.059655
 21
358.565139
 31
0.0
  0
LINE
  5
138
330
C1
100
AcDbEntity
  8
LC-005-005-----0
 62
     7
370
    25
100
AcDbLine
 10
743.059655
 20
358.393566
 30
0.0
 11
746.059655
 21
361.393566
 31
0.0
  0
LINE
  5
139
330
C1
100
AcDbEntity
  8
LC-005-005-----0
 62
     7
370
    25
100
AcDbLine
 10
743.059655
 20
361.221993
 30
0.0
 11
746.059655
 21
364.221993
 31
0.0
  0
LINE
  5
13A
330
C1
100
AcDbEntity
  8
LC-005-005-----0
 62
     7
370
    25
100
AcDbLine
 10
743.059655
 20
364.05042
 30
0.0
 11
746.059655
 21
367.05042
 31
0.0
  0
LINE
  5
13B
330
C1
100
AcDbEntity
  8
LC-005-005-----0
 62
     7
370
    25
100
AcDbLine
 10
743.059655
 20
366.878847
 30
0.0
 11
746.059655
 21
369.878847
 31
0.0
  0
LINE
  5
13C
330
C1
100
AcDbEntity
  8
LC-005-005-----0
 62
     7
370
    25
100
AcDbLine
 10
743.059655
 20
369.707274
 30
0.0
 11
746.059655
 21
372.707274
 31
0.0
  0
LINE
  5
13D
330
C1
100
AcDbEntity
  8
LC-005-005-----0
 62
     7
370
    25
100
AcDbLine
 10
743.059655
 20
372.535701
 30
0.0
 11
746.059655
 21
375.535701
 31
0.0
  0
LINE
  5
13E
330
C1
100
AcDbEntity
  8
LC-005-005-----0
 62
     7
370
    25
100
AcDbLine
 10
743.059655
 20
375.364129
 30
0.0
 11
746.059655
 21
378.364129
 31
0.0
  0
LINE
  5
13F
330
C1
100
AcDbEntity
  8
LC-005-005-----0
 62
     7
370
    25
100
AcDbLine
 10
743.059655
 20
378.192556
 30
0.0
 11
746.059655
 21
381.192556
 31
0.0
  0
LINE
  5
140
330
C1
100
AcDbEntity
  8
LC-005-005-----0
 62
     7
370
    25
100
AcDbLine
 10
743.059655
 20
381.020983
 30
0.0
 11
746.059655
 21
384.020983
 31
0.0
  0
LINE
  5
141
330
C1
100
AcDbEntity
  8
LC-005-005-----0
 62
     7
370
    25
100
AcDbLine
 10
743.059655
 20
383.84941
 30
0.0
 11
746.059655
 21
386.84941
 31
0.0
  0
LINE
  5
142
330
C1
100
AcDbEntity
  8
LC-005-005-----0
 62
     7
370
    25
100
AcDbLine
 10
743.059655
 20
386.677837
 30
0.0
 11
746.059655
 21
389.677837
 31
0.0
  0
LINE
  5
143
330
C1
100
AcDbEntity
  8
LC-005-005-----0
 62
     7
370
    25
100
AcDbLine
 10
743.059655
 20
389.506264
 30
0.0
 11
746.059655
 21
392.506264
 31
0.0
  0
LINE
  5
144
330
C1
100
AcDbEntity
  8
LC-005-005-----0
 62
     7
370
    25
100
AcDbLine
 10
743.059655
 20
392.334691
 30
0.0
 11
746.059655
 21
395.334691
 31
0.0
  0
LINE
  5
145
330
C1
100
AcDbEntity
  8
LC-005-005-----0
 62
     7
370
    25
100
AcDbLine
 10
741.962105
 20
394.065568
 30
0.0
 11
744.962105
 21
397.065568
 31
0.0
  0
LINE
  5
146
330
C1
100
AcDbEntity
  8
LC-005-005-----0
 62
     7
370
    25
100
AcDbLine
 10
739.133677
 20
394.065568
 30
0.0
 11
742.133677
 21
397.065568
 31
0.0
  0
LINE
  5
147
330
C1
100
AcDbEntity
  8
LC-005-005-----0
 62
     7
370
    25
100
AcDbLine
 10
736.30525
 20
394.065568
 30
0.0
 11
739.30525
 21
397.065568
 31
0.0
  0
LINE
  5
148
330
C1
100
AcDbEntity
  8
LC-005-005-----0
 62
     7
370
    25
100
AcDbLine
 10
733.476823
 20
394.065568
 30
0.0
 11
736.476823
 21
397.065568
 31
0.0
  0
LINE
  5
149
330
C1
100
AcDbEntity
  8
LC-005-005-----0
 62
     7
370
    25
100
AcDbLine
 10
730.648396
 20
394.065568
 30
0.0
 11
733.648396
 21
397.065568
 31
0.0
  0
LINE
  5
14A
330
C1
100
AcDbEntity
  8
LC-005-005-----0
 62
     7
370
    25
100
AcDbLine
 10
727.828859
 20
394.074459
 30
0.0
 11
730.819969
 21
397.065568
 31
0.0
  0
LINE
  5
14B
330
C1
100
AcDbEntity
  8
LC-005-005-----0
 62
     7
370
    25
100
AcDbLine
 10
725.904549
 20
394.978575
 30
0.0
 11
728.05965
 21
397.133676
 31
0.0
  0
LINE
  5
14C
330
C1
100
AcDbEntity
  8
LC-005-005-----0
 62
     7
370
    25
100
AcDbLine
 10
725.061375
 20
396.963829
 30
0.0
 11
728.05965
 21
399.962103
 31
0.0
  0
LINE
  5
14D
330
C1
100
AcDbEntity
  8
LC-005-005-----0
 62
     7
370
    25
100
AcDbLine
 10
725.05965
 20
399.79053
 30
0.0
 11
728.05965
 21
402.79053
 31
0.0
  0
LINE
  5
14E
330
C1
100
AcDbEntity
  8
LC-005-005-----0
 62
     7
370
    25
100
AcDbLine
 10
725.05965
 20
402.618957
 30
0.0
 11
728.05965
 21
405.618957
 31
0.0
  0
LINE
  5
14F
330
C1
100
AcDbEntity
  8
LC-005-005-----0
 62
     7
370
    25
100
AcDbLine
 10
725.05965
 20
405.447385
 30
0.0
 11
728.05965
 21
408.447385
 31
0.0
  0
LINE
  5
150
330
C1
100
AcDbEntity
  8
LC-005-005-----0
 62
     7
370
    25
100
AcDbLine
 10
725.05965
 20
408.275812
 30
0.0
 11
728.05965
 21
411.275812
 31
0.0
  0
LINE
  5
151
330
C1
100
AcDbEntity
  8
LC-005-005-----0
 62
     7
370
    25
100
AcDbLine
 10
725.05965
 20
411.104239
 30
0.0
 11
728.05965
 21
414.104239
 31
0.0
  0
LINE
  5
152
330
C1
100
AcDbEntity
  8
LC-005-005-----0
 62
     7
370
    25
100
AcDbLine
 10
725.05965
 20
413.932666
 30
0.0
 11
728.05965
 21
416.932666
 31
0.0
  0
LINE
  5
153
330
C1
100
AcDbEntity
  8
LC-005-005-----0
 62
     7
370
    25
100
AcDbLine
 10
725.05965
 20
416.761093
 30
0.0
 11
728.05965
 21
419.761093
 31
0.0
  0
LINE
  5
154
330
C1
100
AcDbEntity
  8
LC-005-005-----0
 62
     7
370
    25
100
AcDbLine
 10
725.05965
 20
419.58952
 30
0.0
 11
728.05965
 21
422.58952
 31
0.0
  0
LINE
  5
155
330
C1
100
AcDbEntity
  8
LC-005-005-----0
 62
     7
370
    25
100
AcDbLine
 10
725.05965
 20
422.417947
 30
0.0
 11
728.05965
 21
425.417947
 31
0.0
  0
LINE
  5
156
330
C1
100
AcDbEntity
  8
LC-005-005-----0
 62
     7
370
    25
100
AcDbLine
 10
725.05965
 20
425.246374
 30
0.0
 11
728.05965
 21
428.246374
 31
0.0
  0
LINE
  5
157
330
C1
100
AcDbEntity
  8
LC-005-005-----0
 62
     7
370
    25
100
AcDbLine
 10
725.05965
 20
428.074802
 30
0.0
 11
727.916327
 21
430.931479
 31
0.0
  0
LINE
  5
158
330
C1
100
AcDbEntity
  8
LC-005-005-----0
 62
     7
370
    25
100
AcDbLine
 10
724.684898
 20
430.528477
 30
0.0
 11
726.881051
 21
432.72463
 31
0.0
  0
LINE
  5
159
330
C1
100
AcDbEntity
  8
LC-005-005-----0
 62
     7
370
    25
100
AcDbLine
 10
723.649622
 20
432.321628
 30
0.0
 11
725.845775
 21
434.517781
 31
0.0
  0
LINE
  5
15A
330
C1
100
AcDbEntity
  8
LC-005-005-----0
 62
     7
370
    25
100
AcDbLine
 10
722.614346
 20
434.114779
 30
0.0
 11
724.810498
 21
436.310932
 31
0.0
  0
LINE
  5
15B
330
C1
100
AcDbEntity
  8
LC-005-005-----0
 62
     7
370
    25
100
AcDbLine
 10
721.57907
 20
435.90793
 30
0.0
 11
723.775222
 21
438.104083
 31
0.0
  0
LINE
  5
15C
330
C1
100
AcDbEntity
  8
LC-005-005-----0
 62
     7
370
    25
100
AcDbLine
 10
720.543794
 20
437.701081
 30
0.0
 11
722.739946
 21
439.897234
 31
0.0
  0
LINE
  5
15D
330
C1
100
AcDbEntity
  8
LC-005-005-----0
 62
     7
370
    25
100
AcDbLine
 10
719.508518
 20
439.494232
 30
0.0
 11
721.70467
 21
441.690385
 31
0.0
  0
LINE
  5
15E
330
C1
100
AcDbEntity
  8
LC-005-005-----0
 62
     7
370
    25
100
AcDbLine
 10
718.473241
 20
441.287383
 30
0.0
 11
720.669394
 21
443.483536
 31
0.0
  0
LINE
  5
15F
330
C1
100
AcDbEntity
  8
LC-005-005-----0
 62
     7
370
    25
100
AcDbLine
 10
717.437965
 20
443.080534
 30
0.0
 11
719.634118
 21
445.276686
 31
0.0
  0
LINE
  5
160
330
C1
100
AcDbEntity
  8
LC-005-005-----0
 62
     7
370
    25
100
AcDbLine
 10
716.402689
 20
444.873685
 30
0.0
 11
718.598841
 21
447.069837
 31
0.0
  0
LINE
  5
161
330
C1
100
AcDbEntity
  8
LC-005-005-----0
 62
     7
370
    25
100
AcDbLine
 10
715.367413
 20
446.666836
 30
0.0
 11
717.563565
 21
448.862988
 31
0.0
  0
LINE
  5
162
330
C1
100
AcDbEntity
  8
LC-005-005-----0
 62
     7
370
    25
100
AcDbLine
 10
713.938064
 20
448.065914
 30
0.0
 11
716.528289
 21
450.656139
 31
0.0
  0
LINE
  5
163
330
C1
100
AcDbEntity
  8
LC-005-005-----0
 62
     7
370
    25
100
AcDbLine
 10
711.109637
 20
448.065914
 30
0.0
 11
714.109637
 21
451.065914
 31
0.0
  0
LINE
  5
164
330
C1
100
AcDbEntity
  8
LC-005-005-----0
 62
     7
370
    25
100
AcDbLine
 10
708.730482
 20
448.515186
 30
0.0
 11
711.281209
 21
451.065914
 31
0.0
  0
LINE
  5
165
330
C1
100
AcDbEntity
  8
LC-005-005-----0
 62
     7
370
    25
100
AcDbLine
 10
707.473863
 20
450.086994
 30
0.0
 11
710.309655
 21
452.922786
 31
0.0
  0
LINE
  5
166
330
C1
100
AcDbEntity
  8
LC-005-005-----0
 62
     7
370
    25
100
AcDbLine
 10
707.309655
 20
452.751214
 30
0.0
 11
710.309655
 21
455.751214
 31
0.0
  0
LINE
  5
167
330
C1
100
AcDbEntity
  8
LC-005-005-----0
 62
     7
370
    25
100
AcDbLine
 10
707.309655
 20
455.579641
 30
0.0
 11
710.309655
 21
458.579641
 31
0.0
  0
LINE
  5
168
330
C1
100
AcDbEntity
  8
LC-005-005-----0
 62
     7
370
    25
100
AcDbLine
 10
707.309655
 20
458.408068
 30
0.0
 11
710.309655
 21
461.408068
 31
0.0
  0
LINE
  5
169
330
C1
100
AcDbEntity
  8
LC-005-005-----0
 62
     7
370
    25
100
AcDbLine
 10
707.309655
 20
461.236495
 30
0.0
 11
710.309655
 21
464.236495
 31
0.0
  0
LINE
  5
16A
330
C1
100
AcDbEntity
  8
LC-005-005-----0
 62
     7
370
    25
100
AcDbLine
 10
707.060151
 20
463.815418
 30
0.0
 11
710.309655
 21
467.064922
 31
0.0
  0
LINE
  5
16B
330
C1
100
AcDbEntity
  8
LC-005-005-----0
 62
     7
370
    25
100
AcDbLine
 10
704.98222
 20
464.565914
 30
0.0
 11
707.98222
 21
467.565914
 31
0.0
  0
LINE
  5
16C
330
C1
100
AcDbEntity
  8
LC-005-005-----0
 62
     7
370
    25
100
AcDbLine
 10
695.895014
 20
458.307135
 30
0.0
 11
697.056205
 21
459.468327
 31
0.0
  0
LINE
  5
16D
330
C1
100
AcDbEntity
  8
LC-005-005-----0
 62
     7
370
    25
100
AcDbLine
 10
702.559654
 20
464.971775
 30
0.0
 11
705.559654
 21
467.971775
 31
0.0
  0
LINE
  5
16E
330
C1
100
AcDbEntity
  8
LC-005-005-----0
 62
     7
370
    25
100
AcDbLine
 10
693.066574
 20
458.307123
 30
0.0
 11
697.056193
 21
462.296742
 31
0.0
  0
LINE
  5
16F
330
C1
100
AcDbEntity
  8
LC-005-005-----0
 62
     7
370
    25
100
AcDbLine
 10
702.559654
 20
467.800202
 30
0.0
 11
705.559654
 21
470.800202
 31
0.0
  0
LINE
  5
170
330
C1
100
AcDbEntity
  8
LC-005-005-----0
 62
     7
370
    25
100
AcDbLine
 10
691.056207
 20
459.125183
 30
0.0
 11
697.056181
 21
465.125157
 31
0.0
  0
LINE
  5
171
330
C1
100
AcDbEntity
  8
LC-005-005-----0
 62
     7
370
    25
100
AcDbLine
 10
698.238233
 20
466.307209
 30
0.0
 11
700.057451
 21
468.126426
 31
0.0
  0
LINE
  5
172
330
C1
100
AcDbEntity
  8
LC-005-005-----0
 62
     7
370
    25
100
AcDbLine
 10
702.559654
 20
470.628629
 30
0.0
 11
705.559654
 21
473.628629
 31
0.0
  0
LINE
  5
173
330
C1
100
AcDbEntity
  8
LC-005-005-----0
 62
     7
370
    25
100
AcDbLine
 10
691.056195
 20
461.953598
 30
0.0
 11
700.056919
 21
470.954322
 31
0.0
  0
LINE
  5
174
330
C1
100
AcDbEntity
  8
LC-005-005-----0
 62
     7
370
    25
100
AcDbLine
 10
702.559654
 20
473.457057
 30
0.0
 11
705.559654
 21
476.457057
 31
0.0
  0
LINE
  5
175
330
C1
100
AcDbEntity
  8
LC-005-005-----0
 62
     7
370
    25
100
AcDbLine
 10
691.056183
 20
464.782013
 30
0.0
 11
700.056388
 21
473.782218
 31
0.0
  0
LINE
  5
176
330
C1
100
AcDbEntity
  8
LC-005-005-----0
 62
     7
370
    25
100
AcDbLine
 10
702.559654
 20
476.285484
 30
0.0
 11
705.559654
 21
479.285484
 31
0.0
  0
LINE
  5
177
330
C1
100
AcDbEntity
  8
LC-005-005-----0
 62
     7
370
    25
100
AcDbLine
 10
689.752849
 20
466.307106
 30
0.0
 11
695.254117
 21
471.808374
 31
0.0
  0
LINE
  5
178
330
C1
100
AcDbEntity
  8
LC-005-005-----0
 62
     7
370
    25
100
AcDbLine
 10
696.805492
 20
473.359749
 30
0.0
 11
700.055857
 21
476.610114
 31
0.0
  0
LINE
  5
179
330
C1
100
AcDbEntity
  8
LC-005-005-----0
 62
     7
370
    25
100
AcDbLine
 10
702.559654
 20
479.113911
 30
0.0
 11
705.559654
 21
482.113911
 31
0.0
  0
LINE
  5
17A
330
C1
100
AcDbEntity
  8
LC-005-005-----0
 62
     7
370
    25
100
AcDbLine
 10
688.054553
 20
467.437237
 30
0.0
 11
692.425415
 21
471.808099
 31
0.0
  0
LINE
  5
17B
330
C1
100
AcDbEntity
  8
LC-005-005-----0
 62
     7
370
    25
100
AcDbLine
 10
696.805218
 20
476.187902
 30
0.0
 11
700.055325
 21
479.43801
 31
0.0
  0
LINE
  5
17C
330
C1
100
AcDbEntity
  8
LC-005-005-----0
 62
     7
370
    25
100
AcDbLine
 10
701.929185
 20
481.31187
 30
0.0
 11
704.926629
 21
484.309313
 31
0.0
  0
LINE
  5
17D
330
C1
100
AcDbEntity
  8
LC-005-005-----0
 62
     7
370
    25
100
AcDbLine
 10
688.054536
 20
470.265647
 30
0.0
 11
691.305477
 21
473.516588
 31
0.0
  0
LINE
  5
17E
330
C1
100
AcDbEntity
  8
LC-005-005-----0
 62
     7
370
    25
100
AcDbLine
 10
696.804944
 20
479.016055
 30
0.0
 11
702.097927
 21
484.309038
 31
0.0
  0
LINE
  5
17F
330
C1
100
AcDbEntity
  8
LC-005-005-----0
 62
     7
370
    25
100
AcDbLine
 10
688.054519
 20
473.094057
 30
0.0
 11
691.305203
 21
476.344741
 31
0.0
  0
LINE
  5
180
330
C1
100
AcDbEntity
  8
LC-005-005-----0
 62
     7
370
    25
100
AcDbLine
 10
697.209369
 20
482.248907
 30
0.0
 11
699.269225
 21
484.308764
 31
0.0
  0
LINE
  5
181
330
C1
100
AcDbEntity
  8
LC-005-005-----0
 62
     7
370
    25
100
AcDbLine
 10
688.054502
 20
475.922467
 30
0.0
 11
691.304928
 21
479.172894
 31
0.0
  0
LINE
  5
182
330
C1
100
AcDbEntity
  8
LC-005-005-----0
 62
     7
370
    25
100
AcDbLine
 10
688.054484
 20
478.750877
 30
0.0
 11
690.909368
 21
481.605761
 31
0.0
  0
LINE
  5
183
330
C1
100
AcDbEntity
  8
LC-005-005-----0
 62
     7
370
    25
100
AcDbLine
 10
687.419328
 20
480.944148
 30
0.0
 11
690.783334
 21
484.308154
 31
0.0
  0
LINE
  5
184
330
C1
100
AcDbEntity
  8
LC-005-005-----0
 62
     7
370
    25
100
AcDbLine
 10
684.957088
 20
481.310335
 30
0.0
 11
687.955793
 21
484.30904
 31
0.0
  0
LINE
  5
185
330
C1
100
AcDbEntity
  8
LC-005-005-----0
 62
     7
370
    25
100
AcDbLine
 10
682.586681
 20
481.768355
 30
0.0
 11
685.128252
 21
484.309927
 31
0.0
  0
LINE
  5
186
330
C1
100
AcDbEntity
  8
LC-005-005-----0
 62
     7
370
    25
100
AcDbLine
 10
680.513001
 20
482.523102
 30
0.0
 11
682.853624
 21
484.863725
 31
0.0
  0
LINE
  5
187
330
C1
100
AcDbEntity
  8
LC-005-005-----0
 62
     7
370
    25
100
AcDbLine
 10
678.439321
 20
483.27785
 30
0.0
 11
680.779944
 21
485.618473
 31
0.0
  0
LINE
  5
188
330
C1
100
AcDbEntity
  8
LC-005-005-----0
 62
     7
370
    25
100
AcDbLine
 10
676.365642
 20
484.032597
 30
0.0
 11
678.706265
 21
486.37322
 31
0.0
  0
LINE
  5
189
330
C1
100
AcDbEntity
  8
LC-005-005-----0
 62
     7
370
    25
100
AcDbLine
 10
674.291962
 20
484.787345
 30
0.0
 11
676.632585
 21
487.127968
 31
0.0
  0
LINE
  5
18A
330
C1
100
AcDbEntity
  8
LC-005-005-----0
 62
     7
370
    25
100
AcDbLine
 10
672.218283
 20
485.542092
 30
0.0
 11
674.558905
 21
487.882715
 31
0.0
  0
LINE
  5
18B
330
C1
100
AcDbEntity
  8
LC-005-005-----0
 62
     7
370
    25
100
AcDbLine
 10
670.144603
 20
486.29684
 30
0.0
 11
672.485226
 21
488.637463
 31
0.0
  0
LINE
  5
18C
330
C1
100
AcDbEntity
  8
LC-005-005-----0
 62
     7
370
    25
100
AcDbLine
 10
668.070923
 20
487.051587
 30
0.0
 11
670.411546
 21
489.39221
 31
0.0
  0
LINE
  5
18D
330
C1
100
AcDbEntity
  8
LC-005-005-----0
 62
     7
370
    25
100
AcDbLine
 10
665.997244
 20
487.806335
 30
0.0
 11
668.337866
 21
490.146958
 31
0.0
  0
LINE
  5
18E
330
C1
100
AcDbEntity
  8
LC-005-005-----0
 62
     7
370
    25
100
AcDbLine
 10
663.923564
 20
488.561082
 30
0.0
 11
666.264187
 21
490.901705
 31
0.0
  0
LINE
  5
18F
330
C1
100
AcDbEntity
  8
LC-005-005-----0
 62
     7
370
    25
100
AcDbLine
 10
661.849884
 20
489.31583
 30
0.0
 11
664.190507
 21
491.656453
 31
0.0
  0
LINE
  5
190
330
C1
100
AcDbEntity
  8
LC-005-005-----0
 62
     7
370
    25
100
AcDbLine
 10
659.771541
 20
490.065914
 30
0.0
 11
662.116828
 21
492.4112
 31
0.0
  0
LINE
  5
191
330
C1
100
AcDbEntity
  8
LC-005-005-----0
 62
     7
370
    25
100
AcDbLine
 10
656.943114
 20
490.065914
 30
0.0
 11
659.943114
 21
493.065914
 31
0.0
  0
LINE
  5
192
330
C1
100
AcDbEntity
  8
LC-005-005-----0
 62
     7
370
    25
100
AcDbLine
 10
654.114687
 20
490.065914
 30
0.0
 11
657.114687
 21
493.065914
 31
0.0
  0
LINE
  5
193
330
C1
100
AcDbEntity
  8
LC-005-005-----0
 62
     7
370
    25
100
AcDbLine
 10
651.28626
 20
490.065914
 30
0.0
 11
654.28626
 21
493.065914
 31
0.0
  0
LINE
  5
194
330
C1
100
AcDbEntity
  8
LC-005-005-----0
 62
     7
370
    25
100
AcDbLine
 10
648.457833
 20
490.065914
 30
0.0
 11
651.457833
 21
493.065914
 31
0.0
  0
LINE
  5
195
330
C1
100
AcDbEntity
  8
LC-005-005-----0
 62
     7
370
    25
100
AcDbLine
 10
645.629406
 20
490.065914
 30
0.0
 11
648.629406
 21
493.065914
 31
0.0
  0
LINE
  5
196
330
C1
100
AcDbEntity
  8
LC-005-005-----0
 62
     7
370
    25
100
AcDbLine
 10
642.800979
 20
490.065914
 30
0.0
 11
645.800979
 21
493.065914
 31
0.0
  0
LINE
  5
197
330
C1
100
AcDbEntity
  8
LC-005-005-----0
 62
     7
370
    25
100
AcDbLine
 10
639.972552
 20
490.065914
 30
0.0
 11
642.972552
 21
493.065914
 31
0.0
  0
LINE
  5
198
330
C1
100
AcDbEntity
  8
LC-005-005-----0
 62
     7
370
    25
100
AcDbLine
 10
637.144124
 20
490.065914
 30
0.0
 11
640.144124
 21
493.065914
 31
0.0
  0
LINE
  5
199
330
C1
100
AcDbEntity
  8
LC-005-005-----0
 62
     7
370
    25
100
AcDbLine
 10
634.315697
 20
490.065914
 30
0.0
 11
637.315697
 21
493.065914
 31
0.0
  0
LINE
  5
19A
330
C1
100
AcDbEntity
  8
LC-005-005-----0
 62
     7
370
    25
100
AcDbLine
 10
631.48727
 20
490.065914
 30
0.0
 11
634.48727
 21
493.065914
 31
0.0
  0
LINE
  5
19B
330
C1
100
AcDbEntity
  8
LC-005-005-----0
 62
     7
370
    25
100
AcDbLine
 10
628.658843
 20
490.065914
 30
0.0
 11
631.658843
 21
493.065914
 31
0.0
  0
LINE
  5
19C
330
C1
100
AcDbEntity
  8
LC-005-005-----0
 62
     7
370
    25
100
AcDbLine
 10
625.830416
 20
490.065914
 30
0.0
 11
628.830416
 21
493.065914
 31
0.0
  0
LINE
  5
19D
330
C1
100
AcDbEntity
  8
LC-005-005-----0
 62
     7
370
    25
100
AcDbLine
 10
623.001989
 20
490.065914
 30
0.0
 11
626.001989
 21
493.065914
 31
0.0
  0
LINE
  5
19E
330
C1
100
AcDbEntity
  8
LC-005-005-----0
 62
     7
370
    25
100
AcDbLine
 10
620.173562
 20
490.065914
 30
0.0
 11
623.173562
 21
493.065914
 31
0.0
  0
LINE
  5
19F
330
C1
100
AcDbEntity
  8
LC-005-005-----0
 62
     7
370
    25
100
AcDbLine
 10
617.345135
 20
490.065914
 30
0.0
 11
620.345135
 21
493.065914
 31
0.0
  0
LINE
  5
1A0
330
C1
100
AcDbEntity
  8
LC-005-005-----0
 62
     7
370
    25
100
AcDbLine
 10
614.516707
 20
490.065914
 30
0.0
 11
617.516707
 21
493.065914
 31
0.0
  0
LINE
  5
1A1
330
C1
100
AcDbEntity
  8
LC-005-005-----0
 62
     7
370
    25
100
AcDbLine
 10
611.68828
 20
490.065914
 30
0.0
 11
614.68828
 21
493.065914
 31
0.0
  0
ENDBLK
  5
C3
330
C1
100
AcDbEntity
  8
0
100
AcDbBlockEnd
  0
BLOCK
  5
1A4
330
1A3
100
AcDbEntity
  8
0
100
AcDbBlockBegin
  2
*X24
 70
     1
 71
     0
 10
0.0
 20
0.0
 30
0.0
  3
*X24
  1

  4
*X2
  0
LINE
  5
1A6
330
1A3
100
AcDbEntity
  8
LC-005-005-----0
 62
     7
370
    25
100
AcDbLine
 10
831.682363
 20
34.065914
 30
0.0
 11
831.916664
 21
34.300215
 31
0.0
  0
LINE
  5
1A7
330
1A3
100
AcDbEntity
  8
LC-005-005-----0
 62
     7
370
    25
100
AcDbLine
 10
830.059655
 20
35.271633
 30
0.0
 11
832.95194
 21
38.163918
 31
0.0
  0
LINE
  5
1A8
330
1A3
100
AcDbEntity
  8
LC-005-005-----0
 62
     7
370
    25
100
AcDbLine
 10
830.059655
 20
38.10006
 30
0.0
 11
833.059655
 21
41.10006
 31
0.0
  0
LINE
  5
1A9
330
1A3
100
AcDbEntity
  8
LC-005-005-----0
 62
     7
370
    25
100
AcDbLine
 10
830.059655
 20
40.928487
 30
0.0
 11
833.059655
 21
43.928487
 31
0.0
  0
LINE
  5
1AA
330
1A3
100
AcDbEntity
  8
LC-005-005-----0
 62
     7
370
    25
100
AcDbLine
 10
830.059655
 20
43.756914
 30
0.0
 11
833.059655
 21
46.756914
 31
0.0
  0
LINE
  5
1AB
330
1A3
100
AcDbEntity
  8
LC-005-005-----0
 62
     7
370
    25
100
AcDbLine
 10
830.059655
 20
46.585341
 30
0.0
 11
833.059655
 21
49.585341
 31
0.0
  0
LINE
  5
1AC
330
1A3
100
AcDbEntity
  8
LC-005-005-----0
 62
     7
370
    25
100
AcDbLine
 10
830.059655
 20
49.413768
 30
0.0
 11
833.059655
 21
52.413768
 31
0.0
  0
LINE
  5
1AD
330
1A3
100
AcDbEntity
  8
LC-005-005-----0
 62
     7
370
    25
100
AcDbLine
 10
830.059655
 20
52.242195
 30
0.0
 11
833.059655
 21
55.242195
 31
0.0
  0
LINE
  5
1AE
330
1A3
100
AcDbEntity
  8
LC-005-005-----0
 62
     7
370
    25
100
AcDbLine
 10
830.059655
 20
55.070623
 30
0.0
 11
833.059655
 21
58.070623
 31
0.0
  0
LINE
  5
1AF
330
1A3
100
AcDbEntity
  8
LC-005-005-----0
 62
     7
370
    25
100
AcDbLine
 10
830.059655
 20
57.89905
 30
0.0
 11
833.059655
 21
60.89905
 31
0.0
  0
LINE
  5
1B0
330
1A3
100
AcDbEntity
  8
LC-005-005-----0
 62
     7
370
    25
100
AcDbLine
 10
830.059655
 20
60.727477
 30
0.0
 11
833.059655
 21
63.727477
 31
0.0
  0
LINE
  5
1B1
330
1A3
100
AcDbEntity
  8
LC-005-005-----0
 62
     7
370
    25
100
AcDbLine
 10
830.059655
 20
63.555904
 30
0.0
 11
833.059655
 21
66.555904
 31
0.0
  0
LINE
  5
1B2
330
1A3
100
AcDbEntity
  8
LC-005-005-----0
 62
     7
370
    25
100
AcDbLine
 10
830.059655
 20
66.384331
 30
0.0
 11
833.059655
 21
69.384331
 31
0.0
  0
LINE
  5
1B3
330
1A3
100
AcDbEntity
  8
LC-005-005-----0
 62
     7
370
    25
100
AcDbLine
 10
830.059655
 20
69.212758
 30
0.0
 11
833.059655
 21
72.212758
 31
0.0
  0
LINE
  5
1B4
330
1A3
100
AcDbEntity
  8
LC-005-005-----0
 62
     7
370
    25
100
AcDbLine
 10
830.059655
 20
72.041185
 30
0.0
 11
833.059655
 21
75.041185
 31
0.0
  0
LINE
  5
1B5
330
1A3
100
AcDbEntity
  8
LC-005-005-----0
 62
     7
370
    25
100
AcDbLine
 10
830.059655
 20
74.869612
 30
0.0
 11
833.059655
 21
77.869612
 31
0.0
  0
LINE
  5
1B6
330
1A3
100
AcDbEntity
  8
LC-005-005-----0
 62
     7
370
    25
100
AcDbLine
 10
830.059655
 20
77.69804
 30
0.0
 11
833.059655
 21
80.69804
 31
0.0
  0
LINE
  5
1B7
330
1A3
100
AcDbEntity
  8
LC-005-005-----0
 62
     7
370
    25
100
AcDbLine
 10
830.059655
 20
80.526467
 30
0.0
 11
833.059655
 21
83.526467
 31
0.0
  0
LINE
  5
1B8
330
1A3
100
AcDbEntity
  8
LC-005-005-----0
 62
     7
370
    25
100
AcDbLine
 10
830.059655
 20
83.354894
 30
0.0
 11
833.059655
 21
86.354894
 31
0.0
  0
LINE
  5
1B9
330
1A3
100
AcDbEntity
  8
LC-005-005-----0
 62
     7
370
    25
100
AcDbLine
 10
830.059655
 20
86.183321
 30
0.0
 11
833.059655
 21
89.183321
 31
0.0
  0
LINE
  5
1BA
330
1A3
100
AcDbEntity
  8
LC-005-005-----0
 62
     7
370
    25
100
AcDbLine
 10
830.059655
 20
89.011748
 30
0.0
 11
833.059655
 21
92.011748
 31
0.0
  0
LINE
  5
1BB
330
1A3
100
AcDbEntity
  8
LC-005-005-----0
 62
     7
370
    25
100
AcDbLine
 10
830.059655
 20
91.840175
 30
0.0
 11
833.059655
 21
94.840175
 31
0.0
  0
LINE
  5
1BC
330
1A3
100
AcDbEntity
  8
LC-005-005-----0
 62
     7
370
    25
100
AcDbLine
 10
830.059655
 20
94.668602
 30
0.0
 11
833.059655
 21
97.668602
 31
0.0
  0
LINE
  5
1BD
330
1A3
100
AcDbEntity
  8
LC-005-005-----0
 62
     7
370
    25
100
AcDbLine
 10
830.059655
 20
97.497029
 30
0.0
 11
833.059655
 21
100.497029
 31
0.0
  0
LINE
  5
1BE
330
1A3
100
AcDbEntity
  8
LC-005-005-----0
 62
     7
370
    25
100
AcDbLine
 10
830.059655
 20
100.325457
 30
0.0
 11
833.059655
 21
103.325457
 31
0.0
  0
LINE
  5
1BF
330
1A3
100
AcDbEntity
  8
LC-005-005-----0
 62
     7
370
    25
100
AcDbLine
 10
830.059655
 20
103.153884
 30
0.0
 11
833.059655
 21
106.153884
 31
0.0
  0
LINE
  5
1C0
330
1A3
100
AcDbEntity
  8
LC-005-005-----0
 62
     7
370
    25
100
AcDbLine
 10
830.059655
 20
105.982311
 30
0.0
 11
833.059655
 21
108.982311
 31
0.0
  0
LINE
  5
1C1
330
1A3
100
AcDbEntity
  8
LC-005-005-----0
 62
     7
370
    25
100
AcDbLine
 10
830.059655
 20
108.810738
 30
0.0
 11
833.059655
 21
111.810738
 31
0.0
  0
LINE
  5
1C2
330
1A3
100
AcDbEntity
  8
LC-005-005-----0
 62
     7
370
    25
100
AcDbLine
 10
830.059655
 20
111.639165
 30
0.0
 11
833.059655
 21
114.639165
 31
0.0
  0
LINE
  5
1C3
330
1A3
100
AcDbEntity
  8
LC-005-005-----0
 62
     7
370
    25
100
AcDbLine
 10
830.059655
 20
114.467592
 30
0.0
 11
833.059655
 21
117.467592
 31
0.0
  0
LINE
  5
1C4
330
1A3
100
AcDbEntity
  8
LC-005-005-----0
 62
     7
370
    25
100
AcDbLine
 10
830.059655
 20
117.296019
 30
0.0
 11
833.059655
 21
120.296019
 31
0.0
  0
LINE
  5
1C5
330
1A3
100
AcDbEntity
  8
LC-005-005-----0
 62
     7
370
    25
100
AcDbLine
 10
830.059655
 20
120.124446
 30
0.0
 11
833.059655
 21
123.124446
 31
0.0
  0
LINE
  5
1C6
330
1A3
100
AcDbEntity
  8
LC-005-005-----0
 62
     7
370
    25
100
AcDbLine
 10
830.059655
 20
122.952874
 30
0.0
 11
833.059655
 21
125.952874
 31
0.0
  0
LINE
  5
1C7
330
1A3
100
AcDbEntity
  8
LC-005-005-----0
 62
     7
370
    25
100
AcDbLine
 10
830.059655
 20
125.781301
 30
0.0
 11
833.059655
 21
128.781301
 31
0.0
  0
LINE
  5
1C8
330
1A3
100
AcDbEntity
  8
LC-005-005-----0
 62
     7
370
    25
100
AcDbLine
 10
830.059655
 20
128.609728
 30
0.0
 11
833.059655
 21
131.609728
 31
0.0
  0
LINE
  5
1C9
330
1A3
100
AcDbEntity
  8
LC-005-005-----0
 62
     7
370
    25
100
AcDbLine
 10
830.059655
 20
131.438155
 30
0.0
 11
833.059655
 21
134.438155
 31
0.0
  0
LINE
  5
1CA
330
1A3
100
AcDbEntity
  8
LC-005-005-----0
 62
     7
370
    25
100
AcDbLine
 10
830.059655
 20
134.266582
 30
0.0
 11
833.059655
 21
137.266582
 31
0.0
  0
LINE
  5
1CB
330
1A3
100
AcDbEntity
  8
LC-005-005-----0
 62
     7
370
    25
100
AcDbLine
 10
830.059655
 20
137.095009
 30
0.0
 11
833.059655
 21
140.095009
 31
0.0
  0
LINE
  5
1CC
330
1A3
100
AcDbEntity
  8
LC-005-005-----0
 62
     7
370
    25
100
AcDbLine
 10
830.059655
 20
139.923436
 30
0.0
 11
833.059655
 21
142.923436
 31
0.0
  0
LINE
  5
1CD
330
1A3
100
AcDbEntity
  8
LC-005-005-----0
 62
     7
370
    25
100
AcDbLine
 10
830.059655
 20
142.751863
 30
0.0
 11
833.059655
 21
145.751863
 31
0.0
  0
LINE
  5
1CE
330
1A3
100
AcDbEntity
  8
LC-005-005-----0
 62
     7
370
    25
100
AcDbLine
 10
830.059655
 20
145.580291
 30
0.0
 11
833.059655
 21
148.580291
 31
0.0
  0
LINE
  5
1CF
330
1A3
100
AcDbEntity
  8
LC-005-005-----0
 62
     7
370
    25
100
AcDbLine
 10
830.059655
 20
148.408718
 30
0.0
 11
833.059655
 21
151.408718
 31
0.0
  0
LINE
  5
1D0
330
1A3
100
AcDbEntity
  8
LC-005-005-----0
 62
     7
370
    25
100
AcDbLine
 10
830.059655
 20
151.237145
 30
0.0
 11
833.059655
 21
154.237145
 31
0.0
  0
LINE
  5
1D1
330
1A3
100
AcDbEntity
  8
LC-005-005-----0
 62
     7
370
    25
100
AcDbLine
 10
830.059655
 20
154.065572
 30
0.0
 11
833.059655
 21
157.065572
 31
0.0
  0
LINE
  5
1D2
330
1A3
100
AcDbEntity
  8
LC-005-005-----0
 62
     7
370
    25
100
AcDbLine
 10
830.059655
 20
156.893999
 30
0.0
 11
833.059655
 21
159.893999
 31
0.0
  0
LINE
  5
1D3
330
1A3
100
AcDbEntity
  8
LC-005-005-----0
 62
     7
370
    25
100
AcDbLine
 10
830.059655
 20
159.722426
 30
0.0
 11
833.059655
 21
162.722426
 31
0.0
  0
LINE
  5
1D4
330
1A3
100
AcDbEntity
  8
LC-005-005-----0
 62
     7
370
    25
100
AcDbLine
 10
830.059655
 20
162.550853
 30
0.0
 11
833.059655
 21
165.550853
 31
0.0
  0
LINE
  5
1D5
330
1A3
100
AcDbEntity
  8
LC-005-005-----0
 62
     7
370
    25
100
AcDbLine
 10
830.059655
 20
165.37928
 30
0.0
 11
833.059655
 21
168.37928
 31
0.0
  0
LINE
  5
1D6
330
1A3
100
AcDbEntity
  8
LC-005-005-----0
 62
     7
370
    25
100
AcDbLine
 10
830.059655
 20
168.207708
 30
0.0
 11
833.059655
 21
171.207708
 31
0.0
  0
LINE
  5
1D7
330
1A3
100
AcDbEntity
  8
LC-005-005-----0
 62
     7
370
    25
100
AcDbLine
 10
830.059655
 20
171.036135
 30
0.0
 11
833.059655
 21
174.036135
 31
0.0
  0
LINE
  5
1D8
330
1A3
100
AcDbEntity
  8
LC-005-005-----0
 62
     7
370
    25
100
AcDbLine
 10
830.059655
 20
173.864562
 30
0.0
 11
833.059655
 21
176.864562
 31
0.0
  0
LINE
  5
1D9
330
1A3
100
AcDbEntity
  8
LC-005-005-----0
 62
     7
370
    25
100
AcDbLine
 10
830.059655
 20
176.692989
 30
0.0
 11
833.059655
 21
179.692989
 31
0.0
  0
LINE
  5
1DA
330
1A3
100
AcDbEntity
  8
LC-005-005-----0
 62
     7
370
    25
100
AcDbLine
 10
830.059655
 20
179.521416
 30
0.0
 11
833.059655
 21
182.521416
 31
0.0
  0
LINE
  5
1DB
330
1A3
100
AcDbEntity
  8
LC-005-005-----0
 62
     7
370
    25
100
AcDbLine
 10
830.059655
 20
182.349843
 30
0.0
 11
833.059655
 21
185.349843
 31
0.0
  0
LINE
  5
1DC
330
1A3
100
AcDbEntity
  8
LC-005-005-----0
 62
     7
370
    25
100
AcDbLine
 10
830.059655
 20
185.17827
 30
0.0
 11
833.059655
 21
188.17827
 31
0.0
  0
LINE
  5
1DD
330
1A3
100
AcDbEntity
  8
LC-005-005-----0
 62
     7
370
    25
100
AcDbLine
 10
830.059655
 20
188.006697
 30
0.0
 11
833.059655
 21
191.006697
 31
0.0
  0
LINE
  5
1DE
330
1A3
100
AcDbEntity
  8
LC-005-005-----0
 62
     7
370
    25
100
AcDbLine
 10
830.059655
 20
190.835125
 30
0.0
 11
833.059655
 21
193.835125
 31
0.0
  0
LINE
  5
1DF
330
1A3
100
AcDbEntity
  8
LC-005-005-----0
 62
     7
370
    25
100
AcDbLine
 10
830.059655
 20
193.663552
 30
0.0
 11
833.059655
 21
196.663552
 31
0.0
  0
LINE
  5
1E0
330
1A3
100
AcDbEntity
  8
LC-005-005-----0
 62
     7
370
    25
100
AcDbLine
 10
830.059655
 20
196.491979
 30
0.0
 11
833.059655
 21
199.491979
 31
0.0
  0
LINE
  5
1E1
330
1A3
100
AcDbEntity
  8
LC-005-005-----0
 62
     7
370
    25
100
AcDbLine
 10
830.059655
 20
199.320406
 30
0.0
 11
833.059655
 21
202.320406
 31
0.0
  0
LINE
  5
1E2
330
1A3
100
AcDbEntity
  8
LC-005-005-----0
 62
     7
370
    25
100
AcDbLine
 10
830.059655
 20
202.148833
 30
0.0
 11
833.059655
 21
205.148833
 31
0.0
  0
LINE
  5
1E3
330
1A3
100
AcDbEntity
  8
LC-005-005-----0
 62
     7
370
    25
100
AcDbLine
 10
830.059655
 20
204.97726
 30
0.0
 11
833.059655
 21
207.97726
 31
0.0
  0
LINE
  5
1E4
330
1A3
100
AcDbEntity
  8
LC-005-005-----0
 62
     7
370
    25
100
AcDbLine
 10
830.059655
 20
207.805687
 30
0.0
 11
833.059655
 21
210.805687
 31
0.0
  0
LINE
  5
1E5
330
1A3
100
AcDbEntity
  8
LC-005-005-----0
 62
     7
370
    25
100
AcDbLine
 10
830.059655
 20
210.634114
 30
0.0
 11
833.059655
 21
213.634114
 31
0.0
  0
LINE
  5
1E6
330
1A3
100
AcDbEntity
  8
LC-005-005-----0
 62
     7
370
    25
100
AcDbLine
 10
830.059655
 20
213.462542
 30
0.0
 11
833.059655
 21
216.462542
 31
0.0
  0
LINE
  5
1E7
330
1A3
100
AcDbEntity
  8
LC-005-005-----0
 62
     7
370
    25
100
AcDbLine
 10
830.059655
 20
216.290969
 30
0.0
 11
833.059655
 21
219.290969
 31
0.0
  0
LINE
  5
1E8
330
1A3
100
AcDbEntity
  8
LC-005-005-----0
 62
     7
370
    25
100
AcDbLine
 10
830.059655
 20
219.119396
 30
0.0
 11
833.059655
 21
222.119396
 31
0.0
  0
LINE
  5
1E9
330
1A3
100
AcDbEntity
  8
LC-005-005-----0
 62
     7
370
    25
100
AcDbLine
 10
830.059655
 20
221.947823
 30
0.0
 11
833.059655
 21
224.947823
 31
0.0
  0
LINE
  5
1EA
330
1A3
100
AcDbEntity
  8
LC-005-005-----0
 62
     7
370
    25
100
AcDbLine
 10
830.059655
 20
224.77625
 30
0.0
 11
833.059655
 21
227.77625
 31
0.0
  0
LINE
  5
1EB
330
1A3
100
AcDbEntity
  8
LC-005-005-----0
 62
     7
370
    25
100
AcDbLine
 10
830.059655
 20
227.604677
 30
0.0
 11
833.059655
 21
230.604677
 31
0.0
  0
LINE
  5
1EC
330
1A3
100
AcDbEntity
  8
LC-005-005-----0
 62
     7
370
    25
100
AcDbLine
 10
830.059655
 20
230.433104
 30
0.0
 11
833.059655
 21
233.433104
 31
0.0
  0
LINE
  5
1ED
330
1A3
100
AcDbEntity
  8
LC-005-005-----0
 62
     7
370
    25
100
AcDbLine
 10
830.059655
 20
233.261531
 30
0.0
 11
833.059655
 21
236.261531
 31
0.0
  0
LINE
  5
1EE
330
1A3
100
AcDbEntity
  8
LC-005-005-----0
 62
     7
370
    25
100
AcDbLine
 10
830.059655
 20
236.089959
 30
0.0
 11
833.059655
 21
239.089959
 31
0.0
  0
LINE
  5
1EF
330
1A3
100
AcDbEntity
  8
LC-005-005-----0
 62
     7
370
    25
100
AcDbLine
 10
830.059655
 20
238.918386
 30
0.0
 11
833.059655
 21
241.918386
 31
0.0
  0
LINE
  5
1F0
330
1A3
100
AcDbEntity
  8
LC-005-005-----0
 62
     7
370
    25
100
AcDbLine
 10
830.059655
 20
241.746813
 30
0.0
 11
833.059655
 21
244.746813
 31
0.0
  0
LINE
  5
1F1
330
1A3
100
AcDbEntity
  8
LC-005-005-----0
 62
     7
370
    25
100
AcDbLine
 10
830.059655
 20
244.57524
 30
0.0
 11
833.059655
 21
247.57524
 31
0.0
  0
LINE
  5
1F2
330
1A3
100
AcDbEntity
  8
LC-005-005-----0
 62
     7
370
    25
100
AcDbLine
 10
830.059655
 20
247.403667
 30
0.0
 11
833.059655
 21
250.403667
 31
0.0
  0
LINE
  5
1F3
330
1A3
100
AcDbEntity
  8
LC-005-005-----0
 62
     7
370
    25
100
AcDbLine
 10
830.059655
 20
250.232094
 30
0.0
 11
833.059655
 21
253.232094
 31
0.0
  0
LINE
  5
1F4
330
1A3
100
AcDbEntity
  8
LC-005-005-----0
 62
     7
370
    25
100
AcDbLine
 10
830.059655
 20
253.060521
 30
0.0
 11
833.059655
 21
256.060521
 31
0.0
  0
LINE
  5
1F5
330
1A3
100
AcDbEntity
  8
LC-005-005-----0
 62
     7
370
    25
100
AcDbLine
 10
830.059655
 20
255.888948
 30
0.0
 11
833.059655
 21
258.888948
 31
0.0
  0
LINE
  5
1F6
330
1A3
100
AcDbEntity
  8
LC-005-005-----0
 62
     7
370
    25
100
AcDbLine
 10
830.059655
 20
258.717376
 30
0.0
 11
833.059655
 21
261.717376
 31
0.0
  0
LINE
  5
1F7
330
1A3
100
AcDbEntity
  8
LC-005-005-----0
 62
     7
370
    25
100
AcDbLine
 10
830.059655
 20
261.545803
 30
0.0
 11
833.059655
 21
264.545803
 31
0.0
  0
LINE
  5
1F8
330
1A3
100
AcDbEntity
  8
LC-005-005-----0
 62
     7
370
    25
100
AcDbLine
 10
830.059655
 20
264.37423
 30
0.0
 11
833.059655
 21
267.37423
 31
0.0
  0
LINE
  5
1F9
330
1A3
100
AcDbEntity
  8
LC-005-005-----0
 62
     7
370
    25
100
AcDbLine
 10
830.059655
 20
267.202657
 30
0.0
 11
833.059655
 21
270.202657
 31
0.0
  0
LINE
  5
1FA
330
1A3
100
AcDbEntity
  8
LC-005-005-----0
 62
     7
370
    25
100
AcDbLine
 10
830.059655
 20
270.031084
 30
0.0
 11
833.059655
 21
273.031084
 31
0.0
  0
LINE
  5
1FB
330
1A3
100
AcDbEntity
  8
LC-005-005-----0
 62
     7
370
    25
100
AcDbLine
 10
830.059655
 20
272.859511
 30
0.0
 11
833.059655
 21
275.859511
 31
0.0
  0
LINE
  5
1FC
330
1A3
100
AcDbEntity
  8
LC-005-005-----0
 62
     7
370
    25
100
AcDbLine
 10
830.059655
 20
275.687938
 30
0.0
 11
833.059655
 21
278.687938
 31
0.0
  0
LINE
  5
1FD
330
1A3
100
AcDbEntity
  8
LC-005-005-----0
 62
     7
370
    25
100
AcDbLine
 10
830.059655
 20
278.516365
 30
0.0
 11
833.059655
 21
281.516365
 31
0.0
  0
LINE
  5
1FE
330
1A3
100
AcDbEntity
  8
LC-005-005-----0
 62
     7
370
    25
100
AcDbLine
 10
830.059655
 20
281.344793
 30
0.0
 11
833.059655
 21
284.344793
 31
0.0
  0
LINE
  5
1FF
330
1A3
100
AcDbEntity
  8
LC-005-005-----0
 62
     7
370
    25
100
AcDbLine
 10
830.059655
 20
284.17322
 30
0.0
 11
833.059655
 21
287.17322
 31
0.0
  0
LINE
  5
200
330
1A3
100
AcDbEntity
  8
LC-005-005-----0
 62
     7
370
    25
100
AcDbLine
 10
830.059655
 20
287.001647
 30
0.0
 11
833.059655
 21
290.001647
 31
0.0
  0
LINE
  5
201
330
1A3
100
AcDbEntity
  8
LC-005-005-----0
 62
     7
370
    25
100
AcDbLine
 10
830.059655
 20
289.830074
 30
0.0
 11
833.059655
 21
292.830074
 31
0.0
  0
LINE
  5
202
330
1A3
100
AcDbEntity
  8
LC-005-005-----0
 62
     7
370
    25
100
AcDbLine
 10
830.059655
 20
292.658501
 30
0.0
 11
833.059655
 21
295.658501
 31
0.0
  0
LINE
  5
203
330
1A3
100
AcDbEntity
  8
LC-005-005-----0
 62
     7
370
    25
100
AcDbLine
 10
830.059655
 20
295.486928
 30
0.0
 11
833.059655
 21
298.486928
 31
0.0
  0
LINE
  5
204
330
1A3
100
AcDbEntity
  8
LC-005-005-----0
 62
     7
370
    25
100
AcDbLine
 10
830.059655
 20
298.315355
 30
0.0
 11
833.059655
 21
301.315355
 31
0.0
  0
LINE
  5
205
330
1A3
100
AcDbEntity
  8
LC-005-005-----0
 62
     7
370
    25
100
AcDbLine
 10
830.059655
 20
301.143782
 30
0.0
 11
833.059655
 21
304.143782
 31
0.0
  0
LINE
  5
206
330
1A3
100
AcDbEntity
  8
LC-005-005-----0
 62
     7
370
    25
100
AcDbLine
 10
830.059655
 20
303.97221
 30
0.0
 11
833.059655
 21
306.97221
 31
0.0
  0
LINE
  5
207
330
1A3
100
AcDbEntity
  8
LC-005-005-----0
 62
     7
370
    25
100
AcDbLine
 10
830.059655
 20
306.800637
 30
0.0
 11
833.059655
 21
309.800637
 31
0.0
  0
LINE
  5
208
330
1A3
100
AcDbEntity
  8
LC-005-005-----0
 62
     7
370
    25
100
AcDbLine
 10
830.059655
 20
309.629064
 30
0.0
 11
833.059655
 21
312.629064
 31
0.0
  0
LINE
  5
209
330
1A3
100
AcDbEntity
  8
LC-005-005-----0
 62
     7
370
    25
100
AcDbLine
 10
830.059655
 20
312.457491
 30
0.0
 11
833.059655
 21
315.457491
 31
0.0
  0
LINE
  5
20A
330
1A3
100
AcDbEntity
  8
LC-005-005-----0
 62
     7
370
    25
100
AcDbLine
 10
830.059655
 20
315.285918
 30
0.0
 11
833.059655
 21
318.285918
 31
0.0
  0
LINE
  5
20B
330
1A3
100
AcDbEntity
  8
LC-005-005-----0
 62
     7
370
    25
100
AcDbLine
 10
830.059655
 20
318.114345
 30
0.0
 11
833.059655
 21
321.114345
 31
0.0
  0
LINE
  5
20C
330
1A3
100
AcDbEntity
  8
LC-005-005-----0
 62
     7
370
    25
100
AcDbLine
 10
830.059655
 20
320.942772
 30
0.0
 11
833.059655
 21
323.942772
 31
0.0
  0
LINE
  5
20D
330
1A3
100
AcDbEntity
  8
LC-005-005-----0
 62
     7
370
    25
100
AcDbLine
 10
830.059655
 20
323.771199
 30
0.0
 11
833.059655
 21
326.771199
 31
0.0
  0
LINE
  5
20E
330
1A3
100
AcDbEntity
  8
LC-005-005-----0
 62
     7
370
    25
100
AcDbLine
 10
830.059655
 20
326.599627
 30
0.0
 11
833.059655
 21
329.599627
 31
0.0
  0
LINE
  5
20F
330
1A3
100
AcDbEntity
  8
LC-005-005-----0
 62
     7
370
    25
100
AcDbLine
 10
830.059655
 20
329.428054
 30
0.0
 11
833.059655
 21
332.428054
 31
0.0
  0
LINE
  5
210
330
1A3
100
AcDbEntity
  8
LC-005-005-----0
 62
     7
370
    25
100
AcDbLine
 10
830.059655
 20
332.256481
 30
0.0
 11
833.059655
 21
335.256481
 31
0.0
  0
LINE
  5
211
330
1A3
100
AcDbEntity
  8
LC-005-005-----0
 62
     7
370
    25
100
AcDbLine
 10
830.059655
 20
335.084908
 30
0.0
 11
833.059655
 21
338.084908
 31
0.0
  0
LINE
  5
212
330
1A3
100
AcDbEntity
  8
LC-005-005-----0
 62
     7
370
    25
100
AcDbLine
 10
830.059655
 20
337.913335
 30
0.0
 11
833.059655
 21
340.913335
 31
0.0
  0
LINE
  5
213
330
1A3
100
AcDbEntity
  8
LC-005-005-----0
 62
     7
370
    25
100
AcDbLine
 10
830.059655
 20
340.741762
 30
0.0
 11
833.059655
 21
343.741762
 31
0.0
  0
LINE
  5
214
330
1A3
100
AcDbEntity
  8
LC-005-005-----0
 62
     7
370
    25
100
AcDbLine
 10
830.059655
 20
343.570189
 30
0.0
 11
833.059655
 21
346.570189
 31
0.0
  0
LINE
  5
215
330
1A3
100
AcDbEntity
  8
LC-005-005-----0
 62
     7
370
    25
100
AcDbLine
 10
830.059655
 20
346.398616
 30
0.0
 11
833.059655
 21
349.398616
 31
0.0
  0
LINE
  5
216
330
1A3
100
AcDbEntity
  8
LC-005-005-----0
 62
     7
370
    25
100
AcDbLine
 10
830.059655
 20
349.227044
 30
0.0
 11
833.059655
 21
352.227044
 31
0.0
  0
LINE
  5
217
330
1A3
100
AcDbEntity
  8
LC-005-005-----0
 62
     7
370
    25
100
AcDbLine
 10
830.059655
 20
352.055471
 30
0.0
 11
833.059655
 21
355.055471
 31
0.0
  0
LINE
  5
218
330
1A3
100
AcDbEntity
  8
LC-005-005-----0
 62
     7
370
    25
100
AcDbLine
 10
830.059655
 20
354.883898
 30
0.0
 11
833.059655
 21
357.883898
 31
0.0
  0
LINE
  5
219
330
1A3
100
AcDbEntity
  8
LC-005-005-----0
 62
     7
370
    25
100
AcDbLine
 10
830.059655
 20
357.712325
 30
0.0
 11
833.059655
 21
360.712325
 31
0.0
  0
LINE
  5
21A
330
1A3
100
AcDbEntity
  8
LC-005-005-----0
 62
     7
370
    25
100
AcDbLine
 10
962.413244
 20
490.065914
 30
0.0
 11
964.639569
 21
492.292239
 31
0.0
  0
LINE
  5
21B
330
1A3
100
AcDbEntity
  8
LC-005-005-----0
 62
     7
370
    25
100
AcDbLine
 10
830.059655
 20
360.540752
 30
0.0
 11
833.059655
 21
363.540752
 31
0.0
  0
LINE
  5
21C
330
1A3
100
AcDbEntity
  8
LC-005-005-----0
 62
     7
370
    25
100
AcDbLine
 10
959.584817
 20
490.065914
 30
0.0
 11
962.584817
 21
493.065914
 31
0.0
  0
LINE
  5
21D
330
1A3
100
AcDbEntity
  8
LC-005-005-----0
 62
     7
370
    25
100
AcDbLine
 10
830.059655
 20
363.369179
 30
0.0
 11
833.059655
 21
366.369179
 31
0.0
  0
LINE
  5
21E
330
1A3
100
AcDbEntity
  8
LC-005-005-----0
 62
     7
370
    25
100
AcDbLine
 10
956.75639
 20
490.065914
 30
0.0
 11
959.75639
 21
493.065914
 31
0.0
  0
LINE
  5
21F
330
1A3
100
AcDbEntity
  8
LC-005-005-----0
 62
     7
370
    25
100
AcDbLine
 10
830.059655
 20
366.197606
 30
0.0
 11
833.059655
 21
369.197606
 31
0.0
  0
LINE
  5
220
330
1A3
100
AcDbEntity
  8
LC-005-005-----0
 62
     7
370
    25
100
AcDbLine
 10
953.927962
 20
490.065914
 30
0.0
 11
956.927962
 21
493.065914
 31
0.0
  0
LINE
  5
221
330
1A3
100
AcDbEntity
  8
LC-005-005-----0
 62
     7
370
    25
100
AcDbLine
 10
830.059655
 20
369.026033
 30
0.0
 11
833.059655
 21
372.026033
 31
0.0
  0
LINE
  5
222
330
1A3
100
AcDbEntity
  8
LC-005-005-----0
 62
     7
370
    25
100
AcDbLine
 10
951.099535
 20
490.065914
 30
0.0
 11
954.099535
 21
493.065914
 31
0.0
  0
LINE
  5
223
330
1A3
100
AcDbEntity
  8
LC-005-005-----0
 62
     7
370
    25
100
AcDbLine
 10
830.059655
 20
371.854461
 30
0.0
 11
833.059655
 21
374.854461
 31
0.0
  0
LINE
  5
224
330
1A3
100
AcDbEntity
  8
LC-005-005-----0
 62
     7
370
    25
100
AcDbLine
 10
948.271108
 20
490.065914
 30
0.0
 11
951.271108
 21
493.065914
 31
0.0
  0
LINE
  5
225
330
1A3
100
AcDbEntity
  8
LC-005-005-----0
 62
     7
370
    25
100
AcDbLine
 10
830.059655
 20
374.682888
 30
0.0
 11
833.059655
 21
377.682888
 31
0.0
  0
LINE
  5
226
330
1A3
100
AcDbEntity
  8
LC-005-005-----0
 62
     7
370
    25
100
AcDbLine
 10
945.442681
 20
490.065914
 30
0.0
 11
948.442681
 21
493.065914
 31
0.0
  0
LINE
  5
227
330
1A3
100
AcDbEntity
  8
LC-005-005-----0
 62
     7
370
    25
100
AcDbLine
 10
830.059655
 20
377.511315
 30
0.0
 11
833.059655
 21
380.511315
 31
0.0
  0
LINE
  5
228
330
1A3
100
AcDbEntity
  8
LC-005-005-----0
 62
     7
370
    25
100
AcDbLine
 10
846.613908
 20
394.065568
 30
0.0
 11
851.05966
 21
398.51132
 31
0.0
  0
LINE
  5
229
330
1A3
100
AcDbEntity
  8
LC-005-005-----0
 62
     7
370
    25
100
AcDbLine
 10
942.614254
 20
490.065914
 30
0.0
 11
945.614254
 21
493.065914
 31
0.0
  0
LINE
  5
22A
330
1A3
100
AcDbEntity
  8
LC-005-005-----0
 62
     7
370
    25
100
AcDbLine
 10
830.059655
 20
380.339742
 30
0.0
 11
833.059655
 21
383.339742
 31
0.0
  0
LINE
  5
22B
330
1A3
100
AcDbEntity
  8
LC-005-005-----0
 62
     7
370
    25
100
AcDbLine
 10
843.785481
 20
394.065568
 30
0.0
 11
846.785481
 21
397.065568
 31
0.0
  0
LINE
  5
22C
330
1A3
100
AcDbEntity
  8
LC-005-005-----0
 62
     7
370
    25
100
AcDbLine
 10
848.05966
 20
398.339747
 30
0.0
 11
851.05966
 21
401.339747
 31
0.0
  0
LINE
  5
22D
330
1A3
100
AcDbEntity
  8
LC-005-005-----0
 62
     7
370
    25
100
AcDbLine
 10
939.785827
 20
490.065914
 30
0.0
 11
942.785827
 21
493.065914
 31
0.0
  0
LINE
  5
22E
330
1A3
100
AcDbEntity
  8
LC-005-005-----0
 62
     7
370
    25
100
AcDbLine
 10
830.059655
 20
383.168169
 30
0.0
 11
833.059655
 21
386.168169
 31
0.0
  0
LINE
  5
22F
330
1A3
100
AcDbEntity
  8
LC-005-005-----0
 62
     7
370
    25
100
AcDbLine
 10
840.957054
 20
394.065568
 30
0.0
 11
843.957054
 21
397.065568
 31
0.0
  0
LINE
  5
230
330
1A3
100
AcDbEntity
  8
LC-005-005-----0
 62
     7
370
    25
100
AcDbLine
 10
848.05966
 20
401.168174
 30
0.0
 11
851.05966
 21
404.168174
 31
0.0
  0
LINE
  5
231
330
1A3
100
AcDbEntity
  8
LC-005-005-----0
 62
     7
370
    25
100
AcDbLine
 10
936.9574
 20
490.065914
 30
0.0
 11
939.9574
 21
493.065914
 31
0.0
  0
LINE
  5
232
330
1A3
100
AcDbEntity
  8
LC-005-005-----0
 62
     7
370
    25
100
AcDbLine
 10
830.059655
 20
385.996596
 30
0.0
 11
833.059655
 21
388.996596
 31
0.0
  0
LINE
  5
233
330
1A3
100
AcDbEntity
  8
LC-005-005-----0
 62
     7
370
    25
100
AcDbLine
 10
838.128627
 20
394.065568
 30
0.0
 11
841.128627
 21
397.065568
 31
0.0
  0
LINE
  5
234
330
1A3
100
AcDbEntity
  8
LC-005-005-----0
 62
     7
370
    25
100
AcDbLine
 10
848.05966
 20
403.996601
 30
0.0
 11
851.05966
 21
406.996601
 31
0.0
  0
LINE
  5
235
330
1A3
100
AcDbEntity
  8
LC-005-005-----0
 62
     7
370
    25
100
AcDbLine
 10
934.128973
 20
490.065914
 30
0.0
 11
937.128973
 21
493.065914
 31
0.0
  0
LINE
  5
236
330
1A3
100
AcDbEntity
  8
LC-005-005-----0
 62
     7
370
    25
100
AcDbLine
 10
830.059655
 20
388.825023
 30
0.0
 11
833.059655
 21
391.825023
 31
0.0
  0
LINE
  5
237
330
1A3
100
AcDbEntity
  8
LC-005-005-----0
 62
     7
370
    25
100
AcDbLine
 10
835.3002
 20
394.065568
 30
0.0
 11
838.3002
 21
397.065568
 31
0.0
  0
LINE
  5
238
330
1A3
100
AcDbEntity
  8
LC-005-005-----0
 62
     7
370
    25
100
AcDbLine
 10
848.05966
 20
406.825028
 30
0.0
 11
851.05966
 21
409.825028
 31
0.0
  0
LINE
  5
239
330
1A3
100
AcDbEntity
  8
LC-005-005-----0
 62
     7
370
    25
100
AcDbLine
 10
931.300545
 20
490.065914
 30
0.0
 11
934.300545
 21
493.065914
 31
0.0
  0
LINE
  5
23A
330
1A3
100
AcDbEntity
  8
LC-005-005-----0
 62
     7
370
    25
100
AcDbLine
 10
830.059655
 20
391.65345
 30
0.0
 11
835.471773
 21
397.065568
 31
0.0
  0
LINE
  5
23B
330
1A3
100
AcDbEntity
  8
LC-005-005-----0
 62
     7
370
    25
100
AcDbLine
 10
848.05966
 20
409.653455
 30
0.0
 11
851.05966
 21
412.653455
 31
0.0
  0
LINE
  5
23C
330
1A3
100
AcDbEntity
  8
LC-005-005-----0
 62
     7
370
    25
100
AcDbLine
 10
928.472118
 20
490.065914
 30
0.0
 11
931.472118
 21
493.065914
 31
0.0
  0
LINE
  5
23D
330
1A3
100
AcDbEntity
  8
LC-005-005-----0
 62
     7
370
    25
100
AcDbLine
 10
830.059655
 20
394.481878
 30
0.0
 11
832.643345
 21
397.065568
 31
0.0
  0
LINE
  5
23E
330
1A3
100
AcDbEntity
  8
LC-005-005-----0
 62
     7
370
    25
100
AcDbLine
 10
848.05966
 20
412.481883
 30
0.0
 11
851.05966
 21
415.481883
 31
0.0
  0
LINE
  5
23F
330
1A3
100
AcDbEntity
  8
LC-005-005-----0
 62
     7
370
    25
100
AcDbLine
 10
925.643691
 20
490.065914
 30
0.0
 11
928.643691
 21
493.065914
 31
0.0
  0
LINE
  5
240
330
1A3
100
AcDbEntity
  8
LC-005-005-----0
 62
     7
370
    25
100
AcDbLine
 10
848.05966
 20
415.31031
 30
0.0
 11
851.05966
 21
418.31031
 31
0.0
  0
LINE
  5
241
330
1A3
100
AcDbEntity
  8
LC-005-005-----0
 62
     7
370
    25
100
AcDbLine
 10
922.815264
 20
490.065914
 30
0.0
 11
925.815264
 21
493.065914
 31
0.0
  0
LINE
  5
242
330
1A3
100
AcDbEntity
  8
LC-005-005-----0
 62
     7
370
    25
100
AcDbLine
 10
848.05966
 20
418.138737
 30
0.0
 11
851.05966
 21
421.138737
 31
0.0
  0
LINE
  5
243
330
1A3
100
AcDbEntity
  8
LC-005-005-----0
 62
     7
370
    25
100
AcDbLine
 10
919.986837
 20
490.065914
 30
0.0
 11
922.986837
 21
493.065914
 31
0.0
  0
LINE
  5
244
330
1A3
100
AcDbEntity
  8
LC-005-005-----0
 62
     7
370
    25
100
AcDbLine
 10
848.05966
 20
420.967164
 30
0.0
 11
851.05966
 21
423.967164
 31
0.0
  0
LINE
  5
245
330
1A3
100
AcDbEntity
  8
LC-005-005-----0
 62
     7
370
    25
100
AcDbLine
 10
917.15841
 20
490.065914
 30
0.0
 11
920.15841
 21
493.065914
 31
0.0
  0
LINE
  5
246
330
1A3
100
AcDbEntity
  8
LC-005-005-----0
 62
     7
370
    25
100
AcDbLine
 10
848.05966
 20
423.795591
 30
0.0
 11
851.05966
 21
426.795591
 31
0.0
  0
LINE
  5
247
330
1A3
100
AcDbEntity
  8
LC-005-005-----0
 62
     7
370
    25
100
AcDbLine
 10
882.571194
 20
458.307125
 30
0.0
 11
885.06311
 21
460.799041
 31
0.0
  0
LINE
  5
248
330
1A3
100
AcDbEntity
  8
LC-005-005-----0
 62
     7
370
    25
100
AcDbLine
 10
913.185323
 20
488.921254
 30
0.0
 11
917.329983
 21
493.065914
 31
0.0
  0
LINE
  5
249
330
1A3
100
AcDbEntity
  8
LC-005-005-----0
 62
     7
370
    25
100
AcDbLine
 10
848.05966
 20
426.624018
 30
0.0
 11
851.05966
 21
429.624018
 31
0.0
  0
LINE
  5
24A
330
1A3
100
AcDbEntity
  8
LC-005-005-----0
 62
     7
370
    25
100
AcDbLine
 10
879.742779
 20
458.307137
 30
0.0
 11
885.063122
 21
463.62748
 31
0.0
  0
LINE
  5
24B
330
1A3
100
AcDbEntity
  8
LC-005-005-----0
 62
     7
370
    25
100
AcDbLine
 10
887.803331
 20
466.36769
 30
0.0
 11
888.004162
 21
466.568521
 31
0.0
  0
LINE
  5
24C
330
1A3
100
AcDbEntity
  8
LC-005-005-----0
 62
     7
370
    25
100
AcDbLine
 10
908.738353
 20
487.302711
 30
0.0
 11
913.757778
 21
492.322136
 31
0.0
  0
LINE
  5
24D
330
1A3
100
AcDbEntity
  8
LC-005-005-----0
 62
     7
370
    25
100
AcDbLine
 10
848.05966
 20
429.452445
 30
0.0
 11
854.57452
 21
435.967305
 31
0.0
  0
LINE
  5
24E
330
1A3
100
AcDbEntity
  8
LC-005-005-----0
 62
     7
370
    25
100
AcDbLine
 10
866.864811
 20
448.257597
 30
0.0
 11
868.617972
 21
450.010757
 31
0.0
  0
LINE
  5
24F
330
1A3
100
AcDbEntity
  8
LC-005-005-----0
 62
     7
370
    25
100
AcDbLine
 10
879.063108
 20
460.455894
 30
0.0
 11
888.064769
 21
469.457555
 31
0.0
  0
LINE
  5
250
330
1A3
100
AcDbEntity
  8
LC-005-005-----0
 62
     7
370
    25
100
AcDbLine
 10
904.291383
 20
485.684168
 30
0.0
 11
909.310808
 21
490.703593
 31
0.0
  0
LINE
  5
251
330
1A3
100
AcDbEntity
  8
LC-005-005-----0
 62
     7
370
    25
100
AcDbLine
 10
850.242071
 20
434.463283
 30
0.0
 11
858.438223
 21
442.659436
 31
0.0
  0
LINE
  5
252
330
1A3
100
AcDbEntity
  8
LC-005-005-----0
 62
     7
370
    25
100
AcDbLine
 10
863.844701
 20
448.065914
 30
0.0
 11
868.809655
 21
453.030867
 31
0.0
  0
LINE
  5
253
330
1A3
100
AcDbEntity
  8
LC-005-005-----0
 62
     7
370
    25
100
AcDbLine
 10
879.063121
 20
463.284333
 30
0.0
 11
888.064786
 21
472.285999
 31
0.0
  0
LINE
  5
254
330
1A3
100
AcDbEntity
  8
LC-005-005-----0
 62
     7
370
    25
100
AcDbLine
 10
899.844413
 20
484.065625
 30
0.0
 11
904.863838
 21
489.08505
 31
0.0
  0
LINE
  5
255
330
1A3
100
AcDbEntity
  8
LC-005-005-----0
 62
     7
370
    25
100
AcDbLine
 10
854.105774
 20
441.155414
 30
0.0
 11
864.016274
 21
451.065914
 31
0.0
  0
LINE
  5
256
330
1A3
100
AcDbEntity
  8
LC-005-005-----0
 62
     7
370
    25
100
AcDbLine
 10
865.809655
 20
452.859295
 30
0.0
 11
868.809655
 21
455.859295
 31
0.0
  0
LINE
  5
257
330
1A3
100
AcDbEntity
  8
LC-005-005-----0
 62
     7
370
    25
100
AcDbLine
 10
878.660322
 20
465.709962
 30
0.0
 11
884.758356
 21
471.807996
 31
0.0
  0
LINE
  5
258
330
1A3
100
AcDbEntity
  8
LC-005-005-----0
 62
     7
370
    25
100
AcDbLine
 10
884.813672
 20
471.863312
 30
0.0
 11
888.064803
 21
475.114443
 31
0.0
  0
LINE
  5
259
330
1A3
100
AcDbEntity
  8
LC-005-005-----0
 62
     7
370
    25
100
AcDbLine
 10
895.397443
 20
482.447082
 30
0.0
 11
900.416868
 21
487.466507
 31
0.0
  0
LINE
  5
25A
330
1A3
100
AcDbEntity
  8
LC-005-005-----0
 62
     7
370
    25
100
AcDbLine
 10
857.969477
 20
447.847544
 30
0.0
 11
861.187847
 21
451.065914
 31
0.0
  0
LINE
  5
25B
330
1A3
100
AcDbEntity
  8
LC-005-005-----0
 62
     7
370
    25
100
AcDbLine
 10
865.809655
 20
455.687722
 30
0.0
 11
868.809655
 21
458.687722
 31
0.0
  0
LINE
  5
25C
330
1A3
100
AcDbEntity
  8
LC-005-005-----0
 62
     7
370
    25
100
AcDbLine
 10
876.443384
 20
466.321451
 30
0.0
 11
881.930204
 21
471.808271
 31
0.0
  0
LINE
  5
25D
330
1A3
100
AcDbEntity
  8
LC-005-005-----0
 62
     7
370
    25
100
AcDbLine
 10
884.813947
 20
474.692014
 30
0.0
 11
888.06482
 21
477.942887
 31
0.0
  0
LINE
  5
25E
330
1A3
100
AcDbEntity
  8
LC-005-005-----0
 62
     7
370
    25
100
AcDbLine
 10
891.432267
 20
481.310334
 30
0.0
 11
895.969898
 21
485.847964
 31
0.0
  0
LINE
  5
25F
330
1A3
100
AcDbEntity
  8
LC-005-005-----0
 62
     7
370
    25
100
AcDbLine
 10
865.809655
 20
458.516149
 30
0.0
 11
868.809655
 21
461.516149
 31
0.0
  0
LINE
  5
260
330
1A3
100
AcDbEntity
  8
LC-005-005-----0
 62
     7
370
    25
100
AcDbLine
 10
871.85942
 20
464.565914
 30
0.0
 11
873.559656
 21
466.26615
 31
0.0
  0
LINE
  5
261
330
1A3
100
AcDbEntity
  8
LC-005-005-----0
 62
     7
370
    25
100
AcDbLine
 10
876.06198
 20
468.768474
 30
0.0
 11
879.313688
 21
472.020182
 31
0.0
  0
LINE
  5
262
330
1A3
100
AcDbEntity
  8
LC-005-005-----0
 62
     7
370
    25
100
AcDbLine
 10
884.814221
 20
477.520715
 30
0.0
 11
891.603624
 21
484.310119
 31
0.0
  0
LINE
  5
263
330
1A3
100
AcDbEntity
  8
LC-005-005-----0
 62
     7
370
    25
100
AcDbLine
 10
865.809655
 20
461.344576
 30
0.0
 11
873.559656
 21
469.094577
 31
0.0
  0
LINE
  5
264
330
1A3
100
AcDbEntity
  8
LC-005-005-----0
 62
     7
370
    25
100
AcDbLine
 10
876.062511
 20
471.597432
 30
0.0
 11
879.313962
 21
474.848883
 31
0.0
  0
LINE
  5
265
330
1A3
100
AcDbEntity
  8
LC-005-005-----0
 62
     7
370
    25
100
AcDbLine
 10
885.219659
 20
480.75458
 30
0.0
 11
888.774311
 21
484.309232
 31
0.0
  0
LINE
  5
266
330
1A3
100
AcDbEntity
  8
LC-005-005-----0
 62
     7
370
    25
100
AcDbLine
 10
865.809655
 20
464.173003
 30
0.0
 11
869.202566
 21
467.565914
 31
0.0
  0
LINE
  5
267
330
1A3
100
AcDbEntity
  8
LC-005-005-----0
 62
     7
370
    25
100
AcDbLine
 10
870.559656
 20
468.923004
 30
0.0
 11
873.559656
 21
471.923004
 31
0.0
  0
LINE
  5
268
330
1A3
100
AcDbEntity
  8
LC-005-005-----0
 62
     7
370
    25
100
AcDbLine
 10
876.063043
 20
474.426391
 30
0.0
 11
879.314236
 21
477.677584
 31
0.0
  0
LINE
  5
269
330
1A3
100
AcDbEntity
  8
LC-005-005-----0
 62
     7
370
    25
100
AcDbLine
 10
885.219781
 20
483.583129
 30
0.0
 11
885.944997
 21
484.308345
 31
0.0
  0
LINE
  5
26A
330
1A3
100
AcDbEntity
  8
LC-005-005-----0
 62
     7
370
    25
100
AcDbLine
 10
865.809655
 20
467.00143
 30
0.0
 11
866.374139
 21
467.565914
 31
0.0
  0
LINE
  5
26B
330
1A3
100
AcDbEntity
  8
LC-005-005-----0
 62
     7
370
    25
100
AcDbLine
 10
870.559656
 20
471.751431
 30
0.0
 11
873.559656
 21
474.751431
 31
0.0
  0
LINE
  5
26C
330
1A3
100
AcDbEntity
  8
LC-005-005-----0
 62
     7
370
    25
100
AcDbLine
 10
876.063574
 20
477.25535
 30
0.0
 11
879.099797
 21
480.291572
 31
0.0
  0
LINE
  5
26D
330
1A3
100
AcDbEntity
  8
LC-005-005-----0
 62
     7
370
    25
100
AcDbLine
 10
870.559656
 20
474.579858
 30
0.0
 11
873.559656
 21
477.579858
 31
0.0
  0
LINE
  5
26E
330
1A3
100
AcDbEntity
  8
LC-005-005-----0
 62
     7
370
    25
100
AcDbLine
 10
876.064106
 20
480.084308
 30
0.0
 11
878.919753
 21
482.939956
 31
0.0
  0
LINE
  5
26F
330
1A3
100
AcDbEntity
  8
LC-005-005-----0
 62
     7
370
    25
100
AcDbLine
 10
870.559656
 20
477.408285
 30
0.0
 11
873.559656
 21
480.408285
 31
0.0
  0
LINE
  5
270
330
1A3
100
AcDbEntity
  8
LC-005-005-----0
 62
     7
370
    25
100
AcDbLine
 10
874.463189
 20
481.311818
 30
0.0
 11
877.460075
 21
484.308705
 31
0.0
  0
LINE
  5
271
330
1A3
100
AcDbEntity
  8
LC-005-005-----0
 62
     7
370
    25
100
AcDbLine
 10
870.559656
 20
480.236713
 30
0.0
 11
874.631922
 21
484.308979
 31
0.0
  0
LINE
  5
272
330
1A3
100
AcDbEntity
  8
LC-005-005-----0
 62
     7
370
    25
100
AcDbLine
 10
870.559656
 20
483.06514
 30
0.0
 11
871.80377
 21
484.309254
 31
0.0
  0
ENDBLK
  5
1A5
330
1A3
100
AcDbEntity
  8
0
100
AcDbBlockEnd
  0
BLOCK
  5
285
330
284
100
AcDbEntity
  8
0
100
AcDbBlockBegin
  2
*X35
 70
     1
 71
     0
 10
0.0
 20
0.0
 30
0.0
  3
*X35
  1

  4
*X3
  0
LINE
  5
287
330
284
100
AcDbEntity
  8
LC-005-005-----0
 62
     7
370
    25
100
AcDbLine
 10
716.053266
 20
467.151679
 30
0.0
 11
717.059885
 21
468.158298
 31
0.0
  0
LINE
  5
288
330
284
100
AcDbEntity
  8
LC-005-005-----0
 62
     7
370
    25
100
AcDbLine
 10
713.294128
 20
467.220968
 30
0.0
 11
717.059881
 21
470.986721
 31
0.0
  0
LINE
  5
289
330
284
100
AcDbEntity
  8
LC-005-005-----0
 62
     7
370
    25
100
AcDbLine
 10
714.159881
 20
470.915148
 30
0.0
 11
717.059877
 21
473.815144
 31
0.0
  0
LINE
  5
28A
330
284
100
AcDbEntity
  8
LC-005-005-----0
 62
     7
370
    25
100
AcDbLine
 10
714.159877
 20
473.743572
 30
0.0
 11
717.059873
 21
476.643568
 31
0.0
  0
LINE
  5
28B
330
284
100
AcDbEntity
  8
LC-005-005-----0
 62
     7
370
    25
100
AcDbLine
 10
714.159873
 20
476.571995
 30
0.0
 11
717.059869
 21
479.471991
 31
0.0
  0
LINE
  5
28C
330
284
100
AcDbEntity
  8
LC-005-005-----0
 62
     7
370
    25
100
AcDbLine
 10
714.159869
 20
479.400418
 30
0.0
 11
717.059865
 21
482.300414
 31
0.0
  0
LINE
  5
28D
330
284
100
AcDbEntity
  8
LC-005-005-----0
 62
     7
370
    25
100
AcDbLine
 10
714.159866
 20
482.228841
 30
0.0
 11
717.059862
 21
485.128837
 31
0.0
  0
LINE
  5
28E
330
284
100
AcDbEntity
  8
LC-005-005-----0
 62
     7
370
    25
100
AcDbLine
 10
714.159862
 20
485.057265
 30
0.0
 11
717.059858
 21
487.957261
 31
0.0
  0
LINE
  5
28F
330
284
100
AcDbEntity
  8
LC-005-005-----0
 62
     7
370
    25
100
AcDbLine
 10
717.554276
 20
488.451679
 30
0.0
 11
717.559857
 21
488.45726
 31
0.0
  0
LINE
  5
290
330
284
100
AcDbEntity
  8
LC-005-005-----0
 62
     7
370
    25
100
AcDbLine
 10
714.159858
 20
487.885688
 30
0.0
 11
717.559853
 21
491.285683
 31
0.0
  0
LINE
  5
291
330
284
100
AcDbEntity
  8
LC-005-005-----0
 62
     7
370
    25
100
AcDbLine
 10
714.159854
 20
490.714111
 30
0.0
 11
717.559849
 21
494.114106
 31
0.0
  0
LINE
  5
292
330
284
100
AcDbEntity
  8
LC-005-005-----0
 62
     7
370
    25
100
AcDbLine
 10
714.15985
 20
493.542534
 30
0.0
 11
716.768995
 21
496.151679
 31
0.0
  0
ENDBLK
  5
286
330
284
100
AcDbEntity
  8
0
100
AcDbBlockEnd
  0
BLOCK
  5
2B4
330
2B3
100
AcDbEntity
  8
0
100
AcDbBlockBegin
  2
*X46
 70
     1
 71
     0
 10
0.0
 20
0.0
 30
0.0
  3
*X46
  1

  4
*X4
  0
LINE
  5
2B6
330
2B3
100
AcDbEntity
  8
LC-005-005-----0
 62
     7
370
    25
100
AcDbLine
 10
730.961032
 20
532.971133
 30
0.0
 11
731.863877
 21
533.873978
 31
0.0
  0
LINE
  5
2B7
330
2B3
100
AcDbEntity
  8
LC-005-005-----0
 62
     7
370
    25
100
AcDbLine
 10
745.189996
 20
566.999087
 30
0.0
 11
745.752959
 21
567.56205
 31
0.0
  0
LINE
  5
2B8
330
2B3
100
AcDbEntity
  8
LC-005-005-----0
 62
     7
370
    25
100
AcDbLine
 10
743.909649
 20
568.547168
 30
0.0
 11
746.514169
 21
571.151687
 31
0.0
  0
ENDBLK
  5
2B5
330
2B3
100
AcDbEntity
  8
0
100
AcDbBlockEnd
  0
BLOCK
  5
2BB
330
2BA
100
AcDbEntity
  8
0
100
AcDbBlockBegin
  2
*X57
 70
     1
 71
     0
 10
0.0
 20
0.0
 30
0.0
  3
*X57
  1

  4
*X5
  0
LINE
  5
2BD
330
2BA
100
AcDbEntity
  8
LC-005-005-----0
 62
     7
370
    25
100
AcDbLine
 10
844.925885
 20
530.970474
 30
0.0
 11
845.629999
 21
531.674588
 31
0.0
  0
LINE
  5
2BE
330
2BA
100
AcDbEntity
  8
LC-005-005-----0
 62
     7
370
    25
100
AcDbLine
 10
844.255189
 20
533.128205
 30
0.0
 11
844.875239
 21
533.748255
 31
0.0
  0
LINE
  5
2BF
330
2BA
100
AcDbEntity
  8
LC-005-005-----0
 62
     7
370
    25
100
AcDbLine
 10
832.580203
 20
566.708053
 30
0.0
 11
832.799084
 21
566.926935
 31
0.0
  0
LINE
  5
2C0
330
2BA
100
AcDbEntity
  8
LC-005-005-----0
 62
     7
370
    25
100
AcDbLine
 10
830.430022
 20
567.3863
 30
0.0
 11
832.044325
 21
569.000602
 31
0.0
  0
LINE
  5
2C1
330
2BA
100
AcDbEntity
  8
LC-005-005-----0
 62
     7
370
    25
100
AcDbLine
 10
829.675263
 20
569.459967
 30
0.0
 11
831.289565
 21
571.07427
 31
0.0
  0
ENDBLK
  5
2BC
330
2BA
100
AcDbEntity
  8
0
100
AcDbBlockEnd
  0
BLOCK
  5
2C6
330
2C5
100
AcDbEntity
  8
0
100
AcDbBlockBegin
  2
*X68
 70
     1
 71
     0
 10
0.0
 20
0.0
 30
0.0
  3
*X68
  1

  4
*X6
  0
LINE
  5
2C8
330
2C5
100
AcDbEntity
  8
LC-005-005-----0
 62
     7
370
    25
100
AcDbLine
 10
860.303247
 20
467.151877
 30
0.0
 11
862.322381
 21
469.171011
 31
0.0
  0
LINE
  5
2C9
330
2C5
100
AcDbEntity
  8
LC-005-005-----0
 62
     7
370
    25
100
AcDbLine
 10
859.059358
 20
468.736415
 30
0.0
 11
861.959354
 21
471.636411
 31
0.0
  0
LINE
  5
2CA
330
2C5
100
AcDbEntity
  8
LC-005-005-----0
 62
     7
370
    25
100
AcDbLine
 10
859.059354
 20
471.564838
 30
0.0
 11
861.95935
 21
474.464834
 31
0.0
  0
LINE
  5
2CB
330
2C5
100
AcDbEntity
  8
LC-005-005-----0
 62
     7
370
    25
100
AcDbLine
 10
859.05935
 20
474.393261
 30
0.0
 11
861.959346
 21
477.293257
 31
0.0
  0
LINE
  5
2CC
330
2C5
100
AcDbEntity
  8
LC-005-005-----0
 62
     7
370
    25
100
AcDbLine
 10
859.059346
 20
477.221684
 30
0.0
 11
861.959342
 21
480.12168
 31
0.0
  0
LINE
  5
2CD
330
2C5
100
AcDbEntity
  8
LC-005-005-----0
 62
     7
370
    25
100
AcDbLine
 10
859.059342
 20
480.050108
 30
0.0
 11
861.959338
 21
482.950104
 31
0.0
  0
LINE
  5
2CE
330
2C5
100
AcDbEntity
  8
LC-005-005-----0
 62
     7
370
    25
100
AcDbLine
 10
859.059338
 20
482.878531
 30
0.0
 11
861.959334
 21
485.778527
 31
0.0
  0
LINE
  5
2CF
330
2C5
100
AcDbEntity
  8
LC-005-005-----0
 62
     7
370
    25
100
AcDbLine
 10
859.059335
 20
485.706954
 30
0.0
 11
861.959331
 21
488.60695
 31
0.0
  0
LINE
  5
2D0
330
2C5
100
AcDbEntity
  8
LC-005-005-----0
 62
     7
370
    25
100
AcDbLine
 10
858.975827
 20
488.451873
 30
0.0
 11
861.959327
 21
491.435373
 31
0.0
  0
LINE
  5
2D1
330
2C5
100
AcDbEntity
  8
LC-005-005-----0
 62
     7
370
    25
100
AcDbLine
 10
858.559327
 20
490.863801
 30
0.0
 11
861.959323
 21
494.263797
 31
0.0
  0
LINE
  5
2D2
330
2C5
100
AcDbEntity
  8
LC-005-005-----0
 62
     7
370
    25
100
AcDbLine
 10
858.559324
 20
493.692225
 30
0.0
 11
861.018978
 21
496.151879
 31
0.0
  0
ENDBLK
  5
2C7
330
2C5
100
AcDbEntity
  8
0
100
AcDbBlockEnd
  0
BLOCK
  5
31D
330
313
100
AcDbEntity
  8
0
100
AcDbBlockBegin
  2
*D9
 70
     1
 71
     0
 10
0.0
 20
0.0
 30
0.0
  3
*D9
  1

  0
LINE
  5
314
330
313
100
AcDbEntity
  8
LC-003-003-----0
 62
     2
370
    -2
100
AcDbLine
 10
830.059655
 20
34.065914
 30
0.0
 11
913.492498
 21
34.065914
 31
0.0
  0
LINE
  5
315
330
313
100
AcDbEntity
  8
LC-003-003-----0
 62
     2
370
    -2
100
AcDbLine
 10
841.588798
 20
344.047055
 30
0.0
 11
913.492498
 21
344.047055
 31
0.0
  0
LINE
  5
316
330
313
100
AcDbEntity
  8
LC-003-003-----0
 62
     2
370
    -2
100
AcDbLine
 10
909.892498
 20
62.065914
 30
0.0
 11
909.892498
 21
316.047055
 31
0.0
  0
SOLID
  5
317
330
313
100
AcDbEntity
  8
LC-003-003-----0
 62
     2
100
AcDbTrace
 10
905.225832
 20
62.065914
 30
0.0
 11
914.559165
 21
62.065914
 31
0.0
 12
909.892498
 22
34.065914
 32
0.0
 13
909.892498
 23
34.065914
 33
0.0
  0
SOLID
  5
318
330
313
100
AcDbEntity
  8
LC-003-003-----0
 62
     2
100
AcDbTrace
 10
914.559165
 20
316.047055
 30
0.0
 11
905.225832
 21
316.047055
 31
0.0
 12
909.892498
 22
344.047055
 32
0.0
 13
909.892498
 23
344.047055
 33
0.0
  0
MTEXT
  5
319
330
313
100
AcDbEntity
  8
LC-003-003-----0
 62
     2
100
AcDbMText
 10
879.092498
 20
192.9
 30
0.0
 40
28.0
 41
0.0
 71
     5
 72
     1
  1
\A1;310
  7
LCTX15-400-0-0pDIN-Schrift
 11
6.123031769111886E-17
 21
1.0
 31
0.0
 73
     1
 44
1.0
  0
POINT
  5
31A
330
313
100
AcDbEntity
  8
Defpoints
 62
     0
100
AcDbPoint
 10
830.059655
 20
34.065914
 30
0.0
  0
POINT
  5
31B
330
313
100
AcDbEntity
  8
Defpoints
 62
     0
100
AcDbPoint
 10
841.588798
 20
344.047055
 30
0.0
  0
POINT
  5
31C
330
313
100
AcDbEntity
  8
Defpoints
 62
     0
100
AcDbPoint
 10
909.892498
 20
344.047055
 30
0.0
  0
ENDBLK
  5
31E
330
313
100
AcDbEntity
  8
0
100
AcDbBlockEnd
  0
BLOCK
  5
32C
330
322
100
AcDbEntity
  8
0
100
AcDbBlockBegin
  2
*D10
 70
     1
 71
     0
 10
0.0
 20
0.0
 30
0.0
  3
*D10
  1

  0
LINE
  5
323
330
322
100
AcDbEntity
  8
LC-003-003-----0
 62
     2
370
    -2
100
AcDbLine
 10
830.059655
 20
34.065914
 30
0.0
 11
986.201301
 21
34.065914
 31
0.0
  0
LINE
  5
324
330
322
100
AcDbEntity
  8
LC-003-003-----0
 62
     2
370
    -2
100
AcDbLine
 10
867.930975
 20
448.944594
 30
0.0
 11
986.201301
 21
448.944594
 31
0.0
  0
LINE
  5
325
330
322
100
AcDbEntity
  8
LC-003-003-----0
 62
     2
370
    -2
100
AcDbLine
 10
982.601301
 20
62.065914
 30
0.0
 11
982.601301
 21
420.944594
 31
0.0
  0
SOLID
  5
326
330
322
100
AcDbEntity
  8
LC-003-003-----0
 62
     2
100
AcDbTrace
 10
977.934634
 20
62.065914
 30
0.0
 11
987.267968
 21
62.065914
 31
0.0
 12
982.601301
 22
34.065914
 32
0.0
 13
982.601301
 23
34.065914
 33
0.0
  0
SOLID
  5
327
330
322
100
AcDbEntity
  8
LC-003-003-----0
 62
     2
100
AcDbTrace
 10
987.267968
 20
420.944594
 30
0.0
 11
977.934634
 21
420.944594
 31
0.0
 12
982.601301
 22
448.944594
 32
0.0
 13
982.601301
 23
448.944594
 33
0.0
  0
MTEXT
  5
328
330
322
100
AcDbEntity
  8
LC-003-003-----0
 62
     2
100
AcDbMText
 10
951.801301
 20
236.58
 30
0.0
 40
28.0
 41
0.0
 71
     5
 72
     1
  1
\A1;415
  7
LCTX15-400-0-0pDIN-Schrift
 11
6.123031769111886E-17
 21
1.0
 31
0.0
 73
     1
 44
1.0
  0
POINT
  5
329
330
322
100
AcDbEntity
  8
Defpoints
 62
     0
100
AcDbPoint
 10
830.059655
 20
34.065914
 30
0.0
  0
POINT
  5
32A
330
322
100
AcDbEntity
  8
Defpoints
 62
     0
100
AcDbPoint
 10
867.930975
 20
448.944594
 30
0.0
  0
POINT
  5
32B
330
322
100
AcDbEntity
  8
Defpoints
 62
     0
100
AcDbPoint
 10
982.601301
 20
448.944594
 30
0.0
  0
ENDBLK
  5
32D
330
322
100
AcDbEntity
  8
0
100
AcDbBlockEnd
  0
BLOCK
  5
34E
330
34D
100
AcDbEntity
  8
0
100
AcDbBlockBegin
  2
*X711
 70
     1
 71
     0
 10
0.0
 20
0.0
 30
0.0
  3
*X711
  1

  4
*X7
  0
LINE
  5
350
330
34D
100
AcDbEntity
  8
LC-005-005-----0
  6
DASHED
 62
     7
370
    25
100
AcDbLine
 10
686.809386
 20
489.816298
 30
0.0
 11
682.679448
 21
493.946236
 31
0.0
  0
LINE
  5
351
330
34D
100
AcDbEntity
  8
LC-005-005-----0
  6
DASHED
 62
     7
370
    25
100
AcDbLine
 10
686.145117
 20
487.65214
 30
0.0
 11
680.145578
 21
493.651679
 31
0.0
  0
LINE
  5
352
330
34D
100
AcDbEntity
  8
LC-005-005-----0
  6
DASHED
 62
     7
370
    25
100
AcDbLine
 10
680.006356
 20
493.790901
 30
0.0
 11
679.742248
 21
494.055009
 31
0.0
  0
LINE
  5
353
330
34D
100
AcDbEntity
  8
LC-005-005-----0
 62
     7
370
    25
100
AcDbLine
 10
682.019325
 20
486.121078
 30
0.0
 11
678.809386
 21
489.331017
 31
0.0
  0
ENDBLK
  5
34F
330
34D
100
AcDbEntity
  8
0
100
AcDbBlockEnd
  0
BLOCK
  5
375
330
374
100
AcDbEntity
  8
0
100
AcDbBlockBegin
  2
*X812
 70
     1
 71
     0
 10
0.0
 20
0.0
 30
0.0
  3
*X812
  1

  4
*X8
  0
LINE
  5
377
330
374
100
AcDbEntity
  8
LC-005-005-----0
  6
DASHED
 62
     7
370
    25
100
AcDbLine
 10
897.309386
 20
488.619906
 30
0.0
 11
892.121923
 21
493.807368
 31
0.0
  0
LINE
  5
378
330
374
100
AcDbEntity
  8
LC-005-005-----0
  6
DASHED
 62
     7
370
    25
100
AcDbLine
 10
896.049607
 20
487.051257
 30
0.0
 11
889.532711
 21
493.568153
 31
0.0
  0
LINE
  5
379
330
374
100
AcDbEntity
  8
LC-005-005-----0
 62
     7
370
    25
100
AcDbLine
 10
892.219582
 20
485.224428
 30
0.0
 11
891.060169
 21
486.383841
 31
0.0
  0
LINE
  5
37A
330
374
100
AcDbEntity
  8
LC-005-005-----0
 62
     7
370
    25
100
AcDbLine
 10
889.79187
 20
487.65214
 30
0.0
 11
889.309386
 21
488.134624
 31
0.0
  0
LINE
  5
37B
330
374
100
AcDbEntity
  8
LC-005-005-----0
 62
     7
370
    25
100
AcDbLine
 10
890.280948
 20
484.334635
 30
0.0
 11
889.738819
 21
484.876764
 31
0.0
  0
ENDBLK
  5
376
330
374
100
AcDbEntity
  8
0
100
AcDbBlockEnd
  0
BLOCK
  5
3A4
330
3A3
100
AcDbEntity
  8
0
100
AcDbBlockBegin
  2
*X913
 70
     1
 71
     0
 10
0.0
 20
0.0
 30
0.0
  3
*X913
  1

  4
*X9
  0
LINE
  5
3A6
330
3A3
100
AcDbEntity
  8
LC-005-005-----0
 62
     7
370
    25
100
AcDbLine
 10
690.059386
 20
493.637366
 30
0.0
 11
688.545073
 21
495.151679
 31
0.0
  0
LINE
  5
3A7
330
3A3
100
AcDbEntity
  8
LC-005-005-----0
 62
     7
370
    25
100
AcDbLine
 10
687.809382
 20
495.88737
 30
0.0
 11
685.545073
 21
498.151679
 31
0.0
  0
LINE
  5
3A8
330
3A3
100
AcDbEntity
  8
LC-005-005-----0
 62
     7
370
    25
100
AcDbLine
 10
690.059386
 20
489.394725
 30
0.0
 11
685.891152
 21
493.562959
 31
0.0
  0
LINE
  5
3A9
330
3A3
100
AcDbEntity
  8
LC-005-005-----0
 62
     7
370
    25
100
AcDbLine
 10
685.302432
 20
494.151679
 30
0.0
 11
681.302432
 21
498.151679
 31
0.0
  0
LINE
  5
3AA
330
3A3
100
AcDbEntity
  8
LC-005-005-----0
 62
     7
370
    25
100
AcDbLine
 10
690.059386
 20
485.152085
 30
0.0
 11
686.575449
 21
488.636021
 31
0.0
  0
LINE
  5
3AB
330
3A3
100
AcDbEntity
  8
LC-005-005-----0
 62
     7
370
    25
100
AcDbLine
 10
681.059791
 20
494.151679
 30
0.0
 11
677.059791
 21
498.151679
 31
0.0
  0
LINE
  5
3AC
330
3A3
100
AcDbEntity
  8
LC-005-005-----0
 62
     7
370
    25
100
AcDbLine
 10
678.559386
 20
492.409444
 30
0.0
 11
672.817151
 21
498.151679
 31
0.0
  0
LINE
  5
3AD
330
3A3
100
AcDbEntity
  8
LC-005-005-----0
 62
     7
370
    25
100
AcDbLine
 10
678.559386
 20
488.166803
 30
0.0
 11
676.059386
 21
490.666803
 31
0.0
  0
LINE
  5
3AE
330
3A3
100
AcDbEntity
  8
LC-005-005-----0
 62
     7
370
    25
100
AcDbLine
 10
672.57451
 20
494.151679
 30
0.0
 11
668.57451
 21
498.151679
 31
0.0
  0
LINE
  5
3AF
330
3A3
100
AcDbEntity
  8
LC-005-005-----0
 62
     7
370
    25
100
AcDbLine
 10
668.331869
 20
494.151679
 30
0.0
 11
664.331869
 21
498.151679
 31
0.0
  0
LINE
  5
3B0
330
3A3
100
AcDbEntity
  8
LC-005-005-----0
 62
     7
370
    25
100
AcDbLine
 10
666.295464
 20
491.945444
 30
0.0
 11
666.059386
 21
492.181522
 31
0.0
  0
LINE
  5
3B1
330
3A3
100
AcDbEntity
  8
LC-005-005-----0
 62
     7
370
    25
100
AcDbLine
 10
664.089229
 20
494.151679
 30
0.0
 11
660.089229
 21
498.151679
 31
0.0
  0
LINE
  5
3B2
330
3A3
100
AcDbEntity
  8
LC-005-005-----0
 62
     7
370
    25
100
AcDbLine
 10
658.581572
 20
495.416695
 30
0.0
 11
655.846588
 21
498.151679
 31
0.0
  0
LINE
  5
3B3
330
3A3
100
AcDbEntity
  8
LC-005-005-----0
 62
     7
370
    25
100
AcDbLine
 10
654.103947
 20
495.651679
 30
0.0
 11
651.603947
 21
498.151679
 31
0.0
  0
LINE
  5
3B4
330
3A3
100
AcDbEntity
  8
LC-005-005-----0
 62
     7
370
    25
100
AcDbLine
 10
649.861307
 20
495.651679
 30
0.0
 11
647.361307
 21
498.151679
 31
0.0
  0
LINE
  5
3B5
330
3A3
100
AcDbEntity
  8
LC-005-005-----0
 62
     7
370
    25
100
AcDbLine
 10
645.618666
 20
495.651679
 30
0.0
 11
643.118666
 21
498.151679
 31
0.0
  0
LINE
  5
3B6
330
3A3
100
AcDbEntity
  8
LC-005-005-----0
 62
     7
370
    25
100
AcDbLine
 10
641.376025
 20
495.651679
 30
0.0
 11
638.876025
 21
498.151679
 31
0.0
  0
LINE
  5
3B7
330
3A3
100
AcDbEntity
  8
LC-005-005-----0
 62
     7
370
    25
100
AcDbLine
 10
637.133385
 20
495.651679
 30
0.0
 11
634.633385
 21
498.151679
 31
0.0
  0
LINE
  5
3B8
330
3A3
100
AcDbEntity
  8
LC-005-005-----0
 62
     7
370
    25
100
AcDbLine
 10
632.890744
 20
495.651679
 30
0.0
 11
630.390744
 21
498.151679
 31
0.0
  0
LINE
  5
3B9
330
3A3
100
AcDbEntity
  8
LC-005-005-----0
 62
     7
370
    25
100
AcDbLine
 10
628.648103
 20
495.651679
 30
0.0
 11
626.148103
 21
498.151679
 31
0.0
  0
LINE
  5
3BA
330
3A3
100
AcDbEntity
  8
LC-005-005-----0
 62
     7
370
    25
100
AcDbLine
 10
624.405462
 20
495.651679
 30
0.0
 11
621.905462
 21
498.151679
 31
0.0
  0
LINE
  5
3BB
330
3A3
100
AcDbEntity
  8
LC-005-005-----0
 62
     7
370
    25
100
AcDbLine
 10
620.162822
 20
495.651679
 30
0.0
 11
617.662822
 21
498.151679
 31
0.0
  0
LINE
  5
3BC
330
3A3
100
AcDbEntity
  8
LC-005-005-----0
 62
     7
370
    25
100
AcDbLine
 10
615.920181
 20
495.651679
 30
0.0
 11
613.420181
 21
498.151679
 31
0.0
  0
LINE
  5
3BD
330
3A3
100
AcDbEntity
  8
LC-005-005-----0
 62
     7
370
    25
100
AcDbLine
 10
611.67754
 20
495.651679
 30
0.0
 11
611.062686
 21
496.266533
 31
0.0
  0
ENDBLK
  5
3A5
330
3A3
100
AcDbEntity
  8
0
100
AcDbBlockEnd
  0
BLOCK
  5
3C0
330
3BF
100
AcDbEntity
  8
0
100
AcDbBlockBegin
  2
*X1014
 70
     1
 71
     0
 10
0.0
 20
0.0
 30
0.0
  3
*X1014
  1

  4
*X10
  0
LINE
  5
3C2
330
3BF
100
AcDbEntity
  8
LC-005-005-----0
 62
     7
370
    25
100
AcDbLine
 10
709.059386
 20
495.85057
 30
0.0
 11
708.758276
 21
496.151679
 31
0.0
  0
LINE
  5
3C3
330
3BF
100
AcDbEntity
  8
LC-005-005-----0
 62
     7
370
    25
100
AcDbLine
 10
709.059386
 20
491.607929
 30
0.0
 11
703.138885
 21
497.52843
 31
0.0
  0
LINE
  5
3C4
330
3BF
100
AcDbEntity
  8
LC-005-005-----0
 62
     7
370
    25
100
AcDbLine
 10
709.059386
 20
487.365288
 30
0.0
 11
706.559386
 21
489.865288
 31
0.0
  0
LINE
  5
3C5
330
3BF
100
AcDbEntity
  8
LC-005-005-----0
 62
     7
370
    25
100
AcDbLine
 10
702.304948
 20
494.119726
 30
0.0
 11
700.309386
 21
496.115288
 31
0.0
  0
LINE
  5
3C6
330
3BF
100
AcDbEntity
  8
LC-005-005-----0
 62
     7
370
    25
100
AcDbLine
 10
709.059386
 20
483.122648
 30
0.0
 11
706.559386
 21
485.622648
 31
0.0
  0
LINE
  5
3C7
330
3BF
100
AcDbEntity
  8
LC-005-005-----0
 62
     7
370
    25
100
AcDbLine
 10
701.787552
 20
490.394481
 30
0.0
 11
698.059386
 21
494.122648
 31
0.0
  0
LINE
  5
3C8
330
3BF
100
AcDbEntity
  8
LC-005-005-----0
 62
     7
370
    25
100
AcDbLine
 10
709.059386
 20
478.880007
 30
0.0
 11
706.559386
 21
481.380007
 31
0.0
  0
LINE
  5
3C9
330
3BF
100
AcDbEntity
  8
LC-005-005-----0
 62
     7
370
    25
100
AcDbLine
 10
701.270157
 20
486.669235
 30
0.0
 11
698.059386
 21
489.880007
 31
0.0
  0
LINE
  5
3CA
330
3BF
100
AcDbEntity
  8
LC-005-005-----0
 62
     7
370
    25
100
AcDbLine
 10
713.545073
 20
470.151679
 30
0.0
 11
706.559386
 21
477.137366
 31
0.0
  0
LINE
  5
3CB
330
3BF
100
AcDbEntity
  8
LC-005-005-----0
 62
     7
370
    25
100
AcDbLine
 10
698.545073
 20
485.151679
 30
0.0
 11
698.059386
 21
485.637366
 31
0.0
  0
ENDBLK
  5
3C1
330
3BF
100
AcDbEntity
  8
0
100
AcDbBlockEnd
  0
BLOCK
  5
3F1
330
3F0
100
AcDbEntity
  8
0
100
AcDbBlockBegin
  2
*X1115
 70
     1
 71
     0
 10
0.0
 20
0.0
 30
0.0
  3
*X1115
  1

  4
*X11
  0
LINE
  5
3F3
330
3F0
100
AcDbEntity
  8
LC-005-005-----0
 62
     7
370
    25
100
AcDbLine
 10
963.816717
 20
495.651679
 30
0.0
 11
961.316717
 21
498.151679
 31
0.0
  0
LINE
  5
3F4
330
3F0
100
AcDbEntity
  8
LC-005-005-----0
 62
     7
370
    25
100
AcDbLine
 10
959.574077
 20
495.651679
 30
0.0
 11
957.074077
 21
498.151679
 31
0.0
  0
LINE
  5
3F5
330
3F0
100
AcDbEntity
  8
LC-005-005-----0
 62
     7
370
    25
100
AcDbLine
 10
955.331436
 20
495.651679
 30
0.0
 11
952.831436
 21
498.151679
 31
0.0
  0
LINE
  5
3F6
330
3F0
100
AcDbEntity
  8
LC-005-005-----0
 62
     7
370
    25
100
AcDbLine
 10
951.088795
 20
495.651679
 30
0.0
 11
948.588795
 21
498.151679
 31
0.0
  0
LINE
  5
3F7
330
3F0
100
AcDbEntity
  8
LC-005-005-----0
 62
     7
370
    25
100
AcDbLine
 10
946.846155
 20
495.651679
 30
0.0
 11
944.346155
 21
498.151679
 31
0.0
  0
LINE
  5
3F8
330
3F0
100
AcDbEntity
  8
LC-005-005-----0
 62
     7
370
    25
100
AcDbLine
 10
942.603514
 20
495.651679
 30
0.0
 11
940.103514
 21
498.151679
 31
0.0
  0
LINE
  5
3F9
330
3F0
100
AcDbEntity
  8
LC-005-005-----0
 62
     7
370
    25
100
AcDbLine
 10
938.360873
 20
495.651679
 30
0.0
 11
935.860873
 21
498.151679
 31
0.0
  0
LINE
  5
3FA
330
3F0
100
AcDbEntity
  8
LC-005-005-----0
 62
     7
370
    25
100
AcDbLine
 10
934.118233
 20
495.651679
 30
0.0
 11
931.618233
 21
498.151679
 31
0.0
  0
LINE
  5
3FB
330
3F0
100
AcDbEntity
  8
LC-005-005-----0
 62
     7
370
    25
100
AcDbLine
 10
929.875592
 20
495.651679
 30
0.0
 11
927.375592
 21
498.151679
 31
0.0
  0
LINE
  5
3FC
330
3F0
100
AcDbEntity
  8
LC-005-005-----0
 62
     7
370
    25
100
AcDbLine
 10
925.632951
 20
495.651679
 30
0.0
 11
923.132951
 21
498.151679
 31
0.0
  0
LINE
  5
3FD
330
3F0
100
AcDbEntity
  8
LC-005-005-----0
 62
     7
370
    25
100
AcDbLine
 10
921.390311
 20
495.651679
 30
0.0
 11
918.890311
 21
498.151679
 31
0.0
  0
LINE
  5
3FE
330
3F0
100
AcDbEntity
  8
LC-005-005-----0
 62
     7
370
    25
100
AcDbLine
 10
917.430616
 20
495.368733
 30
0.0
 11
914.64767
 21
498.151679
 31
0.0
  0
LINE
  5
3FF
330
3F0
100
AcDbEntity
  8
LC-005-005-----0
 62
     7
370
    25
100
AcDbLine
 10
914.405029
 20
494.151679
 30
0.0
 11
910.405029
 21
498.151679
 31
0.0
  0
LINE
  5
400
330
3F0
100
AcDbEntity
  8
LC-005-005-----0
 62
     7
370
    25
100
AcDbLine
 10
910.162388
 20
494.151679
 30
0.0
 11
906.162388
 21
498.151679
 31
0.0
  0
LINE
  5
401
330
3F0
100
AcDbEntity
  8
LC-005-005-----0
 62
     7
370
    25
100
AcDbLine
 10
908.652739
 20
491.418688
 30
0.0
 11
908.059386
 21
492.012041
 31
0.0
  0
LINE
  5
402
330
3F0
100
AcDbEntity
  8
LC-005-005-----0
 62
     7
370
    25
100
AcDbLine
 10
905.919748
 20
494.151679
 30
0.0
 11
901.919748
 21
498.151679
 31
0.0
  0
LINE
  5
403
330
3F0
100
AcDbEntity
  8
LC-005-005-----0
 62
     7
370
    25
100
AcDbLine
 10
901.677107
 20
494.151679
 30
0.0
 11
897.677107
 21
498.151679
 31
0.0
  0
LINE
  5
404
330
3F0
100
AcDbEntity
  8
LC-005-005-----0
 62
     7
370
    25
100
AcDbLine
 10
900.059386
 20
491.52676
 30
0.0
 11
897.559386
 21
494.02676
 31
0.0
  0
LINE
  5
405
330
3F0
100
AcDbEntity
  8
LC-005-005-----0
 62
     7
370
    25
100
AcDbLine
 10
897.434466
 20
494.151679
 30
0.0
 11
893.434466
 21
498.151679
 31
0.0
  0
LINE
  5
406
330
3F0
100
AcDbEntity
  8
LC-005-005-----0
 62
     7
370
    25
100
AcDbLine
 10
899.874862
 20
487.468643
 30
0.0
 11
897.559386
 21
489.784119
 31
0.0
  0
LINE
  5
407
330
3F0
100
AcDbEntity
  8
LC-005-005-----0
 62
     7
370
    25
100
AcDbLine
 10
893.191826
 20
494.151679
 30
0.0
 11
889.191826
 21
498.151679
 31
0.0
  0
LINE
  5
408
330
3F0
100
AcDbEntity
  8
LC-005-005-----0
 62
     7
370
    25
100
AcDbLine
 10
890.143507
 20
492.957357
 30
0.0
 11
887.953511
 21
495.147353
 31
0.0
  0
LINE
  5
409
330
3F0
100
AcDbEntity
  8
LC-005-005-----0
 62
     7
370
    25
100
AcDbLine
 10
889.626112
 20
489.232111
 30
0.0
 11
886.059386
 21
492.798838
 31
0.0
  0
LINE
  5
40A
330
3F0
100
AcDbEntity
  8
LC-005-005-----0
 62
     7
370
    25
100
AcDbLine
 10
889.108717
 20
485.506866
 30
0.0
 11
886.059386
 21
488.556197
 31
0.0
  0
ENDBLK
  5
3F2
330
3F0
100
AcDbEntity
  8
0
100
AcDbBlockEnd
  0
BLOCK
  5
40D
330
40C
100
AcDbEntity
  8
0
100
AcDbBlockBegin
  2
*X1216
 70
     1
 71
     0
 10
0.0
 20
0.0
 30
0.0
  3
*X1216
  1

  4
*X12
  0
LINE
  5
40F
330
40C
100
AcDbEntity
  8
LC-005-005-----0
 62
     7
370
    25
100
AcDbLine
 10
878.059386
 20
492.313556
 30
0.0
 11
872.894063
 21
497.478879
 31
0.0
  0
LINE
  5
410
330
40C
100
AcDbEntity
  8
LC-005-005-----0
 62
     7
370
    25
100
AcDbLine
 10
878.059386
 20
488.070916
 30
0.0
 11
874.10467
 21
492.025631
 31
0.0
  0
LINE
  5
411
330
40C
100
AcDbEntity
  8
LC-005-005-----0
 62
     7
370
    25
100
AcDbLine
 10
872.400489
 20
493.729813
 30
0.0
 11
869.978622
 21
496.151679
 31
0.0
  0
LINE
  5
412
330
40C
100
AcDbEntity
  8
LC-005-005-----0
 62
     7
370
    25
100
AcDbLine
 10
876.735982
 20
485.151679
 30
0.0
 11
874.788967
 21
487.098694
 31
0.0
  0
LINE
  5
413
330
40C
100
AcDbEntity
  8
LC-005-005-----0
 62
     7
370
    25
100
AcDbLine
 10
869.710762
 20
492.176898
 30
0.0
 11
867.059386
 21
494.828275
 31
0.0
  0
LINE
  5
414
330
40C
100
AcDbEntity
  8
LC-005-005-----0
 62
     7
370
    25
100
AcDbLine
 10
869.559386
 20
488.085634
 30
0.0
 11
867.059386
 21
490.585634
 31
0.0
  0
LINE
  5
415
330
40C
100
AcDbEntity
  8
LC-005-005-----0
 62
     7
370
    25
100
AcDbLine
 10
869.559386
 20
483.842994
 30
0.0
 11
867.059386
 21
486.342994
 31
0.0
  0
LINE
  5
416
330
40C
100
AcDbEntity
  8
LC-005-005-----0
 62
     7
370
    25
100
AcDbLine
 10
869.559386
 20
479.600353
 30
0.0
 11
867.059386
 21
482.100353
 31
0.0
  0
LINE
  5
417
330
40C
100
AcDbEntity
  8
LC-005-005-----0
 62
     7
370
    25
100
AcDbLine
 10
869.559386
 20
475.357712
 30
0.0
 11
867.059386
 21
477.857712
 31
0.0
  0
LINE
  5
418
330
40C
100
AcDbEntity
  8
LC-005-005-----0
 62
     7
370
    25
100
AcDbLine
 10
867.541082
 20
473.133375
 30
0.0
 11
865.773315
 21
474.901142
 31
0.0
  0
LINE
  5
419
330
40C
100
AcDbEntity
  8
LC-005-005-----0
 62
     7
370
    25
100
AcDbLine
 10
865.419762
 20
471.012055
 30
0.0
 11
863.651995
 21
472.779822
 31
0.0
  0
ENDBLK
  5
40E
330
40C
100
AcDbEntity
  8
0
100
AcDbBlockEnd
  0
BLOCK
  5
44E
330
444
100
AcDbEntity
  8
0
100
AcDbBlockBegin
  2
*D17
 70
     1
 71
     0
 10
0.0
 20
0.0
 30
0.0
  3
*D17
  1

  0
LINE
  5
445
330
444
100
AcDbEntity
  8
LC-003-003-----0
 62
     2
370
    -2
100
AcDbLine
 10
611.059386
 20
495.651679
 30
0.0
 11
611.059386
 21
598.010709
 31
0.0
  0
LINE
  5
446
330
444
100
AcDbEntity
  8
LC-003-003-----0
 62
     2
370
    -2
100
AcDbLine
 10
965.059386
 20
495.651679
 30
0.0
 11
965.059386
 21
598.010709
 31
0.0
  0
LINE
  5
447
330
444
100
AcDbEntity
  8
LC-003-003-----0
 62
     2
370
    -2
100
AcDbLine
 10
639.059386
 20
594.410709
 30
0.0
 11
937.059386
 21
594.410709
 31
0.0
  0
SOLID
  5
448
330
444
100
AcDbEntity
  8
LC-003-003-----0
 62
     2
100
AcDbTrace
 10
639.059386
 20
599.077375
 30
0.0
 11
639.059386
 21
589.744042
 31
0.0
 12
611.059386
 22
594.410709
 32
0.0
 13
611.059386
 23
594.410709
 33
0.0
  0
SOLID
  5
449
330
444
100
AcDbEntity
  8
LC-003-003-----0
 62
     2
100
AcDbTrace
 10
937.059386
 20
589.744042
 30
0.0
 11
937.059386
 21
599.077375
 31
0.0
 12
965.059386
 22
594.410709
 32
0.0
 13
965.059386
 23
594.410709
 33
0.0
  0
MTEXT
  5
44A
330
444
100
AcDbEntity
  8
LC-003-003-----0
 62
     2
100
AcDbMText
 10
785.189248
 20
625.210709
 30
0.0
 40
28.0
 41
0.0
 71
     5
 72
     1
  1
%%c\A1;354
  7
LCTX15-400-0-0pDIN-Schrift
 73
     1
 44
1.0
  0
POINT
  5
44B
330
444
100
AcDbEntity
  8
Defpoints
 62
     0
100
AcDbPoint
 10
611.059386
 20
495.651679
 30
0.0
  0
POINT
  5
44C
330
444
100
AcDbEntity
  8
Defpoints
 62
     0
100
AcDbPoint
 10
965.059386
 20
495.651679
 30
0.0
  0
POINT
  5
44D
330
444
100
AcDbEntity
  8
Defpoints
 62
     0
100
AcDbPoint
 10
965.059386
 20
594.410709
 30
0.0
  0
ENDBLK
  5
44F
330
444
100
AcDbEntity
  8
0
100
AcDbBlockEnd
  0
BLOCK
  5
45B
330
451
100
AcDbEntity
  8
0
100
AcDbBlockBegin
  2
*D18
 70
     1
 71
     0
 10
0.0
 20
0.0
 30
0.0
  3
*D18
  1

  0
LINE
  5
452
330
451
100
AcDbEntity
  8
LC-003-003-----0
 62
     2
370
    -2
100
AcDbLine
 10
830.059655
 20
34.065914
 30
0.0
 11
1061.576139
 21
34.065914
 31
0.0
  0
LINE
  5
453
330
451
100
AcDbEntity
  8
LC-003-003-----0
 62
     2
370
    -2
100
AcDbLine
 10
963.059386
 20
498.151679
 30
0.0
 11
1061.576139
 21
498.151679
 31
0.0
  0
LINE
  5
454
330
451
100
AcDbEntity
  8
LC-003-003-----0
 62
     2
370
    -2
100
AcDbLine
 10
1057.976139
 20
62.065914
 30
0.0
 11
1057.976139
 21
470.151679
 31
0.0
  0
SOLID
  5
455
330
451
100
AcDbEntity
  8
LC-003-003-----0
 62
     2
100
AcDbTrace
 10
1053.309472
 20
62.065914
 30
0.0
 11
1062.642805
 21
62.065914
 31
0.0
 12
1057.976139
 22
34.065914
 32
0.0
 13
1057.976139
 23
34.065914
 33
0.0
  0
SOLID
  5
456
330
451
100
AcDbEntity
  8
LC-003-003-----0
 62
     2
100
AcDbTrace
 10
1062.642805
 20
470.151679
 30
0.0
 11
1053.309472
 21
470.151679
 31
0.0
 12
1057.976139
 22
498.151679
 32
0.0
 13
1057.976139
 23
498.151679
 33
0.0
  0
MTEXT
  5
457
330
451
100
AcDbEntity
  8
LC-003-003-----0
 62
     2
100
AcDbMText
 10
1027.176139
 20
273.937559
 30
0.0
 40
28.0
 41
0.0
 71
     5
 72
     1
  1
\A1;465
  7
LCTX15-400-0-0pDIN-Schrift
 11
6.123031769111886E-17
 21
1.0
 31
0.0
 73
     1
 44
1.0
  0
POINT
  5
458
330
451
100
AcDbEntity
  8
Defpoints
 62
     0
100
AcDbPoint
 10
830.059655
 20
34.065914
 30
0.0
  0
POINT
  5
459
330
451
100
AcDbEntity
  8
Defpoints
 62
     0
100
AcDbPoint
 10
963.059386
 20
498.151679
 30
0.0
  0
POINT
  5
45A
330
451
100
AcDbEntity
  8
Defpoints
 62
     0
100
AcDbPoint
 10
1057.976139
 20
498.151679
 30
0.0
  0
ENDBLK
  5
45C
330
451
100
AcDbEntity
  8
0
100
AcDbBlockEnd
  0
BLOCK
  5
4FE
330
4FD
100
AcDbEntity
  8
0
100
AcDbBlockBegin
  2
*X1319
 70
     1
 71
     0
 10
0.0
 20
0.0
 30
0.0
  3
*X1319
  1

  4
*X13
  0
LINE
  5
500
330
4FD
100
AcDbEntity
  8
LC-005-005-----0
  6
DASHED
 62
     7
370
    25
100
AcDbLine
 10
845.291174
 20
342.648218
 30
0.0
 11
843.892337
 21
344.047055
 31
0.0
  0
LINE
  5
501
330
4FD
100
AcDbEntity
  8
LC-005-005-----0
  6
DASHED
 62
     7
370
    25
100
AcDbLine
 10
841.452043
 20
342.244709
 30
0.0
 11
839.649696
 21
344.047055
 31
0.0
  0
LINE
  5
502
330
4FD
100
AcDbEntity
  8
LC-005-005-----0
 62
     7
370
    25
100
AcDbLine
 10
834.175999
 20
341.035471
 30
0.0
 11
833.059655
 21
342.151816
 31
0.0
  0
LINE
  5
503
330
4FD
100
AcDbEntity
  8
LC-005-005-----0
 62
     7
370
    25
100
AcDbLine
 10
834.059655
 20
336.909175
 30
0.0
 11
833.059655
 21
337.909175
 31
0.0
  0
LINE
  5
504
330
4FD
100
AcDbEntity
  8
LC-005-005-----0
  6
DASHED
 62
     7
370
    25
100
AcDbLine
 10
844.571321
 20
317.912227
 30
0.0
 11
843.096824
 21
319.386724
 31
0.0
  0
LINE
  5
505
330
4FD
100
AcDbEntity
  8
LC-005-005-----0
  6
DASHED
 62
     7
370
    25
100
AcDbLine
 10
834.059655
 20
328.423894
 30
0.0
 11
833.059655
 21
329.423894
 31
0.0
  0
LINE
  5
506
330
4FD
100
AcDbEntity
  8
LC-005-005-----0
  6
DASHED
 62
     7
370
    25
100
AcDbLine
 10
840.732189
 20
317.508718
 30
0.0
 11
838.854183
 21
319.386724
 31
0.0
  0
LINE
  5
507
330
4FD
100
AcDbEntity
  8
LC-005-005-----0
  6
DASHED
 62
     7
370
    25
100
AcDbLine
 10
834.059655
 20
324.181253
 30
0.0
 11
833.059655
 21
325.181253
 31
0.0
  0
LINE
  5
508
330
4FD
100
AcDbEntity
  8
LC-005-005-----0
 62
     7
370
    25
100
AcDbLine
 10
834.059655
 20
315.695971
 30
0.0
 11
833.059655
 21
316.695971
 31
0.0
  0
LINE
  5
509
330
4FD
100
AcDbEntity
  8
LC-005-005-----0
 62
     7
370
    25
100
AcDbLine
 10
834.059655
 20
311.453331
 30
0.0
 11
833.059655
 21
312.453331
 31
0.0
  0
LINE
  5
50A
330
4FD
100
AcDbEntity
  8
LC-005-005-----0
  6
DASHED
 62
     7
370
    25
100
AcDbLine
 10
843.851468
 20
293.176236
 30
0.0
 11
842.301311
 21
294.726393
 31
0.0
  0
LINE
  5
50B
330
4FD
100
AcDbEntity
  8
LC-005-005-----0
  6
DASHED
 62
     7
370
    25
100
AcDbLine
 10
834.059655
 20
302.968049
 30
0.0
 11
833.059655
 21
303.968049
 31
0.0
  0
LINE
  5
50C
330
4FD
100
AcDbEntity
  8
LC-005-005-----0
  6
DASHED
 62
     7
370
    25
100
AcDbLine
 10
840.012336
 20
292.772727
 30
0.0
 11
838.058671
 21
294.726393
 31
0.0
  0
LINE
  5
50D
330
4FD
100
AcDbEntity
  8
LC-005-005-----0
  6
DASHED
 62
     7
370
    25
100
AcDbLine
 10
834.059655
 20
298.725409
 30
0.0
 11
833.059655
 21
299.725409
 31
0.0
  0
LINE
  5
50E
330
4FD
100
AcDbEntity
  8
LC-005-005-----0
 62
     7
370
    25
100
AcDbLine
 10
834.059655
 20
290.240127
 30
0.0
 11
833.059655
 21
291.240127
 31
0.0
  0
LINE
  5
50F
330
4FD
100
AcDbEntity
  8
LC-005-005-----0
 62
     7
370
    25
100
AcDbLine
 10
834.059655
 20
285.997487
 30
0.0
 11
833.059655
 21
286.997487
 31
0.0
  0
LINE
  5
510
330
4FD
100
AcDbEntity
  8
LC-005-005-----0
  6
DASHED
 62
     7
370
    25
100
AcDbLine
 10
843.131615
 20
268.440245
 30
0.0
 11
841.505799
 21
270.066062
 31
0.0
  0
LINE
  5
511
330
4FD
100
AcDbEntity
  8
LC-005-005-----0
  6
DASHED
 62
     7
370
    25
100
AcDbLine
 10
834.059655
 20
277.512205
 30
0.0
 11
833.059655
 21
278.512205
 31
0.0
  0
LINE
  5
512
330
4FD
100
AcDbEntity
  8
LC-005-005-----0
  6
DASHED
 62
     7
370
    25
100
AcDbLine
 10
839.292483
 20
268.036736
 30
0.0
 11
837.263158
 21
270.066062
 31
0.0
  0
LINE
  5
513
330
4FD
100
AcDbEntity
  8
LC-005-005-----0
  6
DASHED
 62
     7
370
    25
100
AcDbLine
 10
834.059655
 20
273.269565
 30
0.0
 11
833.059655
 21
274.269565
 31
0.0
  0
LINE
  5
514
330
4FD
100
AcDbEntity
  8
LC-005-005-----0
 62
     7
370
    25
100
AcDbLine
 10
834.059655
 20
264.784283
 30
0.0
 11
833.059655
 21
265.784283
 31
0.0
  0
LINE
  5
515
330
4FD
100
AcDbEntity
  8
LC-005-005-----0
 62
     7
370
    25
100
AcDbLine
 10
849.53222
 20
245.069078
 30
0.0
 11
849.223002
 21
245.378295
 31
0.0
  0
LINE
  5
516
330
4FD
100
AcDbEntity
  8
LC-005-005-----0
 62
     7
370
    25
100
AcDbLine
 10
834.059655
 20
260.541643
 30
0.0
 11
833.059655
 21
261.541643
 31
0.0
  0
LINE
  5
517
330
4FD
100
AcDbEntity
  8
LC-005-005-----0
  6
DASHED
 62
     7
370
    25
100
AcDbLine
 10
842.411762
 20
243.704254
 30
0.0
 11
840.710286
 21
245.40573
 31
0.0
  0
LINE
  5
518
330
4FD
100
AcDbEntity
  8
LC-005-005-----0
  6
DASHED
 62
     7
370
    25
100
AcDbLine
 10
834.059655
 20
252.056361
 30
0.0
 11
833.059655
 21
253.056361
 31
0.0
  0
LINE
  5
519
330
4FD
100
AcDbEntity
  8
LC-005-005-----0
  6
DASHED
 62
     7
370
    25
100
AcDbLine
 10
743.059655
 20
343.056361
 30
0.0
 11
742.06896
 21
344.047055
 31
0.0
  0
LINE
  5
51A
330
4FD
100
AcDbEntity
  8
LC-005-005-----0
  6
DASHED
 62
     7
370
    25
100
AcDbLine
 10
838.57263
 20
243.300745
 30
0.0
 11
836.467645
 21
245.40573
 31
0.0
  0
LINE
  5
51B
330
4FD
100
AcDbEntity
  8
LC-005-005-----0
  6
DASHED
 62
     7
370
    25
100
AcDbLine
 10
834.059655
 20
247.81372
 30
0.0
 11
833.059655
 21
248.81372
 31
0.0
  0
LINE
  5
51C
330
4FD
100
AcDbEntity
  8
LC-005-005-----0
  6
DASHED
 62
     7
370
    25
100
AcDbLine
 10
743.059655
 20
338.81372
 30
0.0
 11
742.059655
 21
339.81372
 31
0.0
  0
LINE
  5
51D
330
4FD
100
AcDbEntity
  8
LC-005-005-----0
  6
DASHED
 62
     7
370
    25
100
AcDbLine
 10
740.211375
 20
341.662
 30
0.0
 11
737.82632
 21
344.047055
 31
0.0
  0
LINE
  5
51E
330
4FD
100
AcDbEntity
  8
LC-005-005-----0
 62
     7
370
    25
100
AcDbLine
 10
834.059655
 20
239.328439
 30
0.0
 11
833.059655
 21
240.328439
 31
0.0
  0
LINE
  5
51F
330
4FD
100
AcDbEntity
  8
LC-005-005-----0
 62
     7
370
    25
100
AcDbLine
 10
743.059655
 20
330.328439
 30
0.0
 11
742.059655
 21
331.328439
 31
0.0
  0
LINE
  5
520
330
4FD
100
AcDbEntity
  8
LC-005-005-----0
 62
     7
370
    25
100
AcDbLine
 10
730.72951
 20
342.658584
 30
0.0
 11
729.341038
 21
344.047055
 31
0.0
  0
LINE
  5
521
330
4FD
100
AcDbEntity
  8
LC-005-005-----0
 62
     7
370
    25
100
AcDbLine
 10
849.324284
 20
219.821169
 30
0.0
 11
848.400054
 21
220.745399
 31
0.0
  0
LINE
  5
522
330
4FD
100
AcDbEntity
  8
LC-005-005-----0
 62
     7
370
    25
100
AcDbLine
 10
834.059655
 20
235.085798
 30
0.0
 11
833.059655
 21
236.085798
 31
0.0
  0
LINE
  5
523
330
4FD
100
AcDbEntity
  8
LC-005-005-----0
 62
     7
370
    25
100
AcDbLine
 10
743.059655
 20
326.085798
 30
0.0
 11
742.059655
 21
327.085798
 31
0.0
  0
LINE
  5
524
330
4FD
100
AcDbEntity
  8
LC-005-005-----0
  6
DASHED
 62
     7
370
    25
100
AcDbLine
 10
841.691908
 20
218.968263
 30
0.0
 11
839.914773
 21
220.745399
 31
0.0
  0
LINE
  5
525
330
4FD
100
AcDbEntity
  8
LC-005-005-----0
  6
DASHED
 62
     7
370
    25
100
AcDbLine
 10
834.059655
 20
226.600517
 30
0.0
 11
833.059655
 21
227.600517
 31
0.0
  0
LINE
  5
526
330
4FD
100
AcDbEntity
  8
LC-005-005-----0
  6
DASHED
 62
     7
370
    25
100
AcDbLine
 10
743.059655
 20
317.600517
 30
0.0
 11
741.273448
 21
319.386724
 31
0.0
  0
LINE
  5
527
330
4FD
100
AcDbEntity
  8
LC-005-005-----0
  6
DASHED
 62
     7
370
    25
100
AcDbLine
 10
837.852777
 20
218.564754
 30
0.0
 11
835.672132
 21
220.745399
 31
0.0
  0
LINE
  5
528
330
4FD
100
AcDbEntity
  8
LC-005-005-----0
  6
DASHED
 62
     7
370
    25
100
AcDbLine
 10
834.059655
 20
222.357876
 30
0.0
 11
833.059655
 21
223.357876
 31
0.0
  0
LINE
  5
529
330
4FD
100
AcDbEntity
  8
LC-005-005-----0
  6
DASHED
 62
     7
370
    25
100
AcDbLine
 10
743.059655
 20
313.357876
 30
0.0
 11
742.059655
 21
314.357876
 31
0.0
  0
LINE
  5
52A
330
4FD
100
AcDbEntity
  8
LC-005-005-----0
  6
DASHED
 62
     7
370
    25
100
AcDbLine
 10
739.322431
 20
317.0951
 30
0.0
 11
737.030807
 21
319.386724
 31
0.0
  0
LINE
  5
52B
330
4FD
100
AcDbEntity
  8
LC-005-005-----0
 62
     7
370
    25
100
AcDbLine
 10
834.059655
 20
213.872595
 30
0.0
 11
833.059655
 21
214.872595
 31
0.0
  0
LINE
  5
52C
330
4FD
100
AcDbEntity
  8
LC-005-005-----0
 62
     7
370
    25
100
AcDbLine
 10
743.059655
 20
304.872595
 30
0.0
 11
742.059655
 21
305.872595
 31
0.0
  0
LINE
  5
52D
330
4FD
100
AcDbEntity
  8
LC-005-005-----0
 62
     7
370
    25
100
AcDbLine
 10
729.840565
 20
318.091685
 30
0.0
 11
728.545526
 21
319.386724
 31
0.0
  0
LINE
  5
52E
330
4FD
100
AcDbEntity
  8
LC-005-005-----0
 62
     7
370
    25
100
AcDbLine
 10
848.650319
 20
195.03929
 30
0.0
 11
847.604541
 21
196.085068
 31
0.0
  0
LINE
  5
52F
330
4FD
100
AcDbEntity
  8
LC-005-005-----0
 62
     7
370
    25
100
AcDbLine
 10
834.059655
 20
209.629954
 30
0.0
 11
833.059655
 21
210.629954
 31
0.0
  0
LINE
  5
530
330
4FD
100
AcDbEntity
  8
LC-005-005-----0
 62
     7
370
    25
100
AcDbLine
 10
743.059655
 20
300.629954
 30
0.0
 11
742.059655
 21
301.629954
 31
0.0
  0
LINE
  5
531
330
4FD
100
AcDbEntity
  8
LC-005-005-----0
  6
DASHED
 62
     7
370
    25
100
AcDbLine
 10
840.972055
 20
194.232272
 30
0.0
 11
839.11926
 21
196.085068
 31
0.0
  0
LINE
  5
532
330
4FD
100
AcDbEntity
  8
LC-005-005-----0
  6
DASHED
 62
     7
370
    25
100
AcDbLine
 10
834.059655
 20
201.144673
 30
0.0
 11
833.059655
 21
202.144673
 31
0.0
  0
LINE
  5
533
330
4FD
100
AcDbEntity
  8
LC-005-005-----0
  6
DASHED
 62
     7
370
    25
100
AcDbLine
 10
743.059655
 20
292.144673
 30
0.0
 11
740.477935
 21
294.726393
 31
0.0
  0
LINE
  5
534
330
4FD
100
AcDbEntity
  8
LC-005-005-----0
  6
DASHED
 62
     7
370
    25
100
AcDbLine
 10
837.132924
 20
193.828763
 30
0.0
 11
834.876619
 21
196.085068
 31
0.0
  0
LINE
  5
535
330
4FD
100
AcDbEntity
  8
LC-005-005-----0
  6
DASHED
 62
     7
370
    25
100
AcDbLine
 10
834.059655
 20
196.902032
 30
0.0
 11
833.059655
 21
197.902032
 31
0.0
  0
LINE
  5
536
330
4FD
100
AcDbEntity
  8
LC-005-005-----0
  6
DASHED
 62
     7
370
    25
100
AcDbLine
 10
743.059655
 20
287.902032
 30
0.0
 11
742.059655
 21
288.902032
 31
0.0
  0
LINE
  5
537
330
4FD
100
AcDbEntity
  8
LC-005-005-----0
  6
DASHED
 62
     7
370
    25
100
AcDbLine
 10
738.433486
 20
292.528201
 30
0.0
 11
736.235294
 21
294.726393
 31
0.0
  0
LINE
  5
538
330
4FD
100
AcDbEntity
  8
LC-005-005-----0
 62
     7
370
    25
100
AcDbLine
 10
834.059655
 20
188.416751
 30
0.0
 11
833.059655
 21
189.416751
 31
0.0
  0
LINE
  5
539
330
4FD
100
AcDbEntity
  8
LC-005-005-----0
 62
     7
370
    25
100
AcDbLine
 10
743.059655
 20
279.416751
 30
0.0
 11
742.059655
 21
280.416751
 31
0.0
  0
LINE
  5
53A
330
4FD
100
AcDbEntity
  8
LC-005-005-----0
 62
     7
370
    25
100
AcDbLine
 10
728.951621
 20
293.524785
 30
0.0
 11
727.750013
 21
294.726393
 31
0.0
  0
LINE
  5
53B
330
4FD
100
AcDbEntity
  8
LC-005-005-----0
 62
     7
370
    25
100
AcDbLine
 10
847.930465
 20
170.303299
 30
0.0
 11
846.809029
 21
171.424736
 31
0.0
  0
LINE
  5
53C
330
4FD
100
AcDbEntity
  8
LC-005-005-----0
 62
     7
370
    25
100
AcDbLine
 10
834.059655
 20
184.17411
 30
0.0
 11
833.059655
 21
185.17411
 31
0.0
  0
LINE
  5
53D
330
4FD
100
AcDbEntity
  8
LC-005-005-----0
 62
     7
370
    25
100
AcDbLine
 10
743.059655
 20
275.17411
 30
0.0
 11
742.059655
 21
276.17411
 31
0.0
  0
LINE
  5
53E
330
4FD
100
AcDbEntity
  8
LC-005-005-----0
  6
DASHED
 62
     7
370
    25
100
AcDbLine
 10
840.252202
 20
169.496281
 30
0.0
 11
838.323747
 21
171.424736
 31
0.0
  0
LINE
  5
53F
330
4FD
100
AcDbEntity
  8
LC-005-005-----0
  6
DASHED
 62
     7
370
    25
100
AcDbLine
 10
834.059655
 20
175.688829
 30
0.0
 11
833.059655
 21
176.688829
 31
0.0
  0
LINE
  5
540
330
4FD
100
AcDbEntity
  8
LC-005-005-----0
  6
DASHED
 62
     7
370
    25
100
AcDbLine
 10
743.059655
 20
266.688829
 30
0.0
 11
739.682422
 21
270.066062
 31
0.0
  0
LINE
  5
541
330
4FD
100
AcDbEntity
  8
LC-005-005-----0
  6
DASHED
 62
     7
370
    25
100
AcDbLine
 10
836.41307
 20
169.092772
 30
0.0
 11
833.059655
 21
172.446188
 31
0.0
  0
LINE
  5
542
330
4FD
100
AcDbEntity
  8
LC-005-005-----0
  6
DASHED
 62
     7
370
    25
100
AcDbLine
 10
743.059655
 20
262.446188
 30
0.0
 11
742.059655
 21
263.446188
 31
0.0
  0
LINE
  5
543
330
4FD
100
AcDbEntity
  8
LC-005-005-----0
  6
DASHED
 62
     7
370
    25
100
AcDbLine
 10
737.544541
 20
267.961301
 30
0.0
 11
735.439781
 21
270.066062
 31
0.0
  0
LINE
  5
544
330
4FD
100
AcDbEntity
  8
LC-005-005-----0
 62
     7
370
    25
100
AcDbLine
 10
834.059655
 20
162.960907
 30
0.0
 11
833.059655
 21
163.960907
 31
0.0
  0
LINE
  5
545
330
4FD
100
AcDbEntity
  8
LC-005-005-----0
 62
     7
370
    25
100
AcDbLine
 10
743.059655
 20
253.960907
 30
0.0
 11
742.059655
 21
254.960907
 31
0.0
  0
LINE
  5
546
330
4FD
100
AcDbEntity
  8
LC-005-005-----0
 62
     7
370
    25
100
AcDbLine
 10
728.062676
 20
268.957886
 30
0.0
 11
726.963778
 21
270.056783
 31
0.0
  0
LINE
  5
547
330
4FD
100
AcDbEntity
  8
LC-005-005-----0
 62
     7
370
    25
100
AcDbLine
 10
847.210612
 20
145.567309
 30
0.0
 11
846.013516
 21
146.764405
 31
0.0
  0
LINE
  5
548
330
4FD
100
AcDbEntity
  8
LC-005-005-----0
 62
     7
370
    25
100
AcDbLine
 10
834.059655
 20
158.718266
 30
0.0
 11
833.059655
 21
159.718266
 31
0.0
  0
LINE
  5
549
330
4FD
100
AcDbEntity
  8
LC-005-005-----0
 62
     7
370
    25
100
AcDbLine
 10
743.059655
 20
249.718266
 30
0.0
 11
742.059655
 21
250.718266
 31
0.0
  0
LINE
  5
54A
330
4FD
100
AcDbEntity
  8
LC-005-005-----0
  6
DASHED
 62
     7
370
    25
100
AcDbLine
 10
839.532349
 20
144.760291
 30
0.0
 11
837.528235
 21
146.764405
 31
0.0
  0
LINE
  5
54B
330
4FD
100
AcDbEntity
  8
LC-005-005-----0
  6
DASHED
 62
     7
370
    25
100
AcDbLine
 10
834.059655
 20
150.232985
 30
0.0
 11
833.059655
 21
151.232985
 31
0.0
  0
LINE
  5
54C
330
4FD
100
AcDbEntity
  8
LC-005-005-----0
  6
DASHED
 62
     7
370
    25
100
AcDbLine
 10
743.059655
 20
241.232985
 30
0.0
 11
741.983242
 21
242.309398
 31
0.0
  0
LINE
  5
54D
330
4FD
100
AcDbEntity
  8
LC-005-005-----0
  6
DASHED
 62
     7
370
    25
100
AcDbLine
 10
741.443044
 20
242.849595
 30
0.0
 11
738.886909
 21
245.40573
 31
0.0
  0
LINE
  5
54E
330
4FD
100
AcDbEntity
  8
LC-005-005-----0
  6
DASHED
 62
     7
370
    25
100
AcDbLine
 10
835.693217
 20
144.356782
 30
0.0
 11
833.059655
 21
146.990344
 31
0.0
  0
LINE
  5
54F
330
4FD
100
AcDbEntity
  8
LC-005-005-----0
  6
DASHED
 62
     7
370
    25
100
AcDbLine
 10
743.059655
 20
236.990344
 30
0.0
 11
742.059655
 21
237.990344
 31
0.0
  0
LINE
  5
550
330
4FD
100
AcDbEntity
  8
LC-005-005-----0
  6
DASHED
 62
     7
370
    25
100
AcDbLine
 10
736.655597
 20
243.394402
 30
0.0
 11
734.644269
 21
245.40573
 31
0.0
  0
LINE
  5
551
330
4FD
100
AcDbEntity
  8
LC-005-005-----0
 62
     7
370
    25
100
AcDbLine
 10
834.059655
 20
137.505063
 30
0.0
 11
833.059655
 21
138.505063
 31
0.0
  0
LINE
  5
552
330
4FD
100
AcDbEntity
  8
LC-005-005-----0
 62
     7
370
    25
100
AcDbLine
 10
743.059655
 20
228.505063
 30
0.0
 11
742.059655
 21
229.505063
 31
0.0
  0
LINE
  5
553
330
4FD
100
AcDbEntity
  8
LC-005-005-----0
 62
     7
370
    25
100
AcDbLine
 10
727.173731
 20
244.390986
 30
0.0
 11
726.568003
 21
244.996715
 31
0.0
  0
LINE
  5
554
330
4FD
100
AcDbEntity
  8
LC-005-005-----0
 62
     7
370
    25
100
AcDbLine
 10
846.490759
 20
120.831318
 30
0.0
 11
845.218003
 21
122.104074
 31
0.0
  0
LINE
  5
555
330
4FD
100
AcDbEntity
  8
LC-005-005-----0
 62
     7
370
    25
100
AcDbLine
 10
834.059655
 20
133.262422
 30
0.0
 11
833.059655
 21
134.262422
 31
0.0
  0
LINE
  5
556
330
4FD
100
AcDbEntity
  8
LC-005-005-----0
 62
     7
370
    25
100
AcDbLine
 10
743.059655
 20
224.262422
 30
0.0
 11
742.059655
 21
225.262422
 31
0.0
  0
LINE
  5
557
330
4FD
100
AcDbEntity
  8
LC-005-005-----0
  6
DASHED
 62
     7
370
    25
100
AcDbLine
 10
838.812496
 20
120.0243
 30
0.0
 11
836.732722
 21
122.104074
 31
0.0
  0
LINE
  5
558
330
4FD
100
AcDbEntity
  8
LC-005-005-----0
  6
DASHED
 62
     7
370
    25
100
AcDbLine
 10
834.059655
 20
124.777141
 30
0.0
 11
833.059655
 21
125.777141
 31
0.0
  0
LINE
  5
559
330
4FD
100
AcDbEntity
  8
LC-005-005-----0
  6
DASHED
 62
     7
370
    25
100
AcDbLine
 10
743.059655
 20
215.777141
 30
0.0
 11
742.059655
 21
216.777141
 31
0.0
  0
LINE
  5
55A
330
4FD
100
AcDbEntity
  8
LC-005-005-----0
  6
DASHED
 62
     7
370
    25
100
AcDbLine
 10
740.507585
 20
218.32921
 30
0.0
 11
738.091396
 21
220.745399
 31
0.0
  0
LINE
  5
55B
330
4FD
100
AcDbEntity
  8
LC-005-005-----0
  6
DASHED
 62
     7
370
    25
100
AcDbLine
 10
834.973364
 20
119.620791
 30
0.0
 11
833.059655
 21
121.5345
 31
0.0
  0
LINE
  5
55C
330
4FD
100
AcDbEntity
  8
LC-005-005-----0
  6
DASHED
 62
     7
370
    25
100
AcDbLine
 10
743.059655
 20
211.5345
 30
0.0
 11
742.059655
 21
212.5345
 31
0.0
  0
LINE
  5
55D
330
4FD
100
AcDbEntity
  8
LC-005-005-----0
  6
DASHED
 62
     7
370
    25
100
AcDbLine
 10
735.766652
 20
218.827502
 30
0.0
 11
733.848756
 21
220.745399
 31
0.0
  0
LINE
  5
55E
330
4FD
100
AcDbEntity
  8
LC-005-005-----0
 62
     7
370
    25
100
AcDbLine
 10
849.461991
 20
96.646882
 30
0.0
 11
848.665131
 21
97.443742
 31
0.0
  0
LINE
  5
55F
330
4FD
100
AcDbEntity
  8
LC-005-005-----0
 62
     7
370
    25
100
AcDbLine
 10
834.059655
 20
112.049218
 30
0.0
 11
833.059655
 21
113.049218
 31
0.0
  0
LINE
  5
560
330
4FD
100
AcDbEntity
  8
LC-005-005-----0
 62
     7
370
    25
100
AcDbLine
 10
743.059655
 20
203.049218
 30
0.0
 11
742.059655
 21
204.049218
 31
0.0
  0
LINE
  5
561
330
4FD
100
AcDbEntity
  8
LC-005-005-----0
 62
     7
370
    25
100
AcDbLine
 10
845.770906
 20
96.095327
 30
0.0
 11
844.42249
 21
97.443742
 31
0.0
  0
LINE
  5
562
330
4FD
100
AcDbEntity
  8
LC-005-005-----0
 62
     7
370
    25
100
AcDbLine
 10
834.059655
 20
107.806578
 30
0.0
 11
833.059655
 21
108.806578
 31
0.0
  0
LINE
  5
563
330
4FD
100
AcDbEntity
  8
LC-005-005-----0
 62
     7
370
    25
100
AcDbLine
 10
743.059655
 20
198.806578
 30
0.0
 11
742.059655
 21
199.806578
 31
0.0
  0
LINE
  5
564
330
4FD
100
AcDbEntity
  8
LC-005-005-----0
  6
DASHED
 62
     7
370
    25
100
AcDbLine
 10
838.092642
 20
95.288309
 30
0.0
 11
835.937209
 21
97.443742
 31
0.0
  0
LINE
  5
565
330
4FD
100
AcDbEntity
  8
LC-005-005-----0
  6
DASHED
 62
     7
370
    25
100
AcDbLine
 10
834.059655
 20
99.321296
 30
0.0
 11
833.059655
 21
100.321296
 31
0.0
  0
LINE
  5
566
330
4FD
100
AcDbEntity
  8
LC-005-005-----0
  6
DASHED
 62
     7
370
    25
100
AcDbLine
 10
743.059655
 20
190.321296
 30
0.0
 11
742.059655
 21
191.321296
 31
0.0
  0
LINE
  5
567
330
4FD
100
AcDbEntity
  8
LC-005-005-----0
  6
DASHED
 62
     7
370
    25
100
AcDbLine
 10
739.61864
 20
193.762311
 30
0.0
 11
737.295884
 21
196.085068
 31
0.0
  0
LINE
  5
568
330
4FD
100
AcDbEntity
  8
LC-005-005-----0
  6
DASHED
 62
     7
370
    25
100
AcDbLine
 10
834.412192
 20
94.726118
 30
0.0
 11
833.059655
 21
96.078656
 31
0.0
  0
LINE
  5
569
330
4FD
100
AcDbEntity
  8
LC-005-005-----0
  6
DASHED
 62
     7
370
    25
100
AcDbLine
 10
743.059655
 20
186.078656
 30
0.0
 11
742.059655
 21
187.078656
 31
0.0
  0
LINE
  5
56A
330
4FD
100
AcDbEntity
  8
LC-005-005-----0
  6
DASHED
 62
     7
370
    25
100
AcDbLine
 10
734.877708
 20
194.260603
 30
0.0
 11
733.053243
 21
196.085068
 31
0.0
  0
LINE
  5
56B
330
4FD
100
AcDbEntity
  8
LC-005-005-----0
 62
     7
370
    25
100
AcDbLine
 10
848.890184
 20
71.762845
 30
0.0
 11
847.869618
 21
72.783411
 31
0.0
  0
LINE
  5
56C
330
4FD
100
AcDbEntity
  8
LC-005-005-----0
 62
     7
370
    25
100
AcDbLine
 10
834.059655
 20
86.593374
 30
0.0
 11
833.059655
 21
87.593374
 31
0.0
  0
LINE
  5
56D
330
4FD
100
AcDbEntity
  8
LC-005-005-----0
 62
     7
370
    25
100
AcDbLine
 10
743.059655
 20
177.593374
 30
0.0
 11
742.059655
 21
178.593374
 31
0.0
  0
LINE
  5
56E
330
4FD
100
AcDbEntity
  8
LC-005-005-----0
 62
     7
370
    25
100
AcDbLine
 10
845.051053
 20
71.359336
 30
0.0
 11
843.626977
 21
72.783411
 31
0.0
  0
LINE
  5
56F
330
4FD
100
AcDbEntity
  8
LC-005-005-----0
 62
     7
370
    25
100
AcDbLine
 10
834.059655
 20
82.350734
 30
0.0
 11
833.059655
 21
83.350734
 31
0.0
  0
LINE
  5
570
330
4FD
100
AcDbEntity
  8
LC-005-005-----0
 62
     7
370
    25
100
AcDbLine
 10
743.059655
 20
173.350734
 30
0.0
 11
742.059655
 21
174.350734
 31
0.0
  0
LINE
  5
571
330
4FD
100
AcDbEntity
  8
LC-005-005-----0
  6
DASHED
 62
     7
370
    25
100
AcDbLine
 10
837.372789
 20
70.552318
 30
0.0
 11
835.141696
 21
72.783411
 31
0.0
  0
LINE
  5
572
330
4FD
100
AcDbEntity
  8
LC-005-005-----0
  6
DASHED
 62
     7
370
    25
100
AcDbLine
 10
834.059655
 20
73.865452
 30
0.0
 11
833.059655
 21
74.865452
 31
0.0
  0
LINE
  5
573
330
4FD
100
AcDbEntity
  8
LC-005-005-----0
  6
DASHED
 62
     7
370
    25
100
AcDbLine
 10
743.059655
 20
164.865452
 30
0.0
 11
742.059655
 21
165.865452
 31
0.0
  0
LINE
  5
574
330
4FD
100
AcDbEntity
  8
LC-005-005-----0
  6
DASHED
 62
     7
370
    25
100
AcDbLine
 10
738.729696
 20
169.195411
 30
0.0
 11
736.500371
 21
171.424736
 31
0.0
  0
LINE
  5
575
330
4FD
100
AcDbEntity
  8
LC-005-005-----0
  6
DASHED
 62
     7
370
    25
100
AcDbLine
 10
834.099457
 20
69.58301
 30
0.0
 11
833.059655
 21
70.622812
 31
0.0
  0
LINE
  5
576
330
4FD
100
AcDbEntity
  8
LC-005-005-----0
  6
DASHED
 62
     7
370
    25
100
AcDbLine
 10
743.059655
 20
160.622812
 30
0.0
 11
742.059655
 21
161.622812
 31
0.0
  0
LINE
  5
577
330
4FD
100
AcDbEntity
  8
LC-005-005-----0
  6
DASHED
 62
     7
370
    25
100
AcDbLine
 10
733.988763
 20
169.693703
 30
0.0
 11
732.25773
 21
171.424736
 31
0.0
  0
LINE
  5
578
330
4FD
100
AcDbEntity
  8
LC-005-005-----0
 62
     7
370
    25
100
AcDbLine
 10
848.170331
 20
47.026854
 30
0.0
 11
847.074105
 21
48.12308
 31
0.0
  0
LINE
  5
579
330
4FD
100
AcDbEntity
  8
LC-005-005-----0
 62
     7
370
    25
100
AcDbLine
 10
834.059655
 20
61.13753
 30
0.0
 11
833.059655
 21
62.13753
 31
0.0
  0
LINE
  5
57A
330
4FD
100
AcDbEntity
  8
LC-005-005-----0
 62
     7
370
    25
100
AcDbLine
 10
743.059655
 20
152.13753
 30
0.0
 11
742.059655
 21
153.13753
 31
0.0
  0
LINE
  5
57B
330
4FD
100
AcDbEntity
  8
LC-005-005-----0
 62
     7
370
    25
100
AcDbLine
 10
844.331199
 20
46.623345
 30
0.0
 11
842.831465
 21
48.12308
 31
0.0
  0
LINE
  5
57C
330
4FD
100
AcDbEntity
  8
LC-005-005-----0
 62
     7
370
    25
100
AcDbLine
 10
834.059655
 20
56.89489
 30
0.0
 11
833.059655
 21
57.89489
 31
0.0
  0
LINE
  5
57D
330
4FD
100
AcDbEntity
  8
LC-005-005-----0
 62
     7
370
    25
100
AcDbLine
 10
743.059655
 20
147.89489
 30
0.0
 11
742.059655
 21
148.89489
 31
0.0
  0
LINE
  5
57E
330
4FD
100
AcDbEntity
  8
LC-005-005-----0
  6
DASHED
 62
     7
370
    25
100
AcDbLine
 10
836.652936
 20
45.816327
 30
0.0
 11
833.059655
 21
49.409608
 31
0.0
  0
LINE
  5
57F
330
4FD
100
AcDbEntity
  8
LC-005-005-----0
  6
DASHED
 62
     7
370
    25
100
AcDbLine
 10
743.059655
 20
139.409608
 30
0.0
 11
742.059655
 21
140.409608
 31
0.0
  0
LINE
  5
580
330
4FD
100
AcDbEntity
  8
LC-005-005-----0
  6
DASHED
 62
     7
370
    25
100
AcDbLine
 10
737.840751
 20
144.628512
 30
0.0
 11
735.704858
 21
146.764405
 31
0.0
  0
LINE
  5
581
330
4FD
100
AcDbEntity
  8
LC-005-005-----0
  6
DASHED
 62
     7
370
    25
100
AcDbLine
 10
833.860182
 20
44.366441
 30
0.0
 11
833.059655
 21
45.166967
 31
0.0
  0
LINE
  5
582
330
4FD
100
AcDbEntity
  8
LC-005-005-----0
  6
DASHED
 62
     7
370
    25
100
AcDbLine
 10
743.059655
 20
135.166967
 30
0.0
 11
742.059655
 21
136.166967
 31
0.0
  0
LINE
  5
583
330
4FD
100
AcDbEntity
  8
LC-005-005-----0
  6
DASHED
 62
     7
370
    25
100
AcDbLine
 10
733.099818
 20
145.126804
 30
0.0
 11
731.462217
 21
146.764405
 31
0.0
  0
LINE
  5
584
330
4FD
100
AcDbEntity
  8
LC-005-005-----0
 62
     7
370
    25
100
AcDbLine
 10
743.059655
 20
126.681686
 30
0.0
 11
742.059655
 21
127.681686
 31
0.0
  0
LINE
  5
585
330
4FD
100
AcDbEntity
  8
LC-005-005-----0
 62
     7
370
    25
100
AcDbLine
 10
743.059655
 20
122.439045
 30
0.0
 11
742.059655
 21
123.439045
 31
0.0
  0
LINE
  5
586
330
4FD
100
AcDbEntity
  8
LC-005-005-----0
  6
DASHED
 62
     7
370
    25
100
AcDbLine
 10
743.059655
 20
113.953764
 30
0.0
 11
742.059655
 21
114.953764
 31
0.0
  0
LINE
  5
587
330
4FD
100
AcDbEntity
  8
LC-005-005-----0
  6
DASHED
 62
     7
370
    25
100
AcDbLine
 10
736.951806
 20
120.061612
 30
0.0
 11
734.909345
 21
122.104074
 31
0.0
  0
LINE
  5
588
330
4FD
100
AcDbEntity
  8
LC-005-005-----0
  6
DASHED
 62
     7
370
    25
100
AcDbLine
 10
743.059655
 20
109.711123
 30
0.0
 11
742.059655
 21
110.711123
 31
0.0
  0
LINE
  5
589
330
4FD
100
AcDbEntity
  8
LC-005-005-----0
  6
DASHED
 62
     7
370
    25
100
AcDbLine
 10
732.210874
 20
120.559905
 30
0.0
 11
730.666705
 21
122.104074
 31
0.0
  0
LINE
  5
58A
330
4FD
100
AcDbEntity
  8
LC-005-005-----0
 62
     7
370
    25
100
AcDbLine
 10
743.059655
 20
101.225842
 30
0.0
 11
742.059655
 21
102.225842
 31
0.0
  0
LINE
  5
58B
330
4FD
100
AcDbEntity
  8
LC-005-005-----0
 62
     7
370
    25
100
AcDbLine
 10
743.059655
 20
96.983201
 30
0.0
 11
742.059655
 21
97.983201
 31
0.0
  0
LINE
  5
58C
330
4FD
100
AcDbEntity
  8
LC-005-005-----0
  6
DASHED
 62
     7
370
    25
100
AcDbLine
 10
743.059655
 20
88.49792
 30
0.0
 11
742.059655
 21
89.49792
 31
0.0
  0
LINE
  5
58D
330
4FD
100
AcDbEntity
  8
LC-005-005-----0
  6
DASHED
 62
     7
370
    25
100
AcDbLine
 10
736.062862
 20
95.494713
 30
0.0
 11
734.113832
 21
97.443742
 31
0.0
  0
LINE
  5
58E
330
4FD
100
AcDbEntity
  8
LC-005-005-----0
  6
DASHED
 62
     7
370
    25
100
AcDbLine
 10
743.059655
 20
84.255279
 30
0.0
 11
742.059655
 21
85.255279
 31
0.0
  0
LINE
  5
58F
330
4FD
100
AcDbEntity
  8
LC-005-005-----0
  6
DASHED
 62
     7
370
    25
100
AcDbLine
 10
731.321929
 20
95.993005
 30
0.0
 11
729.871192
 21
97.443742
 31
0.0
  0
LINE
  5
590
330
4FD
100
AcDbEntity
  8
LC-005-005-----0
 62
     7
370
    25
100
AcDbLine
 10
743.059655
 20
75.769998
 30
0.0
 11
742.059655
 21
76.769998
 31
0.0
  0
LINE
  5
591
330
4FD
100
AcDbEntity
  8
LC-005-005-----0
 62
     7
370
    25
100
AcDbLine
 10
743.059655
 20
71.527357
 30
0.0
 11
741.761187
 21
72.825825
 31
0.0
  0
LINE
  5
592
330
4FD
100
AcDbEntity
  8
LC-005-005-----0
  6
DASHED
 62
     7
370
    25
100
AcDbLine
 10
743.059655
 20
63.042076
 30
0.0
 11
742.059655
 21
64.042076
 31
0.0
  0
LINE
  5
593
330
4FD
100
AcDbEntity
  8
LC-005-005-----0
  6
DASHED
 62
     7
370
    25
100
AcDbLine
 10
735.173917
 20
70.927813
 30
0.0
 11
733.31832
 21
72.783411
 31
0.0
  0
LINE
  5
594
330
4FD
100
AcDbEntity
  8
LC-005-005-----0
  6
DASHED
 62
     7
370
    25
100
AcDbLine
 10
743.059655
 20
58.799435
 30
0.0
 11
742.059655
 21
59.799435
 31
0.0
  0
LINE
  5
595
330
4FD
100
AcDbEntity
  8
LC-005-005-----0
  6
DASHED
 62
     7
370
    25
100
AcDbLine
 10
730.432984
 20
71.426106
 30
0.0
 11
729.075679
 21
72.783411
 31
0.0
  0
LINE
  5
596
330
4FD
100
AcDbEntity
  8
LC-005-005-----0
 62
     7
370
    25
100
AcDbLine
 10
743.059655
 20
50.314154
 30
0.0
 11
742.059655
 21
51.314154
 31
0.0
  0
LINE
  5
597
330
4FD
100
AcDbEntity
  8
LC-005-005-----0
 62
     7
370
    25
100
AcDbLine
 10
743.059655
 20
46.071513
 30
0.0
 11
741.008088
 21
48.12308
 31
0.0
  0
LINE
  5
598
330
4FD
100
AcDbEntity
  8
LC-005-005-----0
  6
DASHED
 62
     7
370
    25
100
AcDbLine
 10
734.284972
 20
46.360914
 30
0.0
 11
732.522807
 21
48.12308
 31
0.0
  0
LINE
  5
599
330
4FD
100
AcDbEntity
  8
LC-005-005-----0
  6
DASHED
 62
     7
370
    25
100
AcDbLine
 10
729.54404
 20
46.859206
 30
0.0
 11
728.280166
 21
48.12308
 31
0.0
  0
ENDBLK
  5
4FF
330
4FD
100
AcDbEntity
  8
0
100
AcDbBlockEnd
  0
BLOCK
  5
5A6
330
59C
100
AcDbEntity
  8
0
100
AcDbBlockBegin
  2
*D20
 70
     1
 71
     0
 10
0.0
 20
0.0
 30
0.0
  3
*D20
  1

  0
LINE
  5
59D
330
59C
100
AcDbEntity
  8
LC-003-003-----0
 62
     2
370
    -2
100
AcDbLine
 10
849.55897
 20
47.649248
 30
0.0
 11
849.55897
 21
-70.322086
 31
0.0
  0
LINE
  5
59E
330
59C
100
AcDbEntity
  8
LC-003-003-----0
 62
     2
370
    -2
100
AcDbLine
 10
726.56034
 20
47.649248
 30
0.0
 11
726.56034
 21
-70.322086
 31
0.0
  0
LINE
  5
59F
330
59C
100
AcDbEntity
  8
LC-003-003-----0
 62
     2
370
    -2
100
AcDbLine
 10
821.55897
 20
-66.722086
 30
0.0
 11
754.56034
 21
-66.722086
 31
0.0
  0
SOLID
  5
5A0
330
59C
100
AcDbEntity
  8
LC-003-003-----0
 62
     2
100
AcDbTrace
 10
821.55897
 20
-71.388753
 30
0.0
 11
821.55897
 21
-62.055419
 31
0.0
 12
849.55897
 22
-66.722086
 32
0.0
 13
849.55897
 23
-66.722086
 33
0.0
  0
SOLID
  5
5A1
330
59C
100
AcDbEntity
  8
LC-003-003-----0
 62
     2
100
AcDbTrace
 10
754.56034
 20
-62.055419
 30
0.0
 11
754.56034
 21
-71.388753
 31
0.0
 12
726.56034
 22
-66.722086
 32
0.0
 13
726.56034
 23
-66.722086
 33
0.0
  0
MTEXT
  5
5A2
330
59C
100
AcDbEntity
  8
LC-003-003-----0
 62
     2
100
AcDbMText
 10
780.016784
 20
-35.922086
 30
0.0
 40
28.0
 41
0.0
 71
     5
 72
     1
  1
%%c\A1;123
  7
LCTX15-400-0-0pDIN-Schrift
 73
     1
 44
1.0
  0
POINT
  5
5A3
330
59C
100
AcDbEntity
  8
Defpoints
 62
     0
100
AcDbPoint
 10
849.55897
 20
47.649248
 30
0.0
  0
POINT
  5
5A4
330
59C
100
AcDbEntity
  8
Defpoints
 62
     0
100
AcDbPoint
 10
726.56034
 20
47.649248
 30
0.0
  0
POINT
  5
5A5
330
59C
100
AcDbEntity
  8
Defpoints
 62
     0
100
AcDbPoint
 10
726.56034
 20
-66.722086
 30
0.0
  0
ENDBLK
  5
5A7
330
59C
100
AcDbEntity
  8
0
100
AcDbBlockEnd
  0
ENDSEC
  0
SECTION
  2
ENTITIES
  0
ARC
  5
32
102
{ACAD_REACTORS
330
5AF
102
}
330
1F
100
AcDbEntity
  8
LC-001-002-RND-0
 62
     7
370
    50
100
AcDbCircle
 10
688.554557
 20
466.807099
 30
0.0
 40
0.5000000000000066
100
AcDbArc
 50
180.000346
 51
270.000347
  0
ARC
  5
33
102
{ACAD_REACTORS
330
5AF
102
}
330
1F
100
AcDbEntity
  8
LC-001-002-RND-0
 62
     7
370
    50
100
AcDbCircle
 10
699.557698
 20
466.807273
 30
0.0
 40
0.499999999999971
100
AcDbArc
 50
270.002776
 51
0.010765
  0
LINE
  5
35
102
{ACAD_REACTORS
330
5A8
102
}
330
1F
100
AcDbEntity
  8
LC-002-002-----0
 62
     7
370
    50
100
AcDbLine
 10
867.059386
 20
496.151679
 30
0.0
 11
870.595284
 21
496.151679
 31
0.0
  0
LINE
  5
36
102
{ACAD_REACTORS
330
5A8
102
}
330
1F
100
AcDbEntity
  8
LC-002-002-----0
 62
     7
370
    50
100
AcDbLine
 10
709.059386
 20
496.151679
 30
0.0
 11
705.523487
 21
496.151679
 31
0.0
  0
ELLIPSE
  5
37
330
1F
100
AcDbEntity
  8
LC-002-002-----0
 62
     7
370
    50
100
AcDbEllipse
 10
349.47061
 20
414.581311
 30
0.0
 11
2.886751345730807
 21
7.919336044576602E-6
 31
0.0
210
0.0
220
0.0
230
1.0
 40
0.231793
 41
1.570793084174306
 42
1.570796326794916
  0
ELLIPSE
  5
38
330
1F
100
AcDbEntity
  8
LC-002-002-----0
 62
     7
370
    50
100
AcDbEllipse
 10
349.47062
 20
410.719569
 30
0.0
 11
2.886751345730806
 21
7.919336044576602E-6
 31
0.0
210
0.0
220
0.0
230
1.0
 40
0.231793
 41
4.71238919012392
 42
4.71238919012392
  0
ELLIPSE
  5
39
330
1F
100
AcDbEntity
  8
LC-002-002-----0
 62
     7
370
    50
100
AcDbEllipse
 10
161.457513
 20
414.581053
 30
0.0
 11
2.886751345741668
 21
0.0
 31
0.0
210
0.0
220
0.0
230
1.0
 40
0.231793
 41
1.570796326794975
 42
1.570799569415586
  0
ELLIPSE
  5
3A
330
1F
100
AcDbEntity
  8
LC-002-002-----0
 62
     7
370
    50
100
AcDbEllipse
 10
161.457513
 20
410.719311
 30
0.0
 11
2.886751345328715
 21
0.0
 31
0.0
210
0.0
220
0.0
230
1.0
 40
0.231793
 41
4.712388770645568
 42
4.712388770645568
  0
DIMENSION
  5
3E
330
1F
100
AcDbEntity
  8
LC-003-003-----0
 62
     7
370
    25
100
AcDbDimension
  2
*D1
 10
861.559655
 20
410.719914
 30
0.0
 11
788.059655
 21
441.519914
 31
0.0
 70
   160
  1
%%c<>
 71
     5
 42
147.0
  3
LC-DIM-L-0140-02-02
100
AcDbAlignedDimension
 13
714.559655
 23
448.065914
 33
0.0
 14
861.559655
 24
448.065914
 34
0.0
100
AcDbRotatedDimension
  0
DIMENSION
  5
4C
330
1F
100
AcDbEntity
  8
LC-003-003-----0
 62
     7
370
    25
100
AcDbDimension
  2
*D2
 10
833.059655
 20
-13.435979
 30
0.0
 11
783.207191
 21
17.364021
 31
0.0
 70
   160
  1
%%c<>
 71
     5
 42
90.0
  3
LC-DIM-L-0140-02-02
100
AcDbAlignedDimension
 13
743.059655
 23
38.565914
 33
0.0
 14
833.059655
 24
38.565914
 34
0.0
100
AcDbRotatedDimension
  0
LINE
  5
59
102
{ACAD_REACTORS
330
5AF
102
}
330
1F
100
AcDbEntity
  8
LC-002-002-----0
 62
     7
370
    50
100
AcDbLine
 10
861.559655
 20
448.065914
 30
0.0
 11
865.809655
 21
448.065914
 31
0.0
  0
LINE
  5
5A
102
{ACAD_REACTORS
330
5AF
102
}
330
1F
100
AcDbEntity
  8
LC-002-002-----0
 62
     7
370
    50
100
AcDbLine
 10
746.059655
 20
34.065914
 30
0.0
 11
830.059655
 21
34.065914
 31
0.0
  0
LINE
  5
5B
102
{ACAD_REACTORS
330
5AF
102
}
330
1F
100
AcDbEntity
  8
LC-002-002-----0
 62
     7
370
    50
100
AcDbLine
 10
702.559654
 20
464.565914
 30
0.0
 11
706.309655
 21
464.565914
 31
0.0
  0
LINE
  5
5C
102
{ACAD_REACTORS
330
5AF
102
}
330
1F
100
AcDbEntity
  8
LC-002-002-----0
 62
     7
370
    50
100
AcDbLine
 10
707.309655
 20
463.565914
 30
0.0
 11
707.309655
 21
451.065914
 31
0.0
  0
LINE
  5
5D
102
{ACAD_REACTORS
330
5AF
102
}
330
1F
100
AcDbEntity
  8
LC-002-002-----0
 62
     7
370
    50
100
AcDbLine
 10
702.559654
 20
464.565914
 30
0.0
 11
702.559654
 21
481.311988
 31
0.0
  0
LINE
  5
5E
102
{ACAD_REACTORS
330
5AF
102
}
330
1F
100
AcDbEntity
  8
LC-002-002-----0
 62
     7
370
    50
100
AcDbLine
 10
705.559654
 20
467.565914
 30
0.0
 11
705.559654
 21
484.309731
 31
0.0
  0
LINE
  5
5F
102
{ACAD_REACTORS
330
5AF
102
}
330
1F
100
AcDbEntity
  8
LC-002-002-----0
 62
     7
370
    50
100
AcDbLine
 10
870.559654
 20
484.309731
 30
0.0
 11
870.559654
 21
467.565914
 31
0.0
  0
LINE
  5
60
102
{ACAD_REACTORS
330
5AF
102
}
330
1F
100
AcDbEntity
  8
LC-002-002-----0
 62
     7
370
    50
100
AcDbLine
 10
870.559654
 20
467.565914
 30
0.0
 11
865.809655
 21
467.565914
 31
0.0
  0
LINE
  5
61
102
{ACAD_REACTORS
330
5AF
102
}
330
1F
100
AcDbEntity
  8
LC-002-002-----0
 62
     7
370
    50
100
AcDbLine
 10
706.309655
 20
464.565914
 30
0.0
 11
707.309655
 21
463.565914
 31
0.0
  0
LINE
  5
62
102
{ACAD_REACTORS
330
5AF
102
}
330
1F
100
AcDbEntity
  8
LC-002-002-----0
 62
     7
370
    50
100
AcDbLine
 10
743.059655
 20
394.065568
 30
0.0
 11
743.059655
 21
38.565914
 31
0.0
  0
LINE
  5
65
102
{ACAD_REACTORS
330
5AF
102
}
330
1F
100
AcDbEntity
  8
LC-004-006-MLN-0
 62
     7
370
    25
100
AcDbLine
 10
788.059655
 20
581.151744
 30
0.0
 11
788.059655
 21
449.469437
 31
0.0
  0
LINE
  5
66
102
{ACAD_REACTORS
330
5AF
102
}
330
1F
100
AcDbEntity
  8
LC-002-002-----0
 62
     7
370
    50
100
AcDbLine
 10
873.559656
 20
464.565914
 30
0.0
 11
873.559656
 21
466.307381
 31
0.0
  0
LINE
  5
67
102
{ACAD_REACTORS
330
5AF
102
}
330
1F
100
AcDbEntity
  8
LC-002-002-----0
 62
     7
370
    50
100
AcDbLine
 10
869.809655
 20
464.565914
 30
0.0
 11
868.809655
 21
463.565914
 31
0.0
  0
LINE
  5
68
102
{ACAD_REACTORS
330
5AF
102
}
330
1F
100
AcDbEntity
  8
LC-002-002-----0
 62
     7
370
    50
100
AcDbLine
 10
868.809655
 20
463.565914
 30
0.0
 11
868.809655
 21
451.065914
 31
0.0
  0
LINE
  5
69
102
{ACAD_REACTORS
330
5AF
102
}
330
1F
100
AcDbEntity
  8
LC-002-002-----0
 62
     7
370
    50
100
AcDbLine
 10
660.317992
 20
493.065914
 30
0.0
 11
684.374544
 21
484.310163
 31
0.0
  0
LINE
  5
6A
102
{ACAD_REACTORS
330
5AF
102
}
330
1F
100
AcDbEntity
  8
LC-002-002-----0
 62
     7
370
    50
100
AcDbLine
 10
690.909371
 20
484.308115
 30
0.0
 11
684.374544
 21
484.310163
 31
0.0
  0
LINE
  5
6B
102
{ACAD_REACTORS
330
5AF
102
}
330
1F
100
AcDbEntity
  8
LC-002-002-----0
 62
     7
370
    50
100
AcDbLine
 10
705.559654
 20
467.565914
 30
0.0
 11
710.309655
 21
467.565914
 31
0.0
  0
LINE
  5
6C
102
{ACAD_REACTORS
330
5AF
102
}
330
1F
100
AcDbEntity
  8
LC-002-002-----0
 62
     7
370
    50
100
AcDbLine
 10
688.054557
 20
466.807096
 30
0.0
 11
688.054475
 21
480.309009
 31
0.0
  0
LINE
  5
6D
102
{ACAD_REACTORS
330
5AF
102
}
330
1F
100
AcDbEntity
  8
LC-002-002-----0
 62
     7
370
    50
100
AcDbLine
 10
688.55456
 20
466.307099
 30
0.0
 11
690.056176
 21
466.307108
 31
0.0
  0
LINE
  5
6E
102
{ACAD_REACTORS
330
5AF
102
}
330
1F
100
AcDbEntity
  8
LC-002-002-----0
 62
     7
370
    50
100
AcDbLine
 10
696.804857
 20
479.907004
 30
0.0
 11
696.805642
 21
471.808525
 31
0.0
  0
LINE
  5
6F
102
{ACAD_REACTORS
330
5AF
102
}
330
1F
100
AcDbEntity
  8
LC-002-002-----0
 62
     7
370
    50
100
AcDbLine
 10
705.552734
 20
484.309374
 30
0.0
 11
697.209371
 21
484.308564
 31
0.0
  0
LINE
  5
70
102
{ACAD_REACTORS
330
5AF
102
}
330
1F
100
AcDbEntity
  8
LC-002-002-----0
 62
     7
370
    50
100
AcDbLine
 10
691.304856
 20
479.922629
 30
0.0
 11
691.305643
 21
471.807991
 31
0.0
  0
LINE
  5
71
102
{ACAD_REACTORS
330
5AF
102
}
330
1F
100
AcDbEntity
  8
LC-002-002-----0
 62
     7
370
    50
100
AcDbLine
 10
698.05622
 20
466.3072
 30
0.0
 11
699.557723
 21
466.307273
 31
0.0
  0
LINE
  5
72
102
{ACAD_REACTORS
330
5AF
102
}
330
1F
100
AcDbEntity
  8
LC-002-002-----0
 62
     7
370
    50
100
AcDbLine
 10
915.795862
 20
493.065914
 30
0.0
 11
891.727609
 21
484.308409
 31
0.0
  0
LINE
  5
73
102
{ACAD_REACTORS
330
5AF
102
}
330
1F
100
AcDbEntity
  8
LC-004-006-MLN-0
 62
     7
370
    25
100
AcDbLine
 10
882.067214
 20
509.697637
 30
0.0
 11
882.062849
 21
461.808258
 31
0.0
  0
LINE
  5
74
102
{ACAD_REACTORS
330
5AF
102
}
330
1F
100
AcDbEntity
  8
LC-002-002-----0
 62
     7
370
    50
100
AcDbLine
 10
885.219812
 20
484.308409
 30
0.0
 11
891.727609
 21
484.308409
 31
0.0
  0
LINE
  5
75
102
{ACAD_REACTORS
330
5AF
102
}
330
1F
100
AcDbEntity
  8
LC-002-002-----0
 62
     7
370
    50
100
AcDbLine
 10
888.064852
 20
466.807123
 30
0.0
 11
888.064841
 21
480.309009
 31
0.0
  0
LINE
  5
76
102
{ACAD_REACTORS
330
5AF
102
}
330
1F
100
AcDbEntity
  8
LC-002-002-----0
 62
     7
370
    50
100
AcDbLine
 10
879.314538
 20
479.919592
 30
0.0
 11
879.313804
 21
471.808525
 31
0.0
  0
LINE
  5
77
102
{ACAD_REACTORS
330
5AF
102
}
330
1F
100
AcDbEntity
  8
LC-002-002-----0
 62
     7
370
    50
100
AcDbLine
 10
710.309655
 20
451.065914
 30
0.0
 11
710.309655
 21
467.565914
 31
0.0
  0
LINE
  5
78
102
{ACAD_REACTORS
330
5AF
102
}
330
1F
100
AcDbEntity
  8
LC-002-002-----0
 62
     7
370
    50
100
AcDbLine
 10
865.809655
 20
451.065914
 30
0.0
 11
865.809655
 21
467.565914
 31
0.0
  0
LINE
  5
79
102
{ACAD_REACTORS
330
5AF
102
}
330
1F
100
AcDbEntity
  8
LC-002-002-----0
 62
     7
370
    50
100
AcDbLine
 10
746.059655
 20
397.065568
 30
0.0
 11
746.059655
 21
34.065914
 31
0.0
  0
LINE
  5
7A
102
{ACAD_REACTORS
330
5AF
102
}
330
1F
100
AcDbEntity
  8
LC-002-002-----0
 62
     7
370
    50
100
AcDbLine
 10
870.566631
 20
484.309731
 30
0.0
 11
878.919812
 21
484.308956
 31
0.0
  0
LINE
  5
7B
102
{ACAD_REACTORS
330
5AF
102
}
330
1F
100
AcDbEntity
  8
LC-002-002-----0
 62
     7
370
    50
100
AcDbLine
 10
833.05966
 20
394.065568
 30
0.0
 11
833.059655
 21
38.565914
 31
0.0
  0
LINE
  5
7C
102
{ACAD_REACTORS
330
5AF
102
}
330
1F
100
AcDbEntity
  8
LC-002-002-----0
 62
     7
370
    50
100
AcDbLine
 10
831.853883
 20
34.065914
 30
0.0
 11
833.059655
 21
38.565914
 31
0.0
  0
LINE
  5
7D
102
{ACAD_REACTORS
330
5AF
102
}
330
1F
100
AcDbEntity
  8
LC-002-002-----0
 62
     7
370
    50
100
AcDbLine
 10
884.814536
 20
479.901734
 30
0.0
 11
884.813804
 21
471.807991
 31
0.0
  0
LINE
  5
7E
102
{ACAD_REACTORS
330
5AF
102
}
330
1F
100
AcDbEntity
  8
LC-002-002-----0
 62
     7
370
    50
100
AcDbLine
 10
744.265426
 20
34.065914
 30
0.0
 11
743.059655
 21
38.565914
 31
0.0
  0
LINE
  5
7F
102
{ACAD_REACTORS
330
5AF
102
}
330
1F
100
AcDbEntity
  8
LC-002-002-----0
 62
     7
370
    50
100
AcDbLine
 10
746.059655
 20
34.065914
 30
0.0
 11
744.265426
 21
34.065914
 31
0.0
  0
LINE
  5
80
102
{ACAD_REACTORS
330
5AF
102
}
330
1F
100
AcDbEntity
  8
LC-002-002-----0
 62
     7
370
    50
100
AcDbLine
 10
830.059655
 20
34.065914
 30
0.0
 11
831.853883
 21
34.065914
 31
0.0
  0
LINE
  5
81
102
{ACAD_REACTORS
330
5AF
102
}
330
1F
100
AcDbEntity
  8
LC-002-002-----0
 62
     7
370
    50
100
AcDbLine
 10
830.05966
 20
397.065568
 30
0.0
 11
830.059655
 21
34.065914
 31
0.0
  0
ARC
  5
82
102
{ACAD_REACTORS
330
5AF
102
}
330
1F
100
AcDbEntity
  8
LC-001-002-RND-0
 62
     7
370
    50
100
AcDbCircle
 10
887.564852
 20
466.807122
 30
0.0
 40
0.5
100
AcDbArc
 50
270.0
 51
0.000045
  0
LINE
  5
83
102
{ACAD_REACTORS
330
5AF
102
}
330
1F
100
AcDbEntity
  8
LC-002-002-----0
 62
     7
370
    50
100
AcDbLine
 10
710.309655
 20
451.065914
 30
0.0
 11
716.291706
 21
451.065914
 31
0.0
  0
ARC
  5
84
102
{ACAD_REACTORS
330
5AF
102
}
330
1F
100
AcDbEntity
  8
LC-001-002-RND-0
 62
     7
370
    50
100
AcDbCircle
 10
865.809655
 20
451.065914
 30
0.0
 40
3.0
100
AcDbArc
 50
270.0
 51
360.0
  0
LINE
  5
85
102
{ACAD_REACTORS
330
5AF
102
}
330
1F
100
AcDbEntity
  8
LC-002-002-----0
 62
     7
370
    50
100
AcDbLine
 10
705.559654
 20
467.565914
 30
0.0
 11
710.309655
 21
467.565914
 31
0.0
  0
LINE
  5
86
102
{ACAD_REACTORS
330
5AF
102
}
330
1F
100
AcDbEntity
  8
LC-002-002-----0
 62
     7
370
    50
100
AcDbLine
 10
851.05966
 20
429.879389
 30
0.0
 11
861.559655
 21
448.065914
 31
0.0
  0
LINE
  5
87
102
{ACAD_REACTORS
330
5AF
102
}
330
1F
100
AcDbEntity
  8
LC-002-002-----0
 62
     7
370
    50
100
AcDbLine
 10
848.05966
 20
430.683237
 30
0.0
 11
859.827604
 21
451.065914
 31
0.0
  0
LINE
  5
88
102
{ACAD_REACTORS
330
5AF
102
}
330
1F
100
AcDbEntity
  8
LC-002-002-----0
 62
     7
370
    50
100
AcDbLine
 10
728.05965
 20
430.683237
 30
0.0
 11
716.291706
 21
451.065914
 31
0.0
  0
LINE
  5
89
102
{ACAD_REACTORS
330
5AF
102
}
330
1F
100
AcDbEntity
  8
LC-002-002-----0
 62
     7
370
    50
100
AcDbLine
 10
725.05965
 20
429.879389
 30
0.0
 11
714.559655
 21
448.065914
 31
0.0
  0
LINE
  5
8A
102
{ACAD_REACTORS
330
5AF
102
}
330
1F
100
AcDbEntity
  8
LC-002-002-----0
 62
     7
370
    50
100
AcDbLine
 10
714.559655
 20
448.065914
 30
0.0
 11
710.309655
 21
448.065914
 31
0.0
  0
ARC
  5
8B
102
{ACAD_REACTORS
330
5AF
102
}
330
1F
100
AcDbEntity
  8
LC-001-002-RND-0
 62
     7
370
    50
100
AcDbCircle
 10
710.309655
 20
451.065914
 30
0.0
 40
3.0
100
AcDbArc
 50
180.0
 51
270.0
  0
LINE
  5
8C
102
{ACAD_REACTORS
330
5AF
102
}
330
1F
100
AcDbEntity
  8
LC-002-002-----0
 62
     7
370
    50
100
AcDbLine
 10
716.291706
 20
451.065914
 30
0.0
 11
865.809655
 21
451.065914
 31
0.0
  0
LINE
  5
8D
102
{ACAD_REACTORS
330
5AF
102
}
330
1F
100
AcDbEntity
  8
LC-002-002-----0
 62
     7
370
    50
100
AcDbLine
 10
965.059655
 20
490.065914
 30
0.0
 11
965.059655
 21
491.065914
 31
0.0
  0
LINE
  5
8E
102
{ACAD_REACTORS
330
5AF
102
}
330
1F
100
AcDbEntity
  8
LC-002-002-----0
 62
     7
370
    50
100
AcDbLine
 10
611.059655
 20
490.065914
 30
0.0
 11
611.059655
 21
491.065914
 31
0.0
  0
LINE
  5
8F
102
{ACAD_REACTORS
330
5AF
102
}
330
1F
100
AcDbEntity
  8
LC-002-002-----0
 62
     7
370
    50
100
AcDbLine
 10
613.059655
 20
493.065914
 30
0.0
 11
660.317992
 21
493.065914
 31
0.0
  0
LINE
  5
90
102
{ACAD_REACTORS
330
5AF
102
}
330
1F
100
AcDbEntity
  8
LC-002-002-----0
 62
     7
370
    50
100
AcDbLine
 10
611.059655
 20
490.065914
 30
0.0
 11
659.789018
 21
490.065914
 31
0.0
  0
LINE
  5
91
102
{ACAD_REACTORS
330
5AF
102
}
330
1F
100
AcDbEntity
  8
LC-002-002-----0
 62
     7
370
    50
100
AcDbLine
 10
965.059655
 20
490.065914
 30
0.0
 11
916.330292
 21
490.065914
 31
0.0
  0
LINE
  5
92
102
{ACAD_REACTORS
330
5AF
102
}
330
1F
100
AcDbEntity
  8
LC-002-002-----0
 62
     7
370
    50
100
AcDbLine
 10
659.789018
 20
490.065914
 30
0.0
 11
683.845114
 21
481.310329
 31
0.0
  0
LINE
  5
93
102
{ACAD_REACTORS
330
5AF
102
}
330
1F
100
AcDbEntity
  8
LC-002-002-----0
 62
     7
370
    50
100
AcDbLine
 10
916.330292
 20
490.065914
 30
0.0
 11
892.274195
 21
481.310329
 31
0.0
  0
LINE
  5
94
102
{ACAD_REACTORS
330
5AF
102
}
330
1F
100
AcDbEntity
  8
LC-002-002-----0
 62
     7
370
    50
100
AcDbLine
 10
889.065153
 20
481.309323
 30
0.0
 11
892.274195
 21
481.310329
 31
0.0
  0
ARC
  5
95
102
{ACAD_REACTORS
330
5AF
102
}
330
1F
100
AcDbEntity
  8
LC-001-002-RND-0
 62
     7
370
    50
100
AcDbCircle
 10
613.059655
 20
491.065914
 30
0.0
 40
2.0
100
AcDbArc
 50
90.0
 51
180.0
  0
ARC
  5
96
102
{ACAD_REACTORS
330
5AF
102
}
330
1F
100
AcDbEntity
  8
LC-001-002-RND-0
 62
     7
370
    50
100
AcDbCircle
 10
963.059655
 20
491.065914
 30
0.0
 40
2.0
100
AcDbArc
 50
0.0
 51
90.0
  0
LINE
  5
97
102
{ACAD_REACTORS
330
5AF
102
}
330
1F
100
AcDbEntity
  8
LC-002-002-----0
 62
     7
370
    50
100
AcDbLine
 10
888.064841
 20
480.309009
 30
0.0
 11
889.065153
 21
481.309323
 31
0.0
  0
LINE
  5
98
102
{ACAD_REACTORS
330
5AF
102
}
330
1F
100
AcDbEntity
  8
LC-002-002-----0
 62
     7
370
    50
100
AcDbLine
 10
688.054475
 20
480.309009
 30
0.0
 11
687.053124
 21
481.310348
 31
0.0
  0
LINE
  5
99
102
{ACAD_REACTORS
330
5AF
102
}
330
1F
100
AcDbEntity
  8
LC-004-006-MLN-0
 62
     7
370
    25
100
AcDbLine
 10
694.051968
 20
509.701787
 30
0.0
 11
694.056612
 21
461.808258
 31
0.0
  0
LINE
  5
9A
102
{ACAD_REACTORS
330
5AF
102
}
330
1F
100
AcDbEntity
  8
LC-002-002-----0
 62
     7
370
    50
100
AcDbLine
 10
683.845114
 20
481.310329
 30
0.0
 11
687.053124
 21
481.310348
 31
0.0
  0
LINE
  5
9B
102
{ACAD_REACTORS
330
5AF
102
}
330
1F
100
AcDbEntity
  8
LC-002-002-----0
 62
     7
370
    50
100
AcDbLine
 10
873.559656
 20
464.565914
 30
0.0
 11
869.809655
 21
464.565914
 31
0.0
  0
LINE
  5
9C
102
{ACAD_REACTORS
330
5AF
102
}
330
1F
100
AcDbEntity
  8
LC-002-002-----0
 62
     7
370
    50
100
AcDbLine
 10
696.805644
 20
471.808525
 30
0.0
 11
691.305644
 21
471.807991
 31
0.0
  0
LINE
  5
9D
102
{ACAD_REACTORS
330
5AF
102
}
330
1F
100
AcDbEntity
  8
LC-002-002-----0
 62
     7
370
    50
100
AcDbLine
 10
696.556211
 20
458.307138
 30
0.0
 11
691.556211
 21
458.307117
 31
0.0
  0
LINE
  5
9E
102
{ACAD_REACTORS
330
5AF
102
}
330
1F
100
AcDbEntity
  8
LC-002-002-----0
 62
     7
370
    50
100
AcDbLine
 10
691.056208
 20
458.807114
 30
0.0
 11
691.05618
 21
465.307116
 31
0.0
  0
LINE
  5
9F
102
{ACAD_REACTORS
330
5AF
102
}
330
1F
100
AcDbEntity
  8
LC-002-002-----0
 62
     7
370
    50
100
AcDbLine
 10
697.05618
 20
465.307151
 30
0.0
 11
697.056208
 21
458.80714
 31
0.0
  0
LINE
  5
A0
102
{ACAD_REACTORS
330
5AF
102
}
330
1F
100
AcDbEntity
  8
LC-002-002-----0
 62
     7
370
    50
100
AcDbLine
 10
690.056176
 20
466.307108
 30
0.0
 11
691.05618
 21
465.307116
 31
0.0
  0
LINE
  5
A1
102
{ACAD_REACTORS
330
5AF
102
}
330
1F
100
AcDbEntity
  8
LC-002-002-----0
 62
     7
370
    50
100
AcDbLine
 10
697.05618
 20
465.307151
 30
0.0
 11
698.05622
 21
466.3072
 31
0.0
  0
LINE
  5
A2
102
{ACAD_REACTORS
330
5AF
102
}
330
1F
100
AcDbEntity
  8
LC-002-002-----0
 62
     7
370
    50
100
AcDbLine
 10
879.313666
 20
471.808525
 30
0.0
 11
884.813666
 21
471.807991
 31
0.0
  0
LINE
  5
A3
102
{ACAD_REACTORS
330
5AF
102
}
330
1F
100
AcDbEntity
  8
LC-002-002-----0
 62
     7
370
    50
100
AcDbLine
 10
885.063129
 20
465.307116
 30
0.0
 11
885.063101
 21
458.807114
 31
0.0
  0
LINE
  5
A4
102
{ACAD_REACTORS
330
5AF
102
}
330
1F
100
AcDbEntity
  8
LC-002-002-----0
 62
     7
370
    50
100
AcDbLine
 10
879.063129
 20
465.307151
 30
0.0
 11
879.063101
 21
458.80714
 31
0.0
  0
LINE
  5
A5
102
{ACAD_REACTORS
330
5AF
102
}
330
1F
100
AcDbEntity
  8
LC-002-002-----0
 62
     7
370
    50
100
AcDbLine
 10
884.563099
 20
458.307117
 30
0.0
 11
879.563099
 21
458.307138
 31
0.0
  0
LINE
  5
A6
102
{ACAD_REACTORS
330
5AF
102
}
330
1F
100
AcDbEntity
  8
LC-002-002-----0
 62
     7
370
    50
100
AcDbLine
 10
879.063129
 20
465.307151
 30
0.0
 11
878.063089
 21
466.3072
 31
0.0
  0
LINE
  5
A7
102
{ACAD_REACTORS
330
5AF
102
}
330
1F
100
AcDbEntity
  8
LC-002-002-----0
 62
     7
370
    50
100
AcDbLine
 10
886.063134
 20
466.307108
 30
0.0
 11
885.063129
 21
465.307116
 31
0.0
  0
LINE
  5
A8
102
{ACAD_REACTORS
330
5AF
102
}
330
1F
100
AcDbEntity
  8
LC-002-002-----0
 62
     7
370
    50
100
AcDbLine
 10
878.063089
 20
466.3072
 30
0.0
 11
873.559656
 21
466.307418
 31
0.0
  0
LINE
  5
A9
102
{ACAD_REACTORS
330
5AF
102
}
330
1F
100
AcDbEntity
  8
LC-002-002-----0
 62
     7
370
    50
100
AcDbLine
 10
887.564751
 20
466.307099
 30
0.0
 11
886.063134
 21
466.307108
 31
0.0
  0
LINE
  5
AA
102
{ACAD_REACTORS
330
5AF
102
}
330
1F
100
AcDbEntity
  8
LC-002-002-----0
 62
     7
370
    50
100
AcDbLine
 10
691.556211
 20
458.307117
 30
0.0
 11
691.056208
 21
458.807114
 31
0.0
  0
LINE
  5
AB
102
{ACAD_REACTORS
330
5AF
102
}
330
1F
100
AcDbEntity
  8
LC-002-002-----0
 62
     7
370
    50
100
AcDbLine
 10
697.056208
 20
458.80714
 30
0.0
 11
696.556211
 21
458.307138
 31
0.0
  0
LINE
  5
AC
102
{ACAD_REACTORS
330
5AF
102
}
330
1F
100
AcDbEntity
  8
LC-002-002-----0
 62
     7
370
    50
100
AcDbLine
 10
879.063101
 20
458.80714
 30
0.0
 11
879.563099
 21
458.307138
 31
0.0
  0
LINE
  5
AD
102
{ACAD_REACTORS
330
5AF
102
}
330
1F
100
AcDbEntity
  8
LC-002-002-----0
 62
     7
370
    50
100
AcDbLine
 10
885.063101
 20
458.807114
 30
0.0
 11
884.563099
 21
458.307117
 31
0.0
  0
LINE
  5
AE
102
{ACAD_REACTORS
330
5AF
102
}
330
1F
100
AcDbEntity
  8
LC-002-002-----0
 62
     7
370
    50
100
AcDbLine
 10
700.057698
 20
466.807366
 30
0.0
 11
700.055161
 21
480.310173
 31
0.0
  0
LINE
  5
AF
102
{ACAD_REACTORS
330
5AF
102
}
330
1F
100
AcDbEntity
  8
LC-002-002-----0
 62
     7
370
    50
100
AcDbLine
 10
700.055161
 20
480.310173
 30
0.0
 11
701.056318
 21
481.311706
 31
0.0
  0
LINE
  5
B0
102
{ACAD_REACTORS
330
5AF
102
}
330
1F
100
AcDbEntity
  8
LC-002-002-----0
 62
     7
370
    50
100
AcDbLine
 10
702.559654
 20
481.311988
 30
0.0
 11
701.056318
 21
481.311706
 31
0.0
  0
LINE
  5
B1
102
{ACAD_REACTORS
330
5AF
102
}
330
1F
100
AcDbEntity
  8
LC-002-002-----0
 62
     7
370
    50
100
AcDbLine
 10
876.061517
 20
466.307297
 30
0.0
 11
876.064148
 21
480.310173
 31
0.0
  0
LINE
  5
B2
102
{ACAD_REACTORS
330
5AF
102
}
330
1F
100
AcDbEntity
  8
LC-002-002-----0
 62
     7
370
    50
100
AcDbLine
 10
876.064148
 20
480.310173
 30
0.0
 11
875.062992
 21
481.311706
 31
0.0
  0
LINE
  5
B3
102
{ACAD_REACTORS
330
5AF
102
}
330
1F
100
AcDbEntity
  8
LC-002-002-----0
 62
     7
370
    50
100
AcDbLine
 10
873.559656
 20
481.311988
 30
0.0
 11
875.062992
 21
481.311706
 31
0.0
  0
LINE
  5
B4
102
{ACAD_REACTORS
330
5AF
102
}
330
1F
100
AcDbEntity
  8
LC-002-002-----0
 62
     7
370
    50
100
AcDbLine
 10
873.559656
 20
464.565914
 30
0.0
 11
873.559656
 21
481.311988
 31
0.0
  0
LINE
  5
B5
102
{ACAD_REACTORS
330
5AF
102
}
330
1F
100
AcDbEntity
  8
LC-002-002-----0
 62
     7
370
    50
100
AcDbLine
 10
915.795862
 20
493.065914
 30
0.0
 11
963.059655
 21
493.065914
 31
0.0
  0
LINE
  5
B6
102
{ACAD_REACTORS
330
5AF
102
}
330
1F
100
AcDbEntity
  8
LC-002-002-----0
 62
     7
370
    50
100
AcDbLine
 10
725.05965
 20
397.065568
 30
0.0
 11
725.05965
 21
429.879389
 31
0.0
  0
LINE
  5
B7
102
{ACAD_REACTORS
330
5AF
102
}
330
1F
100
AcDbEntity
  8
LC-002-002-----0
 62
     7
370
    50
100
AcDbLine
 10
728.05965
 20
397.065568
 30
0.0
 11
728.05965
 21
430.683237
 31
0.0
  0
LINE
  5
B8
102
{ACAD_REACTORS
330
5AF
102
}
330
1F
100
AcDbEntity
  8
LC-002-002-----0
 62
     7
370
    50
100
AcDbLine
 10
743.05965
 20
394.065568
 30
0.0
 11
728.05965
 21
394.065568
 31
0.0
  0
LINE
  5
B9
102
{ACAD_REACTORS
330
5AF
102
}
330
1F
100
AcDbEntity
  8
LC-002-002-----0
 62
     7
370
    50
100
AcDbLine
 10
746.059655
 20
397.065568
 30
0.0
 11
728.05965
 21
397.065568
 31
0.0
  0
ARC
  5
BA
102
{ACAD_REACTORS
330
5AF
102
}
330
1F
100
AcDbEntity
  8
LC-001-002-RND-0
 62
     7
370
    50
100
AcDbCircle
 10
728.05965
 20
397.065568
 30
0.0
 40
3.0
100
AcDbArc
 50
180.0
 51
270.0
  0
LINE
  5
BB
102
{ACAD_REACTORS
330
5AF
102
}
330
1F
100
AcDbEntity
  8
LC-002-002-----0
 62
     7
370
    50
100
AcDbLine
 10
833.05966
 20
394.065568
 30
0.0
 11
848.05966
 21
394.065568
 31
0.0
  0
LINE
  5
BC
102
{ACAD_REACTORS
330
5AF
102
}
330
1F
100
AcDbEntity
  8
LC-002-002-----0
 62
     7
370
    50
100
AcDbLine
 10
746.059655
 20
397.065568
 30
0.0
 11
848.05966
 21
397.065568
 31
0.0
  0
LINE
  5
BD
102
{ACAD_REACTORS
330
5AF
102
}
330
1F
100
AcDbEntity
  8
LC-002-002-----0
 62
     7
370
    50
100
AcDbLine
 10
851.05966
 20
397.065568
 30
0.0
 11
851.05966
 21
429.879389
 31
0.0
  0
LINE
  5
BE
102
{ACAD_REACTORS
330
5AF
102
}
330
1F
100
AcDbEntity
  8
LC-002-002-----0
 62
     7
370
    50
100
AcDbLine
 10
848.05966
 20
397.065568
 30
0.0
 11
848.05966
 21
430.683237
 31
0.0
  0
ARC
  5
BF
102
{ACAD_REACTORS
330
5AF
102
}
330
1F
100
AcDbEntity
  8
LC-001-002-RND-0
 62
     7
370
    50
100
AcDbCircle
 10
848.05966
 20
397.065568
 30
0.0
 40
3.0
100
AcDbArc
 50
270.0
 51
0.0
  0
LINE
  5
C0
102
{ACAD_REACTORS
330
5AF
102
}
330
1F
100
AcDbEntity
  8
LC-002-002-----0
 62
     7
370
    50
100
AcDbLine
 10
728.05965
 20
430.683237
 30
0.0
 11
753.419395
 21
430.683237
 31
0.0
  0
INSERT
  5
1A2
330
1F
100
AcDbEntity
  8
LC-005-005-----0
 62
     7
370
    25
100
AcDbBlockReference
  2
*X13
 10
0.0
 20
0.0
 30
0.0
  0
INSERT
  5
273
330
1F
100
AcDbEntity
  8
LC-005-005-----0
 62
     7
370
    25
100
AcDbBlockReference
  2
*X24
 10
0.0
 20
0.0
 30
0.0
  0
LINE
  5
274
102
{ACAD_REACTORS
330
5AC
102
}
330
1F
100
AcDbEntity
  8
LC-002-002-----0
 62
     7
370
    50
100
AcDbLine
 10
784.754167
 20
556.35174
 30
0.0
 11
784.754167
 21
571.15174
 31
0.0
  0
LINE
  5
275
102
{ACAD_REACTORS
330
5AC
102
}
330
1F
100
AcDbEntity
  8
LC-002-002-----0
 62
     7
370
    50
100
AcDbLine
 10
791.364834
 20
556.351749
 30
0.0
 11
791.364794
 21
571.151749
 31
0.0
  0
ARC
  5
276
102
{ACAD_REACTORS
330
5AC
102
}
330
1F
100
AcDbEntity
  8
LC-001-002-RND-0
 62
     7
370
    50
100
AcDbCircle
 10
836.508106
 20
556.151811
 30
0.0
 40
14.99999999999994
100
AcDbArc
 50
20.000157
 51
90.000079
  0
LINE
  5
277
102
{ACAD_REACTORS
330
5AC
102
}
330
1F
100
AcDbEntity
  8
LC-002-002-----0
 62
     7
370
    50
100
AcDbLine
 10
702.474015
 20
497.976003
 30
0.0
 11
708.584804
 21
514.765257
 31
0.0
  0
ARC
  5
278
102
{ACAD_REACTORS
330
5AC
102
}
330
1F
100
AcDbEntity
  8
LC-001-002-RND-0
 62
     7
370
    50
100
AcDbCircle
 10
739.610896
 20
556.151678
 30
0.0
 40
15.00000000000001
100
AcDbArc
 50
90.000079
 51
160.0
  0
LINE
  5
279
102
{ACAD_REACTORS
330
5AC
102
}
330
1F
100
AcDbEntity
  8
LC-002-002-----0
 62
     7
370
    50
100
AcDbLine
 10
873.645147
 20
497.976238
 30
0.0
 11
867.549585
 21
514.723513
 31
0.0
  0
LINE
  5
27A
102
{ACAD_REACTORS
330
5AC
102
}
330
1F
100
AcDbEntity
  8
LC-002-002-----0
 62
     7
370
    50
100
AcDbLine
 10
739.610875
 20
571.151678
 30
0.0
 11
836.508086
 21
571.151811
 31
0.0
  0
LINE
  5
27B
102
{ACAD_REACTORS
330
5AC
102
}
330
1F
100
AcDbEntity
  8
LC-002-002-----0
 62
     7
370
    50
100
AcDbLine
 10
858.55932
 20
496.151872
 30
0.0
 11
831.261345
 21
571.151803
 31
0.0
  0
LINE
  5
27C
102
{ACAD_REACTORS
330
5AC
102
}
330
1F
100
AcDbEntity
  8
LC-002-002-----0
 62
     7
370
    50
100
AcDbLine
 10
830.546359
 20
567.066669
 30
0.0
 11
829.05948
 21
571.1518
 31
0.0
  0
LINE
  5
27D
102
{ACAD_REACTORS
330
5AC
102
}
330
1F
100
AcDbEntity
  8
LC-002-002-----0
 62
     7
370
    50
100
AcDbLine
 10
832.899225
 20
566.651802
 30
0.0
 11
830.546359
 21
567.066669
 31
0.0
  0
LINE
  5
27E
102
{ACAD_REACTORS
330
5AC
102
}
330
1F
100
AcDbEntity
  8
LC-002-002-----0
 62
     7
370
    50
100
AcDbLine
 10
717.559846
 20
496.151679
 30
0.0
 11
744.857616
 21
571.151685
 31
0.0
  0
LINE
  5
27F
102
{ACAD_REACTORS
330
5AC
102
}
330
1F
100
AcDbEntity
  8
LC-002-002-----0
 62
     7
370
    50
100
AcDbLine
 10
745.572613
 20
567.066552
 30
0.0
 11
747.05948
 21
571.151688
 31
0.0
  0
LINE
  5
280
102
{ACAD_REACTORS
330
5AC
102
}
330
1F
100
AcDbEntity
  8
LC-002-002-----0
 62
     7
370
    50
100
AcDbLine
 10
743.219748
 20
566.651679
 30
0.0
 11
745.572613
 21
567.066552
 31
0.0
  0
LINE
  5
282
102
{ACAD_REACTORS
330
5AC
102
}
330
1F
100
AcDbEntity
  8
LC-006-002-___-0
 62
     7
370
    25
100
AcDbLine
 10
857.041531
 20
479.451868
 30
0.0
 11
859.059343
 21
479.451874
 31
0.0
  0
LINE
  5
283
102
{ACAD_REACTORS
330
5AC
102
}
330
1F
100
AcDbEntity
  8
LC-002-002-----0
 62
     7
370
    50
100
AcDbLine
 10
870.452585
 20
496.151905
 30
0.0
 11
873.645147
 21
497.976238
 31
0.0
  0
INSERT
  5
293
102
{ACAD_REACTORS
330
5AC
102
}
330
1F
100
AcDbEntity
  8
LC-005-005-----0
 62
     7
370
    25
100
AcDbBlockReference
  2
*X35
 10
0.0
 20
0.0
 30
0.0
  0
ARC
  5
294
102
{ACAD_REACTORS
330
5AC
102
}
330
1F
100
AcDbEntity
  8
LC-001-002-RND-0
 62
     7
370
    50
100
AcDbCircle
 10
862.459359
 20
468.151883
 30
0.0
 40
1.000000000000031
100
AcDbArc
 50
0.000079
 51
90.000157
  0
LINE
  5
295
102
{ACAD_REACTORS
330
5AC
102
}
330
1F
100
AcDbEntity
  8
LC-006-002-___-0
 62
     7
370
    25
100
AcDbLine
 10
719.077681
 20
479.451679
 30
0.0
 11
717.059869
 21
479.451679
 31
0.0
  0
LINE
  5
296
102
{ACAD_REACTORS
330
5AC
102
}
330
1F
100
AcDbEntity
  8
LC-002-002-----0
 62
     7
370
    50
100
AcDbLine
 10
844.255182
 20
535.451833
 30
0.0
 11
844.255194
 21
531.088733
 31
0.0
  0
ARC
  5
297
102
{ACAD_REACTORS
330
5AC
102
}
330
1F
100
AcDbEntity
  8
LC-001-002-RND-0
 62
     7
370
    50
100
AcDbCircle
 10
862.459359
 20
468.151883
 30
0.0
 40
1.000000000000011
100
AcDbArc
 50
270.000157
 51
0.000079
  0
LINE
  5
298
102
{ACAD_REACTORS
330
5AC
102
}
330
1F
100
AcDbEntity
  8
LC-002-002-----0
 62
     7
370
    50
100
AcDbLine
 10
862.559361
 20
467.151883
 30
0.0
 11
861.059359
 21
467.151879
 31
0.0
  0
LINE
  5
299
102
{ACAD_REACTORS
330
5AC
102
}
330
1F
100
AcDbEntity
  8
LC-002-002-----0
 62
     7
370
    50
100
AcDbLine
 10
705.666582
 20
496.151679
 30
0.0
 11
702.474015
 21
497.976003
 31
0.0
  0
LINE
  5
29A
102
{ACAD_REACTORS
330
5AC
102
}
330
1F
100
AcDbEntity
  8
LC-002-002-----0
 62
     7
370
    50
100
AcDbLine
 10
865.959343
 20
479.451893
 30
0.0
 11
861.959343
 21
479.451882
 31
0.0
  0
ARC
  5
29B
102
{ACAD_REACTORS
330
5AC
102
}
330
1F
100
AcDbEntity
  8
LC-001-002-RND-0
 62
     7
370
    50
100
AcDbCircle
 10
862.459357
 20
469.651883
 30
0.0
 40
0.5000000000000155
100
AcDbArc
 50
180.000079
 51
270.000157
  0
LINE
  5
29C
102
{ACAD_REACTORS
330
5AC
102
}
330
1F
100
AcDbEntity
  8
LC-002-002-----0
 62
     7
370
    50
100
AcDbLine
 10
862.459361
 20
467.151883
 30
0.0
 11
859.05936
 21
467.151874
 31
0.0
  0
LINE
  5
29D
102
{ACAD_REACTORS
330
5AC
102
}
330
1F
100
AcDbEntity
  8
LC-002-002-----0
 62
     7
370
    50
100
AcDbLine
 10
846.051625
 20
530.771979
 30
0.0
 11
844.255194
 21
531.088733
 31
0.0
  0
ARC
  5
29E
102
{ACAD_REACTORS
330
5AC
102
}
330
1F
100
AcDbEntity
  8
LC-001-002-RND-0
 62
     7
370
    50
100
AcDbCircle
 10
865.959342
 20
479.951893
 30
0.0
 40
0.4999999999999488
100
AcDbArc
 50
270.000157
 51
0.000079
  0
LINE
  5
29F
102
{ACAD_REACTORS
330
5AC
102
}
330
1F
100
AcDbEntity
  8
LC-002-002-----0
 62
     7
370
    50
100
AcDbLine
 10
859.059331
 20
488.451874
 30
0.0
 11
859.05936
 21
467.151874
 31
0.0
  0
LINE
  5
2A0
102
{ACAD_REACTORS
330
5AC
102
}
330
1F
100
AcDbEntity
  8
LC-002-002-----0
 62
     7
370
    50
100
AcDbLine
 10
866.45932
 20
496.151894
 30
0.0
 11
866.459342
 21
479.951893
 31
0.0
  0
LINE
  5
2A1
102
{ACAD_REACTORS
330
5AC
102
}
330
1F
100
AcDbEntity
  8
LC-002-002-----0
 62
     7
370
    50
100
AcDbLine
 10
859.059331
 20
488.451874
 30
0.0
 11
858.559331
 21
488.451872
 31
0.0
  0
LINE
  5
2A2
102
{ACAD_REACTORS
330
5AC
102
}
330
1F
100
AcDbEntity
  8
LC-002-002-----0
 62
     7
370
    50
100
AcDbLine
 10
858.55932
 20
496.151872
 30
0.0
 11
858.559331
 21
488.451872
 31
0.0
  0
LINE
  5
2A3
102
{ACAD_REACTORS
330
5AC
102
}
330
1F
100
AcDbEntity
  8
LC-002-002-----0
 62
     7
370
    50
100
AcDbLine
 10
861.95932
 20
496.151882
 30
0.0
 11
861.959357
 21
469.651882
 31
0.0
  0
LINE
  5
2A4
102
{ACAD_REACTORS
330
5AC
102
}
330
1F
100
AcDbEntity
  8
LC-002-002-----0
 62
     7
370
    50
100
AcDbLine
 10
789.209844
 20
556.351746
 30
0.0
 11
789.209844
 21
535.451679
 31
0.0
  0
LINE
  5
2A5
102
{ACAD_REACTORS
330
5AC
102
}
330
1F
100
AcDbEntity
  8
LC-002-002-----0
 62
     7
370
    50
100
AcDbLine
 10
786.909844
 20
556.351743
 30
0.0
 11
786.909844
 21
535.451679
 31
0.0
  0
ARC
  5
2A6
102
{ACAD_REACTORS
330
5AC
102
}
330
1F
100
AcDbEntity
  8
LC-001-002-RND-0
 62
     7
370
    50
100
AcDbCircle
 10
713.659885
 20
468.151679
 30
0.0
 40
1.0
100
AcDbArc
 50
90.0
 51
180.000079
  0
LINE
  5
2A7
102
{ACAD_REACTORS
330
5AC
102
}
330
1F
100
AcDbEntity
  8
LC-002-002-----0
 62
     7
370
    50
100
AcDbLine
 10
731.863877
 20
535.451679
 30
0.0
 11
731.863877
 21
531.088578
 31
0.0
  0
ARC
  5
2A8
102
{ACAD_REACTORS
330
5AC
102
}
330
1F
100
AcDbEntity
  8
LC-001-002-RND-0
 62
     7
370
    50
100
AcDbCircle
 10
713.659885
 20
468.151679
 30
0.0
 40
1.000000000000031
100
AcDbArc
 50
180.000079
 51
270.0
  0
LINE
  5
2A9
102
{ACAD_REACTORS
330
5AC
102
}
330
1F
100
AcDbEntity
  8
LC-002-002-----0
 62
     7
370
    50
100
AcDbLine
 10
713.659885
 20
467.151679
 30
0.0
 11
715.059887
 21
467.151679
 31
0.0
  0
LINE
  5
2AA
102
{ACAD_REACTORS
330
5AC
102
}
330
1F
100
AcDbEntity
  8
LC-002-002-----0
 62
     7
370
    50
100
AcDbLine
 10
710.159869
 20
479.451679
 30
0.0
 11
714.159869
 21
479.451679
 31
0.0
  0
ARC
  5
2AB
102
{ACAD_REACTORS
330
5AC
102
}
330
1F
100
AcDbEntity
  8
LC-001-002-RND-0
 62
     7
370
    50
100
AcDbCircle
 10
713.659883
 20
469.651679
 30
0.0
 40
0.5
100
AcDbArc
 50
270.0
 51
0.000079
  0
LINE
  5
2AC
102
{ACAD_REACTORS
330
5AC
102
}
330
1F
100
AcDbEntity
  8
LC-002-002-----0
 62
     7
370
    50
100
AcDbLine
 10
713.659885
 20
467.151679
 30
0.0
 11
717.059886
 21
467.151679
 31
0.0
  0
LINE
  5
2AD
102
{ACAD_REACTORS
330
5AC
102
}
330
1F
100
AcDbEntity
  8
LC-002-002-----0
 62
     7
370
    50
100
AcDbLine
 10
730.166932
 20
530.789361
 30
0.0
 11
731.863877
 21
531.088578
 31
0.0
  0
ARC
  5
2AE
102
{ACAD_REACTORS
330
5AC
102
}
330
1F
100
AcDbEntity
  8
LC-001-002-RND-0
 62
     7
370
    50
100
AcDbCircle
 10
710.159869
 20
479.951679
 30
0.0
 40
0.5000000000000155
100
AcDbArc
 50
180.000079
 51
270.0
  0
LINE
  5
2AF
102
{ACAD_REACTORS
330
5AC
102
}
330
1F
100
AcDbEntity
  8
LC-002-002-----0
 62
     7
370
    50
100
AcDbLine
 10
717.059857
 20
488.451679
 30
0.0
 11
717.059886
 21
467.151679
 31
0.0
  0
LINE
  5
2B0
102
{ACAD_REACTORS
330
5AC
102
}
330
1F
100
AcDbEntity
  8
LC-002-002-----0
 62
     7
370
    50
100
AcDbLine
 10
717.059869
 20
479.451679
 30
0.0
 11
774.259606
 21
479.451679
 31
0.0
  0
LINE
  5
2B1
102
{ACAD_REACTORS
330
5AC
102
}
330
1F
100
AcDbEntity
  8
LC-002-002-----0
 62
     7
370
    50
100
AcDbLine
 10
709.659847
 20
496.151679
 30
0.0
 11
709.659869
 21
479.951678
 31
0.0
  0
LINE
  5
2B2
102
{ACAD_REACTORS
330
5AC
102
}
330
1F
100
AcDbEntity
  8
LC-002-002-----0
 62
     7
370
    50
100
AcDbLine
 10
739.470854
 20
556.351678
 30
0.0
 11
836.648148
 21
556.351811
 31
0.0
  0
INSERT
  5
2B9
102
{ACAD_REACTORS
330
5AC
102
}
330
1F
100
AcDbEntity
  8
LC-005-005-----0
 62
     7
370
    25
100
AcDbBlockReference
  2
*X46
 10
0.0
 20
0.0
 30
0.0
  0
INSERT
  5
2C2
102
{ACAD_REACTORS
330
5AC
102
}
330
1F
100
AcDbEntity
  8
LC-005-005-----0
 62
     7
370
    25
100
AcDbBlockReference
  2
*X57
 10
0.0
 20
0.0
 30
0.0
  0
LINE
  5
2C3
102
{ACAD_REACTORS
330
5AC
102
}
330
1F
100
AcDbEntity
  8
LC-002-002-----0
 62
     7
370
    50
100
AcDbLine
 10
731.863877
 20
535.451679
 30
0.0
 11
844.255182
 21
535.451679
 31
0.0
  0
LINE
  5
2C4
102
{ACAD_REACTORS
330
5AC
102
}
330
1F
100
AcDbEntity
  8
LC-002-002-----0
 62
     7
370
    50
100
AcDbLine
 10
730.166932
 20
530.789361
 30
0.0
 11
845.95214
 21
530.789361
 31
0.0
  0
INSERT
  5
2D3
102
{ACAD_REACTORS
330
5AC
102
}
330
1F
100
AcDbEntity
  8
LC-005-005-----0
 62
     7
370
    25
100
AcDbBlockReference
  2
*X68
 10
0.0
 20
0.0
 30
0.0
  0
LINE
  5
2D4
102
{ACAD_REACTORS
330
5AC
102
}
330
1F
100
AcDbEntity
  8
LC-002-002-----0
 62
     7
370
    50
100
AcDbLine
 10
799.859595
 20
487.451713
 30
0.0
 11
799.859623
 21
467.151679
 31
0.0
  0
LINE
  5
2D5
102
{ACAD_REACTORS
330
5AC
102
}
330
1F
100
AcDbEntity
  8
LC-002-002-----0
 62
     7
370
    50
100
AcDbLine
 10
776.259623
 20
467.151679
 30
0.0
 11
799.859623
 21
467.151679
 31
0.0
  0
LINE
  5
2D6
102
{ACAD_REACTORS
330
5AC
102
}
330
1F
100
AcDbEntity
  8
LC-002-002-----0
 62
     7
370
    50
100
AcDbLine
 10
776.259595
 20
487.45168
 30
0.0
 11
776.259623
 21
467.151679
 31
0.0
  0
LINE
  5
2D7
102
{ACAD_REACTORS
330
5AC
102
}
330
1F
100
AcDbEntity
  8
LC-002-002-----0
 62
     7
370
    50
100
AcDbLine
 10
717.559857
 20
488.451679
 30
0.0
 11
858.559331
 21
488.451679
 31
0.0
  0
LINE
  5
2D8
102
{ACAD_REACTORS
330
5AC
102
}
330
1F
100
AcDbEntity
  8
LC-002-002-----0
 62
     7
370
    50
100
AcDbLine
 10
774.259595
 20
487.451678
 30
0.0
 11
774.259606
 21
479.451679
 31
0.0
  0
LINE
  5
2D9
102
{ACAD_REACTORS
330
5AC
102
}
330
1F
100
AcDbEntity
  8
LC-002-002-----0
 62
     7
370
    50
100
AcDbLine
 10
801.859595
 20
487.451715
 30
0.0
 11
801.859606
 21
479.451717
 31
0.0
  0
ARC
  5
2DA
102
{ACAD_REACTORS
330
5AC
102
}
330
1F
100
AcDbEntity
  8
LC-001-002-RND-0
 62
     7
370
    50
100
AcDbCircle
 10
775.259595
 20
487.451679
 30
0.0
 40
1.0
100
AcDbArc
 50
90.0
 51
180.000079
  0
ARC
  5
2DB
102
{ACAD_REACTORS
330
5AC
102
}
330
1F
100
AcDbEntity
  8
LC-001-002-RND-0
 62
     7
370
    50
100
AcDbCircle
 10
775.259595
 20
487.451679
 30
0.0
 40
1.000000000000031
100
AcDbArc
 50
0.000079
 51
90.0
  0
ARC
  5
2DC
102
{ACAD_REACTORS
330
5AC
102
}
330
1F
100
AcDbEntity
  8
LC-001-002-RND-0
 62
     7
370
    50
100
AcDbCircle
 10
800.859595
 20
487.451714
 30
0.0
 40
1.000000000000031
100
AcDbArc
 50
0.000079
 51
90.000157
  0
ARC
  5
2DD
102
{ACAD_REACTORS
330
5AC
102
}
330
1F
100
AcDbEntity
  8
LC-001-002-RND-0
 62
     7
370
    50
100
AcDbCircle
 10
800.859595
 20
487.451714
 30
0.0
 40
1.000000000000011
100
AcDbArc
 50
90.000157
 51
180.000079
  0
LINE
  5
2DE
102
{ACAD_REACTORS
330
5AC
102
}
330
1F
100
AcDbEntity
  8
LC-002-002-----0
 62
     7
370
    50
100
AcDbLine
 10
801.859606
 20
479.451679
 30
0.0
 11
859.059343
 21
479.451679
 31
0.0
  0
LINE
  5
2DF
102
{ACAD_REACTORS
330
5AC
102
}
330
1F
100
AcDbEntity
  8
LC-002-002-----0
 62
     7
370
    50
100
AcDbLine
 10
786.909844
 20
530.789361
 30
0.0
 11
786.909844
 21
496.151679
 31
0.0
  0
LINE
  5
2E0
102
{ACAD_REACTORS
330
5AC
102
}
330
1F
100
AcDbEntity
  8
LC-002-002-----0
 62
     7
370
    50
100
AcDbLine
 10
789.209844
 20
530.789361
 30
0.0
 11
789.209844
 21
496.151679
 31
0.0
  0
LINE
  5
2E1
102
{ACAD_REACTORS
330
5AC
102
}
330
1F
100
AcDbEntity
  8
LC-002-002-----0
 62
     7
370
    50
100
AcDbLine
 10
717.059857
 20
488.451679
 30
0.0
 11
717.559857
 21
488.451679
 31
0.0
  0
LINE
  5
2E2
102
{ACAD_REACTORS
330
5AC
102
}
330
1F
100
AcDbEntity
  8
LC-002-002-----0
 62
     7
370
    50
100
AcDbLine
 10
705.666582
 20
496.151679
 30
0.0
 11
870.452189
 21
496.151679
 31
0.0
  0
LINE
  5
2E3
102
{ACAD_REACTORS
330
5AC
102
}
330
1F
100
AcDbEntity
  8
LC-002-002-----0
 62
     7
370
    50
100
AcDbLine
 10
717.559846
 20
496.151679
 30
0.0
 11
717.559857
 21
488.451679
 31
0.0
  0
LINE
  5
2E4
102
{ACAD_REACTORS
330
5AC
102
}
330
1F
100
AcDbEntity
  8
LC-002-002-----0
 62
     7
370
    50
100
AcDbLine
 10
714.159846
 20
496.151679
 30
0.0
 11
714.159883
 21
469.65168
 31
0.0
  0
LINE
  5
2E5
102
{ACAD_REACTORS
330
5AC
102
}
330
1F
100
AcDbEntity
  8
LC-002-002-----0
 62
     7
370
    50
100
AcDbLine
 10
736.452829
 20
535.451679
 30
0.0
 11
745.059619
 21
556.351685
 31
0.0
  0
LINE
  5
2E6
102
{ACAD_REACTORS
330
5AC
102
}
330
1F
100
AcDbEntity
  8
LC-002-002-----0
 62
     7
370
    50
100
AcDbLine
 10
727.588176
 20
496.151679
 30
0.0
 11
740.376994
 21
530.789361
 31
0.0
  0
LINE
  5
2E7
102
{ACAD_REACTORS
330
5AC
102
}
330
1F
100
AcDbEntity
  8
LC-002-002-----0
 62
     7
370
    50
100
AcDbLine
 10
753.810463
 20
496.151679
 30
0.0
 11
761.194088
 21
530.789361
 31
0.0
  0
LINE
  5
2E8
102
{ACAD_REACTORS
330
5AC
102
}
330
1F
100
AcDbEntity
  8
LC-002-002-----0
 62
     7
370
    50
100
AcDbLine
 10
751.818605
 20
496.151679
 30
0.0
 11
759.20223
 21
530.789361
 31
0.0
  0
LINE
  5
2E9
102
{ACAD_REACTORS
330
5AC
102
}
330
1F
100
AcDbEntity
  8
LC-002-002-----0
 62
     7
370
    50
100
AcDbLine
 10
768.704714
 20
496.151679
 30
0.0
 11
772.526759
 21
530.789361
 31
0.0
  0
LINE
  5
2EA
102
{ACAD_REACTORS
330
5AC
102
}
330
1F
100
AcDbEntity
  8
LC-002-002-----0
 62
     7
370
    50
100
AcDbLine
 10
770.926344
 20
496.151679
 30
0.0
 11
774.748388
 21
530.789361
 31
0.0
  0
LINE
  5
2EB
102
{ACAD_REACTORS
330
5AC
102
}
330
1F
100
AcDbEntity
  8
LC-002-002-----0
 62
     7
370
    50
100
AcDbLine
 10
726.438176
 20
496.151679
 30
0.0
 11
739.226994
 21
530.789361
 31
0.0
  0
LINE
  5
2EC
102
{ACAD_REACTORS
330
5AC
102
}
330
1F
100
AcDbEntity
  8
LC-002-002-----0
 62
     7
370
    50
100
AcDbLine
 10
735.857546
 20
535.451679
 30
0.0
 11
744.464335
 21
556.351684
 31
0.0
  0
LINE
  5
2ED
102
{ACAD_REACTORS
330
5AC
102
}
330
1F
100
AcDbEntity
  8
LC-002-002-----0
 62
     7
370
    50
100
AcDbLine
 10
739.028621
 20
496.151679
 30
0.0
 11
749.488872
 21
530.789361
 31
0.0
  0
LINE
  5
2EE
102
{ACAD_REACTORS
330
5AC
102
}
330
1F
100
AcDbEntity
  8
LC-002-002-----0
 62
     7
370
    50
100
AcDbLine
 10
737.402276
 20
496.151679
 30
0.0
 11
747.8443
 21
530.789361
 31
0.0
  0
LINE
  5
2EF
102
{ACAD_REACTORS
330
5AC
102
}
330
1F
100
AcDbEntity
  8
LC-002-002-----0
 62
     7
370
    50
100
AcDbLine
 10
740.948401
 20
535.451679
 30
0.0
 11
748.665038
 21
556.35169
 31
0.0
  0
LINE
  5
2F0
102
{ACAD_REACTORS
330
5AC
102
}
330
1F
100
AcDbEntity
  8
LC-002-002-----0
 62
     7
370
    50
100
AcDbLine
 10
742.0984
 20
535.451679
 30
0.0
 11
749.815038
 21
556.351692
 31
0.0
  0
LINE
  5
2F1
102
{ACAD_REACTORS
330
5AC
102
}
330
1F
100
AcDbEntity
  8
LC-002-002-----0
 62
     7
370
    50
100
AcDbLine
 10
720.268776
 20
496.151679
 30
0.0
 11
734.53285
 21
530.789361
 31
0.0
  0
LINE
  5
2F2
102
{ACAD_REACTORS
330
5AC
102
}
330
1F
100
AcDbEntity
  8
LC-002-002-----0
 62
     7
370
    50
100
AcDbLine
 10
719.673492
 20
496.151679
 30
0.0
 11
733.937566
 21
530.789361
 31
0.0
  0
LINE
  5
2F3
102
{ACAD_REACTORS
330
5AC
102
}
330
1F
100
AcDbEntity
  8
LC-002-002-----0
 62
     7
370
    50
100
AcDbLine
 10
749.249822
 20
535.451679
 30
0.0
 11
755.550432
 21
556.3517
 31
0.0
  0
LINE
  5
2F4
102
{ACAD_REACTORS
330
5AC
102
}
330
1F
100
AcDbEntity
  8
LC-002-002-----0
 62
     7
370
    50
100
AcDbLine
 10
750.896847
 20
535.451679
 30
0.0
 11
757.208456
 21
556.351702
 31
0.0
  0
LINE
  5
2F5
102
{ACAD_REACTORS
330
5AC
102
}
330
1F
100
AcDbEntity
  8
LC-002-002-----0
 62
     7
370
    50
100
AcDbLine
 10
760.196084
 20
535.451679
 30
0.0
 11
764.651289
 21
556.351712
 31
0.0
  0
LINE
  5
2F6
102
{ACAD_REACTORS
330
5AC
102
}
330
1F
100
AcDbEntity
  8
LC-002-002-----0
 62
     7
370
    50
100
AcDbLine
 10
762.187942
 20
535.451679
 30
0.0
 11
766.643148
 21
556.351715
 31
0.0
  0
LINE
  5
2F7
102
{ACAD_REACTORS
330
5AC
102
}
330
1F
100
AcDbEntity
  8
LC-002-002-----0
 62
     7
370
    50
100
AcDbLine
 10
773.041215
 20
535.451679
 30
0.0
 11
775.347401
 21
556.351727
 31
0.0
  0
LINE
  5
2F8
102
{ACAD_REACTORS
330
5AC
102
}
330
1F
100
AcDbEntity
  8
LC-002-002-----0
 62
     7
370
    50
100
AcDbLine
 10
775.262845
 20
535.451679
 30
0.0
 11
777.56903
 21
556.35173
 31
0.0
  0
LINE
  5
2F9
102
{ACAD_REACTORS
330
5AC
102
}
330
1F
100
AcDbEntity
  8
LC-002-002-----0
 62
     7
370
    50
100
AcDbLine
 10
805.192823
 20
496.151726
 30
0.0
 11
801.370684
 21
530.789398
 31
0.0
  0
LINE
  5
2FA
102
{ACAD_REACTORS
330
5AC
102
}
330
1F
100
AcDbEntity
  8
LC-002-002-----0
 62
     7
370
    50
100
AcDbLine
 10
807.414452
 20
496.151732
 30
0.0
 11
803.592313
 21
530.789404
 31
0.0
  0
LINE
  5
2FB
102
{ACAD_REACTORS
330
5AC
102
}
330
1F
100
AcDbEntity
  8
LC-002-002-----0
 62
     7
370
    50
100
AcDbLine
 10
800.856214
 20
535.451714
 30
0.0
 11
798.549971
 21
556.351759
 31
0.0
  0
LINE
  5
2FC
102
{ACAD_REACTORS
330
5AC
102
}
330
1F
100
AcDbEntity
  8
LC-002-002-----0
 62
     7
370
    50
100
AcDbLine
 10
803.077843
 20
535.45172
 30
0.0
 11
800.771601
 21
556.351762
 31
0.0
  0
LINE
  5
2FD
102
{ACAD_REACTORS
330
5AC
102
}
330
1F
100
AcDbEntity
  8
LC-002-002-----0
 62
     7
370
    50
100
AcDbLine
 10
813.931117
 20
535.45175
 30
0.0
 11
809.475854
 21
556.351774
 31
0.0
  0
LINE
  5
2FE
102
{ACAD_REACTORS
330
5AC
102
}
330
1F
100
AcDbEntity
  8
LC-002-002-----0
 62
     7
370
    50
100
AcDbLine
 10
815.922975
 20
535.451755
 30
0.0
 11
811.467712
 21
556.351776
 31
0.0
  0
LINE
  5
2FF
102
{ACAD_REACTORS
330
5AC
102
}
330
1F
100
AcDbEntity
  8
LC-002-002-----0
 62
     7
370
    50
100
AcDbLine
 10
825.222211
 20
535.451781
 30
0.0
 11
818.910546
 21
556.351787
 31
0.0
  0
LINE
  5
300
102
{ACAD_REACTORS
330
5AC
102
}
330
1F
100
AcDbEntity
  8
LC-002-002-----0
 62
     7
370
    50
100
AcDbLine
 10
826.869236
 20
535.451785
 30
0.0
 11
820.568569
 21
556.351789
 31
0.0
  0
LINE
  5
301
102
{ACAD_REACTORS
330
5AC
102
}
330
1F
100
AcDbEntity
  8
LC-002-002-----0
 62
     7
370
    50
100
AcDbLine
 10
824.300562
 20
496.151778
 30
0.0
 11
816.916842
 21
530.789441
 31
0.0
  0
LINE
  5
302
102
{ACAD_REACTORS
330
5AC
102
}
330
1F
100
AcDbEntity
  8
LC-002-002-----0
 62
     7
370
    50
100
AcDbLine
 10
822.308703
 20
496.151773
 30
0.0
 11
814.924984
 21
530.789435
 31
0.0
  0
LINE
  5
303
102
{ACAD_REACTORS
330
5AC
102
}
330
1F
100
AcDbEntity
  8
LC-002-002-----0
 62
     7
370
    50
100
AcDbLine
 10
837.090545
 20
496.151813
 30
0.0
 11
826.6302
 21
530.789467
 31
0.0
  0
LINE
  5
304
102
{ACAD_REACTORS
330
5AC
102
}
330
1F
100
AcDbEntity
  8
LC-002-002-----0
 62
     7
370
    50
100
AcDbLine
 10
838.716891
 20
496.151818
 30
0.0
 11
828.274771
 21
530.789472
 31
0.0
  0
LINE
  5
305
102
{ACAD_REACTORS
330
5AC
102
}
330
1F
100
AcDbEntity
  8
LC-002-002-----0
 62
     7
370
    50
100
AcDbLine
 10
848.53099
 20
496.151845
 30
0.0
 11
835.742078
 21
530.789492
 31
0.0
  0
LINE
  5
306
102
{ACAD_REACTORS
330
5AC
102
}
330
1F
100
AcDbEntity
  8
LC-002-002-----0
 62
     7
370
    50
100
AcDbLine
 10
849.68099
 20
496.151848
 30
0.0
 11
836.892077
 21
530.789495
 31
0.0
  0
LINE
  5
307
102
{ACAD_REACTORS
330
5AC
102
}
330
1F
100
AcDbEntity
  8
LC-002-002-----0
 62
     7
370
    50
100
AcDbLine
 10
834.020659
 20
535.451805
 30
0.0
 11
826.303963
 21
556.351797
 31
0.0
  0
LINE
  5
308
102
{ACAD_REACTORS
330
5AC
102
}
330
1F
100
AcDbEntity
  8
LC-002-002-----0
 62
     7
370
    50
100
AcDbLine
 10
835.170658
 20
535.451808
 30
0.0
 11
827.453963
 21
556.351798
 31
0.0
  0
LINE
  5
309
102
{ACAD_REACTORS
330
5AC
102
}
330
1F
100
AcDbEntity
  8
LC-002-002-----0
 62
     7
370
    50
100
AcDbLine
 10
839.66623
 20
535.451821
 30
0.0
 11
831.059383
 21
556.351803
 31
0.0
  0
LINE
  5
30A
102
{ACAD_REACTORS
330
5AC
102
}
330
1F
100
AcDbEntity
  8
LC-002-002-----0
 62
     7
370
    50
100
AcDbLine
 10
839.66623
 20
535.451821
 30
0.0
 11
831.059383
 21
556.351803
 31
0.0
  0
LINE
  5
30B
102
{ACAD_REACTORS
330
5AC
102
}
330
1F
100
AcDbEntity
  8
LC-002-002-----0
 62
     7
370
    50
100
AcDbLine
 10
840.261513
 20
535.451822
 30
0.0
 11
831.654667
 21
556.351804
 31
0.0
  0
LINE
  5
30C
102
{ACAD_REACTORS
330
5AC
102
}
330
1F
100
AcDbEntity
  8
LC-002-002-----0
 62
     7
370
    50
100
AcDbLine
 10
855.850391
 20
496.151865
 30
0.0
 11
841.586222
 21
530.789508
 31
0.0
  0
LINE
  5
30D
102
{ACAD_REACTORS
330
5AC
102
}
330
1F
100
AcDbEntity
  8
LC-002-002-----0
 62
     7
370
    50
100
AcDbLine
 10
856.445675
 20
496.151867
 30
0.0
 11
842.181506
 21
530.78951
 31
0.0
  0
LINE
  5
30E
102
{ACAD_REACTORS
330
5AC
102
}
330
1F
100
AcDbEntity
  8
LC-002-002-----0
 62
     7
370
    50
100
AcDbLine
 10
708.584804
 20
514.765257
 30
0.0
 11
725.515506
 21
561.28198
 31
0.0
  0
LINE
  5
30F
102
{ACAD_REACTORS
330
5AC
102
}
330
1F
100
AcDbEntity
  8
LC-002-002-----0
 62
     7
370
    50
100
AcDbLine
 10
867.549585
 20
514.723513
 30
0.0
 11
850.603482
 21
561.282151
 31
0.0
  0
LINE
  5
310
102
{ACAD_REACTORS
330
5AC
102
}
330
1F
100
AcDbEntity
  8
LC-002-002-----0
 62
     7
370
    50
100
AcDbLine
 10
788.059583
 20
488.451679
 30
0.0
 11
788.059669
 21
488.451679
 31
0.0
  0
LINE
  5
311
102
{ACAD_REACTORS
330
5AC
102
}
330
1F
100
AcDbEntity
  8
LC-002-002-----0
 62
     7
370
    50
100
AcDbLine
 10
800.851215
 20
488.451679
 30
0.0
 11
800.867976
 21
488.451679
 31
0.0
  0
DIMENSION
  5
312
330
1F
100
AcDbEntity
  8
LC-003-003-----0
 62
     7
370
    25
100
AcDbDimension
  2
*D9
 10
909.892498
 20
344.047055
 30
0.0
 11
879.092498
 21
192.9
 31
0.0
 70
   160
  1
310
 71
     5
 42
309.981142
 53
90.0
  3
LC-DIM-L-0140-02-02
100
AcDbAlignedDimension
 13
830.059655
 23
34.065914
 33
0.0
 14
841.588798
 24
344.047055
 34
0.0
 50
90.0
100
AcDbRotatedDimension
  0
LINE
  5
31F
102
{ACAD_REACTORS
330
5AF
102
}
330
1F
100
AcDbEntity
  8
LC-002-002-----0
 62
     7
370
    50
100
AcDbLine
 10
831.063621
 20
430.683237
 30
0.0
 11
848.05966
 21
430.683237
 31
0.0
  0
LINE
  5
320
102
{ACAD_REACTORS
330
5AF
102
}
330
1F
100
AcDbEntity
  8
LC-004-006-MLN-0
 62
     7
370
    25
100
AcDbLine
 10
788.059655
 20
399.960231
 30
0.0
 11
788.059655
 21
24.065914
 31
0.0
  0
DIMENSION
  5
321
330
1F
100
AcDbEntity
  8
LC-003-003-----0
 62
     7
370
    25
100
AcDbDimension
  2
*D10
 10
982.601301
 20
448.944594
 30
0.0
 11
951.801301
 21
236.58
 31
0.0
 70
   160
  1
415
 71
     5
 42
414.87868
 53
90.0
  3
LC-DIM-L-0140-02-02
100
AcDbAlignedDimension
 13
830.059655
 23
34.065914
 33
0.0
 14
867.930975
 24
448.944594
 34
0.0
 50
90.0
100
AcDbRotatedDimension
  0
LINE
  5
32E
102
{ACAD_REACTORS
330
5AA
102
}
330
1F
100
AcDbEntity
  8
LC-002-002-----0
 62
     7
370
    50
100
AcDbLine
 10
679.309386
 20
493.651679
 30
0.0
 11
679.509386
 21
493.651679
 31
0.0
  0
LINE
  5
32F
102
{ACAD_REACTORS
330
5AA
102
}
330
1F
100
AcDbEntity
  8
LC-002-002-----0
 62
     7
370
    50
100
AcDbLine
 10
678.809386
 20
493.151679
 30
0.0
 11
678.809386
 21
487.65214
 31
0.0
  0
LINE
  5
330
102
{ACAD_REACTORS
330
5AA
102
}
330
1F
100
AcDbEntity
  8
LC-002-002-----0
 62
     7
370
    50
100
AcDbLine
 10
686.809386
 20
493.151679
 30
0.0
 11
686.809386
 21
487.65214
 31
0.0
  0
ARC
  5
331
102
{ACAD_REACTORS
330
5AA
102
}
330
1F
100
AcDbEntity
  8
LC-002-002-----0
 62
     7
370
    50
100
AcDbCircle
 10
686.309386
 20
493.151679
 30
0.0
 40
0.5
100
AcDbArc
 50
360.0
 51
90.0
  0
ARC
  5
332
102
{ACAD_REACTORS
330
5AA
102
}
330
1F
100
AcDbEntity
  8
LC-002-002-----0
 62
     7
370
    50
100
AcDbCircle
 10
679.309386
 20
493.151679
 30
0.0
 40
0.5
100
AcDbArc
 50
90.0
 51
180.0
  0
LINE
  5
333
102
{ACAD_REACTORS
330
5AA
102
}
330
1F
100
AcDbEntity
  8
LC-002-002-----0
 62
     7
370
    50
100
AcDbLine
 10
678.809386
 20
487.65214
 30
0.0
 11
685.666643
 21
484.381396
 31
0.0
  0
LINE
  5
334
102
{ACAD_REACTORS
330
5AA
102
}
330
1F
100
AcDbEntity
  8
LC-002-002-----0
 62
     7
370
    50
100
AcDbLine
 10
679.509386
 20
493.651679
 30
0.0
 11
679.798061
 21
494.151679
 31
0.0
  0
LINE
  5
335
102
{ACAD_REACTORS
330
5AA
102
}
330
1F
100
AcDbEntity
  8
LC-002-002-----0
 62
     7
370
    50
100
AcDbLine
 10
679.798061
 20
494.151679
 30
0.0
 11
680.086736
 21
493.651679
 31
0.0
  0
LINE
  5
336
102
{ACAD_REACTORS
330
5AA
102
}
330
1F
100
AcDbEntity
  8
LC-002-002-----0
 62
     7
370
    50
100
AcDbLine
 10
680.798061
 20
494.151679
 30
0.0
 11
681.086736
 21
493.651679
 31
0.0
  0
LINE
  5
337
102
{ACAD_REACTORS
330
5AA
102
}
330
1F
100
AcDbEntity
  8
LC-002-002-----0
 62
     7
370
    50
100
AcDbLine
 10
680.509386
 20
493.651679
 30
0.0
 11
680.798061
 21
494.151679
 31
0.0
  0
LINE
  5
338
102
{ACAD_REACTORS
330
5AA
102
}
330
1F
100
AcDbEntity
  8
LC-002-002-----0
 62
     7
370
    50
100
AcDbLine
 10
681.798061
 20
494.151679
 30
0.0
 11
682.086736
 21
493.651679
 31
0.0
  0
LINE
  5
339
102
{ACAD_REACTORS
330
5AA
102
}
330
1F
100
AcDbEntity
  8
LC-002-002-----0
 62
     7
370
    50
100
AcDbLine
 10
681.509386
 20
493.651679
 30
0.0
 11
681.798061
 21
494.151679
 31
0.0
  0
LINE
  5
33A
102
{ACAD_REACTORS
330
5AA
102
}
330
1F
100
AcDbEntity
  8
LC-002-002-----0
 62
     7
370
    50
100
AcDbLine
 10
682.798061
 20
494.151679
 30
0.0
 11
683.086736
 21
493.651679
 31
0.0
  0
LINE
  5
33B
102
{ACAD_REACTORS
330
5AA
102
}
330
1F
100
AcDbEntity
  8
LC-002-002-----0
 62
     7
370
    50
100
AcDbLine
 10
682.509386
 20
493.651679
 30
0.0
 11
682.798061
 21
494.151679
 31
0.0
  0
LINE
  5
33C
102
{ACAD_REACTORS
330
5AA
102
}
330
1F
100
AcDbEntity
  8
LC-002-002-----0
 62
     7
370
    50
100
AcDbLine
 10
683.798061
 20
494.151679
 30
0.0
 11
684.086736
 21
493.651679
 31
0.0
  0
LINE
  5
33D
102
{ACAD_REACTORS
330
5AA
102
}
330
1F
100
AcDbEntity
  8
LC-002-002-----0
 62
     7
370
    50
100
AcDbLine
 10
683.509386
 20
493.651679
 30
0.0
 11
683.798061
 21
494.151679
 31
0.0
  0
LINE
  5
33E
102
{ACAD_REACTORS
330
5AA
102
}
330
1F
100
AcDbEntity
  8
LC-002-002-----0
 62
     7
370
    50
100
AcDbLine
 10
684.798061
 20
494.151679
 30
0.0
 11
685.086736
 21
493.651679
 31
0.0
  0
LINE
  5
33F
102
{ACAD_REACTORS
330
5AA
102
}
330
1F
100
AcDbEntity
  8
LC-002-002-----0
 62
     7
370
    50
100
AcDbLine
 10
684.509386
 20
493.651679
 30
0.0
 11
684.798061
 21
494.151679
 31
0.0
  0
LINE
  5
340
102
{ACAD_REACTORS
330
5AA
102
}
330
1F
100
AcDbEntity
  8
LC-002-002-----0
 62
     7
370
    50
100
AcDbLine
 10
685.798061
 20
494.151679
 30
0.0
 11
686.086736
 21
493.651679
 31
0.0
  0
LINE
  5
341
102
{ACAD_REACTORS
330
5AA
102
}
330
1F
100
AcDbEntity
  8
LC-002-002-----0
 62
     7
370
    50
100
AcDbLine
 10
685.509386
 20
493.651679
 30
0.0
 11
685.798061
 21
494.151679
 31
0.0
  0
LINE
  5
342
102
{ACAD_REACTORS
330
5AA
102
}
330
1F
100
AcDbEntity
  8
LC-002-002-----0
 62
     7
370
    50
100
AcDbLine
 10
686.086736
 20
493.651679
 30
0.0
 11
686.309386
 21
493.651679
 31
0.0
  0
LINE
  5
343
102
{ACAD_REACTORS
330
5AA
102
}
330
1F
100
AcDbEntity
  8
LC-002-002-----0
 62
     7
370
    50
100
AcDbLine
 10
685.086736
 20
493.651679
 30
0.0
 11
685.509386
 21
493.651679
 31
0.0
  0
LINE
  5
344
102
{ACAD_REACTORS
330
5AA
102
}
330
1F
100
AcDbEntity
  8
LC-002-002-----0
 62
     7
370
    50
100
AcDbLine
 10
684.086736
 20
493.651679
 30
0.0
 11
684.509386
 21
493.651679
 31
0.0
  0
LINE
  5
345
102
{ACAD_REACTORS
330
5AA
102
}
330
1F
100
AcDbEntity
  8
LC-002-002-----0
 62
     7
370
    50
100
AcDbLine
 10
683.086736
 20
493.651679
 30
0.0
 11
683.509386
 21
493.651679
 31
0.0
  0
LINE
  5
346
102
{ACAD_REACTORS
330
5AA
102
}
330
1F
100
AcDbEntity
  8
LC-002-002-----0
 62
     7
370
    50
100
AcDbLine
 10
682.086736
 20
493.651679
 30
0.0
 11
682.509386
 21
493.651679
 31
0.0
  0
LINE
  5
347
102
{ACAD_REACTORS
330
5AA
102
}
330
1F
100
AcDbEntity
  8
LC-002-002-----0
 62
     7
370
    50
100
AcDbLine
 10
681.086736
 20
493.651679
 30
0.0
 11
681.509386
 21
493.651679
 31
0.0
  0
LINE
  5
348
102
{ACAD_REACTORS
330
5AA
102
}
330
1F
100
AcDbEntity
  8
LC-002-002-----0
 62
     7
370
    50
100
AcDbLine
 10
680.086736
 20
493.651679
 30
0.0
 11
680.509386
 21
493.651679
 31
0.0
  0
ARC
  5
349
102
{ACAD_REACTORS
330
5AA
102
}
330
1F
100
AcDbEntity
  8
LC-001-002-RND-0
 62
     7
370
    50
100
AcDbCircle
 10
685.881899
 20
484.832689
 30
0.0
 40
0.5000000000000621
100
AcDbArc
 50
244.5
 51
44.5
  0
LINE
  5
34A
102
{ACAD_REACTORS
330
5AA
102
}
330
1F
100
AcDbEntity
  8
LC-002-002-----0
 62
     7
370
    50
100
AcDbLine
 10
686.238524
 20
485.183143
 30
0.0
 11
684.647987
 21
486.801686
 31
0.0
  0
ARC
  5
34B
102
{ACAD_REACTORS
330
5AA
102
}
330
1F
100
AcDbEntity
  8
LC-001-002-RND-0
 62
     7
370
    50
100
AcDbCircle
 10
685.004612
 20
487.15214
 30
0.0
 40
0.5
100
AcDbArc
 50
90.0
 51
224.5
  0
LINE
  5
34C
102
{ACAD_REACTORS
330
5A8
102
}
330
1F
100
AcDbEntity
  8
LC-002-002-----0
 62
     7
370
    50
100
AcDbLine
 10
685.004612
 20
487.65214
 30
0.0
 11
686.809386
 21
487.65214
 31
0.0
  0
INSERT
  5
354
102
{ACAD_REACTORS
330
5A8
102
}
330
1F
100
AcDbEntity
  8
LC-005-005-----0
 62
     7
370
    25
100
AcDbBlockReference
  2
*X711
 10
0.0
 20
0.0
 30
0.0
  0
LINE
  5
355
102
{ACAD_REACTORS
330
5AB
102
}
330
1F
100
AcDbEntity
  8
LC-002-002-----0
 62
     7
370
    50
100
AcDbLine
 10
896.809386
 20
493.651679
 30
0.0
 11
896.609386
 21
493.651679
 31
0.0
  0
LINE
  5
356
102
{ACAD_REACTORS
330
5AB
102
}
330
1F
100
AcDbEntity
  8
LC-002-002-----0
 62
     7
370
    50
100
AcDbLine
 10
897.309386
 20
493.151679
 30
0.0
 11
897.309386
 21
487.65214
 31
0.0
  0
LINE
  5
357
102
{ACAD_REACTORS
330
5AB
102
}
330
1F
100
AcDbEntity
  8
LC-002-002-----0
 62
     7
370
    50
100
AcDbLine
 10
889.309386
 20
493.151679
 30
0.0
 11
889.309386
 21
487.65214
 31
0.0
  0
ARC
  5
358
102
{ACAD_REACTORS
330
5AB
102
}
330
1F
100
AcDbEntity
  8
LC-002-002-----0
 62
     7
370
    50
100
AcDbCircle
 10
889.809386
 20
493.151679
 30
0.0
 40
0.5
100
AcDbArc
 50
90.0
 51
180.0
  0
ARC
  5
359
102
{ACAD_REACTORS
330
5AB
102
}
330
1F
100
AcDbEntity
  8
LC-002-002-----0
 62
     7
370
    50
100
AcDbCircle
 10
896.809386
 20
493.151679
 30
0.0
 40
0.5
100
AcDbArc
 50
360.0
 51
90.0
  0
LINE
  5
35A
102
{ACAD_REACTORS
330
5AB
102
}
330
1F
100
AcDbEntity
  8
LC-002-002-----0
 62
     7
370
    50
100
AcDbLine
 10
897.309386
 20
487.65214
 30
0.0
 11
890.452128
 21
484.381396
 31
0.0
  0
LINE
  5
35B
102
{ACAD_REACTORS
330
5AB
102
}
330
1F
100
AcDbEntity
  8
LC-002-002-----0
 62
     7
370
    50
100
AcDbLine
 10
896.609386
 20
493.651679
 30
0.0
 11
896.32071
 21
494.151679
 31
0.0
  0
LINE
  5
35C
102
{ACAD_REACTORS
330
5AB
102
}
330
1F
100
AcDbEntity
  8
LC-002-002-----0
 62
     7
370
    50
100
AcDbLine
 10
896.32071
 20
494.151679
 30
0.0
 11
896.032035
 21
493.651679
 31
0.0
  0
LINE
  5
35D
102
{ACAD_REACTORS
330
5AB
102
}
330
1F
100
AcDbEntity
  8
LC-002-002-----0
 62
     7
370
    50
100
AcDbLine
 10
895.32071
 20
494.151679
 30
0.0
 11
895.032035
 21
493.651679
 31
0.0
  0
LINE
  5
35E
102
{ACAD_REACTORS
330
5AB
102
}
330
1F
100
AcDbEntity
  8
LC-002-002-----0
 62
     7
370
    50
100
AcDbLine
 10
895.609386
 20
493.651679
 30
0.0
 11
895.32071
 21
494.151679
 31
0.0
  0
LINE
  5
35F
102
{ACAD_REACTORS
330
5AB
102
}
330
1F
100
AcDbEntity
  8
LC-002-002-----0
 62
     7
370
    50
100
AcDbLine
 10
894.32071
 20
494.151679
 30
0.0
 11
894.032035
 21
493.651679
 31
0.0
  0
LINE
  5
360
102
{ACAD_REACTORS
330
5AB
102
}
330
1F
100
AcDbEntity
  8
LC-002-002-----0
 62
     7
370
    50
100
AcDbLine
 10
894.609386
 20
493.651679
 30
0.0
 11
894.32071
 21
494.151679
 31
0.0
  0
LINE
  5
361
102
{ACAD_REACTORS
330
5AB
102
}
330
1F
100
AcDbEntity
  8
LC-002-002-----0
 62
     7
370
    50
100
AcDbLine
 10
893.32071
 20
494.151679
 30
0.0
 11
893.032035
 21
493.651679
 31
0.0
  0
LINE
  5
362
102
{ACAD_REACTORS
330
5AB
102
}
330
1F
100
AcDbEntity
  8
LC-002-002-----0
 62
     7
370
    50
100
AcDbLine
 10
893.609386
 20
493.651679
 30
0.0
 11
893.32071
 21
494.151679
 31
0.0
  0
LINE
  5
363
102
{ACAD_REACTORS
330
5AB
102
}
330
1F
100
AcDbEntity
  8
LC-002-002-----0
 62
     7
370
    50
100
AcDbLine
 10
892.32071
 20
494.151679
 30
0.0
 11
892.032035
 21
493.651679
 31
0.0
  0
LINE
  5
364
102
{ACAD_REACTORS
330
5AB
102
}
330
1F
100
AcDbEntity
  8
LC-002-002-----0
 62
     7
370
    50
100
AcDbLine
 10
892.609386
 20
493.651679
 30
0.0
 11
892.32071
 21
494.151679
 31
0.0
  0
LINE
  5
365
102
{ACAD_REACTORS
330
5AB
102
}
330
1F
100
AcDbEntity
  8
LC-002-002-----0
 62
     7
370
    50
100
AcDbLine
 10
891.32071
 20
494.151679
 30
0.0
 11
891.032035
 21
493.651679
 31
0.0
  0
LINE
  5
366
102
{ACAD_REACTORS
330
5AB
102
}
330
1F
100
AcDbEntity
  8
LC-002-002-----0
 62
     7
370
    50
100
AcDbLine
 10
891.609386
 20
493.651679
 30
0.0
 11
891.32071
 21
494.151679
 31
0.0
  0
LINE
  5
367
102
{ACAD_REACTORS
330
5AB
102
}
330
1F
100
AcDbEntity
  8
LC-002-002-----0
 62
     7
370
    50
100
AcDbLine
 10
890.32071
 20
494.151679
 30
0.0
 11
890.032035
 21
493.651679
 31
0.0
  0
LINE
  5
368
102
{ACAD_REACTORS
330
5AB
102
}
330
1F
100
AcDbEntity
  8
LC-002-002-----0
 62
     7
370
    50
100
AcDbLine
 10
890.609386
 20
493.651679
 30
0.0
 11
890.32071
 21
494.151679
 31
0.0
  0
LINE
  5
369
102
{ACAD_REACTORS
330
5AB
102
}
330
1F
100
AcDbEntity
  8
LC-002-002-----0
 62
     7
370
    50
100
AcDbLine
 10
890.032035
 20
493.651679
 30
0.0
 11
889.809386
 21
493.651679
 31
0.0
  0
LINE
  5
36A
102
{ACAD_REACTORS
330
5AB
102
}
330
1F
100
AcDbEntity
  8
LC-002-002-----0
 62
     7
370
    50
100
AcDbLine
 10
891.032035
 20
493.651679
 30
0.0
 11
890.609386
 21
493.651679
 31
0.0
  0
LINE
  5
36B
102
{ACAD_REACTORS
330
5AB
102
}
330
1F
100
AcDbEntity
  8
LC-002-002-----0
 62
     7
370
    50
100
AcDbLine
 10
892.032035
 20
493.651679
 30
0.0
 11
891.609386
 21
493.651679
 31
0.0
  0
LINE
  5
36C
102
{ACAD_REACTORS
330
5AB
102
}
330
1F
100
AcDbEntity
  8
LC-002-002-----0
 62
     7
370
    50
100
AcDbLine
 10
893.032035
 20
493.651679
 30
0.0
 11
892.609386
 21
493.651679
 31
0.0
  0
LINE
  5
36D
102
{ACAD_REACTORS
330
5AB
102
}
330
1F
100
AcDbEntity
  8
LC-002-002-----0
 62
     7
370
    50
100
AcDbLine
 10
894.032035
 20
493.651679
 30
0.0
 11
893.609386
 21
493.651679
 31
0.0
  0
LINE
  5
36E
102
{ACAD_REACTORS
330
5AB
102
}
330
1F
100
AcDbEntity
  8
LC-002-002-----0
 62
     7
370
    50
100
AcDbLine
 10
895.032035
 20
493.651679
 30
0.0
 11
894.609386
 21
493.651679
 31
0.0
  0
LINE
  5
36F
102
{ACAD_REACTORS
330
5AB
102
}
330
1F
100
AcDbEntity
  8
LC-002-002-----0
 62
     7
370
    50
100
AcDbLine
 10
896.032035
 20
493.651679
 30
0.0
 11
895.609386
 21
493.651679
 31
0.0
  0
ARC
  5
370
102
{ACAD_REACTORS
330
5AB
102
}
330
1F
100
AcDbEntity
  8
LC-001-002-RND-0
 62
     7
370
    50
100
AcDbCircle
 10
890.236872
 20
484.832689
 30
0.0
 40
0.499999999999929
100
AcDbArc
 50
135.5
 51
295.5
  0
LINE
  5
371
102
{ACAD_REACTORS
330
5AB
102
}
330
1F
100
AcDbEntity
  8
LC-002-002-----0
 62
     7
370
    50
100
AcDbLine
 10
889.880247
 20
485.183143
 30
0.0
 11
891.470784
 21
486.801686
 31
0.0
  0
ARC
  5
372
102
{ACAD_REACTORS
330
5AB
102
}
330
1F
100
AcDbEntity
  8
LC-001-002-RND-0
 62
     7
370
    50
100
AcDbCircle
 10
891.114159
 20
487.15214
 30
0.0
 40
0.5000000000000114
100
AcDbArc
 50
315.5
 51
90.0
  0
LINE
  5
373
102
{ACAD_REACTORS
330
5A8
102
}
330
1F
100
AcDbEntity
  8
LC-002-002-----0
 62
     7
370
    50
100
AcDbLine
 10
891.114159
 20
487.65214
 30
0.0
 11
889.309386
 21
487.65214
 31
0.0
  0
INSERT
  5
37C
102
{ACAD_REACTORS
330
5A8
102
}
330
1F
100
AcDbEntity
  8
LC-005-005-----0
 62
     7
370
    25
100
AcDbBlockReference
  2
*X812
 10
0.0
 20
0.0
 30
0.0
  0
LINE
  5
37D
102
{ACAD_REACTORS
330
5A8
102
}
330
1F
100
AcDbEntity
  8
LC-002-002-----0
 62
     7
370
    50
100
AcDbLine
 10
611.059386
 20
495.651679
 30
0.0
 11
611.059386
 21
496.151679
 31
0.0
  0
LINE
  5
37E
102
{ACAD_REACTORS
330
5A8
102
}
330
1F
100
AcDbEntity
  8
LC-002-002-----0
 62
     7
370
    50
100
AcDbLine
 10
613.059386
 20
498.151679
 30
0.0
 11
688.488449
 21
498.151679
 31
0.0
  0
LINE
  5
37F
102
{ACAD_REACTORS
330
5A8
102
}
330
1F
100
AcDbEntity
  8
LC-002-002-----0
 62
     7
370
    50
100
AcDbLine
 10
699.630281
 20
498.151679
 30
0.0
 11
702.059386
 21
498.151679
 31
0.0
  0
LINE
  5
380
102
{ACAD_REACTORS
330
5A8
102
}
330
1F
100
AcDbEntity
  8
LC-002-002-----0
 62
     7
370
    50
100
AcDbLine
 10
611.059386
 20
495.651679
 30
0.0
 11
658.059386
 21
495.651679
 31
0.0
  0
LINE
  5
381
102
{ACAD_REACTORS
330
5A8
102
}
330
1F
100
AcDbEntity
  8
LC-002-002-----0
 62
     7
370
    50
100
AcDbLine
 10
661.392719
 20
494.151679
 30
0.0
 11
666.059386
 21
494.151679
 31
0.0
  0
LINE
  5
382
102
{ACAD_REACTORS
330
5A8
102
}
330
1F
100
AcDbEntity
  8
LC-002-002-----0
 62
     7
370
    50
100
AcDbLine
 10
666.059386
 20
492.051679
 30
0.0
 11
666.059386
 21
494.151679
 31
0.0
  0
LINE
  5
383
102
{ACAD_REACTORS
330
5A8
102
}
330
1F
100
AcDbEntity
  8
LC-002-002-----0
 62
     7
370
    50
100
AcDbLine
 10
668.059386
 20
491.151679
 30
0.0
 11
668.059386
 21
494.151679
 31
0.0
  0
LINE
  5
384
102
{ACAD_REACTORS
330
5A8
102
}
330
1F
100
AcDbEntity
  8
LC-002-002-----0
 62
     7
370
    50
100
AcDbLine
 10
668.059386
 20
494.151679
 30
0.0
 11
676.059386
 21
494.151679
 31
0.0
  0
LINE
  5
385
102
{ACAD_REACTORS
330
5A8
102
}
330
1F
100
AcDbEntity
  8
LC-002-002-----0
 62
     7
370
    50
100
AcDbLine
 10
676.059386
 20
487.551679
 30
0.0
 11
676.059386
 21
494.151679
 31
0.0
  0
LINE
  5
386
102
{ACAD_REACTORS
330
5A8
102
}
330
1F
100
AcDbEntity
  8
LC-002-002-----0
 62
     7
370
    50
100
AcDbLine
 10
678.559386
 20
486.426679
 30
0.0
 11
678.559386
 21
494.151679
 31
0.0
  0
LINE
  5
387
102
{ACAD_REACTORS
330
5A8
102
}
330
1F
100
AcDbEntity
  8
LC-002-002-----0
 62
     7
370
    50
100
AcDbLine
 10
658.059386
 20
495.651679
 30
0.0
 11
661.392719
 21
494.151679
 31
0.0
  0
LINE
  5
388
102
{ACAD_REACTORS
330
5A8
102
}
330
1F
100
AcDbEntity
  8
LC-002-002-----0
 62
     7
370
    50
100
AcDbLine
 10
676.059386
 20
487.551679
 30
0.0
 11
678.559386
 21
486.426679
 31
0.0
  0
LINE
  5
389
102
{ACAD_REACTORS
330
5A8
102
}
330
1F
100
AcDbEntity
  8
LC-002-002-----0
 62
     7
370
    50
100
AcDbLine
 10
666.059386
 20
492.051679
 30
0.0
 11
668.059386
 21
491.151679
 31
0.0
  0
LINE
  5
38A
102
{ACAD_REACTORS
330
5A8
102
}
330
1F
100
AcDbEntity
  8
LC-002-002-----0
 62
     7
370
    50
100
AcDbLine
 10
678.559386
 20
494.151679
 30
0.0
 11
685.809386
 21
494.151679
 31
0.0
  0
LINE
  5
38B
102
{ACAD_REACTORS
330
5A8
102
}
330
1F
100
AcDbEntity
  8
LC-002-002-----0
 62
     7
370
    50
100
AcDbLine
 10
687.059386
 20
485.151679
 30
0.0
 11
690.909372
 21
485.151679
 31
0.0
  0
LINE
  5
38C
102
{ACAD_REACTORS
330
5A8
102
}
330
1F
100
AcDbEntity
  8
LC-002-002-----0
 62
     7
370
    50
100
AcDbLine
 10
697.209372
 20
485.151679
 30
0.0
 11
706.559386
 21
485.151679
 31
0.0
  0
LINE
  5
38D
102
{ACAD_REACTORS
330
5A8
102
}
330
1F
100
AcDbEntity
  8
LC-002-002-----0
 62
     7
370
    50
100
AcDbLine
 10
690.059386
 20
485.151679
 30
0.0
 11
690.059386
 21
495.151679
 31
0.0
  0
LINE
  5
38E
102
{ACAD_REACTORS
330
5A8
102
}
330
1F
100
AcDbEntity
  8
LC-002-002-----0
 62
     7
370
    50
100
AcDbLine
 10
690.059386
 20
495.151679
 30
0.0
 11
690.059386
 21
495.151772
 31
0.0
  0
LINE
  5
38F
102
{ACAD_REACTORS
330
5A8
102
}
330
1F
100
AcDbEntity
  8
LC-002-002-----0
 62
     7
370
    50
100
AcDbLine
 10
706.559386
 20
475.151679
 30
0.0
 11
706.559386
 21
492.089501
 31
0.0
  0
LINE
  5
390
102
{ACAD_REACTORS
330
5A8
102
}
330
1F
100
AcDbEntity
  8
LC-002-002-----0
 62
     7
370
    50
100
AcDbLine
 10
711.559386
 20
470.151679
 30
0.0
 11
714.159686
 21
470.151679
 31
0.0
  0
LINE
  5
391
102
{ACAD_REACTORS
330
5A8
102
}
330
1F
100
AcDbEntity
  8
LC-002-002-----0
 62
     7
370
    50
100
AcDbLine
 10
706.559386
 20
475.151679
 30
0.0
 11
711.559386
 21
470.151679
 31
0.0
  0
LINE
  5
392
102
{ACAD_REACTORS
330
5A8
102
}
330
1F
100
AcDbEntity
  8
LC-002-002-----0
 62
     7
370
    50
100
AcDbLine
 10
714.059386
 20
471.187213
 30
0.0
 11
714.059386
 21
470.151679
 31
0.0
  0
LINE
  5
393
102
{ACAD_REACTORS
330
5A8
102
}
330
1F
100
AcDbEntity
  8
LC-002-002-----0
 62
     7
370
    50
100
AcDbLine
 10
709.059386
 20
476.187213
 30
0.0
 11
714.059386
 21
471.187213
 31
0.0
  0
LINE
  5
394
102
{ACAD_REACTORS
330
5A8
102
}
330
1F
100
AcDbEntity
  8
LC-002-002-----0
 62
     7
370
    50
100
AcDbLine
 10
709.059386
 20
476.187213
 30
0.0
 11
709.059386
 21
496.151679
 31
0.0
  0
LINE
  5
395
102
{ACAD_REACTORS
330
5A8
102
}
330
1F
100
AcDbEntity
  8
LC-002-002-----0
 62
     7
370
    50
100
AcDbLine
 10
702.059386
 20
498.151679
 30
0.0
 11
705.523487
 21
496.151679
 31
0.0
  0
LINE
  5
396
102
{ACAD_REACTORS
330
5A8
102
}
330
1F
100
AcDbEntity
  8
LC-002-002-----0
 62
     7
370
    50
100
AcDbLine
 10
702.987589
 20
494.151679
 30
0.0
 11
706.559386
 21
492.089501
 31
0.0
  0
LINE
  5
397
102
{ACAD_REACTORS
330
5A8
102
}
330
1F
100
AcDbEntity
  8
LC-002-002-----0
 62
     7
370
    50
100
AcDbLine
 10
678.559386
 20
486.426679
 30
0.0
 11
681.378619
 21
486.426679
 31
0.0
  0
LINE
  5
398
102
{ACAD_REACTORS
330
5A8
102
}
330
1F
100
AcDbEntity
  8
LC-002-002-----0
 62
     7
370
    50
100
AcDbLine
 10
668.059386
 20
491.151679
 30
0.0
 11
676.059386
 21
491.151679
 31
0.0
  0
ARC
  5
399
102
{ACAD_REACTORS
330
5A8
102
}
330
1F
100
AcDbEntity
  8
LC-001-002-RND-0
 62
     7
370
    50
100
AcDbCircle
 10
613.059386
 20
496.151679
 30
0.0
 40
2.0
100
AcDbArc
 50
90.0
 51
180.0
  0
LINE
  5
39A
102
{ACAD_REACTORS
330
5A8
102
}
330
1F
100
AcDbEntity
  8
LC-002-002-----0
 62
     7
370
    50
100
AcDbLine
 10
698.059386
 20
495.151679
 30
0.0
 11
698.059386
 21
485.151679
 31
0.0
  0
LINE
  5
39B
102
{ACAD_REACTORS
330
5A8
102
}
330
1F
100
AcDbEntity
  8
LC-002-002-----0
 62
     7
370
    50
100
AcDbLine
 10
702.309386
 20
494.151679
 30
0.0
 11
702.987589
 21
494.151679
 31
0.0
  0
LINE
  5
39C
102
{ACAD_REACTORS
330
5A8
102
}
330
1F
100
AcDbEntity
  8
LC-002-002-----0
 62
     7
370
    50
100
AcDbLine
 10
687.809386
 20
495.151679
 30
0.0
 11
690.909382
 21
495.151679
 31
0.0
  0
LINE
  5
39D
102
{ACAD_REACTORS
330
5A8
102
}
330
1F
100
AcDbEntity
  8
LC-002-002-----0
 62
     7
370
    50
100
AcDbLine
 10
697.209382
 20
495.151679
 30
0.0
 11
700.309386
 21
495.151679
 31
0.0
  0
LINE
  5
39E
102
{ACAD_REACTORS
330
5A8
102
}
330
1F
100
AcDbEntity
  8
LC-002-002-----0
 62
     7
370
    50
100
AcDbLine
 10
687.809386
 20
498.151679
 30
0.0
 11
687.809386
 21
496.686363
 31
0.0
  0
LINE
  5
39F
102
{ACAD_REACTORS
330
5A8
102
}
330
1F
100
AcDbEntity
  8
LC-002-002-----0
 62
     7
370
    50
100
AcDbLine
 10
687.809386
 20
495.151763
 30
0.0
 11
687.809386
 21
495.151679
 31
0.0
  0
LINE
  5
3A0
102
{ACAD_REACTORS
330
5A8
102
}
330
1F
100
AcDbEntity
  8
LC-002-002-----0
 62
     7
370
    50
100
AcDbLine
 10
700.309386
 20
498.151679
 30
0.0
 11
700.309386
 21
495.151679
 31
0.0
  0
LINE
  5
3A1
102
{ACAD_REACTORS
330
5A8
102
}
330
1F
100
AcDbEntity
  8
LC-002-002-----0
 62
     7
370
    50
100
AcDbLine
 10
687.059386
 20
485.151679
 30
0.0
 11
685.809386
 21
494.151679
 31
0.0
  0
LINE
  5
3A2
102
{ACAD_REACTORS
330
5A8
102
}
330
1F
100
AcDbEntity
  8
LC-002-002-----0
 62
     7
370
    50
100
AcDbLine
 10
701.059386
 20
485.151679
 30
0.0
 11
702.309386
 21
494.151679
 31
0.0
  0
INSERT
  5
3BE
102
{ACAD_REACTORS
330
5A8
102
}
330
1F
100
AcDbEntity
  8
LC-005-005-----0
 62
     7
370
    25
100
AcDbBlockReference
  2
*X913
 10
0.0
 20
0.0
 30
0.0
  0
INSERT
  5
3CC
102
{ACAD_REACTORS
330
5A8
102
}
330
1F
100
AcDbEntity
  8
LC-005-005-----0
 62
     7
370
    25
100
AcDbBlockReference
  2
*X1014
 10
0.0
 20
0.0
 30
0.0
  0
LINE
  5
3CD
102
{ACAD_REACTORS
330
5A8
102
}
330
1F
100
AcDbEntity
  8
LC-002-002-----0
 62
     7
370
    50
100
AcDbLine
 10
965.059386
 20
495.651679
 30
0.0
 11
965.059386
 21
496.151679
 31
0.0
  0
LINE
  5
3CE
102
{ACAD_REACTORS
330
5A8
102
}
330
1F
100
AcDbEntity
  8
LC-002-002-----0
 62
     7
370
    50
100
AcDbLine
 10
963.059386
 20
498.151679
 30
0.0
 11
887.635594
 21
498.151679
 31
0.0
  0
LINE
  5
3CF
102
{ACAD_REACTORS
330
5A8
102
}
330
1F
100
AcDbEntity
  8
LC-002-002-----0
 62
     7
370
    50
100
AcDbLine
 10
876.504622
 20
498.151679
 30
0.0
 11
874.059386
 21
498.151679
 31
0.0
  0
LINE
  5
3D0
102
{ACAD_REACTORS
330
5A8
102
}
330
1F
100
AcDbEntity
  8
LC-002-002-----0
 62
     7
370
    50
100
AcDbLine
 10
965.059386
 20
495.651679
 30
0.0
 11
918.059386
 21
495.651679
 31
0.0
  0
LINE
  5
3D1
102
{ACAD_REACTORS
330
5A8
102
}
330
1F
100
AcDbEntity
  8
LC-002-002-----0
 62
     7
370
    50
100
AcDbLine
 10
914.726052
 20
494.151679
 30
0.0
 11
910.059386
 21
494.151679
 31
0.0
  0
LINE
  5
3D2
102
{ACAD_REACTORS
330
5A8
102
}
330
1F
100
AcDbEntity
  8
LC-002-002-----0
 62
     7
370
    50
100
AcDbLine
 10
910.059386
 20
492.051679
 30
0.0
 11
910.059386
 21
494.151679
 31
0.0
  0
LINE
  5
3D3
102
{ACAD_REACTORS
330
5A8
102
}
330
1F
100
AcDbEntity
  8
LC-002-002-----0
 62
     7
370
    50
100
AcDbLine
 10
908.059386
 20
491.151679
 30
0.0
 11
908.059386
 21
494.151679
 31
0.0
  0
LINE
  5
3D4
102
{ACAD_REACTORS
330
5A8
102
}
330
1F
100
AcDbEntity
  8
LC-002-002-----0
 62
     7
370
    50
100
AcDbLine
 10
908.059386
 20
494.151679
 30
0.0
 11
900.059386
 21
494.151679
 31
0.0
  0
LINE
  5
3D5
102
{ACAD_REACTORS
330
5A8
102
}
330
1F
100
AcDbEntity
  8
LC-002-002-----0
 62
     7
370
    50
100
AcDbLine
 10
900.059386
 20
487.551679
 30
0.0
 11
900.059386
 21
494.151679
 31
0.0
  0
LINE
  5
3D6
102
{ACAD_REACTORS
330
5A8
102
}
330
1F
100
AcDbEntity
  8
LC-002-002-----0
 62
     7
370
    50
100
AcDbLine
 10
897.559386
 20
486.426679
 30
0.0
 11
897.559386
 21
494.151679
 31
0.0
  0
LINE
  5
3D7
102
{ACAD_REACTORS
330
5A8
102
}
330
1F
100
AcDbEntity
  8
LC-002-002-----0
 62
     7
370
    50
100
AcDbLine
 10
918.059386
 20
495.651679
 30
0.0
 11
914.726052
 21
494.151679
 31
0.0
  0
LINE
  5
3D8
102
{ACAD_REACTORS
330
5A8
102
}
330
1F
100
AcDbEntity
  8
LC-002-002-----0
 62
     7
370
    50
100
AcDbLine
 10
900.059386
 20
487.551679
 30
0.0
 11
897.559386
 21
486.426679
 31
0.0
  0
LINE
  5
3D9
102
{ACAD_REACTORS
330
5A8
102
}
330
1F
100
AcDbEntity
  8
LC-002-002-----0
 62
     7
370
    50
100
AcDbLine
 10
910.059386
 20
492.051679
 30
0.0
 11
908.059386
 21
491.151679
 31
0.0
  0
LINE
  5
3DA
102
{ACAD_REACTORS
330
5A8
102
}
330
1F
100
AcDbEntity
  8
LC-002-002-----0
 62
     7
370
    50
100
AcDbLine
 10
897.559386
 20
494.151679
 30
0.0
 11
890.309386
 21
494.151679
 31
0.0
  0
LINE
  5
3DB
102
{ACAD_REACTORS
330
5A8
102
}
330
1F
100
AcDbEntity
  8
LC-002-002-----0
 62
     7
370
    50
100
AcDbLine
 10
889.059386
 20
485.151679
 30
0.0
 11
885.219849
 21
485.151679
 31
0.0
  0
LINE
  5
3DC
102
{ACAD_REACTORS
330
5A8
102
}
330
1F
100
AcDbEntity
  8
LC-002-002-----0
 62
     7
370
    50
100
AcDbLine
 10
878.919849
 20
485.151679
 30
0.0
 11
869.559386
 21
485.151679
 31
0.0
  0
LINE
  5
3DD
102
{ACAD_REACTORS
330
5A8
102
}
330
1F
100
AcDbEntity
  8
LC-002-002-----0
 62
     7
370
    50
100
AcDbLine
 10
886.059386
 20
485.151679
 30
0.0
 11
886.059386
 21
495.147445
 31
0.0
  0
LINE
  5
3DE
102
{ACAD_REACTORS
330
5A8
102
}
330
1F
100
AcDbEntity
  8
LC-002-002-----0
 62
     7
370
    50
100
AcDbLine
 10
869.559386
 20
475.151679
 30
0.0
 11
869.559386
 21
492.089501
 31
0.0
  0
LINE
  5
3DF
102
{ACAD_REACTORS
330
5A8
102
}
330
1F
100
AcDbEntity
  8
LC-002-002-----0
 62
     7
370
    50
100
AcDbLine
 10
864.559386
 20
470.151679
 30
0.0
 11
861.959089
 21
470.151679
 31
0.0
  0
LINE
  5
3E0
102
{ACAD_REACTORS
330
5A8
102
}
330
1F
100
AcDbEntity
  8
LC-002-002-----0
 62
     7
370
    50
100
AcDbLine
 10
869.559386
 20
475.151679
 30
0.0
 11
864.559386
 21
470.151679
 31
0.0
  0
LINE
  5
3E1
102
{ACAD_REACTORS
330
5A8
102
}
330
1F
100
AcDbEntity
  8
LC-002-002-----0
 62
     7
370
    50
100
AcDbLine
 10
862.059386
 20
471.187213
 30
0.0
 11
862.059386
 21
470.151679
 31
0.0
  0
LINE
  5
3E2
102
{ACAD_REACTORS
330
5A8
102
}
330
1F
100
AcDbEntity
  8
LC-002-002-----0
 62
     7
370
    50
100
AcDbLine
 10
867.059386
 20
476.187213
 30
0.0
 11
862.059386
 21
471.187213
 31
0.0
  0
LINE
  5
3E3
102
{ACAD_REACTORS
330
5A8
102
}
330
1F
100
AcDbEntity
  8
LC-002-002-----0
 62
     7
370
    50
100
AcDbLine
 10
867.059386
 20
476.187213
 30
0.0
 11
867.059386
 21
496.151679
 31
0.0
  0
LINE
  5
3E4
102
{ACAD_REACTORS
330
5A8
102
}
330
1F
100
AcDbEntity
  8
LC-002-002-----0
 62
     7
370
    50
100
AcDbLine
 10
874.059386
 20
498.151679
 30
0.0
 11
870.595284
 21
496.151679
 31
0.0
  0
LINE
  5
3E5
102
{ACAD_REACTORS
330
5A8
102
}
330
1F
100
AcDbEntity
  8
LC-002-002-----0
 62
     7
370
    50
100
AcDbLine
 10
873.131182
 20
494.151679
 30
0.0
 11
869.559386
 21
492.089501
 31
0.0
  0
LINE
  5
3E6
102
{ACAD_REACTORS
330
5A8
102
}
330
1F
100
AcDbEntity
  8
LC-002-002-----0
 62
     7
370
    50
100
AcDbLine
 10
897.559386
 20
486.426679
 30
0.0
 11
894.740153
 21
486.426679
 31
0.0
  0
LINE
  5
3E7
102
{ACAD_REACTORS
330
5A8
102
}
330
1F
100
AcDbEntity
  8
LC-002-002-----0
 62
     7
370
    50
100
AcDbLine
 10
908.059386
 20
491.151679
 30
0.0
 11
900.059386
 21
491.151679
 31
0.0
  0
ARC
  5
3E8
102
{ACAD_REACTORS
330
5A8
102
}
330
1F
100
AcDbEntity
  8
LC-001-002-RND-0
 62
     7
370
    50
100
AcDbCircle
 10
963.059386
 20
496.151679
 30
0.0
 40
2.0
100
AcDbArc
 50
0.0
 51
90.0
  0
LINE
  5
3E9
102
{ACAD_REACTORS
330
5A8
102
}
330
1F
100
AcDbEntity
  8
LC-002-002-----0
 62
     7
370
    50
100
AcDbLine
 10
878.059386
 20
495.147831
 30
0.0
 11
878.059386
 21
485.151679
 31
0.0
  0
LINE
  5
3EA
102
{ACAD_REACTORS
330
5A8
102
}
330
1F
100
AcDbEntity
  8
LC-002-002-----0
 62
     7
370
    50
100
AcDbLine
 10
873.809386
 20
494.151679
 30
0.0
 11
873.131182
 21
494.151679
 31
0.0
  0
LINE
  5
3EB
102
{ACAD_REACTORS
330
5A8
102
}
330
1F
100
AcDbEntity
  8
LC-002-002-----0
 62
     7
370
    50
100
AcDbLine
 10
875.82028
 20
495.151679
 30
0.0
 11
875.809386
 21
495.151679
 31
0.0
  0
LINE
  5
3EC
102
{ACAD_REACTORS
330
5A8
102
}
330
1F
100
AcDbEntity
  8
LC-002-002-----0
 62
     7
370
    50
100
AcDbLine
 10
888.309386
 20
498.151679
 30
0.0
 11
888.309386
 21
496.740956
 31
0.0
  0
LINE
  5
3ED
102
{ACAD_REACTORS
330
5A8
102
}
330
1F
100
AcDbEntity
  8
LC-002-002-----0
 62
     7
370
    50
100
AcDbLine
 10
875.809386
 20
498.151679
 30
0.0
 11
875.809386
 21
495.151679
 31
0.0
  0
LINE
  5
3EE
102
{ACAD_REACTORS
330
5A8
102
}
330
1F
100
AcDbEntity
  8
LC-002-002-----0
 62
     7
370
    50
100
AcDbLine
 10
889.059386
 20
485.151679
 30
0.0
 11
890.309386
 21
494.151679
 31
0.0
  0
LINE
  5
3EF
102
{ACAD_REACTORS
330
5A8
102
}
330
1F
100
AcDbEntity
  8
LC-002-002-----0
 62
     7
370
    50
100
AcDbLine
 10
875.059386
 20
485.151679
 30
0.0
 11
873.809386
 21
494.151679
 31
0.0
  0
INSERT
  5
40B
102
{ACAD_REACTORS
330
5A8
102
}
330
1F
100
AcDbEntity
  8
LC-005-005-----0
 62
     7
370
    25
100
AcDbBlockReference
  2
*X1115
 10
0.0
 20
0.0
 30
0.0
  0
INSERT
  5
41A
102
{ACAD_REACTORS
330
5A8
102
}
330
1F
100
AcDbEntity
  8
LC-005-005-----0
 62
     7
370
    25
100
AcDbBlockReference
  2
*X1216
 10
0.0
 20
0.0
 30
0.0
  0
LINE
  5
41B
102
{ACAD_REACTORS
330
5AD
102
}
330
1F
100
AcDbEntity
  8
LC-002-002-----0
 62
     7
370
    50
100
AcDbLine
 10
885.220049
 20
489.519969
 30
0.0
 11
878.919888
 21
485.88294
 31
0.0
  0
LINE
  5
41C
102
{ACAD_REACTORS
330
5AD
102
}
330
1F
100
AcDbEntity
  8
LC-002-002-----0
 62
     7
370
    50
100
AcDbLine
 10
885.219928
 20
486.555819
 30
0.0
 11
878.919767
 21
482.91879
 31
0.0
  0
LINE
  5
41D
102
{ACAD_REACTORS
330
5AD
102
}
330
1F
100
AcDbEntity
  8
LC-002-002-----0
 62
     7
370
    50
100
AcDbLine
 10
878.320279
 20
495.147827
 30
0.0
 11
876.070284
 21
495.14794
 31
0.0
  0
LINE
  5
41E
102
{ACAD_REACTORS
330
5AD
102
}
330
1F
100
AcDbEntity
  8
LC-002-002-----0
 62
     7
370
    50
100
AcDbLine
 10
885.820279
 20
495.147448
 30
0.0
 11
887.049106
 21
495.147387
 31
0.0
  0
ARC
  5
41F
102
{ACAD_REACTORS
330
5AD
102
}
330
1F
100
AcDbEntity
  8
LC-001-002-RND-0
 62
     7
370
    50
100
AcDbCircle
 10
886.320348
 20
496.682003
 30
0.0
 40
2.000000000000069
100
AcDbArc
 50
359.99747
 51
63.121961
  0
LINE
  5
420
102
{ACAD_REACTORS
330
5AD
102
}
330
1F
100
AcDbEntity
  8
LC-002-002-----0
 62
     7
370
    50
100
AcDbLine
 10
888.32028
 20
495.147336
 30
0.0
 11
875.82028
 21
495.147939
 31
0.0
  0
LINE
  5
421
102
{ACAD_REACTORS
330
5AD
102
}
330
1F
100
AcDbEntity
  8
LC-002-002-----0
 62
     7
370
    50
100
AcDbLine
 10
875.82028
 20
495.147939
 30
0.0
 11
875.820348
 21
496.682441
 31
0.0
  0
LINE
  5
422
102
{ACAD_REACTORS
330
5AD
102
}
330
1F
100
AcDbEntity
  8
LC-002-002-----0
 62
     7
370
    50
100
AcDbLine
 10
885.219652
 20
480.603345
 30
0.0
 11
882.069411
 21
475.147524
 31
0.0
  0
LINE
  5
423
102
{ACAD_REACTORS
330
5AD
102
}
330
1F
100
AcDbEntity
  8
LC-002-002-----0
 62
     7
370
    50
100
AcDbLine
 10
879.570857
 20
479.475589
 30
0.0
 11
878.919652
 21
480.603623
 31
0.0
  0
LINE
  5
424
102
{ACAD_REACTORS
330
5AD
102
}
330
1F
100
AcDbEntity
  8
LC-002-002-----0
 62
     7
370
    50
100
AcDbLine
 10
888.32028
 20
495.147336
 30
0.0
 11
888.320348
 21
496.681915
 31
0.0
  0
LINE
  5
425
102
{ACAD_REACTORS
330
5AD
102
}
330
1F
100
AcDbEntity
  8
LC-002-002-----0
 62
     7
370
    50
100
AcDbLine
 10
878.9202
 20
493.329117
 30
0.0
 11
882.070291
 21
495.147637
 31
0.0
  0
LINE
  5
426
102
{ACAD_REACTORS
330
5AD
102
}
330
1F
100
AcDbEntity
  8
LC-002-002-----0
 62
     7
370
    50
100
AcDbLine
 10
882.069411
 20
475.147524
 30
0.0
 11
879.570857
 21
479.475589
 31
0.0
  0
LINE
  5
427
102
{ACAD_REACTORS
330
5AD
102
}
330
1F
100
AcDbEntity
  8
LC-002-002-----0
 62
     7
370
    50
100
AcDbLine
 10
885.219652
 20
480.603345
 30
0.0
 11
885.22028
 21
495.147485
 31
0.0
  0
LINE
  5
428
102
{ACAD_REACTORS
330
5AD
102
}
330
1F
100
AcDbEntity
  8
LC-002-002-----0
 62
     7
370
    50
100
AcDbLine
 10
885.219739
 20
482.573727
 30
0.0
 11
879.641397
 21
479.353398
 31
0.0
  0
LINE
  5
429
102
{ACAD_REACTORS
330
5AD
102
}
330
1F
100
AcDbEntity
  8
LC-002-002-----0
 62
     7
370
    50
100
AcDbLine
 10
883.925954
 20
478.362822
 30
0.0
 11
881.141282
 21
476.755255
 31
0.0
  0
LINE
  5
42A
102
{ACAD_REACTORS
330
5AD
102
}
330
1F
100
AcDbEntity
  8
LC-002-002-----0
 62
     7
370
    50
100
AcDbLine
 10
885.220207
 20
493.502044
 30
0.0
 11
878.920047
 21
489.865015
 31
0.0
  0
LINE
  5
42B
102
{ACAD_REACTORS
330
5AD
102
}
330
1F
100
AcDbEntity
  8
LC-002-002-----0
 62
     7
370
    50
100
AcDbLine
 10
878.919652
 20
480.603623
 30
0.0
 11
878.92028
 21
495.14779
 31
0.0
  0
ARC
  5
42C
102
{ACAD_REACTORS
330
5AD
102
}
330
1F
100
AcDbEntity
  8
LC-002-002-----0
 62
     7
370
    50
100
AcDbCircle
 10
882.070002
 20
488.29615
 30
0.0
 40
11.40148749780557
100
AcDbArc
 50
63.121961
 51
116.87332
  0
ARC
  5
42D
102
{ACAD_REACTORS
330
5AD
102
}
330
1F
100
AcDbEntity
  8
LC-001-002-RND-0
 62
     7
370
    50
100
AcDbCircle
 10
877.820348
 20
496.682353
 30
0.0
 40
1.999999999999974
100
AcDbArc
 50
116.87332
 51
179.99747
  0
LINE
  5
42E
102
{ACAD_REACTORS
330
5AE
102
}
330
1F
100
AcDbEntity
  8
LC-002-002-----0
 62
     7
370
    50
100
AcDbLine
 10
690.909364
 20
489.524259
 30
0.0
 11
697.209364
 21
485.886952
 31
0.0
  0
LINE
  5
42F
102
{ACAD_REACTORS
330
5AE
102
}
330
1F
100
AcDbEntity
  8
LC-002-002-----0
 62
     7
370
    50
100
AcDbLine
 10
690.909354
 20
486.560109
 30
0.0
 11
697.209354
 21
482.922802
 31
0.0
  0
LINE
  5
430
102
{ACAD_REACTORS
330
5AE
102
}
330
1F
100
AcDbEntity
  8
LC-002-002-----0
 62
     7
370
    50
100
AcDbLine
 10
697.809382
 20
495.151812
 30
0.0
 11
700.059378
 21
495.151826
 31
0.0
  0
LINE
  5
431
102
{ACAD_REACTORS
330
5AE
102
}
330
1F
100
AcDbEntity
  8
LC-002-002-----0
 62
     7
370
    50
100
AcDbLine
 10
690.309382
 20
495.151765
 30
0.0
 11
689.080556
 21
495.151757
 31
0.0
  0
ARC
  5
432
102
{ACAD_REACTORS
330
5AE
102
}
330
1F
100
AcDbEntity
  8
LC-001-002-RND-0
 62
     7
370
    50
100
AcDbCircle
 10
689.809382
 20
496.686342
 30
0.0
 40
2.000000000000036
100
AcDbArc
 50
116.875509
 51
180.0
  0
LINE
  5
433
102
{ACAD_REACTORS
330
5AE
102
}
330
1F
100
AcDbEntity
  8
LC-002-002-----0
 62
     7
370
    50
100
AcDbLine
 10
687.809382
 20
495.151763
 30
0.0
 11
700.309382
 21
495.151815
 31
0.0
  0
LINE
  5
434
102
{ACAD_REACTORS
330
5AE
102
}
330
1F
100
AcDbEntity
  8
LC-002-002-----0
 62
     7
370
    50
100
AcDbLine
 10
700.309382
 20
495.151815
 30
0.0
 11
700.309382
 21
496.686317
 31
0.0
  0
LINE
  5
435
102
{ACAD_REACTORS
330
5AE
102
}
330
1F
100
AcDbEntity
  8
LC-002-002-----0
 62
     7
370
    50
100
AcDbLine
 10
690.909367
 20
480.607635
 30
0.0
 11
694.059367
 21
475.151675
 31
0.0
  0
LINE
  5
436
102
{ACAD_REACTORS
330
5AE
102
}
330
1F
100
AcDbEntity
  8
LC-002-002-----0
 62
     7
370
    50
100
AcDbLine
 10
696.558113
 20
479.47963
 30
0.0
 11
697.209367
 21
480.607635
 31
0.0
  0
LINE
  5
437
102
{ACAD_REACTORS
330
5AE
102
}
330
1F
100
AcDbEntity
  8
LC-002-002-----0
 62
     7
370
    50
100
AcDbLine
 10
687.809382
 20
495.151763
 30
0.0
 11
687.809382
 21
496.686342
 31
0.0
  0
LINE
  5
438
102
{ACAD_REACTORS
330
5AE
102
}
330
1F
100
AcDbEntity
  8
LC-002-002-----0
 62
     7
370
    50
100
AcDbLine
 10
697.209382
 20
493.333129
 30
0.0
 11
694.05937
 21
495.151789
 31
0.0
  0
LINE
  5
439
102
{ACAD_REACTORS
330
5AE
102
}
330
1F
100
AcDbEntity
  8
LC-002-002-----0
 62
     7
370
    50
100
AcDbLine
 10
694.059367
 20
475.151675
 30
0.0
 11
696.558113
 21
479.47963
 31
0.0
  0
LINE
  5
43A
102
{ACAD_REACTORS
330
5AE
102
}
330
1F
100
AcDbEntity
  8
LC-002-002-----0
 62
     7
370
    50
100
AcDbLine
 10
690.909367
 20
480.607635
 30
0.0
 11
690.909382
 21
495.151775
 31
0.0
  0
LINE
  5
43B
102
{ACAD_REACTORS
330
5AE
102
}
330
1F
100
AcDbEntity
  8
LC-002-002-----0
 62
     7
370
    50
100
AcDbLine
 10
690.909367
 20
482.578017
 30
0.0
 11
696.487567
 21
479.357441
 31
0.0
  0
LINE
  5
43C
102
{ACAD_REACTORS
330
5AE
102
}
330
1F
100
AcDbEntity
  8
LC-002-002-----0
 62
     7
370
    50
100
AcDbLine
 10
692.202966
 20
478.367056
 30
0.0
 11
694.987567
 21
476.759365
 31
0.0
  0
LINE
  5
43D
102
{ACAD_REACTORS
330
5AE
102
}
330
1F
100
AcDbEntity
  8
LC-002-002-----0
 62
     7
370
    50
100
AcDbLine
 10
690.909382
 20
493.506334
 30
0.0
 11
697.209382
 21
489.869027
 31
0.0
  0
LINE
  5
43E
102
{ACAD_REACTORS
330
5AE
102
}
330
1F
100
AcDbEntity
  8
LC-002-002-----0
 62
     7
370
    50
100
AcDbLine
 10
697.209367
 20
480.607635
 30
0.0
 11
697.209382
 21
495.151802
 31
0.0
  0
ARC
  5
43F
102
{ACAD_REACTORS
330
5AE
102
}
330
1F
100
AcDbEntity
  8
LC-002-002-----0
 62
     7
370
    50
100
AcDbCircle
 10
694.059357
 20
488.300301
 30
0.0
 40
11.4014874978057
100
AcDbArc
 50
63.12415
 51
116.875509
  0
ARC
  5
440
102
{ACAD_REACTORS
330
5AE
102
}
330
1F
100
AcDbEntity
  8
LC-001-002-RND-0
 62
     7
370
    50
100
AcDbCircle
 10
698.309382
 20
496.686317
 30
0.0
 40
2.0
100
AcDbArc
 50
360.0
 51
63.12415
  0
LINE
  5
441
102
{ACAD_REACTORS
330
5A8
102
}
330
1F
100
AcDbEntity
  8
LC-002-002-----0
 62
     7
370
    50
100
AcDbLine
 10
685.016505
 20
486.426679
 30
0.0
 11
686.882302
 21
486.426679
 31
0.0
  0
LINE
  5
442
102
{ACAD_REACTORS
330
5A8
102
}
330
1F
100
AcDbEntity
  8
LC-002-002-----0
 62
     7
370
    50
100
AcDbLine
 10
891.102266
 20
486.426679
 30
0.0
 11
889.236469
 21
486.426679
 31
0.0
  0
DIMENSION
  5
443
330
1F
100
AcDbEntity
  8
LC-003-003-----0
 62
     7
370
    25
100
AcDbDimension
  2
*D17
 10
965.059386
 20
594.410709
 30
0.0
 11
785.189248
 21
625.210709
 31
0.0
 70
   160
  1
%%c<>
 71
     5
 42
354.0
  3
LC-DIM-L-0140-02-02
100
AcDbAlignedDimension
 13
611.059386
 23
495.651679
 33
0.0
 14
965.059386
 24
495.651679
 34
0.0
100
AcDbRotatedDimension
  0
DIMENSION
  5
450
330
1F
100
AcDbEntity
  8
LC-003-003-----0
 62
     7
370
    25
100
AcDbDimension
  2
*D18
 10
1057.976139
 20
498.151679
 30
0.0
 11
1027.176139
 21
273.937559
 31
0.0
 70
   160
  1
465
 71
     5
 42
464.085765
 53
90.0
  3
LC-DIM-L-0140-02-02
100
AcDbAlignedDimension
 13
830.059655
 23
34.065914
 33
0.0
 14
963.059386
 24
498.151679
 34
0.0
 50
90.0
100
AcDbRotatedDimension
  0
ARC
  5
45D
102
{ACAD_REACTORS
330
5A9
102
}
330
1F
100
AcDbEntity
  8
LC-001-002-RND-0
 62
     7
370
    50
100
AcDbCircle
 10
741.559655
 20
319.886724
 30
0.0
 40
0.5
100
AcDbArc
 50
270.0
 51
360.0
  0
ARC
  5
45E
102
{ACAD_REACTORS
330
5A9
102
}
330
1F
100
AcDbEntity
  8
LC-001-002-RND-0
 62
     7
370
    50
100
AcDbCircle
 10
741.559655
 20
270.566062
 30
0.0
 40
0.5
100
AcDbArc
 50
270.0
 51
360.0
  0
ARC
  5
45F
102
{ACAD_REACTORS
330
5A9
102
}
330
1F
100
AcDbEntity
  8
LC-001-002-RND-0
 62
     7
370
    50
100
AcDbCircle
 10
741.559655
 20
295.226393
 30
0.0
 40
0.5
100
AcDbArc
 50
270.0
 51
360.0
  0
ARC
  5
460
102
{ACAD_REACTORS
330
5A9
102
}
330
1F
100
AcDbEntity
  8
LC-001-002-RND-0
 62
     7
370
    50
100
AcDbCircle
 10
741.059655
 20
266.58634
 30
0.0
 40
1.0
100
AcDbArc
 50
360.0
 51
84.0
  0
LINE
  5
461
102
{ACAD_REACTORS
330
5A9
102
}
330
1F
100
AcDbEntity
  8
LC-002-002-----0
 62
     7
370
    50
100
AcDbLine
 10
742.059655
 20
44.643358
 30
0.0
 11
742.059655
 21
44.565914
 31
0.0
  0
LINE
  5
462
102
{ACAD_REACTORS
330
5A9
102
}
330
1F
100
AcDbEntity
  8
LC-002-002-----0
 62
     7
370
    50
100
AcDbLine
 10
727.007391
 20
219.748138
 30
0.0
 11
741.164183
 21
218.260199
 31
0.0
  0
ARC
  5
463
102
{ACAD_REACTORS
330
5A9
102
}
330
1F
100
AcDbEntity
  8
LC-001-002-RND-0
 62
     7
370
    50
100
AcDbCircle
 10
727.059655
 20
269.566062
 30
0.0
 40
0.5
100
AcDbArc
 50
90.0
 51
264.0
  0
ARC
  5
464
102
{ACAD_REACTORS
330
5A9
102
}
330
1F
100
AcDbEntity
  8
LC-001-002-RND-0
 62
     7
370
    50
100
AcDbCircle
 10
741.059655
 20
217.265677
 30
0.0
 40
1.0
100
AcDbArc
 50
360.0
 51
84.0
  0
LINE
  5
465
102
{ACAD_REACTORS
330
5A9
102
}
330
1F
100
AcDbEntity
  8
LC-002-002-----0
 62
     7
370
    50
100
AcDbLine
 10
727.007391
 20
244.408469
 30
0.0
 11
741.164183
 21
242.92053
 31
0.0
  0
ARC
  5
466
102
{ACAD_REACTORS
330
5A9
102
}
330
1F
100
AcDbEntity
  8
LC-001-002-RND-0
 62
     7
370
    50
100
AcDbCircle
 10
741.059655
 20
241.926008
 30
0.0
 40
1.0
100
AcDbArc
 50
360.0
 51
84.0
  0
ARC
  5
467
102
{ACAD_REACTORS
330
5A9
102
}
330
1F
100
AcDbEntity
  8
LC-001-002-RND-0
 62
     7
370
    50
100
AcDbCircle
 10
727.059655
 20
220.245399
 30
0.0
 40
0.499999999928832
100
AcDbArc
 50
90.0
 51
264.0
  0
ARC
  5
468
102
{ACAD_REACTORS
330
5A9
102
}
330
1F
100
AcDbEntity
  8
LC-001-002-RND-0
 62
     7
370
    50
100
AcDbCircle
 10
727.059655
 20
244.90573
 30
0.0
 40
0.499999999928832
100
AcDbArc
 50
90.0
 51
264.0
  0
LINE
  5
469
102
{ACAD_REACTORS
330
5A9
102
}
330
1F
100
AcDbEntity
  8
LC-002-002-----0
 62
     7
370
    50
100
AcDbLine
 10
727.007391
 20
195.087807
 30
0.0
 11
741.164183
 21
193.599868
 31
0.0
  0
ARC
  5
46A
102
{ACAD_REACTORS
330
5A9
102
}
330
1F
100
AcDbEntity
  8
LC-001-002-RND-0
 62
     7
370
    50
100
AcDbCircle
 10
741.059655
 20
192.605346
 30
0.0
 40
1.0
100
AcDbArc
 50
360.0
 51
84.0
  0
ARC
  5
46B
102
{ACAD_REACTORS
330
5A9
102
}
330
1F
100
AcDbEntity
  8
LC-001-002-RND-0
 62
     7
370
    50
100
AcDbCircle
 10
727.059655
 20
195.585068
 30
0.0
 40
0.499999999928832
100
AcDbArc
 50
90.0
 51
264.0
  0
LINE
  5
46C
102
{ACAD_REACTORS
330
5A9
102
}
330
1F
100
AcDbEntity
  8
LC-002-002-----0
 62
     7
370
    50
100
AcDbLine
 10
727.007391
 20
170.427475
 30
0.0
 11
741.164183
 21
168.939536
 31
0.0
  0
ARC
  5
46D
102
{ACAD_REACTORS
330
5A9
102
}
330
1F
100
AcDbEntity
  8
LC-001-002-RND-0
 62
     7
370
    50
100
AcDbCircle
 10
741.059655
 20
167.945015
 30
0.0
 40
1.0
100
AcDbArc
 50
360.0
 51
84.0
  0
ARC
  5
46E
102
{ACAD_REACTORS
330
5A9
102
}
330
1F
100
AcDbEntity
  8
LC-001-002-RND-0
 62
     7
370
    50
100
AcDbCircle
 10
727.059655
 20
170.924736
 30
0.0
 40
0.499999999928832
100
AcDbArc
 50
90.0
 51
264.0
  0
LINE
  5
46F
102
{ACAD_REACTORS
330
5A9
102
}
330
1F
100
AcDbEntity
  8
LC-002-002-----0
 62
     7
370
    50
100
AcDbLine
 10
727.059655
 20
245.40573
 30
0.0
 11
741.559655
 21
245.40573
 31
0.0
  0
LINE
  5
470
102
{ACAD_REACTORS
330
5A9
102
}
330
1F
100
AcDbEntity
  8
LC-002-002-----0
 62
     7
370
    50
100
AcDbLine
 10
727.007391
 20
145.767144
 30
0.0
 11
741.164183
 21
144.279205
 31
0.0
  0
LINE
  5
471
102
{ACAD_REACTORS
330
5A9
102
}
330
1F
100
AcDbEntity
  8
LC-002-002-----0
 62
     7
370
    50
100
AcDbLine
 10
727.059655
 20
270.066062
 30
0.0
 11
741.559655
 21
270.066062
 31
0.0
  0
ARC
  5
472
102
{ACAD_REACTORS
330
5A9
102
}
330
1F
100
AcDbEntity
  8
LC-001-002-RND-0
 62
     7
370
    50
100
AcDbCircle
 10
727.059655
 20
146.264405
 30
0.0
 40
0.499999999928832
100
AcDbArc
 50
90.0
 51
264.0
  0
ARC
  5
473
102
{ACAD_REACTORS
330
5A9
102
}
330
1F
100
AcDbEntity
  8
LC-001-002-RND-0
 62
     7
370
    50
100
AcDbCircle
 10
741.059655
 20
143.284683
 30
0.0
 40
1.0
100
AcDbArc
 50
360.0
 51
84.0
  0
LINE
  5
474
102
{ACAD_REACTORS
330
5A9
102
}
330
1F
100
AcDbEntity
  8
LC-002-002-----0
 62
     7
370
    50
100
AcDbLine
 10
727.007391
 20
121.106813
 30
0.0
 11
741.164183
 21
119.618874
 31
0.0
  0
ARC
  5
475
102
{ACAD_REACTORS
330
5A9
102
}
330
1F
100
AcDbEntity
  8
LC-001-002-RND-0
 62
     7
370
    50
100
AcDbCircle
 10
741.059655
 20
118.624352
 30
0.0
 40
1.0
100
AcDbArc
 50
360.0
 51
84.0
  0
ARC
  5
476
102
{ACAD_REACTORS
330
5A9
102
}
330
1F
100
AcDbEntity
  8
LC-001-002-RND-0
 62
     7
370
    50
100
AcDbCircle
 10
727.059655
 20
121.604074
 30
0.0
 40
0.499999999928832
100
AcDbArc
 50
90.0
 51
264.0
  0
LINE
  5
477
102
{ACAD_REACTORS
330
5A9
102
}
330
1F
100
AcDbEntity
  8
LC-002-002-----0
 62
     7
370
    50
100
AcDbLine
 10
727.007391
 20
96.446481
 30
0.0
 11
741.164183
 21
94.958542
 31
0.0
  0
ARC
  5
478
102
{ACAD_REACTORS
330
5A9
102
}
330
1F
100
AcDbEntity
  8
LC-001-002-RND-0
 62
     7
370
    50
100
AcDbCircle
 10
741.059655
 20
93.964021
 30
0.0
 40
1.0
100
AcDbArc
 50
360.0
 51
84.0
  0
ARC
  5
479
102
{ACAD_REACTORS
330
5A9
102
}
330
1F
100
AcDbEntity
  8
LC-001-002-RND-0
 62
     7
370
    50
100
AcDbCircle
 10
727.059655
 20
96.943742
 30
0.0
 40
0.499999999928832
100
AcDbArc
 50
90.0
 51
264.0
  0
LINE
  5
47A
102
{ACAD_REACTORS
330
5A9
102
}
330
1F
100
AcDbEntity
  8
LC-002-002-----0
 62
     7
370
    50
100
AcDbLine
 10
727.007391
 20
71.78615
 30
0.0
 11
741.164183
 21
70.298211
 31
0.0
  0
ARC
  5
47B
102
{ACAD_REACTORS
330
5A9
102
}
330
1F
100
AcDbEntity
  8
LC-001-002-RND-0
 62
     7
370
    50
100
AcDbCircle
 10
741.059655
 20
69.303689
 30
0.0
 40
1.0
100
AcDbArc
 50
360.0
 51
84.0
  0
ARC
  5
47C
102
{ACAD_REACTORS
330
5A9
102
}
330
1F
100
AcDbEntity
  8
LC-001-002-RND-0
 62
     7
370
    50
100
AcDbCircle
 10
727.059655
 20
72.283411
 30
0.0
 40
0.499999999928832
100
AcDbArc
 50
90.0
 51
264.0
  0
LINE
  5
47D
102
{ACAD_REACTORS
330
5A9
102
}
330
1F
100
AcDbEntity
  8
LC-002-002-----0
 62
     7
370
    50
100
AcDbLine
 10
727.007391
 20
47.125819
 30
0.0
 11
741.164183
 21
45.63788
 31
0.0
  0
LINE
  5
47E
102
{ACAD_REACTORS
330
5A9
102
}
330
1F
100
AcDbEntity
  8
LC-002-002-----0
 62
     7
370
    50
100
AcDbLine
 10
742.059655
 20
221.245399
 30
0.0
 11
742.059655
 21
241.926008
 31
0.0
  0
ARC
  5
47F
102
{ACAD_REACTORS
330
5A9
102
}
330
1F
100
AcDbEntity
  8
LC-001-002-RND-0
 62
     7
370
    50
100
AcDbCircle
 10
741.059655
 20
44.643358
 30
0.0
 40
1.0
100
AcDbArc
 50
360.0
 51
84.0
  0
LINE
  5
480
102
{ACAD_REACTORS
330
5A9
102
}
330
1F
100
AcDbEntity
  8
LC-002-002-----0
 62
     7
370
    50
100
AcDbLine
 10
742.059655
 20
245.90573
 30
0.0
 11
742.059655
 21
266.58634
 31
0.0
  0
ARC
  5
481
102
{ACAD_REACTORS
330
5A9
102
}
330
1F
100
AcDbEntity
  8
LC-001-002-RND-0
 62
     7
370
    50
100
AcDbCircle
 10
727.059655
 20
47.62308
 30
0.0
 40
0.499999999928832
100
AcDbArc
 50
90.0
 51
264.0
  0
ARC
  5
482
102
{ACAD_REACTORS
330
5A9
102
}
330
1F
100
AcDbEntity
  8
LC-001-002-RND-0
 62
     7
370
    50
100
AcDbCircle
 10
741.559655
 20
221.245399
 30
0.0
 40
0.5
100
AcDbArc
 50
270.0
 51
360.0
  0
ARC
  5
483
102
{ACAD_REACTORS
330
5A9
102
}
330
1F
100
AcDbEntity
  8
LC-001-002-RND-0
 62
     7
370
    50
100
AcDbCircle
 10
741.559655
 20
245.90573
 30
0.0
 40
0.5
100
AcDbArc
 50
270.0
 51
360.0
  0
LINE
  5
484
102
{ACAD_REACTORS
330
5A9
102
}
330
1F
100
AcDbEntity
  8
LC-002-002-----0
 62
     7
370
    50
100
AcDbLine
 10
742.059655
 20
48.62308
 30
0.0
 11
742.059655
 21
69.303689
 31
0.0
  0
LINE
  5
485
102
{ACAD_REACTORS
330
5A9
102
}
330
1F
100
AcDbEntity
  8
LC-002-002-----0
 62
     7
370
    50
100
AcDbLine
 10
741.559655
 20
48.12308
 30
0.0
 11
727.059655
 21
48.12308
 31
0.0
  0
LINE
  5
486
102
{ACAD_REACTORS
330
5A9
102
}
330
1F
100
AcDbEntity
  8
LC-002-002-----0
 62
     7
370
    50
100
AcDbLine
 10
742.059655
 20
196.585068
 30
0.0
 11
742.059655
 21
217.265677
 31
0.0
  0
LINE
  5
487
102
{ACAD_REACTORS
330
5A9
102
}
330
1F
100
AcDbEntity
  8
LC-002-002-----0
 62
     7
370
    50
100
AcDbLine
 10
742.059655
 20
171.924736
 30
0.0
 11
742.059655
 21
192.605346
 31
0.0
  0
LINE
  5
488
102
{ACAD_REACTORS
330
5A9
102
}
330
1F
100
AcDbEntity
  8
LC-002-002-----0
 62
     7
370
    50
100
AcDbLine
 10
741.559655
 20
72.783411
 30
0.0
 11
727.059655
 21
72.783411
 31
0.0
  0
LINE
  5
489
102
{ACAD_REACTORS
330
5A9
102
}
330
1F
100
AcDbEntity
  8
LC-002-002-----0
 62
     7
370
    50
100
AcDbLine
 10
741.559655
 20
97.443742
 30
0.0
 11
727.059655
 21
97.443742
 31
0.0
  0
LINE
  5
48A
102
{ACAD_REACTORS
330
5A9
102
}
330
1F
100
AcDbEntity
  8
LC-002-002-----0
 62
     7
370
    50
100
AcDbLine
 10
741.559655
 20
122.104074
 30
0.0
 11
727.059655
 21
122.104074
 31
0.0
  0
LINE
  5
48B
102
{ACAD_REACTORS
330
5A9
102
}
330
1F
100
AcDbEntity
  8
LC-002-002-----0
 62
     7
370
    50
100
AcDbLine
 10
742.059655
 20
147.264405
 30
0.0
 11
742.059655
 21
167.945015
 31
0.0
  0
LINE
  5
48C
102
{ACAD_REACTORS
330
5A9
102
}
330
1F
100
AcDbEntity
  8
LC-002-002-----0
 62
     7
370
    50
100
AcDbLine
 10
741.559655
 20
146.764405
 30
0.0
 11
727.059655
 21
146.764405
 31
0.0
  0
LINE
  5
48D
102
{ACAD_REACTORS
330
5A9
102
}
330
1F
100
AcDbEntity
  8
LC-002-002-----0
 62
     7
370
    50
100
AcDbLine
 10
742.059655
 20
122.604074
 30
0.0
 11
742.059655
 21
143.284683
 31
0.0
  0
LINE
  5
48E
102
{ACAD_REACTORS
330
5A9
102
}
330
1F
100
AcDbEntity
  8
LC-002-002-----0
 62
     7
370
    50
100
AcDbLine
 10
742.059655
 20
97.943742
 30
0.0
 11
742.059655
 21
118.624352
 31
0.0
  0
LINE
  5
48F
102
{ACAD_REACTORS
330
5A9
102
}
330
1F
100
AcDbEntity
  8
LC-002-002-----0
 62
     7
370
    50
100
AcDbLine
 10
742.059655
 20
73.283411
 30
0.0
 11
742.059655
 21
93.964021
 31
0.0
  0
LINE
  5
490
102
{ACAD_REACTORS
330
5A9
102
}
330
1F
100
AcDbEntity
  8
LC-002-002-----0
 62
     7
370
    50
100
AcDbLine
 10
742.559655
 20
44.065914
 30
0.0
 11
743.059655
 21
44.065914
 31
0.0
  0
LINE
  5
491
102
{ACAD_REACTORS
330
5A9
102
}
330
1F
100
AcDbEntity
  8
LC-002-002-----0
 62
     7
370
    50
100
AcDbLine
 10
742.059655
 20
44.565914
 30
0.0
 11
742.559655
 21
44.065914
 31
0.0
  0
LINE
  5
492
102
{ACAD_REACTORS
330
5A9
102
}
330
1F
100
AcDbEntity
  8
LC-002-002-----0
 62
     7
370
    50
100
AcDbLine
 10
741.559655
 20
171.424736
 30
0.0
 11
727.059655
 21
171.424736
 31
0.0
  0
LINE
  5
493
102
{ACAD_REACTORS
330
5A9
102
}
330
1F
100
AcDbEntity
  8
LC-002-002-----0
 62
     7
370
    50
100
AcDbLine
 10
741.559655
 20
196.085068
 30
0.0
 11
727.059655
 21
196.085068
 31
0.0
  0
ARC
  5
494
102
{ACAD_REACTORS
330
5A9
102
}
330
1F
100
AcDbEntity
  8
LC-001-002-RND-0
 62
     7
370
    50
100
AcDbCircle
 10
741.559655
 20
48.62308
 30
0.0
 40
0.5
100
AcDbArc
 50
270.0
 51
360.0
  0
ARC
  5
495
102
{ACAD_REACTORS
330
5A9
102
}
330
1F
100
AcDbEntity
  8
LC-001-002-RND-0
 62
     7
370
    50
100
AcDbCircle
 10
741.559655
 20
73.283411
 30
0.0
 40
0.5
100
AcDbArc
 50
270.0
 51
360.0
  0
ARC
  5
496
102
{ACAD_REACTORS
330
5A9
102
}
330
1F
100
AcDbEntity
  8
LC-001-002-RND-0
 62
     7
370
    50
100
AcDbCircle
 10
741.559655
 20
97.943742
 30
0.0
 40
0.5
100
AcDbArc
 50
270.0
 51
360.0
  0
ARC
  5
497
102
{ACAD_REACTORS
330
5A9
102
}
330
1F
100
AcDbEntity
  8
LC-001-002-RND-0
 62
     7
370
    50
100
AcDbCircle
 10
741.559655
 20
122.604074
 30
0.0
 40
0.5
100
AcDbArc
 50
270.0
 51
360.0
  0
ARC
  5
498
102
{ACAD_REACTORS
330
5A9
102
}
330
1F
100
AcDbEntity
  8
LC-001-002-RND-0
 62
     7
370
    50
100
AcDbCircle
 10
741.559655
 20
147.264405
 30
0.0
 40
0.5
100
AcDbArc
 50
270.0
 51
360.0
  0
ARC
  5
499
102
{ACAD_REACTORS
330
5A9
102
}
330
1F
100
AcDbEntity
  8
LC-001-002-RND-0
 62
     7
370
    50
100
AcDbCircle
 10
741.559655
 20
171.924736
 30
0.0
 40
0.5
100
AcDbArc
 50
270.0
 51
360.0
  0
ARC
  5
49A
102
{ACAD_REACTORS
330
5A9
102
}
330
1F
100
AcDbEntity
  8
LC-001-002-RND-0
 62
     7
370
    50
100
AcDbCircle
 10
741.559655
 20
196.585068
 30
0.0
 40
0.5
100
AcDbArc
 50
270.0
 51
360.0
  0
LINE
  5
49B
102
{ACAD_REACTORS
330
5A9
102
}
330
1F
100
AcDbEntity
  8
LC-002-002-----0
 62
     7
370
    50
100
AcDbLine
 10
743.059655
 20
44.065914
 30
0.0
 11
743.059655
 21
344.047055
 31
0.0
  0
LINE
  5
49C
102
{ACAD_REACTORS
330
5A9
102
}
330
1F
100
AcDbEntity
  8
LC-002-002-----0
 62
     7
370
    50
100
AcDbLine
 10
727.007391
 20
269.068801
 30
0.0
 11
741.164183
 21
267.580862
 31
0.0
  0
LINE
  5
49D
102
{ACAD_REACTORS
330
5A9
102
}
330
1F
100
AcDbEntity
  8
LC-002-002-----0
 62
     7
370
    50
100
AcDbLine
 10
727.059655
 20
220.745399
 30
0.0
 11
741.559655
 21
220.745399
 31
0.0
  0
LINE
  5
49E
102
{ACAD_REACTORS
330
5A9
102
}
330
1F
100
AcDbEntity
  8
LC-002-002-----0
 62
     7
370
    50
100
AcDbLine
 10
727.059655
 20
294.726393
 30
0.0
 11
741.559655
 21
294.726393
 31
0.0
  0
LINE
  5
49F
102
{ACAD_REACTORS
330
5A9
102
}
330
1F
100
AcDbEntity
  8
LC-002-002-----0
 62
     7
370
    50
100
AcDbLine
 10
727.007391
 20
293.729132
 30
0.0
 11
741.164183
 21
292.241193
 31
0.0
  0
ARC
  5
4A0
102
{ACAD_REACTORS
330
5A9
102
}
330
1F
100
AcDbEntity
  8
LC-001-002-RND-0
 62
     7
370
    50
100
AcDbCircle
 10
727.059655
 20
294.226393
 30
0.0
 40
0.5
100
AcDbArc
 50
90.0
 51
264.0
  0
LINE
  5
4A1
102
{ACAD_REACTORS
330
5A9
102
}
330
1F
100
AcDbEntity
  8
LC-002-002-----0
 62
     7
370
    50
100
AcDbLine
 10
742.059655
 20
270.566062
 30
0.0
 11
742.059655
 21
291.246671
 31
0.0
  0
ARC
  5
4A2
102
{ACAD_REACTORS
330
5A9
102
}
330
1F
100
AcDbEntity
  8
LC-001-002-RND-0
 62
     7
370
    50
100
AcDbCircle
 10
741.059655
 20
291.246671
 30
0.0
 40
1.0
100
AcDbArc
 50
360.0
 51
84.0
  0
LINE
  5
4A3
102
{ACAD_REACTORS
330
5A9
102
}
330
1F
100
AcDbEntity
  8
LC-002-002-----0
 62
     7
370
    50
100
AcDbLine
 10
727.059655
 20
319.386724
 30
0.0
 11
741.559655
 21
319.386724
 31
0.0
  0
LINE
  5
4A4
102
{ACAD_REACTORS
330
5A9
102
}
330
1F
100
AcDbEntity
  8
LC-002-002-----0
 62
     7
370
    50
100
AcDbLine
 10
727.007391
 20
318.389463
 30
0.0
 11
741.164183
 21
316.901524
 31
0.0
  0
ARC
  5
4A5
102
{ACAD_REACTORS
330
5A9
102
}
330
1F
100
AcDbEntity
  8
LC-001-002-RND-0
 62
     7
370
    50
100
AcDbCircle
 10
727.059655
 20
318.886724
 30
0.0
 40
0.5
100
AcDbArc
 50
90.0
 51
264.0
  0
ARC
  5
4A6
102
{ACAD_REACTORS
330
5A9
102
}
330
1F
100
AcDbEntity
  8
LC-001-002-RND-0
 62
     7
370
    50
100
AcDbCircle
 10
741.059655
 20
315.907002
 30
0.0
 40
1.0
100
AcDbArc
 50
360.0
 51
84.0
  0
LINE
  5
4A7
102
{ACAD_REACTORS
330
5A9
102
}
330
1F
100
AcDbEntity
  8
LC-002-002-----0
 62
     7
370
    50
100
AcDbLine
 10
727.059655
 20
344.047055
 30
0.0
 11
743.059655
 21
344.047055
 31
0.0
  0
LINE
  5
4A8
102
{ACAD_REACTORS
330
5A9
102
}
330
1F
100
AcDbEntity
  8
LC-002-002-----0
 62
     7
370
    50
100
AcDbLine
 10
727.007391
 20
343.049795
 30
0.0
 11
741.164183
 21
341.561856
 31
0.0
  0
ARC
  5
4A9
102
{ACAD_REACTORS
330
5A9
102
}
330
1F
100
AcDbEntity
  8
LC-001-002-RND-0
 62
     7
370
    50
100
AcDbCircle
 10
727.059655
 20
343.547055
 30
0.0
 40
0.5
100
AcDbArc
 50
90.0
 51
264.0
  0
ARC
  5
4AA
102
{ACAD_REACTORS
330
5A9
102
}
330
1F
100
AcDbEntity
  8
LC-001-002-RND-0
 62
     7
370
    50
100
AcDbCircle
 10
741.059655
 20
340.567334
 30
0.0
 40
1.0
100
AcDbArc
 50
360.0
 51
84.0
  0
LINE
  5
4AB
102
{ACAD_REACTORS
330
5A9
102
}
330
1F
100
AcDbEntity
  8
LC-002-002-----0
 62
     7
370
    50
100
AcDbLine
 10
742.059655
 20
319.886724
 30
0.0
 11
742.059655
 21
340.567334
 31
0.0
  0
ARC
  5
4AC
102
{ACAD_REACTORS
330
5A9
102
}
330
1F
100
AcDbEntity
  8
LC-001-002-RND-0
 62
     7
370
    50
100
AcDbCircle
 10
834.559655
 20
319.886724
 30
0.0
 40
0.5
100
AcDbArc
 50
180.0
 51
270.0
  0
ARC
  5
4AD
102
{ACAD_REACTORS
330
5A9
102
}
330
1F
100
AcDbEntity
  8
LC-001-002-RND-0
 62
     7
370
    50
100
AcDbCircle
 10
834.559655
 20
270.566062
 30
0.0
 40
0.5
100
AcDbArc
 50
180.0
 51
270.0
  0
ARC
  5
4AE
102
{ACAD_REACTORS
330
5A9
102
}
330
1F
100
AcDbEntity
  8
LC-001-002-RND-0
 62
     7
370
    50
100
AcDbCircle
 10
834.559655
 20
295.226393
 30
0.0
 40
0.5
100
AcDbArc
 50
180.0
 51
270.0
  0
ARC
  5
4AF
102
{ACAD_REACTORS
330
5A9
102
}
330
1F
100
AcDbEntity
  8
LC-001-002-RND-0
 62
     7
370
    50
100
AcDbCircle
 10
835.059655
 20
266.58634
 30
0.0
 40
1.000000000000099
100
AcDbArc
 50
96.0
 51
180.0
  0
LINE
  5
4B0
102
{ACAD_REACTORS
330
5A9
102
}
330
1F
100
AcDbEntity
  8
LC-002-002-----0
 62
     7
370
    50
100
AcDbLine
 10
834.059655
 20
44.643358
 30
0.0
 11
834.059655
 21
44.565914
 31
0.0
  0
LINE
  5
4B1
102
{ACAD_REACTORS
330
5A9
102
}
330
1F
100
AcDbEntity
  8
LC-002-002-----0
 62
     7
370
    50
100
AcDbLine
 10
849.111919
 20
219.748138
 30
0.0
 11
834.955126
 21
218.260199
 31
0.0
  0
ARC
  5
4B2
102
{ACAD_REACTORS
330
5A9
102
}
330
1F
100
AcDbEntity
  8
LC-001-002-RND-0
 62
     7
370
    50
100
AcDbCircle
 10
849.059655
 20
269.566062
 30
0.0
 40
0.499999999999975
100
AcDbArc
 50
276.0
 51
90.0
  0
ARC
  5
4B3
102
{ACAD_REACTORS
330
5A9
102
}
330
1F
100
AcDbEntity
  8
LC-001-002-RND-0
 62
     7
370
    50
100
AcDbCircle
 10
835.059655
 20
217.265677
 30
0.0
 40
0.9999999999999857
100
AcDbArc
 50
96.0
 51
180.0
  0
LINE
  5
4B4
102
{ACAD_REACTORS
330
5A9
102
}
330
1F
100
AcDbEntity
  8
LC-002-002-----0
 62
     7
370
    50
100
AcDbLine
 10
849.111919
 20
244.408469
 30
0.0
 11
834.955126
 21
242.92053
 31
0.0
  0
ARC
  5
4B5
102
{ACAD_REACTORS
330
5A9
102
}
330
1F
100
AcDbEntity
  8
LC-001-002-RND-0
 62
     7
370
    50
100
AcDbCircle
 10
835.059655
 20
241.926008
 30
0.0
 40
0.9999999999999857
100
AcDbArc
 50
96.0
 51
180.0
  0
ARC
  5
4B6
102
{ACAD_REACTORS
330
5A9
102
}
330
1F
100
AcDbEntity
  8
LC-001-002-RND-0
 62
     7
370
    50
100
AcDbCircle
 10
849.059655
 20
220.245399
 30
0.0
 40
0.4999999999288768
100
AcDbArc
 50
276.0
 51
90.0
  0
ARC
  5
4B7
102
{ACAD_REACTORS
330
5A9
102
}
330
1F
100
AcDbEntity
  8
LC-001-002-RND-0
 62
     7
370
    50
100
AcDbCircle
 10
849.059655
 20
244.90573
 30
0.0
 40
0.4999999999288768
100
AcDbArc
 50
276.0
 51
90.0
  0
LINE
  5
4B8
102
{ACAD_REACTORS
330
5A9
102
}
330
1F
100
AcDbEntity
  8
LC-002-002-----0
 62
     7
370
    50
100
AcDbLine
 10
849.111919
 20
195.087807
 30
0.0
 11
834.955126
 21
193.599868
 31
0.0
  0
ARC
  5
4B9
102
{ACAD_REACTORS
330
5A9
102
}
330
1F
100
AcDbEntity
  8
LC-001-002-RND-0
 62
     7
370
    50
100
AcDbCircle
 10
835.059655
 20
192.605346
 30
0.0
 40
0.9999999999999857
100
AcDbArc
 50
96.0
 51
180.0
  0
ARC
  5
4BA
102
{ACAD_REACTORS
330
5A9
102
}
330
1F
100
AcDbEntity
  8
LC-001-002-RND-0
 62
     7
370
    50
100
AcDbCircle
 10
849.059655
 20
195.585068
 30
0.0
 40
0.4999999999288768
100
AcDbArc
 50
276.0
 51
90.0
  0
LINE
  5
4BB
102
{ACAD_REACTORS
330
5A9
102
}
330
1F
100
AcDbEntity
  8
LC-002-002-----0
 62
     7
370
    50
100
AcDbLine
 10
849.111919
 20
170.427475
 30
0.0
 11
834.955126
 21
168.939536
 31
0.0
  0
ARC
  5
4BC
102
{ACAD_REACTORS
330
5A9
102
}
330
1F
100
AcDbEntity
  8
LC-001-002-RND-0
 62
     7
370
    50
100
AcDbCircle
 10
835.059655
 20
167.945015
 30
0.0
 40
0.9999999999999857
100
AcDbArc
 50
96.0
 51
180.0
  0
ARC
  5
4BD
102
{ACAD_REACTORS
330
5A9
102
}
330
1F
100
AcDbEntity
  8
LC-001-002-RND-0
 62
     7
370
    50
100
AcDbCircle
 10
849.059655
 20
170.924736
 30
0.0
 40
0.4999999999288768
100
AcDbArc
 50
276.0
 51
90.0
  0
LINE
  5
4BE
102
{ACAD_REACTORS
330
5A9
102
}
330
1F
100
AcDbEntity
  8
LC-002-002-----0
 62
     7
370
    50
100
AcDbLine
 10
849.059655
 20
245.40573
 30
0.0
 11
834.559655
 21
245.40573
 31
0.0
  0
LINE
  5
4BF
102
{ACAD_REACTORS
330
5A9
102
}
330
1F
100
AcDbEntity
  8
LC-002-002-----0
 62
     7
370
    50
100
AcDbLine
 10
849.111919
 20
145.767144
 30
0.0
 11
834.955126
 21
144.279205
 31
0.0
  0
LINE
  5
4C0
102
{ACAD_REACTORS
330
5A9
102
}
330
1F
100
AcDbEntity
  8
LC-002-002-----0
 62
     7
370
    50
100
AcDbLine
 10
849.059655
 20
270.066062
 30
0.0
 11
834.559655
 21
270.066062
 31
0.0
  0
ARC
  5
4C1
102
{ACAD_REACTORS
330
5A9
102
}
330
1F
100
AcDbEntity
  8
LC-001-002-RND-0
 62
     7
370
    50
100
AcDbCircle
 10
849.059655
 20
146.264405
 30
0.0
 40
0.4999999999288768
100
AcDbArc
 50
276.0
 51
90.0
  0
ARC
  5
4C2
102
{ACAD_REACTORS
330
5A9
102
}
330
1F
100
AcDbEntity
  8
LC-001-002-RND-0
 62
     7
370
    50
100
AcDbCircle
 10
835.059655
 20
143.284683
 30
0.0
 40
0.9999999999999857
100
AcDbArc
 50
96.0
 51
180.0
  0
LINE
  5
4C3
102
{ACAD_REACTORS
330
5A9
102
}
330
1F
100
AcDbEntity
  8
LC-002-002-----0
 62
     7
370
    50
100
AcDbLine
 10
849.111919
 20
121.106813
 30
0.0
 11
834.955126
 21
119.618874
 31
0.0
  0
ARC
  5
4C4
102
{ACAD_REACTORS
330
5A9
102
}
330
1F
100
AcDbEntity
  8
LC-001-002-RND-0
 62
     7
370
    50
100
AcDbCircle
 10
835.059655
 20
118.624352
 30
0.0
 40
0.9999999999999857
100
AcDbArc
 50
96.0
 51
180.0
  0
ARC
  5
4C5
102
{ACAD_REACTORS
330
5A9
102
}
330
1F
100
AcDbEntity
  8
LC-001-002-RND-0
 62
     7
370
    50
100
AcDbCircle
 10
849.059655
 20
121.604074
 30
0.0
 40
0.4999999999287875
100
AcDbArc
 50
276.0
 51
90.0
  0
LINE
  5
4C6
102
{ACAD_REACTORS
330
5A9
102
}
330
1F
100
AcDbEntity
  8
LC-002-002-----0
 62
     7
370
    50
100
AcDbLine
 10
849.111919
 20
96.446481
 30
0.0
 11
834.955126
 21
94.958542
 31
0.0
  0
ARC
  5
4C7
102
{ACAD_REACTORS
330
5A9
102
}
330
1F
100
AcDbEntity
  8
LC-001-002-RND-0
 62
     7
370
    50
100
AcDbCircle
 10
835.059655
 20
93.964021
 30
0.0
 40
0.9999999999999857
100
AcDbArc
 50
96.0
 51
180.0
  0
ARC
  5
4C8
102
{ACAD_REACTORS
330
5A9
102
}
330
1F
100
AcDbEntity
  8
LC-001-002-RND-0
 62
     7
370
    50
100
AcDbCircle
 10
849.059655
 20
96.943742
 30
0.0
 40
0.4999999999289005
100
AcDbArc
 50
276.0
 51
90.0
  0
LINE
  5
4C9
102
{ACAD_REACTORS
330
5A9
102
}
330
1F
100
AcDbEntity
  8
LC-002-002-----0
 62
     7
370
    50
100
AcDbLine
 10
849.111919
 20
71.78615
 30
0.0
 11
834.955126
 21
70.298211
 31
0.0
  0
ARC
  5
4CA
102
{ACAD_REACTORS
330
5A9
102
}
330
1F
100
AcDbEntity
  8
LC-001-002-RND-0
 62
     7
370
    50
100
AcDbCircle
 10
835.059655
 20
69.303689
 30
0.0
 40
0.9999999999999857
100
AcDbArc
 50
96.0
 51
180.0
  0
ARC
  5
4CB
102
{ACAD_REACTORS
330
5A9
102
}
330
1F
100
AcDbEntity
  8
LC-001-002-RND-0
 62
     7
370
    50
100
AcDbCircle
 10
849.059655
 20
72.283411
 30
0.0
 40
0.4999999999287875
100
AcDbArc
 50
276.0
 51
90.0
  0
LINE
  5
4CC
102
{ACAD_REACTORS
330
5A9
102
}
330
1F
100
AcDbEntity
  8
LC-002-002-----0
 62
     7
370
    50
100
AcDbLine
 10
849.111919
 20
47.125819
 30
0.0
 11
834.955126
 21
45.63788
 31
0.0
  0
LINE
  5
4CD
102
{ACAD_REACTORS
330
5A9
102
}
330
1F
100
AcDbEntity
  8
LC-002-002-----0
 62
     7
370
    50
100
AcDbLine
 10
834.059655
 20
221.245399
 30
0.0
 11
834.059655
 21
241.926008
 31
0.0
  0
ARC
  5
4CE
102
{ACAD_REACTORS
330
5A9
102
}
330
1F
100
AcDbEntity
  8
LC-001-002-RND-0
 62
     7
370
    50
100
AcDbCircle
 10
835.059655
 20
44.643358
 30
0.0
 40
0.9999999999999857
100
AcDbArc
 50
96.0
 51
180.0
  0
LINE
  5
4CF
102
{ACAD_REACTORS
330
5A9
102
}
330
1F
100
AcDbEntity
  8
LC-002-002-----0
 62
     7
370
    50
100
AcDbLine
 10
834.059655
 20
245.90573
 30
0.0
 11
834.059655
 21
266.58634
 31
0.0
  0
ARC
  5
4D0
102
{ACAD_REACTORS
330
5A9
102
}
330
1F
100
AcDbEntity
  8
LC-001-002-RND-0
 62
     7
370
    50
100
AcDbCircle
 10
849.059655
 20
47.62308
 30
0.0
 40
0.4999999999289005
100
AcDbArc
 50
276.0
 51
90.0
  0
ARC
  5
4D1
102
{ACAD_REACTORS
330
5A9
102
}
330
1F
100
AcDbEntity
  8
LC-001-002-RND-0
 62
     7
370
    50
100
AcDbCircle
 10
834.559655
 20
221.245399
 30
0.0
 40
0.5
100
AcDbArc
 50
180.0
 51
270.0
  0
ARC
  5
4D2
102
{ACAD_REACTORS
330
5A9
102
}
330
1F
100
AcDbEntity
  8
LC-001-002-RND-0
 62
     7
370
    50
100
AcDbCircle
 10
834.559655
 20
245.90573
 30
0.0
 40
0.5
100
AcDbArc
 50
180.0
 51
270.0
  0
LINE
  5
4D3
102
{ACAD_REACTORS
330
5A9
102
}
330
1F
100
AcDbEntity
  8
LC-002-002-----0
 62
     7
370
    50
100
AcDbLine
 10
834.059655
 20
48.62308
 30
0.0
 11
834.059655
 21
69.303689
 31
0.0
  0
LINE
  5
4D4
102
{ACAD_REACTORS
330
5A9
102
}
330
1F
100
AcDbEntity
  8
LC-002-002-----0
 62
     7
370
    50
100
AcDbLine
 10
834.559655
 20
48.12308
 30
0.0
 11
849.059655
 21
48.12308
 31
0.0
  0
LINE
  5
4D5
102
{ACAD_REACTORS
330
5A9
102
}
330
1F
100
AcDbEntity
  8
LC-002-002-----0
 62
     7
370
    50
100
AcDbLine
 10
834.059655
 20
196.585068
 30
0.0
 11
834.059655
 21
217.265677
 31
0.0
  0
LINE
  5
4D6
102
{ACAD_REACTORS
330
5A9
102
}
330
1F
100
AcDbEntity
  8
LC-002-002-----0
 62
     7
370
    50
100
AcDbLine
 10
834.059655
 20
171.924736
 30
0.0
 11
834.059655
 21
192.605346
 31
0.0
  0
LINE
  5
4D7
102
{ACAD_REACTORS
330
5A9
102
}
330
1F
100
AcDbEntity
  8
LC-002-002-----0
 62
     7
370
    50
100
AcDbLine
 10
834.559655
 20
72.783411
 30
0.0
 11
849.059655
 21
72.783411
 31
0.0
  0
LINE
  5
4D8
102
{ACAD_REACTORS
330
5A9
102
}
330
1F
100
AcDbEntity
  8
LC-002-002-----0
 62
     7
370
    50
100
AcDbLine
 10
834.559655
 20
97.443742
 30
0.0
 11
849.059655
 21
97.443742
 31
0.0
  0
LINE
  5
4D9
102
{ACAD_REACTORS
330
5A9
102
}
330
1F
100
AcDbEntity
  8
LC-002-002-----0
 62
     7
370
    50
100
AcDbLine
 10
834.559655
 20
122.104074
 30
0.0
 11
849.059655
 21
122.104074
 31
0.0
  0
LINE
  5
4DA
102
{ACAD_REACTORS
330
5A9
102
}
330
1F
100
AcDbEntity
  8
LC-002-002-----0
 62
     7
370
    50
100
AcDbLine
 10
834.059655
 20
147.264405
 30
0.0
 11
834.059655
 21
167.945015
 31
0.0
  0
LINE
  5
4DB
102
{ACAD_REACTORS
330
5A9
102
}
330
1F
100
AcDbEntity
  8
LC-002-002-----0
 62
     7
370
    50
100
AcDbLine
 10
834.559655
 20
146.764405
 30
0.0
 11
849.059655
 21
146.764405
 31
0.0
  0
LINE
  5
4DC
102
{ACAD_REACTORS
330
5A9
102
}
330
1F
100
AcDbEntity
  8
LC-002-002-----0
 62
     7
370
    50
100
AcDbLine
 10
834.059655
 20
122.604074
 30
0.0
 11
834.059655
 21
143.284683
 31
0.0
  0
LINE
  5
4DD
102
{ACAD_REACTORS
330
5A9
102
}
330
1F
100
AcDbEntity
  8
LC-002-002-----0
 62
     7
370
    50
100
AcDbLine
 10
834.059655
 20
97.943742
 30
0.0
 11
834.059655
 21
118.624352
 31
0.0
  0
LINE
  5
4DE
102
{ACAD_REACTORS
330
5A9
102
}
330
1F
100
AcDbEntity
  8
LC-002-002-----0
 62
     7
370
    50
100
AcDbLine
 10
834.059655
 20
73.283411
 30
0.0
 11
834.059655
 21
93.964021
 31
0.0
  0
LINE
  5
4DF
102
{ACAD_REACTORS
330
5A9
102
}
330
1F
100
AcDbEntity
  8
LC-002-002-----0
 62
     7
370
    50
100
AcDbLine
 10
833.559655
 20
44.065914
 30
0.0
 11
833.059655
 21
44.065914
 31
0.0
  0
LINE
  5
4E0
102
{ACAD_REACTORS
330
5A9
102
}
330
1F
100
AcDbEntity
  8
LC-002-002-----0
 62
     7
370
    50
100
AcDbLine
 10
834.059655
 20
44.565914
 30
0.0
 11
833.559655
 21
44.065914
 31
0.0
  0
LINE
  5
4E1
102
{ACAD_REACTORS
330
5A9
102
}
330
1F
100
AcDbEntity
  8
LC-002-002-----0
 62
     7
370
    50
100
AcDbLine
 10
834.559655
 20
171.424736
 30
0.0
 11
849.059655
 21
171.424736
 31
0.0
  0
LINE
  5
4E2
102
{ACAD_REACTORS
330
5A9
102
}
330
1F
100
AcDbEntity
  8
LC-002-002-----0
 62
     7
370
    50
100
AcDbLine
 10
834.559655
 20
196.085068
 30
0.0
 11
849.059655
 21
196.085068
 31
0.0
  0
ARC
  5
4E3
102
{ACAD_REACTORS
330
5A9
102
}
330
1F
100
AcDbEntity
  8
LC-001-002-RND-0
 62
     7
370
    50
100
AcDbCircle
 10
834.559655
 20
48.62308
 30
0.0
 40
0.5
100
AcDbArc
 50
180.0
 51
270.0
  0
ARC
  5
4E4
102
{ACAD_REACTORS
330
5A9
102
}
330
1F
100
AcDbEntity
  8
LC-001-002-RND-0
 62
     7
370
    50
100
AcDbCircle
 10
834.559655
 20
73.283411
 30
0.0
 40
0.5
100
AcDbArc
 50
180.0
 51
270.0
  0
ARC
  5
4E5
102
{ACAD_REACTORS
330
5A9
102
}
330
1F
100
AcDbEntity
  8
LC-001-002-RND-0
 62
     7
370
    50
100
AcDbCircle
 10
834.559655
 20
97.943742
 30
0.0
 40
0.5
100
AcDbArc
 50
180.0
 51
270.0
  0
ARC
  5
4E6
102
{ACAD_REACTORS
330
5A9
102
}
330
1F
100
AcDbEntity
  8
LC-001-002-RND-0
 62
     7
370
    50
100
AcDbCircle
 10
834.559655
 20
122.604074
 30
0.0
 40
0.5
100
AcDbArc
 50
180.0
 51
270.0
  0
ARC
  5
4E7
102
{ACAD_REACTORS
330
5A9
102
}
330
1F
100
AcDbEntity
  8
LC-001-002-RND-0
 62
     7
370
    50
100
AcDbCircle
 10
834.559655
 20
147.264405
 30
0.0
 40
0.5
100
AcDbArc
 50
180.0
 51
270.0
  0
ARC
  5
4E8
102
{ACAD_REACTORS
330
5A9
102
}
330
1F
100
AcDbEntity
  8
LC-001-002-RND-0
 62
     7
370
    50
100
AcDbCircle
 10
834.559655
 20
171.924736
 30
0.0
 40
0.5
100
AcDbArc
 50
180.0
 51
270.0
  0
ARC
  5
4E9
102
{ACAD_REACTORS
330
5A9
102
}
330
1F
100
AcDbEntity
  8
LC-001-002-RND-0
 62
     7
370
    50
100
AcDbCircle
 10
834.559655
 20
196.585068
 30
0.0
 40
0.5
100
AcDbArc
 50
180.0
 51
270.0
  0
LINE
  5
4EA
102
{ACAD_REACTORS
330
5A9
102
}
330
1F
100
AcDbEntity
  8
LC-002-002-----0
 62
     7
370
    50
100
AcDbLine
 10
833.059655
 20
44.065914
 30
0.0
 11
833.059655
 21
344.047055
 31
0.0
  0
LINE
  5
4EB
102
{ACAD_REACTORS
330
5A9
102
}
330
1F
100
AcDbEntity
  8
LC-002-002-----0
 62
     7
370
    50
100
AcDbLine
 10
849.111919
 20
269.068801
 30
0.0
 11
834.955126
 21
267.580862
 31
0.0
  0
LINE
  5
4EC
102
{ACAD_REACTORS
330
5A9
102
}
330
1F
100
AcDbEntity
  8
LC-002-002-----0
 62
     7
370
    50
100
AcDbLine
 10
849.059655
 20
220.745399
 30
0.0
 11
834.559655
 21
220.745399
 31
0.0
  0
LINE
  5
4ED
102
{ACAD_REACTORS
330
5A9
102
}
330
1F
100
AcDbEntity
  8
LC-002-002-----0
 62
     7
370
    50
100
AcDbLine
 10
849.059655
 20
294.726393
 30
0.0
 11
834.559655
 21
294.726393
 31
0.0
  0
LINE
  5
4EE
102
{ACAD_REACTORS
330
5A9
102
}
330
1F
100
AcDbEntity
  8
LC-002-002-----0
 62
     7
370
    50
100
AcDbLine
 10
849.111919
 20
293.729132
 30
0.0
 11
834.955126
 21
292.241193
 31
0.0
  0
ARC
  5
4EF
102
{ACAD_REACTORS
330
5A9
102
}
330
1F
100
AcDbEntity
  8
LC-001-002-RND-0
 62
     7
370
    50
100
AcDbCircle
 10
849.059655
 20
294.226393
 30
0.0
 40
0.499999999999975
100
AcDbArc
 50
276.0
 51
90.0
  0
LINE
  5
4F0
102
{ACAD_REACTORS
330
5A9
102
}
330
1F
100
AcDbEntity
  8
LC-002-002-----0
 62
     7
370
    50
100
AcDbLine
 10
834.059655
 20
270.566062
 30
0.0
 11
834.059655
 21
291.246671
 31
0.0
  0
ARC
  5
4F1
102
{ACAD_REACTORS
330
5A9
102
}
330
1F
100
AcDbEntity
  8
LC-001-002-RND-0
 62
     7
370
    50
100
AcDbCircle
 10
835.059655
 20
291.246671
 30
0.0
 40
0.9999999999999857
100
AcDbArc
 50
96.0
 51
180.0
  0
LINE
  5
4F2
102
{ACAD_REACTORS
330
5A9
102
}
330
1F
100
AcDbEntity
  8
LC-002-002-----0
 62
     7
370
    50
100
AcDbLine
 10
849.059655
 20
319.386724
 30
0.0
 11
834.559655
 21
319.386724
 31
0.0
  0
LINE
  5
4F3
102
{ACAD_REACTORS
330
5A9
102
}
330
1F
100
AcDbEntity
  8
LC-002-002-----0
 62
     7
370
    50
100
AcDbLine
 10
849.111919
 20
318.389463
 30
0.0
 11
834.955126
 21
316.901524
 31
0.0
  0
ARC
  5
4F4
102
{ACAD_REACTORS
330
5A9
102
}
330
1F
100
AcDbEntity
  8
LC-001-002-RND-0
 62
     7
370
    50
100
AcDbCircle
 10
849.059655
 20
318.886724
 30
0.0
 40
0.499999999999975
100
AcDbArc
 50
276.0
 51
90.0
  0
ARC
  5
4F5
102
{ACAD_REACTORS
330
5A9
102
}
330
1F
100
AcDbEntity
  8
LC-001-002-RND-0
 62
     7
370
    50
100
AcDbCircle
 10
835.059655
 20
315.907002
 30
0.0
 40
1.000000000000042
100
AcDbArc
 50
96.0
 51
180.0
  0
LINE
  5
4F6
102
{ACAD_REACTORS
330
5A9
102
}
330
1F
100
AcDbEntity
  8
LC-002-002-----0
 62
     7
370
    50
100
AcDbLine
 10
849.059655
 20
344.047055
 30
0.0
 11
833.059655
 21
344.047055
 31
0.0
  0
LINE
  5
4F7
102
{ACAD_REACTORS
330
5A9
102
}
330
1F
100
AcDbEntity
  8
LC-002-002-----0
 62
     7
370
    50
100
AcDbLine
 10
849.111919
 20
343.049795
 30
0.0
 11
834.955126
 21
341.561856
 31
0.0
  0
ARC
  5
4F8
102
{ACAD_REACTORS
330
5A9
102
}
330
1F
100
AcDbEntity
  8
LC-001-002-RND-0
 62
     7
370
    50
100
AcDbCircle
 10
849.059655
 20
343.547055
 30
0.0
 40
0.5000000000000315
100
AcDbArc
 50
276.0
 51
90.0
  0
ARC
  5
4F9
102
{ACAD_REACTORS
330
5A9
102
}
330
1F
100
AcDbEntity
  8
LC-001-002-RND-0
 62
     7
370
    50
100
AcDbCircle
 10
835.059655
 20
340.567334
 30
0.0
 40
0.9999999999999857
100
AcDbArc
 50
96.0
 51
180.0
  0
LINE
  5
4FA
102
{ACAD_REACTORS
330
5A9
102
}
330
1F
100
AcDbEntity
  8
LC-002-002-----0
 62
     7
370
    50
100
AcDbLine
 10
834.059655
 20
319.886724
 30
0.0
 11
834.059655
 21
340.567334
 31
0.0
  0
LINE
  5
4FB
102
{ACAD_REACTORS
330
5A9
102
}
330
1F
100
AcDbEntity
  8
LC-002-002-----0
 62
     7
370
    50
100
AcDbLine
 10
742.059655
 20
295.226393
 30
0.0
 11
742.059655
 21
315.907002
 31
0.0
  0
LINE
  5
4FC
102
{ACAD_REACTORS
330
5A9
102
}
330
1F
100
AcDbEntity
  8
LC-002-002-----0
 62
     7
370
    50
100
AcDbLine
 10
834.059655
 20
295.226393
 30
0.0
 11
834.059655
 21
315.907002
 31
0.0
  0
INSERT
  5
59A
102
{ACAD_REACTORS
330
5A9
102
}
330
1F
100
AcDbEntity
  8
LC-005-005-----0
 62
     7
370
    25
100
AcDbBlockReference
  2
*X1319
 10
0.0
 20
0.0
 30
0.0
  0
DIMENSION
  5
59B
330
1F
100
AcDbEntity
  8
LC-003-003-----0
 62
     7
370
    25
100
AcDbDimension
  2
*D20
 10
726.56034
 20
-66.722086
 30
0.0
 11
780.016784
 21
-35.922086
 31
0.0
 70
   160
  1
%%c<>
 71
     5
 42
122.99863
  3
LC-DIM-L-0140-02-02
100
AcDbAlignedDimension
 13
849.55897
 23
47.649248
 33
0.0
 14
726.56034
 24
47.649248
 34
0.0
100
AcDbRotatedDimension
  0
ENDSEC
  0
SECTION
  2
OBJECTS
  0
DICTIONARY
  5
C
330
0
100
AcDbDictionary
281
     1
  3
ACAD_GROUP
350
D
  3
ACAD_LAYOUT
350
1A
  3
ACAD_MLINESTYLE
350
17
  3
ACAD_PLOTSETTINGS
350
19
  3
ACAD_PLOTSTYLENAME
350
E
  0
DICTIONARY
  5
D
102
{ACAD_REACTORS
330
C
102
}
330
C
100
AcDbDictionary
281
     1
  3
LCGROUP16
350
5A8
  3
LCGROUP3800
350
5AF
  3
LCGROUP4219
350
5AC
  3
LCGROUP4700
350
5AA
  3
LCGROUP4733
350
5AB
  3
LCGROUP4841
350
5AD
  3
LCGROUP4873
350
5AE
  3
LCGROUP4958
350
5A9
  0
DICTIONARY
  5
1A
102
{ACAD_REACTORS
330
C
102
}
330
C
100
AcDbDictionary
281
     1
  3
Layout1
350
1E
  3
Layout2
350
26
  3
Model
350
22
  0
DICTIONARY
  5
17
102
{ACAD_REACTORS
330
C
102
}
330
C
100
AcDbDictionary
281
     1
  3
Standard
350
18
  0
DICTIONARY
  5
19
102
{ACAD_REACTORS
330
C
102
}
330
C
100
AcDbDictionary
281
     1
  0
ACDBDICTIONARYWDFLT
  5
E
102
{ACAD_REACTORS
330
C
102
}
330
C
100
AcDbDictionary
281
     1
  3
Normal
350
F
100
AcDbDictionaryWithDefault
340
F
  0
GROUP
  5
5A8
102
{ACAD_REACTORS
330
D
102
}
330
D
100
AcDbGroup
300
PVC-Flansch
 70
     1
 71
     1
340
35
340
36
340
34C
340
354
340
373
340
37C
340
37D
340
37E
340
37F
340
380
340
381
340
382
340
383
340
384
340
385
340
386
340
387
340
388
340
389
340
38A
340
38B
340
38C
340
38D
340
38E
340
38F
340
390
340
391
340
392
340
393
340
394
340
395
340
396
340
397
340
398
340
399
340
39A
340
39B
340
39C
340
39D
340
39E
340
39F
340
3A0
340
3A1
340
3A2
340
3BE
340
3CC
340
3CD
340
3CE
340
3CF
340
3D0
340
3D1
340
3D2
340
3D3
340
3D4
340
3D5
340
3D6
340
3D7
340
3D8
340
3D9
340
3DA
340
3DB
340
3DC
340
3DD
340
3DE
340
3DF
340
3E0
340
3E1
340
3E2
340
3E3
340
3E4
340
3E5
340
3E6
340
3E7
340
3E8
340
3E9
340
3EA
340
3EB
340
3EC
340
3ED
340
3EE
340
3EF
340
40B
340
41A
340
441
340
442
  0
GROUP
  5
5AF
102
{ACAD_REACTORS
330
D
102
}
330
D
100
AcDbGroup
300
GRP3800
 70
     1
 71
     1
340
32
340
33
340
59
340
5A
340
5B
340
5C
340
5D
340
5E
340
5F
340
60
340
61
340
62
340
65
340
66
340
67
340
68
340
69
340
6A
340
6B
340
6C
340
6D
340
6E
340
6F
340
70
340
71
340
72
340
73
340
74
340
75
340
76
340
77
340
78
340
79
340
7A
340
7B
340
7C
340
7D
340
7E
340
7F
340
80
340
81
340
82
340
83
340
84
340
85
340
86
340
87
340
88
340
89
340
8A
340
8B
340
8C
340
8D
340
8E
340
8F
340
90
340
91
340
92
340
93
340
94
340
95
340
96
340
97
340
98
340
99
340
9A
340
9B
340
9C
340
9D
340
9E
340
9F
340
A0
340
A1
340
A2
340
A3
340
A4
340
A5
340
A6
340
A7
340
A8
340
A9
340
AA
340
AB
340
AC
340
AD
340
AE
340
AF
340
B0
340
B1
340
B2
340
B3
340
B4
340
B5
340
B6
340
B7
340
B8
340
B9
340
BA
340
BB
340
BC
340
BD
340
BE
340
BF
340
C0
340
31F
340
320
  0
GROUP
  5
5AC
102
{ACAD_REACTORS
330
D
102
}
330
D
100
AcDbGroup
300
Laubfang
 70
     1
 71
     1
340
274
340
275
340
276
340
277
340
278
340
279
340
27A
340
27B
340
27C
340
27D
340
27E
340
27F
340
280
340
282
340
283
340
293
340
294
340
295
340
296
340
297
340
298
340
299
340
29A
340
29B
340
29C
340
29D
340
29E
340
29F
340
2A0
340
2A1
340
2A2
340
2A3
340
2A4
340
2A5
340
2A6
340
2A7
340
2A8
340
2A9
340
2AA
340
2AB
340
2AC
340
2AD
340
2AE
340
2AF
340
2B0
340
2B1
340
2B2
340
2B9
340
2C2
340
2C3
340
2C4
340
2D3
340
2D4
340
2D5
340
2D6
340
2D7
340
2D8
340
2D9
340
2DA
340
2DB
340
2DC
340
2DD
340
2DE
340
2DF
340
2E0
340
2E1
340
2E2
340
2E3
340
2E4
340
2E5
340
2E6
340
2E7
340
2E8
340
2E9
340
2EA
340
2EB
340
2EC
340
2ED
340
2EE
340
2EF
340
2F0
340
2F1
340
2F2
340
2F3
340
2F4
340
2F5
340
2F6
340
2F7
340
2F8
340
2F9
340
2FA
340
2FB
340
2FC
340
2FD
340
2FE
340
2FF
340
300
340
301
340
302
340
303
340
304
340
305
340
306
340
307
340
308
340
309
340
30A
340
30B
340
30C
340
30D
340
30E
340
30F
340
310
340
311
  0
GROUP
  5
5AA
102
{ACAD_REACTORS
330
D
102
}
330
D
100
AcDbGroup
300
GRP4700-LCMaster-LCGROUP16
 70
     1
 71
     1
340
32E
340
32F
340
330
340
331
340
332
340
333
340
334
340
335
340
336
340
337
340
338
340
339
340
33A
340
33B
340
33C
340
33D
340
33E
340
33F
340
340
340
341
340
342
340
343
340
344
340
345
340
346
340
347
340
348
340
349
340
34A
340
34B
  0
GROUP
  5
5AB
102
{ACAD_REACTORS
330
D
102
}
330
D
100
AcDbGroup
300
GRP4733-LCMaster-LCGROUP16
 70
     1
 71
     1
340
355
340
356
340
357
340
358
340
359
340
35A
340
35B
340
35C
340
35D
340
35E
340
35F
340
360
340
361
340
362
340
363
340
364
340
365
340
366
340
367
340
368
340
369
340
36A
340
36B
340
36C
340
36D
340
36E
340
36F
340
370
340
371
340
372
  0
GROUP
  5
5AD
102
{ACAD_REACTORS
330
D
102
}
330
D
100
AcDbGroup
300
schraub-LCMaster-LCGROUP16
 70
     1
 71
     1
340
41B
340
41C
340
41D
340
41E
340
41F
340
420
340
421
340
422
340
423
340
424
340
425
340
426
340
427
340
428
340
429
340
42A
340
42B
340
42C
340
42D
  0
GROUP
  5
5AE
102
{ACAD_REACTORS
330
D
102
}
330
D
100
AcDbGroup
300
schraub-LCMaster-LCGROUP16
 70
     1
 71
     1
340
42E
340
42F
340
430
340
431
340
432
340
433
340
434
340
435
340
436
340
437
340
438
340
439
340
43A
340
43B
340
43C
340
43D
340
43E
340
43F
340
440
  0
GROUP
  5
5A9
102
{ACAD_REACTORS
330
D
102
}
330
D
100
AcDbGroup
300
GRP4958
 70
     1
 71
     1
340
45D
340
45E
340
45F
340
460
340
461
340
462
340
463
340
464
340
465
340
466
340
467
340
468
340
469
340
46A
340
46B
340
46C
340
46D
340
46E
340
46F
340
470
340
471
340
472
340
473
340
474
340
475
340
476
340
477
340
478
340
479
340
47A
340
47B
340
47C
340
47D
340
47E
340
47F
340
480
340
481
340
482
340
483
340
484
340
485
340
486
340
487
340
488
340
489
340
48A
340
48B
340
48C
340
48D
340
48E
340
48F
340
490
340
491
340
492
340
493
340
494
340
495
340
496
340
497
340
498
340
499
340
49A
340
49B
340
49C
340
49D
340
49E
340
49F
340
4A0
340
4A1
340
4A2
340
4A3
340
4A4
340
4A5
340
4A6
340
4A7
340
4A8
340
4A9
340
4AA
340
4AB
340
4AC
340
4AD
340
4AE
340
4AF
340
4B0
340
4B1
340
4B2
340
4B3
340
4B4
340
4B5
340
4B6
340
4B7
340
4B8
340
4B9
340
4BA
340
4BB
340
4BC
340
4BD
340
4BE
340
4BF
340
4C0
340
4C1
340
4C2
340
4C3
340
4C4
340
4C5
340
4C6
340
4C7
340
4C8
340
4C9
340
4CA
340
4CB
340
4CC
340
4CD
340
4CE
340
4CF
340
4D0
340
4D1
340
4D2
340
4D3
340
4D4
340
4D5
340
4D6
340
4D7
340
4D8
340
4D9
340
4DA
340
4DB
340
4DC
340
4DD
340
4DE
340
4DF
340
4E0
340
4E1
340
4E2
340
4E3
340
4E4
340
4E5
340
4E6
340
4E7
340
4E8
340
4E9
340
4EA
340
4EB
340
4EC
340
4ED
340
4EE
340
4EF
340
4F0
340
4F1
340
4F2
340
4F3
340
4F4
340
4F5
340
4F6
340
4F7
340
4F8
340
4F9
340
4FA
340
4FB
340
4FC
340
59A
  0
LAYOUT
  5
1E
102
{ACAD_REACTORS
330
1A
102
}
330
1A
100
AcDbPlotSettings
  1

  2

  4

  6

 40
0.0
 41
0.0
 42
0.0
 43
0.0
 44
0.0
 45
0.0
 46
0.0
 47
0.0
 48
0.0
 49
0.0
140
0.0
141
0.0
142
1.0
143
1.0
 70
   688
 72
     0
 73
     0
 74
     5
  7

 75
    16
147
1.0
148
0.0
149
0.0
100
AcDbLayout
  1
Layout1
 70
     1
 71
     1
 10
249.451696
 20
-143.1
 11
1437.451696
 21
696.9
 12
0.0
 22
0.0
 32
0.0
 14
249.451696
 24
-143.1
 34
0.0
 15
1437.451696
 25
696.9
 35
0.0
146
0.0
 13
0.0
 23
0.0
 33
0.0
 16
1.0
 26
0.0
 36
0.0
 17
0.0
 27
1.0
 37
0.0
 76
     0
330
1B
  0
LAYOUT
  5
26
102
{ACAD_REACTORS
330
1A
102
}
330
1A
100
AcDbPlotSettings
  1

  2

  4

  6

 40
0.0
 41
0.0
 42
0.0
 43
0.0
 44
0.0
 45
0.0
 46
0.0
 47
0.0
 48
0.0
 49
0.0
140
0.0
141
0.0
142
1.0
143
1.0
 70
   688
 72
     0
 73
     0
 74
     5
  7

 75
    16
147
1.0
148
0.0
149
0.0
100
AcDbLayout
  1
Layout2
 70
     1
 71
     2
 10
0.0
 20
0.0
 11
0.0
 21
0.0
 12
0.0
 22
0.0
 32
0.0
 14
0.0
 24
0.0
 34
0.0
 15
0.0
 25
0.0
 35
0.0
146
0.0
 13
0.0
 23
0.0
 33
0.0
 16
1.0
 26
0.0
 36
0.0
 17
0.0
 27
1.0
 37
0.0
 76
     0
330
23
  0
LAYOUT
  5
22
102
{ACAD_REACTORS
330
1A
102
}
330
1A
100
AcDbPlotSettings
  1

  2

  4

  6

 40
0.0
 41
0.0
 42
0.0
 43
0.0
 44
0.0
 45
0.0
 46
0.0
 47
0.0
 48
0.0
 49
0.0
140
0.0
141
0.0
142
1.0
143
1.0
 70
  1776
 72
     0
 73
     0
 74
     0
  7

 75
     0
147
1.0
148
0.0
149
0.0
100
AcDbLayout
  1
Model
 70
     1
 71
     0
 10
249.451696
 20
-143.1
 11
1437.451696
 21
696.9
 12
249.451696
 22
-143.1
 32
0.0
 14
249.451696
 24
-143.1
 34
0.0
 15
1437.451696
 25
696.9
 35
0.0
146
0.0
 13
0.0
 23
0.0
 33
0.0
 16
1.0
 26
0.0
 36
0.0
 17
0.0
 27
1.0
 37
0.0
 76
     0
330
1F
  0
MLINESTYLE
  5
18
102
{ACAD_REACTORS
330
17
102
}
330
17
100
AcDbMlineStyle
  2
Standard
 70
     0
  3

 62
   256
 51
90.0
 52
90.0
 71
     2
 49
0.5
 62
   256
  6
BYLAYER
 49
-0.5
 62
   256
  6
BYLAYER
  0
ACDBPLACEHOLDER
  5
F
102
{ACAD_REACTORS
330
E
102
}
330
E
  0
ENDSEC
  0
EOF
