  0
SECTION
  2
HEADER
  9
$ACADVER
  1
AC1009
  9
$DWGCODEPAGE
  3
dos850
  9
$INSBASE
 10
0.0
 20
0.0
 30
0.0
  9
$EXTMIN
 10
-155.527045
 20
-185.328
 30
0.0
  9
$EXTMAX
 10
1032.472955
 20
654.672
 30
0.0
  9
$LIMMIN
 10
-155.527045
 20
-185.328
  9
$LIMMAX
 10
1032.472955
 20
654.672
  9
$ORTHOMODE
 70
     0
  9
$REGENMODE
 70
     1
  9
$FILLMODE
 70
     1
  9
$QTEXTMODE
 70
     0
  9
$MIRRTEXT
 70
     1
  9
$DRAGMODE
 70
     2
  9
$LTSCALE
 40
2.0
  9
$OSMODE
 70
     0
  9
$ATTMODE
 70
     1
  9
$TEXTSIZE
 40
0.2
  9
$TRACEWID
 40
0.05
  9
$TEXTSTYLE
  7
STANDARD
  9
$CLAYER
  8
0
  9
$CELTYPE
  6
BYBLOCK
  9
$CECOLOR
 62
     7
  9
$DIMSCALE
 40
2.0
  9
$DIMASZ
 40
3.5
  9
$DIMEXO
 40
0.0625
  9
$DIMDLI
 40
0.38
  9
$DIMRND
 40
0.0
  9
$DIMDLE
 40
0.0
  9
$DIMEXE
 40
0.18
  9
$DIMTP
 40
0.0
  9
$DIMTM
 40
0.0
  9
$DIMTXT
 40
3.5
  9
$DIMCEN
 40
0.09
  9
$DIMTSZ
 40
0.0
  9
$DIMTOL
 70
     0
  9
$DIMLIM
 70
     0
  9
$DIMTIH
 70
     1
  9
$DIMTOH
 70
     1
  9
$DIMSE1
 70
     0
  9
$DIMSE2
 70
     0
  9
$DIMTAD
 70
     1
  9
$DIMZIN
 70
     0
  9
$DIMBLK
  1

  9
$DIMASO
 70
     1
  9
$DIMSHO
 70
     1
  9
$DIMPOST
  1

  9
$DIMAPOST
  1

  9
$DIMALT
 70
     0
  9
$DIMALTD
 70
     2
  9
$DIMALTF
 40
25.4
  9
$DIMLFAC
 40
1.0
  9
$DIMTOFL
 70
     0
  9
$DIMTVP
 40
0.0
  9
$DIMTIX
 70
     0
  9
$DIMSOXD
 70
     0
  9
$DIMSAH
 70
     0
  9
$DIMBLK1
  1

  9
$DIMBLK2
  1

  9
$DIMSTYLE
  2
STANDARD
  9
$DIMCLRD
 70
     0
  9
$DIMCLRE
 70
     0
  9
$DIMCLRT
 70
     0
  9
$DIMTFAC
 40
1.0
  9
$DIMGAP
 40
0.09
  9
$LUNITS
 70
     2
  9
$LUPREC
 70
     6
  9
$AXISMODE
 70
     0
  9
$AXISUNIT
 10
0.0
 20
0.0
  9
$SKETCHINC
 40
0.1
  9
$FILLETRAD
 40
0.0
  9
$AUNITS
 70
     0
  9
$AUPREC
 70
     0
  9
$MENU
  1
acad
  9
$ELEVATION
 40
0.0
  9
$PELEVATION
 40
0.0
  9
$THICKNESS
 40
0.0
  9
$LIMCHECK
 70
     0
  9
$BLIPMODE
 70
     1
  9
$CHAMFERA
 40
0.0
  9
$CHAMFERB
 40
0.0
  9
$SKPOLY
 70
     0
  9
$TDCREATE
 40
0.000000000
  9
$TDUPDATE
 40
0.000000000
  9
$TDINDWG
 40
0.0000000000
  9
$TDUSRTIMER
 40
0.0000000000
  9
$USRTIMER
 70
     1
  9
$ANGBASE
 50
0.0
  9
$ANGDIR
 70
     0
  9
$PDMODE
 70
     0
  9
$PDSIZE
 40
0.0
  9
$PLINEWID
 40
0.0
  9
$COORDS
 70
     0
  9
$SPLFRAME
 70
     0
  9
$SPLINETYPE
 70
     6
  9
$SPLINESEGS
 70
     8
  9
$ATTDIA
 70
     0
  9
$ATTREQ
 70
     1
  9
$HANDLING
 70
     1
  9
$HANDSEED
  5
631
  9
$SURFTAB1
 70
     6
  9
$SURFTAB2
 70
     6
  9
$SURFTYPE
 70
     6
  9
$SURFU
 70
     6
  9
$SURFV
 70
     6
  9
$UCSNAME
  2

  9
$UCSORG
 10
0.0
 20
0.0
 30
0.0
  9
$UCSXDIR
 10
1.0
 20
0.0
 30
0.0
  9
$UCSYDIR
 10
0.0
 20
1.0
 30
0.0
  9
$PUCSNAME
  2

  9
$PUCSORG
 10
0.0
 20
0.0
 30
0.0
  9
$PUCSXDIR
 10
1.0
 20
0.0
 30
0.0
  9
$PUCSYDIR
 10
0.0
 20
1.0
 30
0.0
  9
$USERI1
 70
     0
  9
$USERI2
 70
     0
  9
$USERI3
 70
     0
  9
$USERI4
 70
     0
  9
$USERI5
 70
     0
  9
$USERR1
 40
0.0
  9
$USERR2
 40
0.0
  9
$USERR3
 40
0.0
  9
$USERR4
 40
0.0
  9
$USERR5
 40
0.0
  9
$WORLDVIEW
 70
     1
  9
$SHADEDGE
 70
     3
  9
$SHADEDIF
 70
    70
  9
$TILEMODE
 70
     1
  9
$MAXACTVP
 70
    16
  9
$PINSBASE
 10
0.0
 20
0.0
 30
0.0
  9
$PLIMCHECK
 70
     0
  9
$PEXTMIN
 10
-155.527045
 20
-185.328
 30
0.0
  9
$PEXTMAX
 10
1032.472955
 20
654.672
 30
0.0
  9
$PLIMMIN
 10
-155.527045
 20
-185.328
  9
$PLIMMAX
 10
1032.472955
 20
654.672
  9
$UNITMODE
 70
     0
  9
$VISRETAIN
 70
     0
  9
$PLINEGEN
 70
     1
  9
$PSLTSCALE
 70
     0
  9
$TREEDEPTH
 70
  3020
  0
ENDSEC
  0
SECTION
  2
TABLES
  0
TABLE
  2
VPORT
 70
     1
  0
VPORT
  2
*ACTIVE
 70
     0
 10
0.0
 20
0.0
 11
1.0
 21
1.0
 12
594.0
 22
420.0
 13
0.0
 23
0.0
 14
1.0
 24
1.0
 15
0.0
 25
0.0
 16
0.0
 26
0.0
 36
1.0
 17
-155.527045
 27
-185.328
 37
0.0
 40
840.0
 41
1.604229
 42
50.0
 43
0.0
 44
0.0
 50
0.0
 51
0.0
 71
     0
 72
   100
 73
     1
 74
     1
 75
     0
 76
     0
 77
     0
 78
     0
  0
ENDTAB
  0
TABLE
  2
LTYPE
 70
     3
  0
LTYPE
  2
CONTINUOUS
 70
    64
  3
Solid line
 72
    65
 73
     0
 40
0.0
  0
LTYPE
  2
DASHED
 70
    64
  3
__ __ __ __ __
 72
    65
 73
     2
 40
6.25
 49
5.0
 49
-1.25
  0
LTYPE
  2
CENTER
 70
    64
  3
__ . __ . __ . __ . __
 72
    65
 73
     4
 40
7.5
 49
5.0
 49
-1.25
 49
0.0
 49
-1.25
  0
ENDTAB
  0
TABLE
  2
LAYER
 70
    13
  0
LAYER
  2
0
 70
     0
 62
     7
  6
CONTINUOUS
  0
LAYER
  2
LC-INFO-1-2-MM-A2-0
 70
     1
 62
   255
  6
BYBLOCK
  0
LAYER
  2
LC-3D-HIDDEN
 70
     0
 62
     9
  6
DASHED
  0
LAYER
  2
LC-CUT-HIDDEN
 70
     0
 62
     9
  6
DASHED
  0
LAYER
  2
LC-VIEWPORT
 70
     0
 62
     7
  6
BYBLOCK
  0
LAYER
  2
LC-001-002-----0
 70
     0
 62
     1
  6
BYBLOCK
  0
LAYER
  2
LC-002-002-RND-0
 70
     0
 62
     1
  6
BYBLOCK
  0
LAYER
  2
LC-003-005-----0
 70
     0
 62
     2
  6
BYBLOCK
  0
LAYER
  2
LC-004-006-MLN-0
 70
     0
 62
     2
  6
CENTER
  0
LAYER
  2
LC-005-003-----0
 70
     0
 62
     2
  6
BYBLOCK
  0
LAYER
  2
LC-006-221-----0
 70
     0
 62
     1
  6
BYBLOCK
  0
LAYER
  2
LC-007-003-MTH-0
 70
     0
 62
     2
  6
BYBLOCK
  0
LAYER
  2
LC-008-003-MTG-0
 70
     0
 62
     2
  6
BYBLOCK
  0
ENDTAB
  0
TABLE
  2
STYLE
 70
     4
  0
STYLE
  2
STANDARD
 70
     0
 40
0.0
 41
1.0
 50
0.0
 71
     0
 42
0.0
  3
txt
  4

  0
STYLE
  2
LCTX0-400-0-0-DIN-SCHRIFT
 70
    64
 40
3.5
 41
1.0
 50
0.0
 71
     0
 42
0.0
  3
MONOTXT
  4

  0
STYLE
  2
LCTX15-400-0-0-ARIAL
 70
    64
 40
3.5
 41
1.0
 50
0.0
 71
     0
 42
0.0
  3
Arial
  4

  0
STYLE
  2
LCTX15-400-0-0-DIN-SCHRIFTP
 70
    64
 40
0.0
 41
1.0
 50
1.5
 71
     0
 42
3.5
  3
STANDARD
  4

  0
ENDTAB
  0
TABLE
  2
VIEW
 70
     0
  0
ENDTAB
  0
TABLE
  2
UCS
 70
     0
  0
ENDTAB
  0
TABLE
  2
APPID
 70
     1
  0
APPID
  2
ACAD
 70
     0
  0
ENDTAB
  0
TABLE
  2
DIMSTYLE
 70
     3
  0
DIMSTYLE
  2
STANDARD
 70
     0
  3

  4

  5

  6

  7

 40
1.0
 41
0.18
 42
0.0625
 43
0.38
 44
0.18
 45
0.0
 46
0.0
 47
0.0
 48
0.0
 71
     0
 72
     0
 73
     1
 74
     1
 75
     0
 76
     0
 77
     0
 78
     0
140
0.18
141
0.09
142
0.0
143
25.4
144
1.0
145
0.0
146
1.0
147
0.09
170
     0
171
     2
172
     0
173
     0
174
     0
175
     0
176
     0
177
     0
178
     0
  0
DIMSTYLE
  2
LC-DIM-L-0140-02-02
 70
     0
  3

  4

  5

  6

  7

 40
2.0
 41
3.5
 42
0.0
 43
7.5
 44
1.8
 45
0.0
 46
0.0
 47
0.0
 48
0.0
 71
     0
 72
     0
 73
     0
 74
     0
 75
     0
 76
     0
 77
     1
 78
     8
140
14.0
141
0.0
142
0.0
143
25.4
144
1.0
145
0.0
146
0.71
147
1.5
170
     0
171
     2
172
     0
173
     0
174
     0
175
     0
176
     2
177
     2
178
     2
  0
DIMSTYLE
  2
LC-DIM-L-0140-01-02
 70
     0
  3

  4

  5

  6

  7

 40
2.0
 41
3.5
 42
0.0
 43
7.5
 44
1.8
 45
0.0
 46
0.0
 47
0.0
 48
0.0
 71
     0
 72
     0
 73
     0
 74
     0
 75
     0
 76
     0
 77
     1
 78
     8
140
14.0
141
0.0
142
0.0
143
25.4
144
1.0
145
0.0
146
0.71
147
1.5
170
     0
171
     2
172
     0
173
     0
174
     0
175
     0
176
     2
177
     2
178
     2
  0
ENDTAB
  0
ENDSEC
  0
SECTION
  2
BLOCKS
  0
BLOCK
  8
0
  5
5A
  2
*X0
 70
    65
 10
0.0
 20
0.0
 30
0.0
  3
*X0
  0
LINE
  8
LC-003-005-----0
 62
     2
  5
5C
 10
348.659728
 20
492.909511
 30
0.0
 11
350.259497
 21
494.509281
 31
0.0
  0
LINE
  8
LC-003-005-----0
 62
     2
  5
5D
 10
361.630269
 20
528.507469
 30
0.0
 11
365.070232
 21
531.947433
 31
0.0
  0
LINE
  8
LC-003-005-----0
 62
     2
  5
5E
 10
363.226922
 20
532.93255
 30
0.0
 11
363.29922
 21
533.004848
 31
0.0
  0
ENDBLK
  8
0
  5
5F
  0
BLOCK
  8
0
  5
77
  2
*X1
 70
    65
 10
0.0
 20
0.0
 30
0.0
  3
*X1
  0
LINE
  8
LC-003-005-----0
 62
     2
  5
78
 10
479.916732
 20
429.005043
 30
0.0
 11
481.592289
 21
430.680601
 31
0.0
  0
LINE
  8
LC-003-005-----0
 62
     2
  5
79
 10
477.45498
 20
429.371719
 30
0.0
 11
480.354976
 21
432.271715
 31
0.0
  0
LINE
  8
LC-003-005-----0
 62
     2
  5
7A
 10
477.454976
 20
432.200142
 30
0.0
 11
480.354972
 21
435.100138
 31
0.0
  0
LINE
  8
LC-003-005-----0
 62
     2
  5
7B
 10
477.454972
 20
435.028565
 30
0.0
 11
480.354968
 21
437.928561
 31
0.0
  0
LINE
  8
LC-003-005-----0
 62
     2
  5
7C
 10
477.454968
 20
437.856989
 30
0.0
 11
480.354964
 21
440.756985
 31
0.0
  0
LINE
  8
LC-003-005-----0
 62
     2
  5
7D
 10
477.454965
 20
440.685412
 30
0.0
 11
480.354961
 21
443.585408
 31
0.0
  0
LINE
  8
LC-003-005-----0
 62
     2
  5
7E
 10
477.454961
 20
443.513835
 30
0.0
 11
480.354957
 21
446.413831
 31
0.0
  0
LINE
  8
LC-003-005-----0
 62
     2
  5
7F
 10
477.454957
 20
446.342258
 30
0.0
 11
480.354953
 21
449.242254
 31
0.0
  0
LINE
  8
LC-003-005-----0
 62
     2
  5
80
 10
477.454953
 20
449.170682
 30
0.0
 11
480.354949
 21
452.070678
 31
0.0
  0
LINE
  8
LC-003-005-----0
 62
     2
  5
81
 10
476.95495
 20
451.499106
 30
0.0
 11
480.354945
 21
454.899101
 31
0.0
  0
LINE
  8
LC-003-005-----0
 62
     2
  5
82
 10
476.954946
 20
454.327529
 30
0.0
 11
480.354941
 21
457.727524
 31
0.0
  0
LINE
  8
LC-003-005-----0
 62
     2
  5
83
 10
476.954942
 20
457.155952
 30
0.0
 11
477.804027
 21
458.005038
 31
0.0
  0
ENDBLK
  8
0
  5
84
  0
BLOCK
  8
0
  5
A7
  2
*X2
 70
    65
 10
0.0
 20
0.0
 30
0.0
  3
*X2
  0
LINE
  8
LC-003-005-----0
 62
     2
  5
A8
 10
462.650812
 20
493.763511
 30
0.0
 11
463.595843
 21
494.708541
 31
0.0
  0
LINE
  8
LC-003-005-----0
 62
     2
  5
A9
 10
462.650805
 20
496.59193
 30
0.0
 11
462.841083
 21
496.782209
 31
0.0
  0
LINE
  8
LC-003-005-----0
 62
     2
  5
AA
 10
449.606671
 20
528.802631
 30
0.0
 11
450.764929
 21
529.960888
 31
0.0
  0
LINE
  8
LC-003-005-----0
 62
     2
  5
AB
 10
448.395867
 20
530.420253
 30
0.0
 11
450.010169
 21
532.034556
 31
0.0
  0
LINE
  8
LC-003-005-----0
 62
     2
  5
AC
 10
447.641107
 20
532.493921
 30
0.0
 11
448.152151
 21
533.004964
 31
0.0
  0
ENDBLK
  8
0
  5
AD
  0
BLOCK
  8
0
  5
D5
  2
*X3
 70
    65
 10
0.0
 20
0.0
 30
0.0
  3
*X3
  0
LINE
  8
LC-003-005-----0
 62
     2
  5
D6
 10
496.949107
 20
459.059261
 30
0.0
 11
496.474845
 21
459.533523
 31
0.0
  0
LINE
  8
LC-003-005-----0
 62
     2
  5
D7
 10
495.058423
 20
458.121518
 30
0.0
 11
494.351316
 21
458.828625
 31
0.0
  0
LINE
  8
LC-003-005-----0
 62
     2
  5
D8
 10
493.317991
 20
457.033523
 30
0.0
 11
492.317964
 21
458.03355
 31
0.0
  0
LINE
  8
LC-003-005-----0
 62
     2
  5
D9
 10
490.489565
 20
457.033522
 30
0.0
 11
489.489549
 21
458.033537
 31
0.0
  0
LINE
  8
LC-003-005-----0
 62
     2
  5
DA
 10
487.777353
 20
456.917307
 30
0.0
 11
487.022225
 21
457.672434
 31
0.0
  0
LINE
  8
LC-003-005-----0
 62
     2
  5
DB
 10
486.480447
 20
455.385785
 30
0.0
 11
485.679627
 21
456.186605
 31
0.0
  0
LINE
  8
LC-003-005-----0
 62
     2
  5
DC
 10
486.449185
 20
452.58862
 30
0.0
 11
485.449183
 21
453.588622
 31
0.0
  0
LINE
  8
LC-003-005-----0
 62
     2
  5
DD
 10
486.449191
 20
449.760187
 30
0.0
 11
485.449189
 21
450.760189
 31
0.0
  0
LINE
  8
LC-003-005-----0
 62
     2
  5
DE
 10
486.449197
 20
446.931754
 30
0.0
 11
485.449195
 21
447.931756
 31
0.0
  0
LINE
  8
LC-003-005-----0
 62
     2
  5
DF
 10
486.449202
 20
444.103322
 30
0.0
 11
485.4492
 21
445.103324
 31
0.0
  0
LINE
  8
LC-003-005-----0
 62
     2
  5
E0
 10
486.449208
 20
441.274889
 30
0.0
 11
485.449206
 21
442.274891
 31
0.0
  0
LINE
  8
LC-003-005-----0
 62
     2
  5
E1
 10
486.400514
 20
438.495156
 30
0.0
 11
485.449212
 21
439.446458
 31
0.0
  0
LINE
  8
LC-003-005-----0
 62
     2
  5
E2
 10
485.352598
 20
436.714645
 30
0.0
 11
484.64034
 21
437.426903
 31
0.0
  0
LINE
  8
LC-003-005-----0
 62
     2
  5
E3
 10
483.205309
 20
436.033506
 30
0.0
 11
482.336365
 21
436.902451
 31
0.0
  0
LINE
  8
LC-003-005-----0
 62
     2
  5
E4
 10
482.44958
 20
433.960808
 30
0.0
 11
481.449576
 21
434.960812
 31
0.0
  0
ENDBLK
  8
0
  5
E5
  0
BLOCK
  8
0
  5
ED
  2
*X4
 70
    65
 10
0.0
 20
0.0
 30
0.0
  3
*X4
  0
LINE
  8
LC-003-005-----0
 62
     2
  5
EE
 10
530.42245
 20
462.355471
 30
0.0
 11
529.712003
 21
463.065918
 31
0.0
  0
LINE
  8
LC-003-005-----0
 62
     2
  5
EF
 10
528.613455
 20
461.336039
 30
0.0
 11
527.770329
 21
462.179165
 31
0.0
  0
LINE
  8
LC-003-005-----0
 62
     2
  5
F0
 10
526.280849
 20
460.840218
 30
0.0
 11
525.437723
 21
461.683344
 31
0.0
  0
LINE
  8
LC-003-005-----0
 62
     2
  5
F1
 10
523.948243
 20
460.344396
 30
0.0
 11
523.105117
 21
461.187522
 31
0.0
  0
LINE
  8
LC-003-005-----0
 62
     2
  5
F2
 10
521.615637
 20
459.848575
 30
0.0
 11
520.772511
 21
460.691701
 31
0.0
  0
LINE
  8
LC-003-005-----0
 62
     2
  5
F3
 10
519.283031
 20
459.352754
 30
0.0
 11
518.439905
 21
460.19588
 31
0.0
  0
LINE
  8
LC-003-005-----0
 62
     2
  5
F4
 10
516.950425
 20
458.856933
 30
0.0
 11
516.107299
 21
459.700059
 31
0.0
  0
LINE
  8
LC-003-005-----0
 62
     2
  5
F5
 10
514.617819
 20
458.361112
 30
0.0
 11
513.774694
 21
459.204237
 31
0.0
  0
LINE
  8
LC-003-005-----0
 62
     2
  5
F6
 10
512.285213
 20
457.86529
 30
0.0
 11
511.442088
 21
458.708416
 31
0.0
  0
LINE
  8
LC-003-005-----0
 62
     2
  5
F7
 10
509.952608
 20
457.369469
 30
0.0
 11
509.109482
 21
458.212595
 31
0.0
  0
LINE
  8
LC-003-005-----0
 62
     2
  5
F8
 10
507.460125
 20
457.033524
 30
0.0
 11
504.960126
 21
459.533523
 31
0.0
  0
ENDBLK
  8
0
  5
F9
  0
BLOCK
  8
0
  5
121
  2
*X5
 70
    65
 10
0.0
 20
0.0
 30
0.0
  3
*X5
  0
LINE
  8
LC-003-005-----0
 62
     2
  5
122
 10
327.164622
 20
456.309692
 30
0.0
 11
325.726266
 21
457.748047
 31
0.0
  0
LINE
  8
LC-003-005-----0
 62
     2
  5
123
 10
327.449757
 20
453.196129
 30
0.0
 11
326.449755
 21
454.196132
 31
0.0
  0
LINE
  8
LC-003-005-----0
 62
     2
  5
124
 10
323.612723
 20
457.033163
 30
0.0
 11
322.612708
 21
458.033178
 31
0.0
  0
LINE
  8
LC-003-005-----0
 62
     2
  5
125
 10
327.449764
 20
450.367696
 30
0.0
 11
326.449761
 21
451.367698
 31
0.0
  0
LINE
  8
LC-003-005-----0
 62
     2
  5
126
 10
320.784307
 20
457.033152
 30
0.0
 11
319.784281
 21
458.033178
 31
0.0
  0
LINE
  8
LC-003-005-----0
 62
     2
  5
127
 10
327.44977
 20
447.539262
 30
0.0
 11
326.449768
 21
448.539264
 31
0.0
  0
LINE
  8
LC-003-005-----0
 62
     2
  5
128
 10
316.455898
 20
458.533134
 30
0.0
 11
315.949809
 21
459.039223
 31
0.0
  0
LINE
  8
LC-003-005-----0
 62
     2
  5
129
 10
327.449777
 20
444.710828
 30
0.0
 11
326.449774
 21
445.710831
 31
0.0
  0
LINE
  8
LC-003-005-----0
 62
     2
  5
12A
 10
327.449783
 20
441.882395
 30
0.0
 11
326.449781
 21
442.882397
 31
0.0
  0
LINE
  8
LC-003-005-----0
 62
     2
  5
12B
 10
331.449444
 20
435.054307
 30
0.0
 11
329.470564
 21
437.033186
 31
0.0
  0
LINE
  8
LC-003-005-----0
 62
     2
  5
12C
 10
327.44979
 20
439.053961
 30
0.0
 11
326.449787
 21
440.053963
 31
0.0
  0
LINE
  8
LC-003-005-----0
 62
     2
  5
12D
 10
330.642133
 20
433.03319
 30
0.0
 11
330.449444
 21
433.22588
 31
0.0
  0
ENDBLK
  8
0
  5
12E
  0
BLOCK
  8
0
  5
131
  2
*X6
 70
    65
 10
0.0
 20
0.0
 30
0.0
  3
*X6
  0
LINE
  8
LC-003-005-----0
 62
     2
  5
132
 10
307.970653
 20
458.533098
 30
0.0
 11
307.059366
 21
459.444385
 31
0.0
  0
LINE
  8
LC-003-005-----0
 62
     2
  5
133
 10
306.306685
 20
457.368639
 30
0.0
 11
305.55339
 21
458.121934
 31
0.0
  0
LINE
  8
LC-003-005-----0
 62
     2
  5
134
 10
303.621361
 20
457.225536
 30
0.0
 11
302.323057
 21
458.523839
 31
0.0
  0
LINE
  8
LC-003-005-----0
 62
     2
  5
135
 10
300.029449
 20
457.98902
 30
0.0
 11
298.731146
 21
459.287324
 31
0.0
  0
LINE
  8
LC-003-005-----0
 62
     2
  5
136
 10
296.437538
 20
458.752505
 30
0.0
 11
295.139234
 21
460.050808
 31
0.0
  0
LINE
  8
LC-003-005-----0
 62
     2
  5
137
 10
292.845626
 20
459.515989
 30
0.0
 11
291.547323
 21
460.814293
 31
0.0
  0
LINE
  8
LC-003-005-----0
 62
     2
  5
138
 10
289.253715
 20
460.279473
 30
0.0
 11
287.955411
 21
461.577777
 31
0.0
  0
LINE
  8
LC-003-005-----0
 62
     2
  5
139
 10
285.661803
 20
461.042958
 30
0.0
 11
284.3635
 21
462.341261
 31
0.0
  0
ENDBLK
  8
0
  5
13A
  0
BLOCK
  8
0
  5
15E
  2
*X7
 70
    65
 10
0.0
 20
0.0
 30
0.0
  3
*X7
  0
LINE
  8
LC-003-005-----0
 62
     2
  5
15F
 10
307.30679
 20
434.586011
 30
0.0
 11
308.30679
 21
435.586011
 31
0.0
  0
LINE
  8
LC-003-005-----0
 62
     2
  5
160
 10
305.181122
 20
435.28877
 30
0.0
 11
305.95239
 21
436.060038
 31
0.0
  0
LINE
  8
LC-003-005-----0
 62
     2
  5
161
 10
304.951715
 20
437.88779
 30
0.0
 11
305.951715
 21
438.88779
 31
0.0
  0
LINE
  8
LC-003-005-----0
 62
     2
  5
162
 10
304.951715
 20
440.716217
 30
0.0
 11
305.951715
 21
441.716217
 31
0.0
  0
LINE
  8
LC-003-005-----0
 62
     2
  5
163
 10
304.951715
 20
443.544644
 30
0.0
 11
305.951715
 21
444.544644
 31
0.0
  0
LINE
  8
LC-003-005-----0
 62
     2
  5
164
 10
304.951715
 20
446.373072
 30
0.0
 11
305.951715
 21
447.373072
 31
0.0
  0
LINE
  8
LC-003-005-----0
 62
     2
  5
165
 10
304.951715
 20
449.201499
 30
0.0
 11
305.947577
 21
450.19736
 31
0.0
  0
LINE
  8
LC-003-005-----0
 62
     2
  5
166
 10
303.5078
 20
450.586011
 30
0.0
 11
304.506789
 21
451.584999
 31
0.0
  0
LINE
  8
LC-003-005-----0
 62
     2
  5
167
 10
300.874826
 20
450.781464
 30
0.0
 11
301.679373
 21
451.586011
 31
0.0
  0
LINE
  8
LC-003-005-----0
 62
     2
  5
168
 10
298.801154
 20
451.536219
 30
0.0
 11
299.471463
 21
452.206528
 31
0.0
  0
LINE
  8
LC-003-005-----0
 62
     2
  5
169
 10
296.727482
 20
452.290973
 30
0.0
 11
297.397791
 21
452.961282
 31
0.0
  0
LINE
  8
LC-003-005-----0
 62
     2
  5
16A
 10
294.653809
 20
453.045728
 30
0.0
 11
295.324118
 21
453.716037
 31
0.0
  0
LINE
  8
LC-003-005-----0
 62
     2
  5
16B
 10
292.580137
 20
453.800483
 30
0.0
 11
293.250446
 21
454.470792
 31
0.0
  0
LINE
  8
LC-003-005-----0
 62
     2
  5
16C
 10
290.506465
 20
454.555238
 30
0.0
 11
291.176774
 21
455.225547
 31
0.0
  0
LINE
  8
LC-003-005-----0
 62
     2
  5
16D
 10
288.432793
 20
455.309993
 30
0.0
 11
289.103102
 21
455.980302
 31
0.0
  0
LINE
  8
LC-003-005-----0
 62
     2
  5
16E
 10
286.359121
 20
456.064748
 30
0.0
 11
287.02943
 21
456.735057
 31
0.0
  0
LINE
  8
LC-003-005-----0
 62
     2
  5
16F
 10
284.285449
 20
456.819503
 30
0.0
 11
284.955758
 21
457.489812
 31
0.0
  0
LINE
  8
LC-003-005-----0
 62
     2
  5
170
 10
282.211776
 20
457.574258
 30
0.0
 11
282.882085
 21
458.244567
 31
0.0
  0
ENDBLK
  8
0
  5
171
  0
BLOCK
  8
0
  5
174
  2
*X8
 70
    65
 10
0.0
 20
0.0
 30
0.0
  3
*X8
  0
LINE
  8
LC-003-005-----0
 62
     2
  5
175
 10
318.620499
 20
434.586011
 30
0.0
 11
319.502321
 21
435.467833
 31
0.0
  0
LINE
  8
LC-003-005-----0
 62
     2
  5
176
 10
315.951715
 20
434.745655
 30
0.0
 11
316.792071
 21
435.586011
 31
0.0
  0
ENDBLK
  8
0
  5
177
  0
BLOCK
  8
0
  5
19A
  2
*X9
 70
    65
 10
0.0
 20
0.0
 30
0.0
  3
*X9
  0
LINE
  8
LC-003-005-----0
 62
     2
  5
19B
 10
505.29696
 20
434.586282
 30
0.0
 11
506.296963
 21
435.586285
 31
0.0
  0
LINE
  8
LC-003-005-----0
 62
     2
  5
19C
 10
506.958759
 20
436.248081
 30
0.0
 11
507.958756
 21
437.248078
 31
0.0
  0
LINE
  8
LC-003-005-----0
 62
     2
  5
19D
 10
526.904204
 20
456.193525
 30
0.0
 11
528.341694
 21
457.631016
 31
0.0
  0
LINE
  8
LC-003-005-----0
 62
     2
  5
19E
 10
506.958751
 20
439.0765
 30
0.0
 11
507.958749
 21
440.076498
 31
0.0
  0
LINE
  8
LC-003-005-----0
 62
     2
  5
19F
 10
522.457177
 20
454.574926
 30
0.0
 11
523.894668
 21
456.012417
 31
0.0
  0
LINE
  8
LC-003-005-----0
 62
     2
  5
1A0
 10
506.958744
 20
441.90492
 30
0.0
 11
507.958741
 21
442.904917
 31
0.0
  0
LINE
  8
LC-003-005-----0
 62
     2
  5
1A1
 10
518.010151
 20
452.956328
 30
0.0
 11
519.447642
 21
454.393818
 31
0.0
  0
LINE
  8
LC-003-005-----0
 62
     2
  5
1A2
 10
506.958736
 20
444.733339
 30
0.0
 11
507.958733
 21
445.733336
 31
0.0
  0
LINE
  8
LC-003-005-----0
 62
     2
  5
1A3
 10
513.563125
 20
451.337729
 30
0.0
 11
515.000616
 21
452.775219
 31
0.0
  0
LINE
  8
LC-003-005-----0
 62
     2
  5
1A4
 10
506.958728
 20
447.561758
 30
0.0
 11
507.958725
 21
448.561756
 31
0.0
  0
LINE
  8
LC-003-005-----0
 62
     2
  5
1A5
 10
509.983264
 20
450.586295
 30
0.0
 11
510.983267
 21
451.586297
 31
0.0
  0
LINE
  8
LC-003-005-----0
 62
     2
  5
1A6
 10
506.998658
 20
450.430115
 30
0.0
 11
508.114896
 21
451.546354
 31
0.0
  0
ENDBLK
  8
0
  5
1A7
  0
BLOCK
  8
0
  5
1AA
  2
*X10
 70
    65
 10
0.0
 20
0.0
 30
0.0
  3
*X10
  0
LINE
  8
LC-003-005-----0
 62
     2
  5
1AB
 10
496.811655
 20
434.586259
 30
0.0
 11
496.958763
 21
434.733366
 31
0.0
  0
LINE
  8
LC-003-005-----0
 62
     2
  5
1AC
 10
493.98322
 20
434.586251
 30
0.0
 11
494.983223
 21
435.586254
 31
0.0
  0
ENDBLK
  8
0
  5
1AD
  0
BLOCK
  8
0
  5
1BE
  2
*X11
 70
    65
 10
0.0
 20
0.0
 30
0.0
  3
*X11
  0
LINE
  8
LC-003-005-----0
 62
     2
  5
1BF
 10
466.236348
 20
118.339811
 30
0.0
 11
468.098325
 21
120.201789
 31
0.0
  0
LINE
  8
LC-003-005-----0
 62
     2
  5
1C0
 10
465.939159
 20
120.87105
 30
0.0
 11
468.939226
 21
123.871116
 31
0.0
  0
LINE
  8
LC-003-005-----0
 62
     2
  5
1C1
 10
465.939222
 20
123.69954
 30
0.0
 11
468.939288
 21
126.699606
 31
0.0
  0
LINE
  8
LC-003-005-----0
 62
     2
  5
1C2
 10
465.939284
 20
126.528029
 30
0.0
 11
468.93935
 21
129.528096
 31
0.0
  0
LINE
  8
LC-003-005-----0
 62
     2
  5
1C3
 10
465.939347
 20
129.356519
 30
0.0
 11
468.939413
 21
132.356585
 31
0.0
  0
LINE
  8
LC-003-005-----0
 62
     2
  5
1C4
 10
465.939409
 20
132.185008
 30
0.0
 11
468.939475
 21
135.185075
 31
0.0
  0
LINE
  8
LC-003-005-----0
 62
     2
  5
1C5
 10
465.939472
 20
135.013498
 30
0.0
 11
468.939538
 21
138.013564
 31
0.0
  0
LINE
  8
LC-003-005-----0
 62
     2
  5
1C6
 10
465.939534
 20
137.841988
 30
0.0
 11
468.9396
 21
140.842054
 31
0.0
  0
LINE
  8
LC-003-005-----0
 62
     2
  5
1C7
 10
465.939596
 20
140.670477
 30
0.0
 11
468.939663
 21
143.670543
 31
0.0
  0
LINE
  8
LC-003-005-----0
 62
     2
  5
1C8
 10
465.939659
 20
143.498967
 30
0.0
 11
468.939725
 21
146.499033
 31
0.0
  0
LINE
  8
LC-003-005-----0
 62
     2
  5
1C9
 10
465.939721
 20
146.327456
 30
0.0
 11
468.939788
 21
149.327523
 31
0.0
  0
LINE
  8
LC-003-005-----0
 62
     2
  5
1CA
 10
465.939784
 20
149.155946
 30
0.0
 11
468.93985
 21
152.156012
 31
0.0
  0
LINE
  8
LC-003-005-----0
 62
     2
  5
1CB
 10
465.939846
 20
151.984435
 30
0.0
 11
468.939913
 21
154.984502
 31
0.0
  0
LINE
  8
LC-003-005-----0
 62
     2
  5
1CC
 10
465.939909
 20
154.812925
 30
0.0
 11
468.939975
 21
157.812991
 31
0.0
  0
LINE
  8
LC-003-005-----0
 62
     2
  5
1CD
 10
465.939971
 20
157.641415
 30
0.0
 11
468.940037
 21
160.641481
 31
0.0
  0
LINE
  8
LC-003-005-----0
 62
     2
  5
1CE
 10
465.940034
 20
160.469904
 30
0.0
 11
468.9401
 21
163.46997
 31
0.0
  0
LINE
  8
LC-003-005-----0
 62
     2
  5
1CF
 10
465.940096
 20
163.298394
 30
0.0
 11
468.940162
 21
166.29846
 31
0.0
  0
LINE
  8
LC-003-005-----0
 62
     2
  5
1D0
 10
465.940159
 20
166.126883
 30
0.0
 11
468.940225
 21
169.12695
 31
0.0
  0
LINE
  8
LC-003-005-----0
 62
     2
  5
1D1
 10
465.940221
 20
168.955373
 30
0.0
 11
468.940287
 21
171.955439
 31
0.0
  0
LINE
  8
LC-003-005-----0
 62
     2
  5
1D2
 10
465.940283
 20
171.783862
 30
0.0
 11
468.94035
 21
174.783929
 31
0.0
  0
LINE
  8
LC-003-005-----0
 62
     2
  5
1D3
 10
465.940346
 20
174.612352
 30
0.0
 11
468.940412
 21
177.612418
 31
0.0
  0
LINE
  8
LC-003-005-----0
 62
     2
  5
1D4
 10
465.940408
 20
177.440842
 30
0.0
 11
468.940475
 21
180.440908
 31
0.0
  0
LINE
  8
LC-003-005-----0
 62
     2
  5
1D5
 10
465.940471
 20
180.269331
 30
0.0
 11
468.940537
 21
183.269397
 31
0.0
  0
LINE
  8
LC-003-005-----0
 62
     2
  5
1D6
 10
465.940533
 20
183.097821
 30
0.0
 11
468.940599
 21
186.097887
 31
0.0
  0
LINE
  8
LC-003-005-----0
 62
     2
  5
1D7
 10
465.940596
 20
185.92631
 30
0.0
 11
468.940662
 21
188.926377
 31
0.0
  0
LINE
  8
LC-003-005-----0
 62
     2
  5
1D8
 10
465.940658
 20
188.7548
 30
0.0
 11
468.940724
 21
191.754866
 31
0.0
  0
LINE
  8
LC-003-005-----0
 62
     2
  5
1D9
 10
465.940721
 20
191.583289
 30
0.0
 11
468.940787
 21
194.583356
 31
0.0
  0
LINE
  8
LC-003-005-----0
 62
     2
  5
1DA
 10
465.940783
 20
194.411779
 30
0.0
 11
468.940849
 21
197.411845
 31
0.0
  0
LINE
  8
LC-003-005-----0
 62
     2
  5
1DB
 10
465.940845
 20
197.240269
 30
0.0
 11
468.940912
 21
200.240335
 31
0.0
  0
LINE
  8
LC-003-005-----0
 62
     2
  5
1DC
 10
465.940908
 20
200.068758
 30
0.0
 11
468.940974
 21
203.068824
 31
0.0
  0
LINE
  8
LC-003-005-----0
 62
     2
  5
1DD
 10
465.94097
 20
202.897248
 30
0.0
 11
468.941037
 21
205.897314
 31
0.0
  0
LINE
  8
LC-003-005-----0
 62
     2
  5
1DE
 10
465.941033
 20
205.725737
 30
0.0
 11
468.941099
 21
208.725804
 31
0.0
  0
LINE
  8
LC-003-005-----0
 62
     2
  5
1DF
 10
465.941095
 20
208.554227
 30
0.0
 11
468.941162
 21
211.554293
 31
0.0
  0
LINE
  8
LC-003-005-----0
 62
     2
  5
1E0
 10
465.941158
 20
211.382717
 30
0.0
 11
468.941224
 21
214.382783
 31
0.0
  0
LINE
  8
LC-003-005-----0
 62
     2
  5
1E1
 10
465.94122
 20
214.211206
 30
0.0
 11
468.941286
 21
217.211272
 31
0.0
  0
LINE
  8
LC-003-005-----0
 62
     2
  5
1E2
 10
465.941283
 20
217.039696
 30
0.0
 11
468.941349
 21
220.039762
 31
0.0
  0
LINE
  8
LC-003-005-----0
 62
     2
  5
1E3
 10
465.941345
 20
219.868185
 30
0.0
 11
468.941411
 21
222.868251
 31
0.0
  0
LINE
  8
LC-003-005-----0
 62
     2
  5
1E4
 10
465.941408
 20
222.696675
 30
0.0
 11
468.941474
 21
225.696741
 31
0.0
  0
LINE
  8
LC-003-005-----0
 62
     2
  5
1E5
 10
465.94147
 20
225.525164
 30
0.0
 11
468.941536
 21
228.525231
 31
0.0
  0
LINE
  8
LC-003-005-----0
 62
     2
  5
1E6
 10
465.941532
 20
228.353654
 30
0.0
 11
468.941599
 21
231.35372
 31
0.0
  0
LINE
  8
LC-003-005-----0
 62
     2
  5
1E7
 10
465.941595
 20
231.182144
 30
0.0
 11
468.941661
 21
234.18221
 31
0.0
  0
LINE
  8
LC-003-005-----0
 62
     2
  5
1E8
 10
465.941657
 20
234.010633
 30
0.0
 11
468.941724
 21
237.010699
 31
0.0
  0
LINE
  8
LC-003-005-----0
 62
     2
  5
1E9
 10
465.94172
 20
236.839123
 30
0.0
 11
468.941786
 21
239.839189
 31
0.0
  0
LINE
  8
LC-003-005-----0
 62
     2
  5
1EA
 10
465.941782
 20
239.667612
 30
0.0
 11
468.941848
 21
242.667678
 31
0.0
  0
LINE
  8
LC-003-005-----0
 62
     2
  5
1EB
 10
465.941845
 20
242.496102
 30
0.0
 11
468.941911
 21
245.496168
 31
0.0
  0
LINE
  8
LC-003-005-----0
 62
     2
  5
1EC
 10
465.941907
 20
245.324591
 30
0.0
 11
468.941973
 21
248.324658
 31
0.0
  0
LINE
  8
LC-003-005-----0
 62
     2
  5
1ED
 10
465.94197
 20
248.153081
 30
0.0
 11
468.942036
 21
251.153147
 31
0.0
  0
LINE
  8
LC-003-005-----0
 62
     2
  5
1EE
 10
465.942032
 20
250.981571
 30
0.0
 11
468.942098
 21
253.981637
 31
0.0
  0
LINE
  8
LC-003-005-----0
 62
     2
  5
1EF
 10
465.942094
 20
253.81006
 30
0.0
 11
468.942161
 21
256.810126
 31
0.0
  0
LINE
  8
LC-003-005-----0
 62
     2
  5
1F0
 10
465.942157
 20
256.63855
 30
0.0
 11
468.942223
 21
259.638616
 31
0.0
  0
LINE
  8
LC-003-005-----0
 62
     2
  5
1F1
 10
465.942219
 20
259.467039
 30
0.0
 11
468.942286
 21
262.467106
 31
0.0
  0
LINE
  8
LC-003-005-----0
 62
     2
  5
1F2
 10
465.942282
 20
262.295529
 30
0.0
 11
468.942348
 21
265.295595
 31
0.0
  0
LINE
  8
LC-003-005-----0
 62
     2
  5
1F3
 10
465.942344
 20
265.124018
 30
0.0
 11
468.942411
 21
268.124085
 31
0.0
  0
LINE
  8
LC-003-005-----0
 62
     2
  5
1F4
 10
465.942407
 20
267.952508
 30
0.0
 11
468.942473
 21
270.952574
 31
0.0
  0
LINE
  8
LC-003-005-----0
 62
     2
  5
1F5
 10
465.942469
 20
270.780998
 30
0.0
 11
468.942535
 21
273.781064
 31
0.0
  0
LINE
  8
LC-003-005-----0
 62
     2
  5
1F6
 10
465.942532
 20
273.609487
 30
0.0
 11
468.942598
 21
276.609553
 31
0.0
  0
LINE
  8
LC-003-005-----0
 62
     2
  5
1F7
 10
465.942594
 20
276.437977
 30
0.0
 11
468.94266
 21
279.438043
 31
0.0
  0
LINE
  8
LC-003-005-----0
 62
     2
  5
1F8
 10
465.942657
 20
279.266466
 30
0.0
 11
468.942723
 21
282.266533
 31
0.0
  0
LINE
  8
LC-003-005-----0
 62
     2
  5
1F9
 10
465.942719
 20
282.094956
 30
0.0
 11
468.942785
 21
285.095022
 31
0.0
  0
LINE
  8
LC-003-005-----0
 62
     2
  5
1FA
 10
465.942781
 20
284.923445
 30
0.0
 11
468.942848
 21
287.923512
 31
0.0
  0
LINE
  8
LC-003-005-----0
 62
     2
  5
1FB
 10
465.942844
 20
287.751935
 30
0.0
 11
468.94291
 21
290.752001
 31
0.0
  0
LINE
  8
LC-003-005-----0
 62
     2
  5
1FC
 10
465.942906
 20
290.580425
 30
0.0
 11
468.942973
 21
293.580491
 31
0.0
  0
LINE
  8
LC-003-005-----0
 62
     2
  5
1FD
 10
465.942969
 20
293.408914
 30
0.0
 11
468.943035
 21
296.40898
 31
0.0
  0
LINE
  8
LC-003-005-----0
 62
     2
  5
1FE
 10
465.943031
 20
296.237404
 30
0.0
 11
468.943097
 21
299.23747
 31
0.0
  0
LINE
  8
LC-003-005-----0
 62
     2
  5
1FF
 10
465.943094
 20
299.065893
 30
0.0
 11
468.94316
 21
302.06596
 31
0.0
  0
LINE
  8
LC-003-005-----0
 62
     2
  5
200
 10
465.943156
 20
301.894383
 30
0.0
 11
468.943222
 21
304.894449
 31
0.0
  0
LINE
  8
LC-003-005-----0
 62
     2
  5
201
 10
465.943219
 20
304.722872
 30
0.0
 11
468.943285
 21
307.722939
 31
0.0
  0
LINE
  8
LC-003-005-----0
 62
     2
  5
202
 10
465.943281
 20
307.551362
 30
0.0
 11
468.943347
 21
310.551428
 31
0.0
  0
LINE
  8
LC-003-005-----0
 62
     2
  5
203
 10
465.943343
 20
310.379852
 30
0.0
 11
468.94341
 21
313.379918
 31
0.0
  0
LINE
  8
LC-003-005-----0
 62
     2
  5
204
 10
465.943406
 20
313.208341
 30
0.0
 11
468.943472
 21
316.208407
 31
0.0
  0
LINE
  8
LC-003-005-----0
 62
     2
  5
205
 10
465.943468
 20
316.036831
 30
0.0
 11
468.943535
 21
319.036897
 31
0.0
  0
LINE
  8
LC-003-005-----0
 62
     2
  5
206
 10
465.943531
 20
318.86532
 30
0.0
 11
468.943597
 21
321.865387
 31
0.0
  0
LINE
  8
LC-003-005-----0
 62
     2
  5
207
 10
465.943593
 20
321.69381
 30
0.0
 11
468.94366
 21
324.693876
 31
0.0
  0
LINE
  8
LC-003-005-----0
 62
     2
  5
208
 10
465.943656
 20
324.5223
 30
0.0
 11
468.943722
 21
327.522366
 31
0.0
  0
LINE
  8
LC-003-005-----0
 62
     2
  5
209
 10
465.943718
 20
327.350789
 30
0.0
 11
468.943784
 21
330.350855
 31
0.0
  0
LINE
  8
LC-003-005-----0
 62
     2
  5
20A
 10
465.943781
 20
330.179279
 30
0.0
 11
468.943847
 21
333.179345
 31
0.0
  0
LINE
  8
LC-003-005-----0
 62
     2
  5
20B
 10
465.943843
 20
333.007768
 30
0.0
 11
468.943909
 21
336.007834
 31
0.0
  0
LINE
  8
LC-003-005-----0
 62
     2
  5
20C
 10
465.943906
 20
335.836258
 30
0.0
 11
468.943972
 21
338.836324
 31
0.0
  0
LINE
  8
LC-003-005-----0
 62
     2
  5
20D
 10
465.943968
 20
338.664747
 30
0.0
 11
468.944034
 21
341.664814
 31
0.0
  0
LINE
  8
LC-003-005-----0
 62
     2
  5
20E
 10
465.94403
 20
341.493237
 30
0.0
 11
468.944097
 21
344.493303
 31
0.0
  0
LINE
  8
LC-003-005-----0
 62
     2
  5
20F
 10
465.944093
 20
344.321727
 30
0.0
 11
468.944159
 21
347.321793
 31
0.0
  0
LINE
  8
LC-003-005-----0
 62
     2
  5
210
 10
465.944155
 20
347.150216
 30
0.0
 11
468.944222
 21
350.150282
 31
0.0
  0
LINE
  8
LC-003-005-----0
 62
     2
  5
211
 10
465.944218
 20
349.978706
 30
0.0
 11
468.944284
 21
352.978772
 31
0.0
  0
LINE
  8
LC-003-005-----0
 62
     2
  5
212
 10
465.94428
 20
352.807195
 30
0.0
 11
468.944346
 21
355.807261
 31
0.0
  0
LINE
  8
LC-003-005-----0
 62
     2
  5
213
 10
465.944343
 20
355.635685
 30
0.0
 11
468.944409
 21
358.635751
 31
0.0
  0
LINE
  8
LC-003-005-----0
 62
     2
  5
214
 10
465.944405
 20
358.464174
 30
0.0
 11
468.944471
 21
361.464241
 31
0.0
  0
LINE
  8
LC-003-005-----0
 62
     2
  5
215
 10
465.944468
 20
361.292664
 30
0.0
 11
468.944534
 21
364.29273
 31
0.0
  0
LINE
  8
LC-003-005-----0
 62
     2
  5
216
 10
465.94453
 20
364.121154
 30
0.0
 11
468.944596
 21
367.12122
 31
0.0
  0
LINE
  8
LC-003-005-----0
 62
     2
  5
217
 10
465.944592
 20
366.949643
 30
0.0
 11
468.944659
 21
369.949709
 31
0.0
  0
LINE
  8
LC-003-005-----0
 62
     2
  5
218
 10
465.944655
 20
369.778133
 30
0.0
 11
468.944721
 21
372.778199
 31
0.0
  0
LINE
  8
LC-003-005-----0
 62
     2
  5
219
 10
465.944717
 20
372.606622
 30
0.0
 11
468.944784
 21
375.606689
 31
0.0
  0
LINE
  8
LC-003-005-----0
 62
     2
  5
21A
 10
465.94478
 20
375.435112
 30
0.0
 11
468.944846
 21
378.435178
 31
0.0
  0
LINE
  8
LC-003-005-----0
 62
     2
  5
21B
 10
465.944842
 20
378.263601
 30
0.0
 11
468.944909
 21
381.263668
 31
0.0
  0
LINE
  8
LC-003-005-----0
 62
     2
  5
21C
 10
465.944905
 20
381.092091
 30
0.0
 11
468.944971
 21
384.092157
 31
0.0
  0
LINE
  8
LC-003-005-----0
 62
     2
  5
21D
 10
465.944967
 20
383.920581
 30
0.0
 11
468.945033
 21
386.920647
 31
0.0
  0
LINE
  8
LC-003-005-----0
 62
     2
  5
21E
 10
465.94503
 20
386.74907
 30
0.0
 11
468.945096
 21
389.749136
 31
0.0
  0
LINE
  8
LC-003-005-----0
 62
     2
  5
21F
 10
465.945092
 20
389.57756
 30
0.0
 11
468.945158
 21
392.577626
 31
0.0
  0
LINE
  8
LC-003-005-----0
 62
     2
  5
220
 10
465.945155
 20
392.406049
 30
0.0
 11
468.945221
 21
395.406116
 31
0.0
  0
LINE
  8
LC-003-005-----0
 62
     2
  5
221
 10
465.945217
 20
395.234539
 30
0.0
 11
468.945283
 21
398.234605
 31
0.0
  0
LINE
  8
LC-003-005-----0
 62
     2
  5
222
 10
465.945279
 20
398.063028
 30
0.0
 11
468.945346
 21
401.063095
 31
0.0
  0
LINE
  8
LC-003-005-----0
 62
     2
  5
223
 10
465.945342
 20
400.891518
 30
0.0
 11
468.945408
 21
403.891584
 31
0.0
  0
LINE
  8
LC-003-005-----0
 62
     2
  5
224
 10
484.453082
 20
419.399258
 30
0.0
 11
487.184765
 21
422.130941
 31
0.0
  0
LINE
  8
LC-003-005-----0
 62
     2
  5
225
 10
465.945404
 20
403.720008
 30
0.0
 11
468.945471
 21
406.720074
 31
0.0
  0
LINE
  8
LC-003-005-----0
 62
     2
  5
226
 10
481.613661
 20
419.388264
 30
0.0
 11
487.195874
 21
424.970477
 31
0.0
  0
LINE
  8
LC-003-005-----0
 62
     2
  5
227
 10
465.945467
 20
406.548497
 30
0.0
 11
468.945533
 21
409.548563
 31
0.0
  0
LINE
  8
LC-003-005-----0
 62
     2
  5
228
 10
478.785296
 20
419.388326
 30
0.0
 11
481.78523
 21
422.38826
 31
0.0
  0
LINE
  8
LC-003-005-----0
 62
     2
  5
229
 10
484.19587
 20
424.7989
 30
0.0
 11
487.195936
 21
427.798966
 31
0.0
  0
LINE
  8
LC-003-005-----0
 62
     2
  5
22A
 10
495.736168
 20
436.339198
 30
0.0
 11
497.699835
 21
438.302865
 31
0.0
  0
LINE
  8
LC-003-005-----0
 62
     2
  5
22B
 10
465.945529
 20
409.376987
 30
0.0
 11
478.956865
 21
422.388323
 31
0.0
  0
LINE
  8
LC-003-005-----0
 62
     2
  5
22C
 10
484.195932
 20
427.62739
 30
0.0
 11
487.195998
 21
430.627456
 31
0.0
  0
LINE
  8
LC-003-005-----0
 62
     2
  5
22D
 10
490.40782
 20
433.839278
 30
0.0
 11
491.946104
 21
435.377562
 31
0.0
  0
LINE
  8
LC-003-005-----0
 62
     2
  5
22E
 10
492.90782
 20
436.339278
 30
0.0
 11
497.700168
 21
441.131625
 31
0.0
  0
LINE
  8
LC-003-005-----0
 62
     2
  5
22F
 10
465.945592
 20
412.205476
 30
0.0
 11
476.1285
 21
422.388385
 31
0.0
  0
LINE
  8
LC-003-005-----0
 62
     2
  5
230
 10
484.195995
 20
430.455879
 30
0.0
 11
497.700501
 21
443.960385
 31
0.0
  0
LINE
  8
LC-003-005-----0
 62
     2
  5
231
 10
488.946163
 20
438.034475
 30
0.0
 11
497.700834
 21
446.789146
 31
0.0
  0
LINE
  8
LC-003-005-----0
 62
     2
  5
232
 10
488.946225
 20
440.862964
 30
0.0
 11
497.701167
 21
449.617906
 31
0.0
  0
LINE
  8
LC-003-005-----0
 62
     2
  5
233
 10
488.946288
 20
443.691454
 30
0.0
 11
497.7015
 21
452.446666
 31
0.0
  0
LINE
  8
LC-003-005-----0
 62
     2
  5
234
 10
488.94635
 20
446.519943
 30
0.0
 11
497.008217
 21
454.58181
 31
0.0
  0
LINE
  8
LC-003-005-----0
 62
     2
  5
235
 10
488.946413
 20
449.348433
 30
0.0
 11
494.180127
 21
454.582147
 31
0.0
  0
LINE
  8
LC-003-005-----0
 62
     2
  5
236
 10
488.946475
 20
452.176923
 30
0.0
 11
491.352036
 21
454.582484
 31
0.0
  0
ENDBLK
  8
0
  5
237
  0
BLOCK
  8
0
  5
256
  2
*X12
 70
    65
 10
0.0
 20
0.0
 30
0.0
  3
*X12
  0
LINE
  8
LC-003-005-----0
 62
     2
  5
257
 10
345.13892
 20
118.86475
 30
0.0
 11
346.939155
 21
120.664985
 31
0.0
  0
LINE
  8
LC-003-005-----0
 62
     2
  5
258
 10
344.541245
 20
121.095502
 30
0.0
 11
346.939217
 21
123.493474
 31
0.0
  0
LINE
  8
LC-003-005-----0
 62
     2
  5
259
 10
343.94357
 20
123.326254
 30
0.0
 11
346.93928
 21
126.321964
 31
0.0
  0
LINE
  8
LC-003-005-----0
 62
     2
  5
25A
 10
343.939276
 20
126.150387
 30
0.0
 11
346.939342
 21
129.150454
 31
0.0
  0
LINE
  8
LC-003-005-----0
 62
     2
  5
25B
 10
343.939338
 20
128.978877
 30
0.0
 11
346.939405
 21
131.978943
 31
0.0
  0
LINE
  8
LC-003-005-----0
 62
     2
  5
25C
 10
343.939401
 20
131.807366
 30
0.0
 11
346.939467
 21
134.807433
 31
0.0
  0
LINE
  8
LC-003-005-----0
 62
     2
  5
25D
 10
343.939463
 20
134.635856
 30
0.0
 11
346.939529
 21
137.635922
 31
0.0
  0
LINE
  8
LC-003-005-----0
 62
     2
  5
25E
 10
343.939526
 20
137.464346
 30
0.0
 11
346.939592
 21
140.464412
 31
0.0
  0
LINE
  8
LC-003-005-----0
 62
     2
  5
25F
 10
343.939588
 20
140.292835
 30
0.0
 11
346.939654
 21
143.292901
 31
0.0
  0
LINE
  8
LC-003-005-----0
 62
     2
  5
260
 10
343.939651
 20
143.121325
 30
0.0
 11
346.939717
 21
146.121391
 31
0.0
  0
LINE
  8
LC-003-005-----0
 62
     2
  5
261
 10
343.939713
 20
145.949814
 30
0.0
 11
346.939779
 21
148.949881
 31
0.0
  0
LINE
  8
LC-003-005-----0
 62
     2
  5
262
 10
343.939775
 20
148.778304
 30
0.0
 11
346.939842
 21
151.77837
 31
0.0
  0
LINE
  8
LC-003-005-----0
 62
     2
  5
263
 10
343.939838
 20
151.606793
 30
0.0
 11
346.939904
 21
154.60686
 31
0.0
  0
LINE
  8
LC-003-005-----0
 62
     2
  5
264
 10
343.9399
 20
154.435283
 30
0.0
 11
346.939967
 21
157.435349
 31
0.0
  0
LINE
  8
LC-003-005-----0
 62
     2
  5
265
 10
343.939963
 20
157.263773
 30
0.0
 11
346.940029
 21
160.263839
 31
0.0
  0
LINE
  8
LC-003-005-----0
 62
     2
  5
266
 10
343.940025
 20
160.092262
 30
0.0
 11
346.940092
 21
163.092328
 31
0.0
  0
LINE
  8
LC-003-005-----0
 62
     2
  5
267
 10
343.940088
 20
162.920752
 30
0.0
 11
346.940154
 21
165.920818
 31
0.0
  0
LINE
  8
LC-003-005-----0
 62
     2
  5
268
 10
343.94015
 20
165.749241
 30
0.0
 11
346.940216
 21
168.749308
 31
0.0
  0
LINE
  8
LC-003-005-----0
 62
     2
  5
269
 10
343.940213
 20
168.577731
 30
0.0
 11
346.940279
 21
171.577797
 31
0.0
  0
LINE
  8
LC-003-005-----0
 62
     2
  5
26A
 10
343.940275
 20
171.40622
 30
0.0
 11
346.940341
 21
174.406287
 31
0.0
  0
LINE
  8
LC-003-005-----0
 62
     2
  5
26B
 10
343.940338
 20
174.23471
 30
0.0
 11
346.940404
 21
177.234776
 31
0.0
  0
LINE
  8
LC-003-005-----0
 62
     2
  5
26C
 10
343.9404
 20
177.0632
 30
0.0
 11
346.940466
 21
180.063266
 31
0.0
  0
LINE
  8
LC-003-005-----0
 62
     2
  5
26D
 10
343.940462
 20
179.891689
 30
0.0
 11
346.940529
 21
182.891755
 31
0.0
  0
LINE
  8
LC-003-005-----0
 62
     2
  5
26E
 10
343.940525
 20
182.720179
 30
0.0
 11
346.940591
 21
185.720245
 31
0.0
  0
LINE
  8
LC-003-005-----0
 62
     2
  5
26F
 10
343.940587
 20
185.548668
 30
0.0
 11
346.940654
 21
188.548735
 31
0.0
  0
LINE
  8
LC-003-005-----0
 62
     2
  5
270
 10
343.94065
 20
188.377158
 30
0.0
 11
346.940716
 21
191.377224
 31
0.0
  0
LINE
  8
LC-003-005-----0
 62
     2
  5
271
 10
343.940712
 20
191.205647
 30
0.0
 11
346.940778
 21
194.205714
 31
0.0
  0
LINE
  8
LC-003-005-----0
 62
     2
  5
272
 10
343.940775
 20
194.034137
 30
0.0
 11
346.940841
 21
197.034203
 31
0.0
  0
LINE
  8
LC-003-005-----0
 62
     2
  5
273
 10
343.940837
 20
196.862627
 30
0.0
 11
346.940903
 21
199.862693
 31
0.0
  0
LINE
  8
LC-003-005-----0
 62
     2
  5
274
 10
343.9409
 20
199.691116
 30
0.0
 11
346.940966
 21
202.691182
 31
0.0
  0
LINE
  8
LC-003-005-----0
 62
     2
  5
275
 10
343.940962
 20
202.519606
 30
0.0
 11
346.941028
 21
205.519672
 31
0.0
  0
LINE
  8
LC-003-005-----0
 62
     2
  5
276
 10
343.941024
 20
205.348095
 30
0.0
 11
346.941091
 21
208.348162
 31
0.0
  0
LINE
  8
LC-003-005-----0
 62
     2
  5
277
 10
343.941087
 20
208.176585
 30
0.0
 11
346.941153
 21
211.176651
 31
0.0
  0
LINE
  8
LC-003-005-----0
 62
     2
  5
278
 10
343.941149
 20
211.005075
 30
0.0
 11
346.941216
 21
214.005141
 31
0.0
  0
LINE
  8
LC-003-005-----0
 62
     2
  5
279
 10
343.941212
 20
213.833564
 30
0.0
 11
346.941278
 21
216.83363
 31
0.0
  0
LINE
  8
LC-003-005-----0
 62
     2
  5
27A
 10
343.941274
 20
216.662054
 30
0.0
 11
346.941341
 21
219.66212
 31
0.0
  0
LINE
  8
LC-003-005-----0
 62
     2
  5
27B
 10
343.941337
 20
219.490543
 30
0.0
 11
346.941403
 21
222.490609
 31
0.0
  0
LINE
  8
LC-003-005-----0
 62
     2
  5
27C
 10
343.941399
 20
222.319033
 30
0.0
 11
346.941465
 21
225.319099
 31
0.0
  0
LINE
  8
LC-003-005-----0
 62
     2
  5
27D
 10
343.941462
 20
225.147522
 30
0.0
 11
346.941528
 21
228.147589
 31
0.0
  0
LINE
  8
LC-003-005-----0
 62
     2
  5
27E
 10
343.941524
 20
227.976012
 30
0.0
 11
346.94159
 21
230.976078
 31
0.0
  0
LINE
  8
LC-003-005-----0
 62
     2
  5
27F
 10
343.941587
 20
230.804502
 30
0.0
 11
346.941653
 21
233.804568
 31
0.0
  0
LINE
  8
LC-003-005-----0
 62
     2
  5
280
 10
343.941649
 20
233.632991
 30
0.0
 11
346.941715
 21
236.633057
 31
0.0
  0
LINE
  8
LC-003-005-----0
 62
     2
  5
281
 10
343.941711
 20
236.461481
 30
0.0
 11
346.941778
 21
239.461547
 31
0.0
  0
LINE
  8
LC-003-005-----0
 62
     2
  5
282
 10
343.941774
 20
239.28997
 30
0.0
 11
346.94184
 21
242.290036
 31
0.0
  0
LINE
  8
LC-003-005-----0
 62
     2
  5
283
 10
343.941836
 20
242.11846
 30
0.0
 11
346.941903
 21
245.118526
 31
0.0
  0
LINE
  8
LC-003-005-----0
 62
     2
  5
284
 10
343.941899
 20
244.946949
 30
0.0
 11
346.941965
 21
247.947016
 31
0.0
  0
LINE
  8
LC-003-005-----0
 62
     2
  5
285
 10
343.941961
 20
247.775439
 30
0.0
 11
346.942027
 21
250.775505
 31
0.0
  0
LINE
  8
LC-003-005-----0
 62
     2
  5
286
 10
343.942024
 20
250.603929
 30
0.0
 11
346.94209
 21
253.603995
 31
0.0
  0
LINE
  8
LC-003-005-----0
 62
     2
  5
287
 10
343.942086
 20
253.432418
 30
0.0
 11
346.942152
 21
256.432484
 31
0.0
  0
LINE
  8
LC-003-005-----0
 62
     2
  5
288
 10
343.942149
 20
256.260908
 30
0.0
 11
346.942215
 21
259.260974
 31
0.0
  0
LINE
  8
LC-003-005-----0
 62
     2
  5
289
 10
343.942211
 20
259.089397
 30
0.0
 11
346.942277
 21
262.089464
 31
0.0
  0
LINE
  8
LC-003-005-----0
 62
     2
  5
28A
 10
343.942273
 20
261.917887
 30
0.0
 11
346.94234
 21
264.917953
 31
0.0
  0
LINE
  8
LC-003-005-----0
 62
     2
  5
28B
 10
343.942336
 20
264.746376
 30
0.0
 11
346.942402
 21
267.746443
 31
0.0
  0
LINE
  8
LC-003-005-----0
 62
     2
  5
28C
 10
343.942398
 20
267.574866
 30
0.0
 11
346.942465
 21
270.574932
 31
0.0
  0
LINE
  8
LC-003-005-----0
 62
     2
  5
28D
 10
343.942461
 20
270.403356
 30
0.0
 11
346.942527
 21
273.403422
 31
0.0
  0
LINE
  8
LC-003-005-----0
 62
     2
  5
28E
 10
343.942523
 20
273.231845
 30
0.0
 11
346.94259
 21
276.231911
 31
0.0
  0
LINE
  8
LC-003-005-----0
 62
     2
  5
28F
 10
343.942586
 20
276.060335
 30
0.0
 11
346.942652
 21
279.060401
 31
0.0
  0
LINE
  8
LC-003-005-----0
 62
     2
  5
290
 10
343.942648
 20
278.888824
 30
0.0
 11
346.942714
 21
281.888891
 31
0.0
  0
LINE
  8
LC-003-005-----0
 62
     2
  5
291
 10
343.942711
 20
281.717314
 30
0.0
 11
346.942777
 21
284.71738
 31
0.0
  0
LINE
  8
LC-003-005-----0
 62
     2
  5
292
 10
343.942773
 20
284.545803
 30
0.0
 11
346.942839
 21
287.54587
 31
0.0
  0
LINE
  8
LC-003-005-----0
 62
     2
  5
293
 10
343.942836
 20
287.374293
 30
0.0
 11
346.942902
 21
290.374359
 31
0.0
  0
LINE
  8
LC-003-005-----0
 62
     2
  5
294
 10
343.942898
 20
290.202783
 30
0.0
 11
346.942964
 21
293.202849
 31
0.0
  0
LINE
  8
LC-003-005-----0
 62
     2
  5
295
 10
343.94296
 20
293.031272
 30
0.0
 11
346.943027
 21
296.031338
 31
0.0
  0
LINE
  8
LC-003-005-----0
 62
     2
  5
296
 10
343.943023
 20
295.859762
 30
0.0
 11
346.943089
 21
298.859828
 31
0.0
  0
LINE
  8
LC-003-005-----0
 62
     2
  5
297
 10
343.943085
 20
298.688251
 30
0.0
 11
346.943152
 21
301.688318
 31
0.0
  0
LINE
  8
LC-003-005-----0
 62
     2
  5
298
 10
343.943148
 20
301.516741
 30
0.0
 11
346.943214
 21
304.516807
 31
0.0
  0
LINE
  8
LC-003-005-----0
 62
     2
  5
299
 10
343.94321
 20
304.34523
 30
0.0
 11
346.943276
 21
307.345297
 31
0.0
  0
LINE
  8
LC-003-005-----0
 62
     2
  5
29A
 10
343.943273
 20
307.17372
 30
0.0
 11
346.943339
 21
310.173786
 31
0.0
  0
LINE
  8
LC-003-005-----0
 62
     2
  5
29B
 10
343.943335
 20
310.00221
 30
0.0
 11
346.943401
 21
313.002276
 31
0.0
  0
LINE
  8
LC-003-005-----0
 62
     2
  5
29C
 10
343.943398
 20
312.830699
 30
0.0
 11
346.943464
 21
315.830765
 31
0.0
  0
LINE
  8
LC-003-005-----0
 62
     2
  5
29D
 10
343.94346
 20
315.659189
 30
0.0
 11
346.943526
 21
318.659255
 31
0.0
  0
LINE
  8
LC-003-005-----0
 62
     2
  5
29E
 10
343.943522
 20
318.487678
 30
0.0
 11
346.943589
 21
321.487745
 31
0.0
  0
LINE
  8
LC-003-005-----0
 62
     2
  5
29F
 10
343.943585
 20
321.316168
 30
0.0
 11
346.943651
 21
324.316234
 31
0.0
  0
LINE
  8
LC-003-005-----0
 62
     2
  5
2A0
 10
343.943647
 20
324.144657
 30
0.0
 11
346.943714
 21
327.144724
 31
0.0
  0
LINE
  8
LC-003-005-----0
 62
     2
  5
2A1
 10
343.94371
 20
326.973147
 30
0.0
 11
346.943776
 21
329.973213
 31
0.0
  0
LINE
  8
LC-003-005-----0
 62
     2
  5
2A2
 10
343.943772
 20
329.801637
 30
0.0
 11
346.943839
 21
332.801703
 31
0.0
  0
LINE
  8
LC-003-005-----0
 62
     2
  5
2A3
 10
343.943835
 20
332.630126
 30
0.0
 11
346.943901
 21
335.630192
 31
0.0
  0
LINE
  8
LC-003-005-----0
 62
     2
  5
2A4
 10
343.943897
 20
335.458616
 30
0.0
 11
346.943963
 21
338.458682
 31
0.0
  0
LINE
  8
LC-003-005-----0
 62
     2
  5
2A5
 10
343.94396
 20
338.287105
 30
0.0
 11
346.944026
 21
341.287172
 31
0.0
  0
LINE
  8
LC-003-005-----0
 62
     2
  5
2A6
 10
343.944022
 20
341.115595
 30
0.0
 11
346.944088
 21
344.115661
 31
0.0
  0
LINE
  8
LC-003-005-----0
 62
     2
  5
2A7
 10
343.944085
 20
343.944085
 30
0.0
 11
346.944151
 21
346.944151
 31
0.0
  0
LINE
  8
LC-003-005-----0
 62
     2
  5
2A8
 10
343.944147
 20
346.772574
 30
0.0
 11
346.944213
 21
349.77264
 31
0.0
  0
LINE
  8
LC-003-005-----0
 62
     2
  5
2A9
 10
343.944209
 20
349.601064
 30
0.0
 11
346.944276
 21
352.60113
 31
0.0
  0
LINE
  8
LC-003-005-----0
 62
     2
  5
2AA
 10
343.944272
 20
352.429553
 30
0.0
 11
346.944338
 21
355.429619
 31
0.0
  0
LINE
  8
LC-003-005-----0
 62
     2
  5
2AB
 10
343.944334
 20
355.258043
 30
0.0
 11
346.944401
 21
358.258109
 31
0.0
  0
LINE
  8
LC-003-005-----0
 62
     2
  5
2AC
 10
343.944397
 20
358.086532
 30
0.0
 11
346.944463
 21
361.086599
 31
0.0
  0
LINE
  8
LC-003-005-----0
 62
     2
  5
2AD
 10
343.944459
 20
360.915022
 30
0.0
 11
346.944525
 21
363.915088
 31
0.0
  0
LINE
  8
LC-003-005-----0
 62
     2
  5
2AE
 10
343.944522
 20
363.743512
 30
0.0
 11
346.944588
 21
366.743578
 31
0.0
  0
LINE
  8
LC-003-005-----0
 62
     2
  5
2AF
 10
343.944584
 20
366.572001
 30
0.0
 11
346.94465
 21
369.572067
 31
0.0
  0
LINE
  8
LC-003-005-----0
 62
     2
  5
2B0
 10
343.944647
 20
369.400491
 30
0.0
 11
346.944713
 21
372.400557
 31
0.0
  0
LINE
  8
LC-003-005-----0
 62
     2
  5
2B1
 10
343.944709
 20
372.22898
 30
0.0
 11
346.944775
 21
375.229047
 31
0.0
  0
LINE
  8
LC-003-005-----0
 62
     2
  5
2B2
 10
343.944771
 20
375.05747
 30
0.0
 11
346.944838
 21
378.057536
 31
0.0
  0
LINE
  8
LC-003-005-----0
 62
     2
  5
2B3
 10
343.944834
 20
377.885959
 30
0.0
 11
346.9449
 21
380.886026
 31
0.0
  0
LINE
  8
LC-003-005-----0
 62
     2
  5
2B4
 10
343.944896
 20
380.714449
 30
0.0
 11
346.944963
 21
383.714515
 31
0.0
  0
LINE
  8
LC-003-005-----0
 62
     2
  5
2B5
 10
343.944959
 20
383.542939
 30
0.0
 11
346.945025
 21
386.543005
 31
0.0
  0
LINE
  8
LC-003-005-----0
 62
     2
  5
2B6
 10
343.945021
 20
386.371428
 30
0.0
 11
346.945088
 21
389.371494
 31
0.0
  0
LINE
  8
LC-003-005-----0
 62
     2
  5
2B7
 10
343.945084
 20
389.199918
 30
0.0
 11
346.94515
 21
392.199984
 31
0.0
  0
LINE
  8
LC-003-005-----0
 62
     2
  5
2B8
 10
343.945146
 20
392.028407
 30
0.0
 11
346.945212
 21
395.028474
 31
0.0
  0
LINE
  8
LC-003-005-----0
 62
     2
  5
2B9
 10
343.945209
 20
394.856897
 30
0.0
 11
346.945275
 21
397.856963
 31
0.0
  0
LINE
  8
LC-003-005-----0
 62
     2
  5
2BA
 10
343.945271
 20
397.685386
 30
0.0
 11
346.945337
 21
400.685453
 31
0.0
  0
LINE
  8
LC-003-005-----0
 62
     2
  5
2BB
 10
343.945334
 20
400.513876
 30
0.0
 11
346.9454
 21
403.513942
 31
0.0
  0
LINE
  8
LC-003-005-----0
 62
     2
  5
2BC
 10
343.945396
 20
403.342366
 30
0.0
 11
346.945462
 21
406.342432
 31
0.0
  0
LINE
  8
LC-003-005-----0
 62
     2
  5
2BD
 10
343.945458
 20
406.170855
 30
0.0
 11
346.945525
 21
409.170921
 31
0.0
  0
LINE
  8
LC-003-005-----0
 62
     2
  5
2BE
 10
343.945521
 20
408.999345
 30
0.0
 11
346.945587
 21
411.999411
 31
0.0
  0
LINE
  8
LC-003-005-----0
 62
     2
  5
2BF
 10
343.945583
 20
411.827834
 30
0.0
 11
346.098638
 21
413.980889
 31
0.0
  0
LINE
  8
LC-003-005-----0
 62
     2
  5
2C0
 10
342.563136
 20
413.273814
 30
0.0
 11
344.684456
 21
415.395134
 31
0.0
  0
LINE
  8
LC-003-005-----0
 62
     2
  5
2C1
 10
341.148953
 20
414.688058
 30
0.0
 11
343.270274
 21
416.809379
 31
0.0
  0
LINE
  8
LC-003-005-----0
 62
     2
  5
2C2
 10
339.734771
 20
416.102303
 30
0.0
 11
341.856091
 21
418.223624
 31
0.0
  0
LINE
  8
LC-003-005-----0
 62
     2
  5
2C3
 10
338.320589
 20
417.516548
 30
0.0
 11
340.441909
 21
419.637868
 31
0.0
  0
LINE
  8
LC-003-005-----0
 62
     2
  5
2C4
 10
336.906406
 20
418.930793
 30
0.0
 11
339.027727
 21
421.052113
 31
0.0
  0
LINE
  8
LC-003-005-----0
 62
     2
  5
2C5
 10
334.538697
 20
419.391511
 30
0.0
 11
337.538631
 21
422.391445
 31
0.0
  0
LINE
  8
LC-003-005-----0
 62
     2
  5
2C6
 10
331.710333
 20
419.391574
 30
0.0
 11
334.710267
 21
422.391507
 31
0.0
  0
LINE
  8
LC-003-005-----0
 62
     2
  5
2C7
 10
328.881968
 20
419.391636
 30
0.0
 11
331.881902
 21
422.39157
 31
0.0
  0
LINE
  8
LC-003-005-----0
 62
     2
  5
2C8
 10
326.760915
 20
420.09901
 30
0.0
 11
329.053537
 21
422.391632
 31
0.0
  0
LINE
  8
LC-003-005-----0
 62
     2
  5
2C9
 10
325.735964
 20
421.902486
 30
0.0
 11
328.695871
 21
424.862393
 31
0.0
  0
LINE
  8
LC-003-005-----0
 62
     2
  5
2CA
 10
325.695867
 20
424.690817
 30
0.0
 11
328.695934
 21
427.690883
 31
0.0
  0
LINE
  8
LC-003-005-----0
 62
     2
  5
2CB
 10
325.69593
 20
427.519306
 30
0.0
 11
328.695996
 21
430.519372
 31
0.0
  0
LINE
  8
LC-003-005-----0
 62
     2
  5
2CC
 10
325.695992
 20
430.347796
 30
0.0
 11
328.564872
 21
433.216675
 31
0.0
  0
LINE
  8
LC-003-005-----0
 62
     2
  5
2CD
 10
325.029369
 20
432.5096
 30
0.0
 11
327.150689
 21
434.63092
 31
0.0
  0
LINE
  8
LC-003-005-----0
 62
     2
  5
2CE
 10
323.534304
 20
433.842962
 30
0.0
 11
325.736507
 21
436.045165
 31
0.0
  0
LINE
  8
LC-003-005-----0
 62
     2
  5
2CF
 10
321.326004
 20
434.463089
 30
0.0
 11
324.322325
 21
437.45941
 31
0.0
  0
LINE
  8
LC-003-005-----0
 62
     2
  5
2D0
 10
320.377577
 20
436.34309
 30
0.0
 11
323.946202
 21
439.911714
 31
0.0
  0
LINE
  8
LC-003-005-----0
 62
     2
  5
2D1
 10
317.549196
 20
436.343135
 30
0.0
 11
323.946265
 21
442.740204
 31
0.0
  0
LINE
  8
LC-003-005-----0
 62
     2
  5
2D2
 10
315.192611
 20
436.814977
 30
0.0
 11
323.946327
 21
445.568694
 31
0.0
  0
LINE
  8
LC-003-005-----0
 62
     2
  5
2D3
 10
315.192403
 20
439.643196
 30
0.0
 11
323.94639
 21
448.397183
 31
0.0
  0
LINE
  8
LC-003-005-----0
 62
     2
  5
2D4
 10
315.192195
 20
442.471415
 30
0.0
 11
323.946452
 21
451.225673
 31
0.0
  0
LINE
  8
LC-003-005-----0
 62
     2
  5
2D5
 10
315.191987
 20
445.299634
 30
0.0
 11
323.946515
 21
454.054162
 31
0.0
  0
LINE
  8
LC-003-005-----0
 62
     2
  5
2D6
 10
315.191778
 20
448.127853
 30
0.0
 11
321.650166
 21
454.586241
 31
0.0
  0
LINE
  8
LC-003-005-----0
 62
     2
  5
2D7
 10
315.19157
 20
450.956072
 30
0.0
 11
318.821527
 21
454.586029
 31
0.0
  0
LINE
  8
LC-003-005-----0
 62
     2
  5
2D8
 10
315.191362
 20
453.784291
 30
0.0
 11
315.992888
 21
454.585817
 31
0.0
  0
ENDBLK
  8
0
  5
2D9
  0
BLOCK
  8
0
  5
2F5
  2
*X13
 70
    65
 10
0.0
 20
0.0
 30
0.0
  3
*X13
  0
LINE
  8
LC-003-005-----0
 62
     2
  5
2F6
 10
581.959623
 20
460.337256
 30
0.0
 11
583.398036
 21
461.77567
 31
0.0
  0
LINE
  8
LC-003-005-----0
 62
     2
  5
2F7
 10
579.131258
 20
460.337319
 30
0.0
 11
582.040894
 21
463.246955
 31
0.0
  0
LINE
  8
LC-003-005-----0
 62
     2
  5
2F8
 10
576.302893
 20
460.337381
 30
0.0
 11
579.302827
 21
463.337315
 31
0.0
  0
LINE
  8
LC-003-005-----0
 62
     2
  5
2F9
 10
573.474529
 20
460.337444
 30
0.0
 11
576.474462
 21
463.337377
 31
0.0
  0
LINE
  8
LC-003-005-----0
 62
     2
  5
2FA
 10
570.646164
 20
460.337506
 30
0.0
 11
573.646098
 21
463.33744
 31
0.0
  0
LINE
  8
LC-003-005-----0
 62
     2
  5
2FB
 10
567.817799
 20
460.337568
 30
0.0
 11
570.817733
 21
463.337502
 31
0.0
  0
LINE
  8
LC-003-005-----0
 62
     2
  5
2FC
 10
564.989435
 20
460.337631
 30
0.0
 11
567.989368
 21
463.337565
 31
0.0
  0
LINE
  8
LC-003-005-----0
 62
     2
  5
2FD
 10
562.16107
 20
460.337693
 30
0.0
 11
565.161004
 21
463.337627
 31
0.0
  0
LINE
  8
LC-003-005-----0
 62
     2
  5
2FE
 10
559.332705
 20
460.337756
 30
0.0
 11
562.332639
 21
463.33769
 31
0.0
  0
LINE
  8
LC-003-005-----0
 62
     2
  5
2FF
 10
556.504341
 20
460.337818
 30
0.0
 11
559.504274
 21
463.337752
 31
0.0
  0
LINE
  8
LC-003-005-----0
 62
     2
  5
300
 10
553.675976
 20
460.337881
 30
0.0
 11
556.67591
 21
463.337814
 31
0.0
  0
LINE
  8
LC-003-005-----0
 62
     2
  5
301
 10
550.847611
 20
460.337943
 30
0.0
 11
553.847545
 21
463.337877
 31
0.0
  0
LINE
  8
LC-003-005-----0
 62
     2
  5
302
 10
548.019246
 20
460.338006
 30
0.0
 11
551.01918
 21
463.337939
 31
0.0
  0
LINE
  8
LC-003-005-----0
 62
     2
  5
303
 10
545.190882
 20
460.338068
 30
0.0
 11
548.190816
 21
463.338002
 31
0.0
  0
LINE
  8
LC-003-005-----0
 62
     2
  5
304
 10
542.362517
 20
460.33813
 30
0.0
 11
545.362451
 21
463.338064
 31
0.0
  0
LINE
  8
LC-003-005-----0
 62
     2
  5
305
 10
539.534152
 20
460.338193
 30
0.0
 11
542.534086
 21
463.338127
 31
0.0
  0
LINE
  8
LC-003-005-----0
 62
     2
  5
306
 10
536.705788
 20
460.338255
 30
0.0
 11
539.705722
 21
463.338189
 31
0.0
  0
LINE
  8
LC-003-005-----0
 62
     2
  5
307
 10
533.396838
 20
459.857733
 30
0.0
 11
536.877357
 21
463.338252
 31
0.0
  0
LINE
  8
LC-003-005-----0
 62
     2
  5
308
 10
528.950043
 20
458.239365
 30
0.0
 11
533.96923
 21
463.258552
 31
0.0
  0
LINE
  8
LC-003-005-----0
 62
     2
  5
309
 10
504.221211
 20
436.33896
 30
0.0
 11
506.451282
 21
438.569031
 31
0.0
  0
LINE
  8
LC-003-005-----0
 62
     2
  5
30A
 10
524.503248
 20
456.620997
 30
0.0
 11
529.522435
 21
461.640184
 31
0.0
  0
LINE
  8
LC-003-005-----0
 62
     2
  5
30B
 10
503.199816
 20
438.145992
 30
0.0
 11
506.451361
 21
441.397538
 31
0.0
  0
LINE
  8
LC-003-005-----0
 62
     2
  5
30C
 10
520.056453
 20
455.002629
 30
0.0
 11
525.07564
 21
460.021816
 31
0.0
  0
LINE
  8
LC-003-005-----0
 62
     2
  5
30D
 10
503.200149
 20
440.974753
 30
0.0
 11
506.451441
 21
444.226044
 31
0.0
  0
LINE
  8
LC-003-005-----0
 62
     2
  5
30E
 10
515.609657
 20
453.38426
 30
0.0
 11
520.628845
 21
458.403448
 31
0.0
  0
LINE
  8
LC-003-005-----0
 62
     2
  5
30F
 10
503.200482
 20
443.803513
 30
0.0
 11
506.45152
 21
447.05455
 31
0.0
  0
LINE
  8
LC-003-005-----0
 62
     2
  5
310
 10
511.162862
 20
451.765892
 30
0.0
 11
516.182049
 21
456.78508
 31
0.0
  0
LINE
  8
LC-003-005-----0
 62
     2
  5
311
 10
503.200815
 20
446.632273
 30
0.0
 11
506.451599
 21
449.883057
 31
0.0
  0
LINE
  8
LC-003-005-----0
 62
     2
  5
312
 10
508.149025
 20
451.580482
 30
0.0
 11
511.735254
 21
455.166712
 31
0.0
  0
LINE
  8
LC-003-005-----0
 62
     2
  5
313
 10
503.201149
 20
449.461033
 30
0.0
 11
508.322679
 21
454.582564
 31
0.0
  0
LINE
  8
LC-003-005-----0
 62
     2
  5
314
 10
503.201482
 20
452.289793
 30
0.0
 11
505.493428
 21
454.58174
 31
0.0
  0
LINE
  8
LC-003-005-----0
 62
     2
  5
315
 10
309.06405
 20
436.343271
 30
0.0
 11
309.692599
 21
436.97182
 31
0.0
  0
LINE
  8
LC-003-005-----0
 62
     2
  5
316
 10
306.500036
 20
436.607683
 30
0.0
 11
309.692391
 21
439.800039
 31
0.0
  0
LINE
  8
LC-003-005-----0
 62
     2
  5
317
 10
306.441078
 20
439.377153
 30
0.0
 11
309.692183
 21
442.628258
 31
0.0
  0
LINE
  8
LC-003-005-----0
 62
     2
  5
318
 10
306.441124
 20
442.205626
 30
0.0
 11
309.691975
 21
445.456477
 31
0.0
  0
LINE
  8
LC-003-005-----0
 62
     2
  5
319
 10
306.44117
 20
445.034099
 30
0.0
 11
309.691767
 21
448.284696
 31
0.0
  0
LINE
  8
LC-003-005-----0
 62
     2
  5
31A
 10
306.441215
 20
447.862572
 30
0.0
 11
309.691559
 21
451.112915
 31
0.0
  0
LINE
  8
LC-003-005-----0
 62
     2
  5
31B
 10
306.388289
 20
450.638073
 30
0.0
 11
309.691351
 21
453.941134
 31
0.0
  0
LINE
  8
LC-003-005-----0
 62
     2
  5
31C
 10
304.506745
 20
451.584956
 30
0.0
 11
307.507866
 21
454.586077
 31
0.0
  0
LINE
  8
LC-003-005-----0
 62
     2
  5
31D
 10
301.828171
 20
451.734808
 30
0.0
 11
304.680388
 21
454.587026
 31
0.0
  0
LINE
  8
LC-003-005-----0
 62
     2
  5
31E
 10
299.754529
 20
452.489594
 30
0.0
 11
302.095128
 21
454.830192
 31
0.0
  0
LINE
  8
LC-003-005-----0
 62
     2
  5
31F
 10
297.680887
 20
453.244379
 30
0.0
 11
300.021486
 21
455.584978
 31
0.0
  0
LINE
  8
LC-003-005-----0
 62
     2
  5
320
 10
295.607246
 20
453.999165
 30
0.0
 11
297.947844
 21
456.339763
 31
0.0
  0
LINE
  8
LC-003-005-----0
 62
     2
  5
321
 10
293.533604
 20
454.75395
 30
0.0
 11
295.874203
 21
457.094549
 31
0.0
  0
LINE
  8
LC-003-005-----0
 62
     2
  5
322
 10
291.459962
 20
455.508736
 30
0.0
 11
293.800561
 21
457.849334
 31
0.0
  0
LINE
  8
LC-003-005-----0
 62
     2
  5
323
 10
289.386321
 20
456.263521
 30
0.0
 11
291.72692
 21
458.60412
 31
0.0
  0
LINE
  8
LC-003-005-----0
 62
     2
  5
324
 10
287.312679
 20
457.018307
 30
0.0
 11
289.653278
 21
459.358905
 31
0.0
  0
LINE
  8
LC-003-005-----0
 62
     2
  5
325
 10
285.239038
 20
457.773092
 30
0.0
 11
287.579636
 21
460.113691
 31
0.0
  0
LINE
  8
LC-003-005-----0
 62
     2
  5
326
 10
283.165396
 20
458.527878
 30
0.0
 11
285.505995
 21
460.868476
 31
0.0
  0
LINE
  8
LC-003-005-----0
 62
     2
  5
327
 10
281.091754
 20
459.282663
 30
0.0
 11
283.432353
 21
461.623262
 31
0.0
  0
LINE
  8
LC-003-005-----0
 62
     2
  5
328
 10
279.018113
 20
460.037449
 30
0.0
 11
281.358711
 21
462.378047
 31
0.0
  0
LINE
  8
LC-003-005-----0
 62
     2
  5
329
 10
276.496237
 20
460.344001
 30
0.0
 11
279.28507
 21
463.132833
 31
0.0
  0
LINE
  8
LC-003-005-----0
 62
     2
  5
32A
 10
273.667873
 20
460.344063
 30
0.0
 11
276.667807
 21
463.343997
 31
0.0
  0
LINE
  8
LC-003-005-----0
 62
     2
  5
32B
 10
270.839508
 20
460.344125
 30
0.0
 11
273.839442
 21
463.344059
 31
0.0
  0
LINE
  8
LC-003-005-----0
 62
     2
  5
32C
 10
268.011143
 20
460.344188
 30
0.0
 11
271.011077
 21
463.344122
 31
0.0
  0
LINE
  8
LC-003-005-----0
 62
     2
  5
32D
 10
265.182779
 20
460.34425
 30
0.0
 11
268.182712
 21
463.344184
 31
0.0
  0
LINE
  8
LC-003-005-----0
 62
     2
  5
32E
 10
262.354414
 20
460.344313
 30
0.0
 11
265.354348
 21
463.344247
 31
0.0
  0
LINE
  8
LC-003-005-----0
 62
     2
  5
32F
 10
259.526049
 20
460.344375
 30
0.0
 11
262.525983
 21
463.344309
 31
0.0
  0
LINE
  8
LC-003-005-----0
 62
     2
  5
330
 10
256.697685
 20
460.344438
 30
0.0
 11
259.697618
 21
463.344371
 31
0.0
  0
LINE
  8
LC-003-005-----0
 62
     2
  5
331
 10
253.86932
 20
460.3445
 30
0.0
 11
256.869254
 21
463.344434
 31
0.0
  0
LINE
  8
LC-003-005-----0
 62
     2
  5
332
 10
251.040955
 20
460.344563
 30
0.0
 11
254.040889
 21
463.344496
 31
0.0
  0
LINE
  8
LC-003-005-----0
 62
     2
  5
333
 10
248.212591
 20
460.344625
 30
0.0
 11
251.212524
 21
463.344559
 31
0.0
  0
LINE
  8
LC-003-005-----0
 62
     2
  5
334
 10
245.384226
 20
460.344687
 30
0.0
 11
248.38416
 21
463.344621
 31
0.0
  0
LINE
  8
LC-003-005-----0
 62
     2
  5
335
 10
242.555861
 20
460.34475
 30
0.0
 11
245.555795
 21
463.344684
 31
0.0
  0
LINE
  8
LC-003-005-----0
 62
     2
  5
336
 10
239.727497
 20
460.344812
 30
0.0
 11
242.72743
 21
463.344746
 31
0.0
  0
LINE
  8
LC-003-005-----0
 62
     2
  5
337
 10
236.899132
 20
460.344875
 30
0.0
 11
239.899066
 21
463.344809
 31
0.0
  0
LINE
  8
LC-003-005-----0
 62
     2
  5
338
 10
234.070767
 20
460.344937
 30
0.0
 11
237.070701
 21
463.344871
 31
0.0
  0
LINE
  8
LC-003-005-----0
 62
     2
  5
339
 10
231.242403
 20
460.345
 30
0.0
 11
234.242336
 21
463.344933
 31
0.0
  0
LINE
  8
LC-003-005-----0
 62
     2
  5
33A
 10
229.446948
 20
461.377973
 30
0.0
 11
231.413699
 21
463.344723
 31
0.0
  0
ENDBLK
  8
0
  5
33B
  0
BLOCK
  8
0
  5
381
  2
*X14
 70
    65
 10
0.0
 20
0.0
 30
0.0
  3
*X14
  0
LINE
  8
LC-003-005-----0
 62
     2
  5
382
 10
343.937515
 20
351.855558
 30
0.0
 11
341.451794
 21
354.341279
 31
0.0
  0
LINE
  8
LC-003-005-----0
 62
     2
  5
383
 10
343.937515
 20
340.541849
 30
0.0
 11
342.467359
 21
342.012005
 31
0.0
  0
LINE
  8
LC-003-005-----0
 62
     2
  5
384
 10
331.807059
 20
352.672305
 30
0.0
 11
330.138085
 21
354.341279
 31
0.0
  0
LINE
  8
LC-003-005-----0
 62
     2
  5
385
 10
343.937515
 20
334.884995
 30
0.0
 11
342.937515
 21
335.884995
 31
0.0
  0
LINE
  8
LC-003-005-----0
 62
     2
  5
386
 10
339.058677
 20
339.763833
 30
0.0
 11
336.811397
 21
342.011113
 31
0.0
  0
LINE
  8
LC-003-005-----0
 62
     2
  5
387
 10
343.937515
 20
323.571287
 30
0.0
 11
342.937515
 21
324.571287
 31
0.0
  0
LINE
  8
LC-003-005-----0
 62
     2
  5
388
 10
340.16322
 20
327.345581
 30
0.0
 11
337.827854
 21
329.680948
 31
0.0
  0
LINE
  8
LC-003-005-----0
 62
     2
  5
389
 10
343.937515
 20
317.914432
 30
0.0
 11
342.937515
 21
318.914432
 31
0.0
  0
LINE
  8
LC-003-005-----0
 62
     2
  5
38A
 10
334.016145
 20
327.835802
 30
0.0
 11
332.170999
 21
329.680948
 31
0.0
  0
LINE
  8
LC-003-005-----0
 62
     2
  5
38B
 10
343.937515
 20
306.600724
 30
0.0
 11
342.937515
 21
307.600724
 31
0.0
  0
LINE
  8
LC-003-005-----0
 62
     2
  5
38C
 10
335.120688
 20
315.417551
 30
0.0
 11
333.187457
 21
317.350782
 31
0.0
  0
LINE
  8
LC-003-005-----0
 62
     2
  5
38D
 10
343.937515
 20
300.94387
 30
0.0
 11
342.72797
 21
302.153414
 31
0.0
  0
LINE
  8
LC-003-005-----0
 62
     2
  5
38E
 10
342.550035
 20
302.33135
 30
0.0
 11
339.860768
 21
305.020616
 31
0.0
  0
LINE
  8
LC-003-005-----0
 62
     2
  5
38F
 10
328.973613
 20
315.907771
 30
0.0
 11
327.53421
 21
317.347174
 31
0.0
  0
LINE
  8
LC-003-005-----0
 62
     2
  5
390
 10
343.937515
 20
289.630161
 30
0.0
 11
340.877225
 21
292.690451
 31
0.0
  0
LINE
  8
LC-003-005-----0
 62
     2
  5
391
 10
330.078156
 20
303.48952
 30
0.0
 11
328.54706
 21
305.020616
 31
0.0
  0
LINE
  8
LC-003-005-----0
 62
     2
  5
392
 10
343.937515
 20
283.973307
 30
0.0
 11
342.937515
 21
284.973307
 31
0.0
  0
LINE
  8
LC-003-005-----0
 62
     2
  5
393
 10
337.329774
 20
290.581048
 30
0.0
 11
335.220371
 21
292.690451
 31
0.0
  0
LINE
  8
LC-003-005-----0
 62
     2
  5
394
 10
343.937515
 20
272.659598
 30
0.0
 11
342.937515
 21
273.659598
 31
0.0
  0
LINE
  8
LC-003-005-----0
 62
     2
  5
395
 10
338.434317
 20
278.162796
 30
0.0
 11
336.236828
 21
280.360285
 31
0.0
  0
LINE
  8
LC-003-005-----0
 62
     2
  5
396
 10
343.937515
 20
267.002744
 30
0.0
 11
342.777115
 21
268.163143
 31
0.0
  0
LINE
  8
LC-003-005-----0
 62
     2
  5
397
 10
332.287242
 20
278.653017
 30
0.0
 11
330.579974
 21
280.360285
 31
0.0
  0
LINE
  8
LC-003-005-----0
 62
     2
  5
398
 10
343.937515
 20
255.689036
 30
0.0
 11
342.937515
 21
256.689036
 31
0.0
  0
LINE
  8
LC-003-005-----0
 62
     2
  5
399
 10
333.391785
 20
266.234766
 30
0.0
 11
331.596431
 21
268.030119
 31
0.0
  0
LINE
  8
LC-003-005-----0
 62
     2
  5
39A
 10
343.937515
 20
250.032181
 30
0.0
 11
342.937515
 21
251.032181
 31
0.0
  0
LINE
  8
LC-003-005-----0
 62
     2
  5
39B
 10
340.643403
 20
253.326294
 30
0.0
 11
338.269742
 21
255.699954
 31
0.0
  0
LINE
  8
LC-003-005-----0
 62
     2
  5
39C
 10
343.937515
 20
238.718473
 30
0.0
 11
342.937515
 21
239.718473
 31
0.0
  0
LINE
  8
LC-003-005-----0
 62
     2
  5
39D
 10
341.747946
 20
240.908042
 30
0.0
 11
339.2862
 21
243.369788
 31
0.0
  0
LINE
  8
LC-003-005-----0
 62
     2
  5
39E
 10
328.349253
 20
254.306735
 30
0.0
 11
327.141909
 21
255.514079
 31
0.0
  0
LINE
  8
LC-003-005-----0
 62
     2
  5
39F
 10
343.937515
 20
233.061619
 30
0.0
 11
342.937515
 21
234.061619
 31
0.0
  0
LINE
  8
LC-003-005-----0
 62
     2
  5
3A0
 10
335.600871
 20
241.398263
 30
0.0
 11
333.629345
 21
243.369788
 31
0.0
  0
LINE
  8
LC-003-005-----0
 62
     2
  5
3A1
 10
343.937515
 20
221.74791
 30
0.0
 11
342.937515
 21
222.74791
 31
0.0
  0
LINE
  8
LC-003-005-----0
 62
     2
  5
3A2
 10
336.705414
 20
228.980011
 30
0.0
 11
334.645803
 21
231.039622
 31
0.0
  0
LINE
  8
LC-003-005-----0
 62
     2
  5
3A3
 10
343.937515
 20
216.091056
 30
0.0
 11
341.319114
 21
218.709457
 31
0.0
  0
LINE
  8
LC-003-005-----0
 62
     2
  5
3A4
 10
330.558339
 20
229.470232
 30
0.0
 11
328.988948
 21
231.039622
 31
0.0
  0
LINE
  8
LC-003-005-----0
 62
     2
  5
3A5
 10
343.937515
 20
204.777347
 30
0.0
 11
342.335571
 21
206.379291
 31
0.0
  0
LINE
  8
LC-003-005-----0
 62
     2
  5
3A6
 10
331.662881
 20
217.051981
 30
0.0
 11
330.005405
 21
218.709457
 31
0.0
  0
LINE
  8
LC-003-005-----0
 62
     2
  5
3A7
 10
343.937515
 20
199.120493
 30
0.0
 11
342.937515
 21
200.120493
 31
0.0
  0
LINE
  8
LC-003-005-----0
 62
     2
  5
3A8
 10
338.914499
 20
204.143509
 30
0.0
 11
336.678717
 21
206.379291
 31
0.0
  0
LINE
  8
LC-003-005-----0
 62
     2
  5
3A9
 10
343.937515
 20
187.806785
 30
0.0
 11
342.937515
 21
188.806785
 31
0.0
  0
LINE
  8
LC-003-005-----0
 62
     2
  5
3AA
 10
340.019042
 20
191.725257
 30
0.0
 11
337.695174
 21
194.049125
 31
0.0
  0
LINE
  8
LC-003-005-----0
 62
     2
  5
3AB
 10
343.937515
 20
182.14993
 30
0.0
 11
342.937515
 21
183.14993
 31
0.0
  0
LINE
  8
LC-003-005-----0
 62
     2
  5
3AC
 10
333.871967
 20
192.215478
 30
0.0
 11
332.03832
 21
194.049125
 31
0.0
  0
LINE
  8
LC-003-005-----0
 62
     2
  5
3AD
 10
343.937515
 20
170.836222
 30
0.0
 11
342.937515
 21
171.836222
 31
0.0
  0
LINE
  8
LC-003-005-----0
 62
     2
  5
3AE
 10
334.97651
 20
179.797226
 30
0.0
 11
333.054777
 21
181.71896
 31
0.0
  0
LINE
  8
LC-003-005-----0
 62
     2
  5
3AF
 10
343.937515
 20
165.179368
 30
0.0
 11
342.883448
 21
166.233435
 31
0.0
  0
LINE
  8
LC-003-005-----0
 62
     2
  5
3B0
 10
342.261877
 20
166.855005
 30
0.0
 11
339.728088
 21
169.388794
 31
0.0
  0
LINE
  8
LC-003-005-----0
 62
     2
  5
3B1
 10
328.829435
 20
180.287447
 30
0.0
 11
327.42287
 21
181.694013
 31
0.0
  0
LINE
  8
LC-003-005-----0
 62
     2
  5
3B2
 10
343.937515
 20
153.865659
 30
0.0
 11
340.744546
 21
157.058628
 31
0.0
  0
LINE
  8
LC-003-005-----0
 62
     2
  5
3B3
 10
329.933978
 20
167.869196
 30
0.0
 11
328.41438
 21
169.388794
 31
0.0
  0
LINE
  8
LC-003-005-----0
 62
     2
  5
3B4
 10
343.937515
 20
148.208805
 30
0.0
 11
342.937515
 21
149.208805
 31
0.0
  0
LINE
  8
LC-003-005-----0
 62
     2
  5
3B5
 10
337.185596
 20
154.960724
 30
0.0
 11
335.087691
 21
157.058628
 31
0.0
  0
LINE
  8
LC-003-005-----0
 62
     2
  5
3B6
 10
343.937515
 20
136.895096
 30
0.0
 11
342.937515
 21
137.895096
 31
0.0
  0
LINE
  8
LC-003-005-----0
 62
     2
  5
3B7
 10
338.290139
 20
142.542472
 30
0.0
 11
336.104148
 21
144.728463
 31
0.0
  0
LINE
  8
LC-003-005-----0
 62
     2
  5
3B8
 10
343.937515
 20
131.238242
 30
0.0
 11
342.701864
 21
132.473893
 31
0.0
  0
LINE
  8
LC-003-005-----0
 62
     2
  5
3B9
 10
332.143064
 20
143.032693
 30
0.0
 11
330.447294
 21
144.728463
 31
0.0
  0
LINE
  8
LC-003-005-----0
 62
     2
  5
3BA
 10
333.247607
 20
130.614441
 30
0.0
 11
331.463751
 21
132.398297
 31
0.0
  0
ENDBLK
  8
0
  5
3BB
  0
BLOCK
  8
0
  5
410
  2
*X15
 70
    65
 10
0.0
 20
0.0
 30
0.0
  3
*X15
  0
LINE
  8
LC-003-005-----0
 62
     2
  5
411
 10
479.046481
 20
352.511094
 30
0.0
 11
477.216296
 21
354.341279
 31
0.0
  0
LINE
  8
LC-003-005-----0
 62
     2
  5
412
 10
485.226911
 20
340.673809
 30
0.0
 11
483.889607
 21
342.011113
 31
0.0
  0
LINE
  8
LC-003-005-----0
 62
     2
  5
413
 10
473.807433
 20
352.093287
 30
0.0
 11
471.559441
 21
354.341279
 31
0.0
  0
LINE
  8
LC-003-005-----0
 62
     2
  5
414
 10
485.868069
 20
328.718942
 30
0.0
 11
484.906064
 21
329.680948
 31
0.0
  0
LINE
  8
LC-003-005-----0
 62
     2
  5
415
 10
474.748816
 20
339.838196
 30
0.0
 11
472.575899
 21
342.011113
 31
0.0
  0
LINE
  8
LC-003-005-----0
 62
     2
  5
416
 10
469.937515
 20
344.649497
 30
0.0
 11
468.937515
 21
345.649497
 31
0.0
  0
LINE
  8
LC-003-005-----0
 62
     2
  5
417
 10
480.929247
 20
328.000911
 30
0.0
 11
479.24921
 21
329.680948
 31
0.0
  0
LINE
  8
LC-003-005-----0
 62
     2
  5
418
 10
470.014353
 20
338.915804
 30
0.0
 11
468.937515
 21
339.992643
 31
0.0
  0
LINE
  8
LC-003-005-----0
 62
     2
  5
419
 10
481.87063
 20
315.745819
 30
0.0
 11
480.265667
 21
317.350782
 31
0.0
  0
LINE
  8
LC-003-005-----0
 62
     2
  5
41A
 10
470.510825
 20
327.105624
 30
0.0
 11
468.937515
 21
328.678934
 31
0.0
  0
LINE
  8
LC-003-005-----0
 62
     2
  5
41B
 10
476.631583
 20
315.328012
 30
0.0
 11
474.608813
 21
317.350782
 31
0.0
  0
LINE
  8
LC-003-005-----0
 62
     2
  5
41C
 10
469.937515
 20
322.02208
 30
0.0
 11
468.937515
 21
323.02208
 31
0.0
  0
LINE
  8
LC-003-005-----0
 62
     2
  5
41D
 10
477.572966
 20
303.072921
 30
0.0
 11
475.62527
 21
305.020616
 31
0.0
  0
LINE
  8
LC-003-005-----0
 62
     2
  5
41E
 10
469.937515
 20
310.708372
 30
0.0
 11
468.937515
 21
311.708372
 31
0.0
  0
LINE
  8
LC-003-005-----0
 62
     2
  5
41F
 10
483.753396
 20
291.235636
 30
0.0
 11
482.298581
 21
292.690451
 31
0.0
  0
LINE
  8
LC-003-005-----0
 62
     2
  5
420
 10
472.333918
 20
302.655114
 30
0.0
 11
468.937515
 21
306.051517
 31
0.0
  0
LINE
  8
LC-003-005-----0
 62
     2
  5
421
 10
484.69478
 20
278.980544
 30
0.0
 11
483.315039
 21
280.360285
 31
0.0
  0
LINE
  8
LC-003-005-----0
 62
     2
  5
422
 10
473.275302
 20
290.400022
 30
0.0
 11
470.984873
 21
292.690451
 31
0.0
  0
LINE
  8
LC-003-005-----0
 62
     2
  5
423
 10
469.937515
 20
293.737809
 30
0.0
 11
468.937515
 21
294.737809
 31
0.0
  0
LINE
  8
LC-003-005-----0
 62
     2
  5
424
 10
479.455732
 20
278.562737
 30
0.0
 11
477.658184
 21
280.360285
 31
0.0
  0
LINE
  8
LC-003-005-----0
 62
     2
  5
425
 10
469.937515
 20
288.080955
 30
0.0
 11
468.937515
 21
289.080955
 31
0.0
  0
LINE
  8
LC-003-005-----0
 62
     2
  5
426
 10
480.397115
 20
266.307646
 30
0.0
 11
478.674642
 21
268.030119
 31
0.0
  0
LINE
  8
LC-003-005-----0
 62
     2
  5
427
 10
469.937515
 20
276.767246
 30
0.0
 11
468.937515
 21
277.767246
 31
0.0
  0
LINE
  8
LC-003-005-----0
 62
     2
  5
428
 10
485.932528
 20
255.115379
 30
0.0
 11
485.35294
 21
255.694967
 31
0.0
  0
LINE
  8
LC-003-005-----0
 62
     2
  5
429
 10
475.158068
 20
265.889839
 30
0.0
 11
473.017787
 21
268.030119
 31
0.0
  0
LINE
  8
LC-003-005-----0
 62
     2
  5
42A
 10
469.937515
 20
271.110392
 30
0.0
 11
468.937515
 21
272.110392
 31
0.0
  0
LINE
  8
LC-003-005-----0
 62
     2
  5
42B
 10
476.099451
 20
253.634747
 30
0.0
 11
474.034244
 21
255.699954
 31
0.0
  0
LINE
  8
LC-003-005-----0
 62
     2
  5
42C
 10
469.937515
 20
259.796683
 30
0.0
 11
468.937515
 21
260.796683
 31
0.0
  0
LINE
  8
LC-003-005-----0
 62
     2
  5
42D
 10
482.279882
 20
241.797462
 30
0.0
 11
480.707556
 21
243.369788
 31
0.0
  0
LINE
  8
LC-003-005-----0
 62
     2
  5
42E
 10
470.860404
 20
253.21694
 30
0.0
 11
468.937515
 21
255.139829
 31
0.0
  0
LINE
  8
LC-003-005-----0
 62
     2
  5
42F
 10
483.221265
 20
229.542371
 30
0.0
 11
481.724013
 21
231.039622
 31
0.0
  0
LINE
  8
LC-003-005-----0
 62
     2
  5
430
 10
471.801787
 20
240.961849
 30
0.0
 11
468.937515
 21
243.826121
 31
0.0
  0
LINE
  8
LC-003-005-----0
 62
     2
  5
431
 10
477.982217
 20
229.124564
 30
0.0
 11
476.067159
 21
231.039622
 31
0.0
  0
LINE
  8
LC-003-005-----0
 62
     2
  5
432
 10
469.937515
 20
237.169266
 30
0.0
 11
468.937515
 21
238.169266
 31
0.0
  0
LINE
  8
LC-003-005-----0
 62
     2
  5
433
 10
478.9236
 20
216.869472
 30
0.0
 11
477.083616
 21
218.709457
 31
0.0
  0
LINE
  8
LC-003-005-----0
 62
     2
  5
434
 10
469.937515
 20
225.855558
 30
0.0
 11
468.937515
 21
226.855558
 31
0.0
  0
LINE
  8
LC-003-005-----0
 62
     2
  5
435
 10
485.104031
 20
205.032187
 30
0.0
 11
483.756927
 21
206.379291
 31
0.0
  0
LINE
  8
LC-003-005-----0
 62
     2
  5
436
 10
473.684553
 20
216.451665
 30
0.0
 11
471.426762
 21
218.709457
 31
0.0
  0
LINE
  8
LC-003-005-----0
 62
     2
  5
437
 10
469.937515
 20
220.198704
 30
0.0
 11
468.937515
 21
221.198704
 31
0.0
  0
LINE
  8
LC-003-005-----0
 62
     2
  5
438
 10
485.818799
 20
193.003711
 30
0.0
 11
484.773385
 21
194.049125
 31
0.0
  0
LINE
  8
LC-003-005-----0
 62
     2
  5
439
 10
474.625936
 20
204.196574
 30
0.0
 11
472.443219
 21
206.379291
 31
0.0
  0
LINE
  8
LC-003-005-----0
 62
     2
  5
43A
 10
469.937515
 20
208.884995
 30
0.0
 11
468.937515
 21
209.884995
 31
0.0
  0
LINE
  8
LC-003-005-----0
 62
     2
  5
43B
 10
480.806367
 20
192.359289
 30
0.0
 11
479.11653
 21
194.049125
 31
0.0
  0
LINE
  8
LC-003-005-----0
 62
     2
  5
43C
 10
469.979469
 20
203.186186
 30
0.0
 11
468.937515
 21
204.228141
 31
0.0
  0
LINE
  8
LC-003-005-----0
 62
     2
  5
43D
 10
481.74775
 20
180.104197
 30
0.0
 11
480.132987
 21
181.71896
 31
0.0
  0
LINE
  8
LC-003-005-----0
 62
     2
  5
43E
 10
470.42429
 20
191.427658
 30
0.0
 11
468.937515
 21
192.914432
 31
0.0
  0
LINE
  8
LC-003-005-----0
 62
     2
  5
43F
 10
476.508702
 20
179.68639
 30
0.0
 11
474.476133
 21
181.71896
 31
0.0
  0
LINE
  8
LC-003-005-----0
 62
     2
  5
440
 10
469.937515
 20
186.257578
 30
0.0
 11
468.937515
 21
187.257578
 31
0.0
  0
LINE
  8
LC-003-005-----0
 62
     2
  5
441
 10
477.450086
 20
167.431299
 30
0.0
 11
475.49259
 21
169.388794
 31
0.0
  0
LINE
  8
LC-003-005-----0
 62
     2
  5
442
 10
469.937515
 20
174.94387
 30
0.0
 11
468.937515
 21
175.94387
 31
0.0
  0
LINE
  8
LC-003-005-----0
 62
     2
  5
443
 10
483.630516
 20
155.594014
 30
0.0
 11
482.165902
 21
157.058628
 31
0.0
  0
LINE
  8
LC-003-005-----0
 62
     2
  5
444
 10
472.211038
 20
167.013492
 30
0.0
 11
468.937515
 21
170.287015
 31
0.0
  0
LINE
  8
LC-003-005-----0
 62
     2
  5
445
 10
484.571899
 20
143.338922
 30
0.0
 11
483.182359
 21
144.728463
 31
0.0
  0
LINE
  8
LC-003-005-----0
 62
     2
  5
446
 10
473.152421
 20
154.7584
 30
0.0
 11
470.852193
 21
157.058628
 31
0.0
  0
LINE
  8
LC-003-005-----0
 62
     2
  5
447
 10
469.937515
 20
157.973307
 30
0.0
 11
468.937515
 21
158.973307
 31
0.0
  0
LINE
  8
LC-003-005-----0
 62
     2
  5
448
 10
479.332852
 20
142.921115
 30
0.0
 11
477.525505
 21
144.728463
 31
0.0
  0
LINE
  8
LC-003-005-----0
 62
     2
  5
449
 10
469.937515
 20
152.316453
 30
0.0
 11
468.937515
 21
153.316453
 31
0.0
  0
LINE
  8
LC-003-005-----0
 62
     2
  5
44A
 10
480.274235
 20
130.666024
 30
0.0
 11
478.541962
 21
132.398297
 31
0.0
  0
LINE
  8
LC-003-005-----0
 62
     2
  5
44B
 10
469.937515
 20
141.002744
 30
0.0
 11
468.937515
 21
142.002744
 31
0.0
  0
LINE
  8
LC-003-005-----0
 62
     2
  5
44C
 10
475.035188
 20
130.248217
 30
0.0
 11
472.885108
 21
132.398297
 31
0.0
  0
LINE
  8
LC-003-005-----0
 62
     2
  5
44D
 10
469.937515
 20
135.34589
 30
0.0
 11
468.937515
 21
136.34589
 31
0.0
  0
ENDBLK
  8
0
  5
44E
  0
BLOCK
  8
0
  5
4EB
  2
*D16
 70
    65
 10
0.0
 20
0.0
 30
0.0
  3
*D16
  0
LINE
  8
LC-007-003-MTH-0
 62
     2
  5
4ED
 10
465.939103
 20
118.339818
 30
0.0
 11
556.8
 21
118.339818
 31
0.0
  0
LINE
  8
LC-007-003-MTH-0
 62
     2
  5
4EE
 10
485.271596
 20
354.341279
 30
0.0
 11
556.8
 21
354.341279
 31
0.0
  0
LINE
  8
LC-008-003-MTG-0
 62
     2
  5
4F0
 10
540.0
 20
118.339818
 30
0.0
 11
540.0
 21
205.076015
 31
0.0
  0
LINE
  8
LC-008-003-MTG-0
 62
     2
  5
4F1
 10
540.0
 20
282.098948
 30
0.0
 11
540.0
 21
354.341279
 31
0.0
  0
LINE
  8
LC-005-003-----0
 62
     2
  5
4F2
 10
536.345267
 20
146.100274
 30
0.0
 11
540.0
 21
118.339818
 31
0.0
  0
LINE
  8
LC-005-003-----0
 62
     2
  5
4F3
 10
540.0
 20
118.339818
 30
0.0
 11
543.654733
 21
146.100274
 31
0.0
  0
LINE
  8
LC-005-003-----0
 62
     2
  5
4F4
 10
543.654733
 20
146.100274
 30
0.0
 11
536.345267
 21
146.100274
 31
0.0
  0
LINE
  8
LC-005-003-----0
 62
     2
  5
4F5
 10
537.295497
 20
146.162555
 30
0.0
 11
540.0
 21
125.619818
 31
0.0
  0
LINE
  8
LC-005-003-----0
 62
     2
  5
4F6
 10
540.0
 20
125.619818
 30
0.0
 11
542.704503
 21
146.162555
 31
0.0
  0
LINE
  8
LC-005-003-----0
 62
     2
  5
4F7
 10
538.245728
 20
146.224837
 30
0.0
 11
540.0
 21
132.899818
 31
0.0
  0
LINE
  8
LC-005-003-----0
 62
     2
  5
4F8
 10
540.0
 20
132.899818
 30
0.0
 11
541.754272
 21
146.224837
 31
0.0
  0
LINE
  8
LC-005-003-----0
 62
     2
  5
4F9
 10
539.195959
 20
146.287118
 30
0.0
 11
540.0
 21
140.179818
 31
0.0
  0
LINE
  8
LC-005-003-----0
 62
     2
  5
4FA
 10
540.0
 20
140.179818
 30
0.0
 11
540.804041
 21
146.287118
 31
0.0
  0
LINE
  8
LC-005-003-----0
 62
     2
  5
4FB
 10
543.654733
 20
326.580823
 30
0.0
 11
540.0
 21
354.341279
 31
0.0
  0
LINE
  8
LC-005-003-----0
 62
     2
  5
4FC
 10
540.0
 20
354.341279
 30
0.0
 11
536.345267
 21
326.580823
 31
0.0
  0
LINE
  8
LC-005-003-----0
 62
     2
  5
4FD
 10
536.345267
 20
326.580823
 30
0.0
 11
543.654733
 21
326.580823
 31
0.0
  0
LINE
  8
LC-005-003-----0
 62
     2
  5
4FE
 10
542.704503
 20
326.518541
 30
0.0
 11
540.0
 21
347.061279
 31
0.0
  0
LINE
  8
LC-005-003-----0
 62
     2
  5
4FF
 10
540.0
 20
347.061279
 30
0.0
 11
537.295497
 21
326.518541
 31
0.0
  0
LINE
  8
LC-005-003-----0
 62
     2
  5
500
 10
541.754272
 20
326.45626
 30
0.0
 11
540.0
 21
339.781279
 31
0.0
  0
LINE
  8
LC-005-003-----0
 62
     2
  5
501
 10
540.0
 20
339.781279
 30
0.0
 11
538.245728
 21
326.45626
 31
0.0
  0
LINE
  8
LC-005-003-----0
 62
     2
  5
502
 10
540.804041
 20
326.393979
 30
0.0
 11
540.0
 21
332.501279
 31
0.0
  0
LINE
  8
LC-005-003-----0
 62
     2
  5
503
 10
540.0
 20
332.501279
 30
0.0
 11
539.195959
 21
326.393979
 31
0.0
  0
TEXT
  8
LC-005-003-----0
 62
     7
  5
504
 10
532.172446
 20
217.000708
 30
0.0
 40
28.0
  1
236
 50
90.0
 41
0.8
 51
15.0
  7
LCTX15-400-0-0-ARIAL
 72
     1
 11
532.172446
 21
240.688708
 31
0.0
  0
ENDBLK
  8
0
  5
505
  0
BLOCK
  8
0
  5
509
  2
*D17
 70
    65
 10
0.0
 20
0.0
 30
0.0
  3
*D17
  0
LINE
  8
LC-007-003-MTH-0
 62
     2
  5
50A
 10
465.939103
 20
118.339818
 30
0.0
 11
604.802613
 21
118.336752
 31
0.0
  0
LINE
  8
LC-007-003-MTH-0
 62
     2
  5
50B
 10
484.19575
 20
419.388207
 30
0.0
 11
604.80926
 21
419.385544
 31
0.0
  0
LINE
  8
LC-008-003-MTG-0
 62
     2
  5
50C
 10
588.002613
 20
118.337123
 30
0.0
 11
588.005246
 21
237.596985
 31
0.0
  0
LINE
  8
LC-008-003-MTG-0
 62
     2
  5
50D
 10
588.006947
 20
314.619919
 30
0.0
 11
588.00926
 21
419.385915
 31
0.0
  0
LINE
  8
LC-005-003-----0
 62
     2
  5
50E
 10
584.348492
 20
146.09766
 30
0.0
 11
588.002613
 21
118.337123
 31
0.0
  0
LINE
  8
LC-005-003-----0
 62
     2
  5
50F
 10
588.002613
 20
118.337123
 30
0.0
 11
591.657959
 21
146.097498
 31
0.0
  0
LINE
  8
LC-005-003-----0
 62
     2
  5
510
 10
591.657959
 20
146.097498
 30
0.0
 11
584.348492
 21
146.09766
 31
0.0
  0
LINE
  8
LC-005-003-----0
 62
     2
  5
511
 10
585.298724
 20
146.15992
 30
0.0
 11
588.002774
 21
125.617123
 31
0.0
  0
LINE
  8
LC-005-003-----0
 62
     2
  5
512
 10
588.002774
 20
125.617123
 30
0.0
 11
590.70773
 21
146.159801
 31
0.0
  0
LINE
  8
LC-005-003-----0
 62
     2
  5
513
 10
586.248957
 20
146.22218
 30
0.0
 11
588.002934
 21
132.897123
 31
0.0
  0
LINE
  8
LC-005-003-----0
 62
     2
  5
514
 10
588.002934
 20
132.897123
 30
0.0
 11
589.757501
 21
146.222103
 31
0.0
  0
LINE
  8
LC-005-003-----0
 62
     2
  5
515
 10
587.199189
 20
146.284441
 30
0.0
 11
588.003095
 21
140.177123
 31
0.0
  0
LINE
  8
LC-005-003-----0
 62
     2
  5
516
 10
588.003095
 20
140.177123
 30
0.0
 11
588.807271
 21
146.284405
 31
0.0
  0
LINE
  8
LC-005-003-----0
 62
     2
  5
517
 10
591.66338
 20
391.625378
 30
0.0
 11
588.00926
 21
419.385915
 31
0.0
  0
LINE
  8
LC-005-003-----0
 62
     2
  5
518
 10
588.00926
 20
419.385915
 30
0.0
 11
584.353913
 21
391.625539
 31
0.0
  0
LINE
  8
LC-005-003-----0
 62
     2
  5
519
 10
584.353913
 20
391.625539
 30
0.0
 11
591.66338
 21
391.625378
 31
0.0
  0
LINE
  8
LC-005-003-----0
 62
     2
  5
51A
 10
590.713148
 20
391.563118
 30
0.0
 11
588.009099
 21
412.105915
 31
0.0
  0
LINE
  8
LC-005-003-----0
 62
     2
  5
51B
 10
588.009099
 20
412.105915
 30
0.0
 11
585.304143
 21
391.563237
 31
0.0
  0
LINE
  8
LC-005-003-----0
 62
     2
  5
51C
 10
589.762916
 20
391.500857
 30
0.0
 11
588.008938
 21
404.825915
 31
0.0
  0
LINE
  8
LC-005-003-----0
 62
     2
  5
51D
 10
588.008938
 20
404.825915
 30
0.0
 11
586.254372
 21
391.500935
 31
0.0
  0
LINE
  8
LC-005-003-----0
 62
     2
  5
51E
 10
588.812684
 20
391.438597
 30
0.0
 11
588.008778
 21
397.545915
 31
0.0
  0
LINE
  8
LC-005-003-----0
 62
     2
  5
51F
 10
588.008778
 20
397.545915
 30
0.0
 11
587.204601
 21
391.438632
 31
0.0
  0
TEXT
  8
LC-005-003-----0
 62
     7
  5
520
 10
580.177955
 20
249.521852
 30
0.0
 40
28.0
  1
301
 50
89.998735
 41
0.8
 51
15.0
  7
LCTX15-400-0-0-ARIAL
 72
     1
 11
580.178478
 21
273.209852
 31
0.0
  0
ENDBLK
  8
0
  5
521
  0
BLOCK
  8
0
  5
524
  2
*D18
 70
    65
 10
0.0
 20
0.0
 30
0.0
  3
*D18
  0
LINE
  8
LC-007-003-MTH-0
 62
     2
  5
525
 10
465.939103
 20
118.339818
 30
0.0
 11
683.202613
 21
118.335021
 31
0.0
  0
LINE
  8
LC-007-003-MTH-0
 62
     2
  5
526
 10
581.446721
 20
463.337268
 30
0.0
 11
683.21023
 21
463.335021
 31
0.0
  0
LINE
  8
LC-008-003-MTG-0
 62
     2
  5
527
 10
666.402613
 20
118.335392
 30
0.0
 11
666.405731
 21
259.570858
 31
0.0
  0
LINE
  8
LC-008-003-MTG-0
 62
     2
  5
528
 10
666.407432
 20
336.593792
 30
0.0
 11
666.41023
 21
463.335392
 31
0.0
  0
LINE
  8
LC-005-003-----0
 62
     2
  5
529
 10
662.748492
 20
146.095929
 30
0.0
 11
666.402613
 21
118.335392
 31
0.0
  0
LINE
  8
LC-005-003-----0
 62
     2
  5
52A
 10
666.402613
 20
118.335392
 30
0.0
 11
670.057959
 21
146.095767
 31
0.0
  0
LINE
  8
LC-005-003-----0
 62
     2
  5
52B
 10
670.057959
 20
146.095767
 30
0.0
 11
662.748492
 21
146.095929
 31
0.0
  0
LINE
  8
LC-005-003-----0
 62
     2
  5
52C
 10
663.698724
 20
146.158189
 30
0.0
 11
666.402774
 21
125.615392
 31
0.0
  0
LINE
  8
LC-005-003-----0
 62
     2
  5
52D
 10
666.402774
 20
125.615392
 30
0.0
 11
669.10773
 21
146.15807
 31
0.0
  0
LINE
  8
LC-005-003-----0
 62
     2
  5
52E
 10
664.648957
 20
146.220449
 30
0.0
 11
666.402934
 21
132.895392
 31
0.0
  0
LINE
  8
LC-005-003-----0
 62
     2
  5
52F
 10
666.402934
 20
132.895392
 30
0.0
 11
668.157501
 21
146.220372
 31
0.0
  0
LINE
  8
LC-005-003-----0
 62
     2
  5
530
 10
665.599189
 20
146.28271
 30
0.0
 11
666.403095
 21
140.175392
 31
0.0
  0
LINE
  8
LC-005-003-----0
 62
     2
  5
531
 10
666.403095
 20
140.175392
 30
0.0
 11
667.207271
 21
146.282674
 31
0.0
  0
LINE
  8
LC-005-003-----0
 62
     2
  5
532
 10
670.064351
 20
435.574855
 30
0.0
 11
666.41023
 21
463.335392
 31
0.0
  0
LINE
  8
LC-005-003-----0
 62
     2
  5
533
 10
666.41023
 20
463.335392
 30
0.0
 11
662.754884
 21
435.575016
 31
0.0
  0
LINE
  8
LC-005-003-----0
 62
     2
  5
534
 10
662.754884
 20
435.575016
 30
0.0
 11
670.064351
 21
435.574855
 31
0.0
  0
LINE
  8
LC-005-003-----0
 62
     2
  5
535
 10
669.114119
 20
435.512594
 30
0.0
 11
666.410069
 21
456.055392
 31
0.0
  0
LINE
  8
LC-005-003-----0
 62
     2
  5
536
 10
666.410069
 20
456.055392
 30
0.0
 11
663.705113
 21
435.512714
 31
0.0
  0
LINE
  8
LC-005-003-----0
 62
     2
  5
537
 10
668.163886
 20
435.450334
 30
0.0
 11
666.409909
 21
448.775392
 31
0.0
  0
LINE
  8
LC-005-003-----0
 62
     2
  5
538
 10
666.409909
 20
448.775392
 30
0.0
 11
664.655342
 21
435.450411
 31
0.0
  0
LINE
  8
LC-005-003-----0
 62
     2
  5
539
 10
667.213654
 20
435.388074
 30
0.0
 11
666.409748
 21
441.495392
 31
0.0
  0
LINE
  8
LC-005-003-----0
 62
     2
  5
53A
 10
666.409748
 20
441.495392
 30
0.0
 11
665.605572
 21
435.388109
 31
0.0
  0
TEXT
  8
LC-005-003-----0
 62
     7
  5
53B
 10
658.578441
 20
271.495724
 30
0.0
 40
28.0
  1
345
 50
89.998735
 41
0.8
 51
15.0
  7
LCTX15-400-0-0-ARIAL
 72
     1
 11
658.578964
 21
295.183724
 31
0.0
  0
ENDBLK
  8
0
  5
53C
  0
BLOCK
  8
0
  5
547
  2
*D19
 70
    65
 10
0.0
 20
0.0
 30
0.0
  3
*D19
  0
LINE
  8
LC-007-003-MTH-0
 62
     2
  5
548
 10
229.446654
 20
460.345039
 30
0.0
 11
229.446654
 21
556.8
 31
0.0
  0
LINE
  8
LC-007-003-MTH-0
 62
     2
  5
549
 10
583.446654
 20
460.337223
 30
0.0
 11
583.446654
 21
556.8
 31
0.0
  0
LINE
  8
LC-008-003-MTG-0
 62
     2
  5
54A
 10
229.446654
 20
540.0
 30
0.0
 11
583.446654
 21
540.0
 31
0.0
  0
LINE
  8
LC-005-003-----0
 62
     2
  5
54B
 10
257.207111
 20
543.654733
 30
0.0
 11
229.446654
 21
540.0
 31
0.0
  0
LINE
  8
LC-005-003-----0
 62
     2
  5
54C
 10
229.446654
 20
540.0
 30
0.0
 11
257.207111
 21
536.345267
 31
0.0
  0
LINE
  8
LC-005-003-----0
 62
     2
  5
54D
 10
257.207111
 20
536.345267
 30
0.0
 11
257.207111
 21
543.654733
 31
0.0
  0
LINE
  8
LC-005-003-----0
 62
     2
  5
54E
 10
257.269392
 20
542.704503
 30
0.0
 11
236.726654
 21
540.0
 31
0.0
  0
LINE
  8
LC-005-003-----0
 62
     2
  5
54F
 10
236.726654
 20
540.0
 30
0.0
 11
257.269392
 21
537.295497
 31
0.0
  0
LINE
  8
LC-005-003-----0
 62
     2
  5
550
 10
257.331673
 20
541.754272
 30
0.0
 11
244.006654
 21
540.0
 31
0.0
  0
LINE
  8
LC-005-003-----0
 62
     2
  5
551
 10
244.006654
 20
540.0
 30
0.0
 11
257.331673
 21
538.245728
 31
0.0
  0
LINE
  8
LC-005-003-----0
 62
     2
  5
552
 10
257.393955
 20
540.804041
 30
0.0
 11
251.286654
 21
540.0
 31
0.0
  0
LINE
  8
LC-005-003-----0
 62
     2
  5
553
 10
251.286654
 20
540.0
 30
0.0
 11
257.393955
 21
539.195959
 31
0.0
  0
LINE
  8
LC-005-003-----0
 62
     2
  5
554
 10
555.686198
 20
536.345267
 30
0.0
 11
583.446654
 21
540.0
 31
0.0
  0
LINE
  8
LC-005-003-----0
 62
     2
  5
555
 10
583.446654
 20
540.0
 30
0.0
 11
555.686198
 21
543.654733
 31
0.0
  0
LINE
  8
LC-005-003-----0
 62
     2
  5
556
 10
555.686198
 20
543.654733
 30
0.0
 11
555.686198
 21
536.345267
 31
0.0
  0
LINE
  8
LC-005-003-----0
 62
     2
  5
557
 10
555.623917
 20
537.295497
 30
0.0
 11
576.166654
 21
540.0
 31
0.0
  0
LINE
  8
LC-005-003-----0
 62
     2
  5
558
 10
576.166654
 20
540.0
 30
0.0
 11
555.623917
 21
542.704503
 31
0.0
  0
LINE
  8
LC-005-003-----0
 62
     2
  5
559
 10
555.561635
 20
538.245728
 30
0.0
 11
568.886654
 21
540.0
 31
0.0
  0
LINE
  8
LC-005-003-----0
 62
     2
  5
55A
 10
568.886654
 20
540.0
 30
0.0
 11
555.561635
 21
541.754272
 31
0.0
  0
LINE
  8
LC-005-003-----0
 62
     2
  5
55B
 10
555.499354
 20
539.195959
 30
0.0
 11
561.606654
 21
540.0
 31
0.0
  0
LINE
  8
LC-005-003-----0
 62
     2
  5
55C
 10
561.606654
 20
540.0
 30
0.0
 11
555.499354
 21
540.804041
 31
0.0
  0
TEXT
  8
LC-005-003-----0
 62
     7
  5
55D
 10
347.794814
 20
547.827554
 30
0.0
 40
28.0
  1
%%c354
 41
0.9
 51
15.0
  7
LCTX15-400-0-0-ARIAL
 72
     1
 11
410.794814
 21
547.827554
 31
0.0
  0
ENDBLK
  8
0
  5
55E
  0
BLOCK
  8
0
  5
561
  2
*D20
 70
    65
 10
0.0
 20
0.0
 30
0.0
  3
*D20
  0
LINE
  8
LC-007-003-MTH-0
 62
     2
  5
562
 10
336.44575
 20
419.391469
 30
0.0
 11
336.44575
 21
343.2
 31
0.0
  0
LINE
  8
LC-007-003-MTH-0
 62
     2
  5
563
 10
476.44575
 20
419.388378
 30
0.0
 11
476.44575
 21
343.2
 31
0.0
  0
LINE
  8
LC-008-003-MTG-0
 62
     2
  5
564
 10
336.44575
 20
360.0
 30
0.0
 11
476.44575
 21
360.0
 31
0.0
  0
LINE
  8
LC-005-003-----0
 62
     2
  5
565
 10
364.206206
 20
363.654733
 30
0.0
 11
336.44575
 21
360.0
 31
0.0
  0
LINE
  8
LC-005-003-----0
 62
     2
  5
566
 10
336.44575
 20
360.0
 30
0.0
 11
364.206206
 21
356.345267
 31
0.0
  0
LINE
  8
LC-005-003-----0
 62
     2
  5
567
 10
364.206206
 20
356.345267
 30
0.0
 11
364.206206
 21
363.654733
 31
0.0
  0
LINE
  8
LC-005-003-----0
 62
     2
  5
568
 10
364.268488
 20
362.704503
 30
0.0
 11
343.72575
 21
360.0
 31
0.0
  0
LINE
  8
LC-005-003-----0
 62
     2
  5
569
 10
343.72575
 20
360.0
 30
0.0
 11
364.268488
 21
357.295497
 31
0.0
  0
LINE
  8
LC-005-003-----0
 62
     2
  5
56A
 10
364.330769
 20
361.754272
 30
0.0
 11
351.00575
 21
360.0
 31
0.0
  0
LINE
  8
LC-005-003-----0
 62
     2
  5
56B
 10
351.00575
 20
360.0
 30
0.0
 11
364.330769
 21
358.245728
 31
0.0
  0
LINE
  8
LC-005-003-----0
 62
     2
  5
56C
 10
364.393051
 20
360.804041
 30
0.0
 11
358.28575
 21
360.0
 31
0.0
  0
LINE
  8
LC-005-003-----0
 62
     2
  5
56D
 10
358.28575
 20
360.0
 30
0.0
 11
364.393051
 21
359.195959
 31
0.0
  0
LINE
  8
LC-005-003-----0
 62
     2
  5
56E
 10
448.685294
 20
356.345267
 30
0.0
 11
476.44575
 21
360.0
 31
0.0
  0
LINE
  8
LC-005-003-----0
 62
     2
  5
56F
 10
476.44575
 20
360.0
 30
0.0
 11
448.685294
 21
363.654733
 31
0.0
  0
LINE
  8
LC-005-003-----0
 62
     2
  5
570
 10
448.685294
 20
363.654733
 30
0.0
 11
448.685294
 21
356.345267
 31
0.0
  0
LINE
  8
LC-005-003-----0
 62
     2
  5
571
 10
448.623013
 20
357.295497
 30
0.0
 11
469.16575
 21
360.0
 31
0.0
  0
LINE
  8
LC-005-003-----0
 62
     2
  5
572
 10
469.16575
 20
360.0
 30
0.0
 11
448.623013
 21
362.704503
 31
0.0
  0
LINE
  8
LC-005-003-----0
 62
     2
  5
573
 10
448.560731
 20
358.245728
 30
0.0
 11
461.88575
 21
360.0
 31
0.0
  0
LINE
  8
LC-005-003-----0
 62
     2
  5
574
 10
461.88575
 20
360.0
 30
0.0
 11
448.560731
 21
361.754272
 31
0.0
  0
LINE
  8
LC-005-003-----0
 62
     2
  5
575
 10
448.49845
 20
359.195959
 30
0.0
 11
454.60575
 21
360.0
 31
0.0
  0
LINE
  8
LC-005-003-----0
 62
     2
  5
576
 10
454.60575
 20
360.0
 30
0.0
 11
448.49845
 21
360.804041
 31
0.0
  0
TEXT
  8
LC-005-003-----0
 62
     7
  5
577
 10
347.79391
 20
367.827554
 30
0.0
 40
28.0
  1
%%c140
 41
0.9
 51
15.0
  7
LCTX15-400-0-0-ARIAL
 72
     1
 11
410.79391
 21
367.827554
 31
0.0
  0
ENDBLK
  8
0
  5
578
  0
BLOCK
  8
0
  5
5A1
  2
*X21
 70
    65
 10
0.0
 20
0.0
 30
0.0
  3
*X21
  0
LINE
  8
LC-003-005-----0
 62
     2
  5
5A2
 10
317.980138
 20
461.251535
 30
0.0
 11
317.690319
 21
461.541354
 31
0.0
  0
LINE
  8
LC-003-005-----0
 62
     2
  5
5A3
 10
317.685656
 20
460.83891
 30
0.0
 11
317.22639
 21
461.298176
 31
0.0
  0
LINE
  8
LC-003-005-----0
 62
     2
  5
5A4
 10
317.221727
 20
460.595732
 30
0.0
 11
316.762461
 21
461.054999
 31
0.0
  0
LINE
  8
LC-003-005-----0
 62
     2
  5
5A5
 10
316.757798
 20
460.352555
 30
0.0
 11
316.117085
 21
460.993268
 31
0.0
  0
LINE
  8
LC-003-005-----0
 62
     2
  5
5A6
 10
316.109978
 20
460.293268
 30
0.0
 11
315.699764
 21
460.703481
 31
0.0
  0
LINE
  8
LC-003-005-----0
 62
     2
  5
5A7
 10
309.299764
 20
460.73952
 30
0.0
 11
309.046017
 21
460.993268
 31
0.0
  0
LINE
  8
LC-003-005-----0
 62
     2
  5
5A8
 10
309.03891
 20
460.293268
 30
0.0
 11
308.344387
 21
460.98779
 31
0.0
  0
LINE
  8
LC-003-005-----0
 62
     2
  5
5A9
 10
308.339725
 20
460.285346
 30
0.0
 11
307.880458
 21
460.744613
 31
0.0
  0
LINE
  8
LC-003-005-----0
 62
     2
  5
5AA
 10
307.875795
 20
460.042169
 30
0.0
 11
307.416529
 21
460.501436
 31
0.0
  0
LINE
  8
LC-003-005-----0
 62
     2
  5
5AB
 10
307.411866
 20
459.798991
 30
0.0
 11
307.01939
 21
460.191467
 31
0.0
  0
ENDBLK
  8
0
  5
5AC
  0
BLOCK
  8
0
  5
5C5
  2
*X22
 70
    65
 10
0.0
 20
0.0
 30
0.0
  3
*X22
  0
LINE
  8
LC-003-005-----0
 62
     2
  5
5C6
 10
505.873905
 20
460.033958
 30
0.0
 11
505.338094
 21
460.569769
 31
0.0
  0
LINE
  8
LC-003-005-----0
 62
     2
  5
5C7
 10
505.323191
 20
459.877565
 30
0.0
 11
504.211806
 21
460.988951
 31
0.0
  0
LINE
  8
LC-003-005-----0
 62
     2
  5
5C8
 10
504.204699
 20
460.288951
 30
0.0
 11
503.593569
 21
460.90008
 31
0.0
  0
LINE
  8
LC-003-005-----0
 62
     2
  5
5C9
 10
497.193571
 20
460.936117
 30
0.0
 11
497.140426
 21
460.989263
 31
0.0
  0
LINE
  8
LC-003-005-----0
 62
     2
  5
5CA
 10
497.133318
 20
460.289263
 30
0.0
 11
496.433288
 21
460.989294
 31
0.0
  0
LINE
  8
LC-003-005-----0
 62
     2
  5
5CB
 10
496.42618
 20
460.289295
 30
0.0
 11
495.150492
 21
461.564983
 31
0.0
  0
LINE
  8
LC-003-005-----0
 62
     2
  5
5CC
 10
495.135589
 20
460.872779
 30
0.0
 11
494.913204
 21
461.095164
 31
0.0
  0
ENDBLK
  8
0
  5
5CD
  0
BLOCK
  8
0
  5
5E5
  2
*X23
 70
    65
 10
0.0
 20
0.0
 30
0.0
  3
*X23
  0
LINE
  8
LC-003-005-----0
 62
     2
  5
5E6
 10
332.841772
 20
429.008294
 30
0.0
 11
335.437063
 21
431.603585
 31
0.0
  0
LINE
  8
LC-003-005-----0
 62
     2
  5
5E7
 10
331.037276
 20
430.032225
 30
0.0
 11
332.013097
 21
431.008046
 31
0.0
  0
LINE
  8
LC-003-005-----0
 62
     2
  5
5E8
 10
332.53706
 20
431.532009
 30
0.0
 11
335.437192
 21
434.432141
 31
0.0
  0
LINE
  8
LC-003-005-----0
 62
     2
  5
5E9
 10
332.537188
 20
434.360565
 30
0.0
 11
335.43732
 21
437.260697
 31
0.0
  0
LINE
  8
LC-003-005-----0
 62
     2
  5
5EA
 10
332.537317
 20
437.189121
 30
0.0
 11
335.437449
 21
440.089253
 31
0.0
  0
LINE
  8
LC-003-005-----0
 62
     2
  5
5EB
 10
332.537446
 20
440.017677
 30
0.0
 11
335.437578
 21
442.917809
 31
0.0
  0
LINE
  8
LC-003-005-----0
 62
     2
  5
5EC
 10
332.537575
 20
442.846233
 30
0.0
 11
335.437707
 21
445.746365
 31
0.0
  0
LINE
  8
LC-003-005-----0
 62
     2
  5
5ED
 10
332.537704
 20
445.674789
 30
0.0
 11
335.437836
 21
448.574921
 31
0.0
  0
LINE
  8
LC-003-005-----0
 62
     2
  5
5EE
 10
332.537832
 20
448.503344
 30
0.0
 11
335.937987
 21
451.903499
 31
0.0
  0
LINE
  8
LC-003-005-----0
 62
     2
  5
5EF
 10
332.537961
 20
451.3319
 30
0.0
 11
335.938116
 21
454.732055
 31
0.0
  0
LINE
  8
LC-003-005-----0
 62
     2
  5
5F0
 10
332.53809
 20
454.160456
 30
0.0
 11
335.938245
 21
457.560611
 31
0.0
  0
LINE
  8
LC-003-005-----0
 62
     2
  5
5F1
 10
332.538219
 20
456.989012
 30
0.0
 11
333.557467
 21
458.00826
 31
0.0
  0
ENDBLK
  8
0
  5
5F2
  0
BLOCK
  8
0
  5
5F5
  2
*D24
 70
    65
 10
0.0
 20
0.0
 30
0.0
  3
*D24
  0
LINE
  8
LC-007-003-MTH-0
 62
     2
  5
5F6
 10
343.939214
 20
123.342511
 30
0.0
 11
343.939214
 21
41.472
 31
0.0
  0
LINE
  8
LC-007-003-MTH-0
 62
     2
  5
5F7
 10
468.939214
 20
123.339752
 30
0.0
 11
468.939214
 21
41.472
 31
0.0
  0
LINE
  8
LC-008-003-MTG-0
 62
     2
  5
5F8
 10
343.939214
 20
58.272
 30
0.0
 11
468.939214
 21
58.272
 31
0.0
  0
LINE
  8
LC-005-003-----0
 62
     2
  5
5F9
 10
371.69967
 20
61.926733
 30
0.0
 11
343.939214
 21
58.272
 31
0.0
  0
LINE
  8
LC-005-003-----0
 62
     2
  5
5FA
 10
343.939214
 20
58.272
 30
0.0
 11
371.69967
 21
54.617267
 31
0.0
  0
LINE
  8
LC-005-003-----0
 62
     2
  5
5FB
 10
371.69967
 20
54.617267
 30
0.0
 11
371.69967
 21
61.926733
 31
0.0
  0
LINE
  8
LC-005-003-----0
 62
     2
  5
5FC
 10
371.761951
 20
60.976503
 30
0.0
 11
351.219214
 21
58.272
 31
0.0
  0
LINE
  8
LC-005-003-----0
 62
     2
  5
5FD
 10
351.219214
 20
58.272
 30
0.0
 11
371.761951
 21
55.567497
 31
0.0
  0
LINE
  8
LC-005-003-----0
 62
     2
  5
5FE
 10
371.824233
 20
60.026272
 30
0.0
 11
358.499214
 21
58.272
 31
0.0
  0
LINE
  8
LC-005-003-----0
 62
     2
  5
5FF
 10
358.499214
 20
58.272
 30
0.0
 11
371.824233
 21
56.517728
 31
0.0
  0
LINE
  8
LC-005-003-----0
 62
     2
  5
600
 10
371.886514
 20
59.076041
 30
0.0
 11
365.779214
 21
58.272
 31
0.0
  0
LINE
  8
LC-005-003-----0
 62
     2
  5
601
 10
365.779214
 20
58.272
 30
0.0
 11
371.886514
 21
57.467959
 31
0.0
  0
LINE
  8
LC-005-003-----0
 62
     2
  5
602
 10
441.178758
 20
54.617267
 30
0.0
 11
468.939214
 21
58.272
 31
0.0
  0
LINE
  8
LC-005-003-----0
 62
     2
  5
603
 10
468.939214
 20
58.272
 30
0.0
 11
441.178758
 21
61.926733
 31
0.0
  0
LINE
  8
LC-005-003-----0
 62
     2
  5
604
 10
441.178758
 20
61.926733
 30
0.0
 11
441.178758
 21
54.617267
 31
0.0
  0
LINE
  8
LC-005-003-----0
 62
     2
  5
605
 10
441.116476
 20
55.567497
 30
0.0
 11
461.659214
 21
58.272
 31
0.0
  0
LINE
  8
LC-005-003-----0
 62
     2
  5
606
 10
461.659214
 20
58.272
 30
0.0
 11
441.116476
 21
60.976503
 31
0.0
  0
LINE
  8
LC-005-003-----0
 62
     2
  5
607
 10
441.054195
 20
56.517728
 30
0.0
 11
454.379214
 21
58.272
 31
0.0
  0
LINE
  8
LC-005-003-----0
 62
     2
  5
608
 10
454.379214
 20
58.272
 30
0.0
 11
441.054195
 21
60.026272
 31
0.0
  0
LINE
  8
LC-005-003-----0
 62
     2
  5
609
 10
440.991914
 20
57.467959
 30
0.0
 11
447.099214
 21
58.272
 31
0.0
  0
LINE
  8
LC-005-003-----0
 62
     2
  5
60A
 10
447.099214
 20
58.272
 30
0.0
 11
440.991914
 21
59.076041
 31
0.0
  0
TEXT
  8
LC-005-003-----0
 62
     7
  5
60B
 10
347.787374
 20
66.099554
 30
0.0
 40
28.0
  1
%%c125
 41
0.9
 51
15.0
  7
LCTX15-400-0-0-ARIAL
 72
     1
 11
410.787374
 21
66.099554
 31
0.0
  0
ENDBLK
  8
0
  5
60C
  0
BLOCK
  8
0
  5
60F
  2
*D25
 70
    65
 10
0.0
 20
0.0
 30
0.0
  3
*D25
  0
LINE
  8
LC-007-003-MTH-0
 62
     2
  5
610
 10
326.938427
 20
131.76723
 30
0.0
 11
326.938427
 21
-16.8
 31
0.0
  0
LINE
  8
LC-007-003-MTH-0
 62
     2
  5
611
 10
485.936602
 20
131.76723
 30
0.0
 11
485.936602
 21
-16.8
 31
0.0
  0
LINE
  8
LC-008-003-MTG-0
 62
     2
  5
612
 10
326.938427
 20
0.0
 30
0.0
 11
485.936602
 21
0.0
 31
0.0
  0
LINE
  8
LC-005-003-----0
 62
     2
  5
613
 10
354.698883
 20
3.654733
 30
0.0
 11
326.938427
 21
0.0
 31
0.0
  0
LINE
  8
LC-005-003-----0
 62
     2
  5
614
 10
326.938427
 20
0.0
 30
0.0
 11
354.698883
 21
-3.654733
 31
0.0
  0
LINE
  8
LC-005-003-----0
 62
     2
  5
615
 10
354.698883
 20
-3.654733
 30
0.0
 11
354.698883
 21
3.654733
 31
0.0
  0
LINE
  8
LC-005-003-----0
 62
     2
  5
616
 10
354.761165
 20
2.704503
 30
0.0
 11
334.218427
 21
0.0
 31
0.0
  0
LINE
  8
LC-005-003-----0
 62
     2
  5
617
 10
334.218427
 20
0.0
 30
0.0
 11
354.761165
 21
-2.704503
 31
0.0
  0
LINE
  8
LC-005-003-----0
 62
     2
  5
618
 10
354.823446
 20
1.754272
 30
0.0
 11
341.498427
 21
0.0
 31
0.0
  0
LINE
  8
LC-005-003-----0
 62
     2
  5
619
 10
341.498427
 20
0.0
 30
0.0
 11
354.823446
 21
-1.754272
 31
0.0
  0
LINE
  8
LC-005-003-----0
 62
     2
  5
61A
 10
354.885728
 20
0.804041
 30
0.0
 11
348.778427
 21
0.0
 31
0.0
  0
LINE
  8
LC-005-003-----0
 62
     2
  5
61B
 10
348.778427
 20
0.0
 30
0.0
 11
354.885728
 21
-0.804041
 31
0.0
  0
LINE
  8
LC-005-003-----0
 62
     2
  5
61C
 10
458.176146
 20
-3.654733
 30
0.0
 11
485.936602
 21
0.0
 31
0.0
  0
LINE
  8
LC-005-003-----0
 62
     2
  5
61D
 10
485.936602
 20
0.0
 30
0.0
 11
458.176146
 21
3.654733
 31
0.0
  0
LINE
  8
LC-005-003-----0
 62
     2
  5
61E
 10
458.176146
 20
3.654733
 30
0.0
 11
458.176146
 21
-3.654733
 31
0.0
  0
LINE
  8
LC-005-003-----0
 62
     2
  5
61F
 10
458.113865
 20
-2.704503
 30
0.0
 11
478.656602
 21
0.0
 31
0.0
  0
LINE
  8
LC-005-003-----0
 62
     2
  5
620
 10
478.656602
 20
0.0
 30
0.0
 11
458.113865
 21
2.704503
 31
0.0
  0
LINE
  8
LC-005-003-----0
 62
     2
  5
621
 10
458.051583
 20
-1.754272
 30
0.0
 11
471.376602
 21
0.0
 31
0.0
  0
LINE
  8
LC-005-003-----0
 62
     2
  5
622
 10
471.376602
 20
0.0
 30
0.0
 11
458.051583
 21
1.754272
 31
0.0
  0
LINE
  8
LC-005-003-----0
 62
     2
  5
623
 10
457.989302
 20
-0.804041
 30
0.0
 11
464.096602
 21
0.0
 31
0.0
  0
LINE
  8
LC-005-003-----0
 62
     2
  5
624
 10
464.096602
 20
0.0
 30
0.0
 11
457.989302
 21
0.804041
 31
0.0
  0
TEXT
  8
LC-005-003-----0
 62
     7
  5
625
 10
347.785675
 20
7.827554
 30
0.0
 40
28.0
  1
%%c159
 41
0.9
 51
15.0
  7
LCTX15-400-0-0-ARIAL
 72
     1
 11
410.785675
 21
7.827554
 31
0.0
  0
ENDBLK
  8
0
  5
626
  0
ENDSEC
  0
SECTION
  2
ENTITIES
  0
VIEWPORT
  8
LC-VIEWPORT
  5
628
 67
     1
 68
     1
 10
594.0
 20
420.0
 30
0.0
 40
1188.0
 41
840.0
 69
     1
1001
ACAD
1000
MVIEW
1002
{
1070
    16
1010
0.0
1020
0.0
1030
0.0
1010
0.0
1020
0.0
1030
1.0
1040
0.0
1040
840.0
1040
594.0
1040
420.0
1040
50.0
1040
0.0
1040
0.0
1070
     0
1070
   100
1070
     1
1070
     1
1070
     0
1070
     0
1070
     0
1070
     0
1040
0.0
1040
0.0
1040
0.0
1040
1.0
1040
1.0
1040
0.0
1040
0.0
1070
     0
1002
{
1002
}
1002
}
  0
LINE
  8
LC-001-002-----0
 62
     1
  5
26
 10
403.149788
 20
518.204903
 30
0.0
 11
403.149788
 21
533.004903
 31
0.0
  0
LINE
  8
LC-001-002-----0
 62
     1
  5
27
 10
348.562552
 20
492.642524
 30
0.0
 11
406.455156
 21
492.642524
 31
0.0
  0
LINE
  8
LC-001-002-----0
 62
     1
  5
28
 10
394.655216
 20
449.304843
 30
0.0
 11
394.655244
 21
429.004842
 31
0.0
  0
LINE
  8
LC-001-002-----0
 62
     1
  5
29
 10
338.069112
 20
458.004842
 30
0.0
 11
352.333186
 21
492.642524
 31
0.0
  0
ARC
  8
LC-002-002-RND-0
 62
     1
  5
2B
 10
358.006516
 20
518.004841
 30
0.0
 40
15.0
 50
90.000079
 51
160.0
  0
LINE
  8
LC-001-002-----0
 62
     1
  5
2C
 10
394.655244
 20
429.004842
 30
0.0
 11
406.419501
 21
429.004842
 31
0.0
  0
LINE
  8
LC-001-002-----0
 62
     1
  5
2D
 10
380.583562
 20
497.304842
 30
0.0
 11
385.038768
 21
518.204878
 31
0.0
  0
LINE
  8
LC-001-002-----0
 62
     1
  5
2E
 10
335.955478
 20
450.304842
 30
0.0
 11
393.806132
 21
450.304842
 31
0.0
  0
LINE
  8
LC-001-002-----0
 62
     1
  5
2F
 10
392.655216
 20
449.30484
 30
0.0
 11
392.655227
 21
441.304842
 31
0.0
  0
ARC
  8
LC-002-002-RND-0
 62
     1
  5
30
 10
393.655216
 20
449.304842
 30
0.0
 40
1.0
 50
0.000079
 51
90.0
  0
LINE
  8
LC-001-002-----0
 62
     1
  5
31
 10
335.955467
 20
458.004842
 30
0.0
 11
363.253237
 21
533.004848
 31
0.0
  0
LINE
  8
LC-001-002-----0
 62
     1
  5
32
 10
363.968233
 20
528.919715
 30
0.0
 11
365.455101
 21
533.004851
 31
0.0
  0
LINE
  8
LC-001-002-----0
 62
     1
  5
33
 10
361.615368
 20
528.504842
 30
0.0
 11
363.968233
 21
528.919715
 31
0.0
  0
LINE
  8
LC-001-002-----0
 62
     1
  5
34
 10
327.029268
 20
476.752618
 30
0.0
 11
343.911127
 21
523.135143
 31
0.0
  0
LINE
  8
LC-001-002-----0
 62
     1
  5
35
 10
338.664396
 20
458.004842
 30
0.0
 11
352.92847
 21
492.642524
 31
0.0
  0
LINE
  8
LC-001-002-----0
 62
     1
  5
36
 10
360.494021
 20
497.304842
 30
0.0
 11
368.210659
 21
518.204855
 31
0.0
  0
LINE
  8
LC-001-002-----0
 62
     1
  5
37
 10
359.344021
 20
497.304842
 30
0.0
 11
367.060659
 21
518.204853
 31
0.0
  0
LINE
  8
LC-001-002-----0
 62
     1
  5
38
 10
391.436836
 20
497.304842
 30
0.0
 11
393.743021
 21
518.20489
 31
0.0
  0
LINE
  8
LC-001-002-----0
 62
     1
  5
39
 10
355.797896
 20
458.004842
 30
0.0
 11
366.239921
 21
492.642524
 31
0.0
  0
LINE
  8
LC-001-002-----0
 62
     1
  5
3A
 10
357.424242
 20
458.004842
 30
0.0
 11
367.884492
 21
492.642524
 31
0.0
  0
LINE
  8
LC-001-002-----0
 62
     1
  5
3B
 10
354.253166
 20
497.304842
 30
0.0
 11
362.859955
 21
518.204847
 31
0.0
  0
LINE
  8
LC-001-002-----0
 62
     1
  5
3C
 10
324.012614
 20
458.033178
 30
0.0
 11
320.869636
 21
459.829166
 31
0.0
  0
LINE
  8
LC-001-002-----0
 62
     1
  5
3D
 10
344.833797
 20
458.004842
 30
0.0
 11
357.622615
 21
492.642524
 31
0.0
  0
LINE
  8
LC-001-002-----0
 62
     1
  5
3E
 10
389.321964
 20
458.004842
 30
0.0
 11
393.144009
 21
492.642524
 31
0.0
  0
LINE
  8
LC-001-002-----0
 62
     1
  5
3F
 10
387.100335
 20
458.004842
 30
0.0
 11
390.922379
 21
492.642524
 31
0.0
  0
LINE
  8
LC-001-002-----0
 62
     1
  5
40
 10
370.214225
 20
458.004842
 30
0.0
 11
377.59785
 21
492.642524
 31
0.0
  0
LINE
  8
LC-001-002-----0
 62
     1
  5
41
 10
372.206084
 20
458.004842
 30
0.0
 11
379.589708
 21
492.642524
 31
0.0
  0
LINE
  8
LC-001-002-----0
 62
     1
  5
42
 10
345.983797
 20
458.004842
 30
0.0
 11
358.772614
 21
492.642524
 31
0.0
  0
LINE
  8
LC-001-002-----0
 62
     1
  5
43
 10
354.84845
 20
497.304842
 30
0.0
 11
363.455239
 21
518.204848
 31
0.0
  0
LINE
  8
LC-001-002-----0
 62
     1
  5
44
 10
332.555467
 20
458.004842
 30
0.0
 11
332.555503
 21
431.504843
 31
0.0
  0
LINE
  8
LC-001-002-----0
 62
     1
  5
45
 10
335.955467
 20
458.004842
 30
0.0
 11
335.955478
 21
450.304842
 31
0.0
  0
LINE
  8
LC-001-002-----0
 62
     1
  5
46
 10
392.917313
 20
450.304842
 30
0.0
 11
406.455232
 21
450.304842
 31
0.0
  0
LINE
  8
LC-001-002-----0
 62
     1
  5
47
 10
335.455478
 20
450.304842
 30
0.0
 11
335.955478
 21
450.304842
 31
0.0
  0
ARC
  8
LC-002-002-RND-0
 62
     1
  5
48
 10
393.655216
 20
449.304842
 30
0.0
 40
1.0
 50
90.0
 51
180.000079
  0
LINE
  8
LC-001-002-----0
 62
     1
  5
49
 10
405.305464
 20
518.204905
 30
0.0
 11
405.305464
 21
497.304842
 31
0.0
  0
ARC
  8
LC-002-002-RND-0
 62
     1
  5
4A
 10
332.055505
 20
430.004842
 30
0.0
 40
1.0
 50
90.0
 51
180.000079
  0
LINE
  8
LC-001-002-----0
 62
     1
  5
4B
 10
350.259497
 20
497.304842
 30
0.0
 11
350.259497
 21
492.941741
 31
0.0
  0
ARC
  8
LC-002-002-RND-0
 62
     1
  5
4C
 10
332.055505
 20
430.004842
 30
0.0
 40
1.0
 50
180.000079
 51
270.0
  0
LINE
  8
LC-001-002-----0
 62
     1
  5
4D
 10
331.955505
 20
429.004842
 30
0.0
 11
333.455507
 21
429.004842
 31
0.0
  0
LINE
  8
LC-001-002-----0
 62
     1
  5
4E
 10
328.55549
 20
441.304842
 30
0.0
 11
332.55549
 21
441.304842
 31
0.0
  0
ARC
  8
LC-002-002-RND-0
 62
     1
  5
4F
 10
332.055503
 20
431.504842
 30
0.0
 40
0.5
 50
270.0
 51
0.000079
  0
LINE
  8
LC-001-002-----0
 62
     1
  5
50
 10
332.055505
 20
429.004842
 30
0.0
 11
335.455507
 21
429.004842
 31
0.0
  0
LINE
  8
LC-001-002-----0
 62
     1
  5
51
 10
369.292468
 20
497.304842
 30
0.0
 11
375.604076
 21
518.204865
 31
0.0
  0
LINE
  8
LC-001-002-----0
 62
     1
  5
52
 10
348.562552
 20
492.642524
 30
0.0
 11
350.259497
 21
492.941741
 31
0.0
  0
ARC
  8
LC-002-002-RND-0
 62
     1
  5
53
 10
328.55549
 20
441.804842
 30
0.0
 40
0.5
 50
180.000079
 51
270.0
  0
LINE
  8
LC-001-002-----0
 62
     1
  5
54
 10
367.645443
 20
497.304842
 30
0.0
 11
373.946053
 21
518.204862
 31
0.0
  0
LINE
  8
LC-001-002-----0
 62
     1
  5
55
 10
335.455478
 20
450.304842
 30
0.0
 11
335.455507
 21
429.004842
 31
0.0
  0
LINE
  8
LC-001-002-----0
 62
     1
  5
56
 10
335.45549
 20
441.304842
 30
0.0
 11
392.655227
 21
441.304842
 31
0.0
  0
LINE
  8
LC-001-002-----0
 62
     1
  5
57
 10
328.055468
 20
458.004842
 30
0.0
 11
328.05549
 21
441.804841
 31
0.0
  0
LINE
  8
LC-001-002-----0
 62
     1
  5
58
 10
358.006496
 20
533.004841
 30
0.0
 11
406.455101
 21
533.004907
 31
0.0
  0
INSERT
  8
LC-003-005-----0
 62
     2
  5
60
  2
*X0
 10
0.0
 20
0.0
 30
0.0
  0
LINE
  8
LC-001-002-----0
 62
     1
  5
61
 10
378.591704
 20
497.304842
 30
0.0
 11
383.04691
 21
518.204875
 31
0.0
  0
LINE
  8
LC-001-002-----0
 62
     1
  5
62
 10
357.866475
 20
518.20484
 30
0.0
 11
406.455121
 21
518.204907
 31
0.0
  0
LINE
  8
LC-001-002-----0
 62
     1
  5
63
 10
350.259497
 20
497.304842
 30
0.0
 11
406.45515
 21
497.304842
 31
0.0
  0
LINE
  8
LC-001-002-----0
 62
     1
  5
64
 10
405.305464
 20
492.642524
 30
0.0
 11
405.305464
 21
458.004842
 31
0.0
  0
LINE
  8
LC-001-002-----0
 62
     1
  5
65
 10
393.658465
 20
497.304842
 30
0.0
 11
395.964651
 21
518.204893
 31
0.0
  0
LINE
  8
LC-001-002-----0
 62
     1
  5
66
 10
409.760455
 20
518.204912
 30
0.0
 11
409.760414
 21
533.004912
 31
0.0
  0
LINE
  8
LC-001-002-----0
 62
     1
  5
67
 10
464.34776
 20
492.642683
 30
0.0
 11
406.455156
 21
492.642524
 31
0.0
  0
LINE
  8
LC-001-002-----0
 62
     1
  5
68
 10
418.255216
 20
449.304876
 30
0.0
 11
418.255244
 21
429.004874
 31
0.0
  0
LINE
  8
LC-001-002-----0
 62
     1
  5
69
 10
474.841295
 20
458.005029
 30
0.0
 11
460.577126
 21
492.642673
 31
0.0
  0
ARC
  8
LC-002-002-RND-0
 62
     1
  5
6A
 10
454.903727
 20
518.004974
 30
0.0
 40
15.0
 50
20.000157
 51
90.000079
  0
LINE
  8
LC-001-002-----0
 62
     1
  5
6B
 10
418.255244
 20
429.004874
 30
0.0
 11
406.490987
 21
429.004842
 31
0.0
  0
LINE
  8
LC-001-002-----0
 62
     1
  5
6C
 10
432.326738
 20
497.304913
 30
0.0
 11
427.871474
 21
518.204936
 31
0.0
  0
LINE
  8
LC-001-002-----0
 62
     1
  5
6D
 10
476.954951
 20
450.305035
 30
0.0
 11
419.104297
 21
450.304877
 31
0.0
  0
LINE
  8
LC-001-002-----0
 62
     1
  5
6E
 10
420.255216
 20
449.304878
 30
0.0
 11
420.255227
 21
441.30488
 31
0.0
  0
ARC
  8
LC-002-002-RND-0
 62
     1
  5
6F
 10
419.255216
 20
449.304877
 30
0.0
 40
1.0
 50
90.000157
 51
180.000079
  0
LINE
  8
LC-001-002-----0
 62
     1
  5
70
 10
476.954941
 20
458.005035
 30
0.0
 11
449.656965
 21
533.004966
 31
0.0
  0
LINE
  8
LC-001-002-----0
 62
     1
  5
71
 10
448.94198
 20
528.919832
 30
0.0
 11
447.455101
 21
533.004963
 31
0.0
  0
LINE
  8
LC-001-002-----0
 62
     1
  5
72
 10
451.294846
 20
528.504965
 30
0.0
 11
448.94198
 21
528.919832
 31
0.0
  0
LINE
  8
LC-001-002-----0
 62
     1
  5
73
 10
485.880169
 20
476.75536
 30
0.0
 11
468.999102
 21
523.135314
 31
0.0
  0
LINE
  8
LC-001-002-----0
 62
     1
  5
74
 10
474.246012
 20
458.005028
 30
0.0
 11
459.981843
 21
492.642671
 31
0.0
  0
LINE
  8
LC-001-002-----0
 62
     1
  5
75
 10
452.416279
 20
497.304968
 30
0.0
 11
444.699584
 21
518.20496
 31
0.0
  0
INSERT
  8
LC-003-005-----0
 62
     2
  5
85
  2
*X1
 10
0.0
 20
0.0
 30
0.0
  0
LINE
  8
LC-001-002-----0
 62
     1
  5
86
 10
453.566279
 20
497.304971
 30
0.0
 11
445.849584
 21
518.204961
 31
0.0
  0
LINE
  8
LC-001-002-----0
 62
     1
  5
87
 10
457.112511
 20
458.004981
 30
0.0
 11
446.670392
 21
492.642635
 31
0.0
  0
LINE
  8
LC-001-002-----0
 62
     1
  5
88
 10
455.486166
 20
458.004976
 30
0.0
 11
445.02582
 21
492.64263
 31
0.0
  0
LINE
  8
LC-001-002-----0
 62
     1
  5
89
 10
458.657134
 20
497.304985
 30
0.0
 11
450.050287
 21
518.204967
 31
0.0
  0
LINE
  8
LC-001-002-----0
 62
     1
  5
8A
 10
421.473464
 20
497.304883
 30
0.0
 11
419.167221
 21
518.204925
 31
0.0
  0
LINE
  8
LC-001-002-----0
 62
     1
  5
8B
 10
468.076611
 20
458.005011
 30
0.0
 11
455.287698
 21
492.642658
 31
0.0
  0
LINE
  8
LC-001-002-----0
 62
     1
  5
8C
 10
423.588443
 20
458.004889
 30
0.0
 11
419.766304
 21
492.642561
 31
0.0
  0
LINE
  8
LC-001-002-----0
 62
     1
  5
8D
 10
425.810073
 20
458.004895
 30
0.0
 11
421.987933
 21
492.642567
 31
0.0
  0
LINE
  8
LC-001-002-----0
 62
     1
  5
8E
 10
442.696182
 20
458.004941
 30
0.0
 11
435.312463
 21
492.642603
 31
0.0
  0
LINE
  8
LC-001-002-----0
 62
     1
  5
8F
 10
440.704324
 20
458.004936
 30
0.0
 11
433.320605
 21
492.642598
 31
0.0
  0
LINE
  8
LC-001-002-----0
 62
     1
  5
90
 10
466.926611
 20
458.005008
 30
0.0
 11
454.137698
 21
492.642655
 31
0.0
  0
LINE
  8
LC-001-002-----0
 62
     1
  5
91
 10
458.06185
 20
497.304983
 30
0.0
 11
449.455003
 21
518.204966
 31
0.0
  0
LINE
  8
LC-001-002-----0
 62
     1
  5
92
 10
480.354941
 20
458.005045
 30
0.0
 11
480.354977
 21
431.505045
 31
0.0
  0
LINE
  8
LC-001-002-----0
 62
     1
  5
93
 10
476.954941
 20
458.005035
 30
0.0
 11
476.954951
 21
450.305035
 31
0.0
  0
LINE
  8
LC-001-002-----0
 62
     1
  5
94
 10
419.993116
 20
450.304879
 30
0.0
 11
406.455197
 21
450.304842
 31
0.0
  0
LINE
  8
LC-001-002-----0
 62
     1
  5
95
 10
477.454951
 20
450.305037
 30
0.0
 11
476.954951
 21
450.305035
 31
0.0
  0
ARC
  8
LC-002-002-RND-0
 62
     1
  5
96
 10
419.255216
 20
449.304877
 30
0.0
 40
1.0
 50
0.000079
 51
90.000157
  0
LINE
  8
LC-001-002-----0
 62
     1
  5
97
 10
407.604778
 20
518.204909
 30
0.0
 11
407.604835
 21
497.304845
 31
0.0
  0
ARC
  8
LC-002-002-RND-0
 62
     1
  5
98
 10
480.854979
 20
430.005046
 30
0.0
 40
1.0
 50
0.000079
 51
90.000157
  0
LINE
  8
LC-001-002-----0
 62
     1
  5
99
 10
462.650803
 20
497.304996
 30
0.0
 11
462.650815
 21
492.941896
 31
0.0
  0
ARC
  8
LC-002-002-RND-0
 62
     1
  5
9A
 10
480.854979
 20
430.005046
 30
0.0
 40
1.0
 50
270.000157
 51
0.000079
  0
LINE
  8
LC-001-002-----0
 62
     1
  5
9B
 10
484.354964
 20
441.305056
 30
0.0
 11
480.354964
 21
441.305045
 31
0.0
  0
ARC
  8
LC-002-002-RND-0
 62
     1
  5
9C
 10
480.854977
 20
431.505046
 30
0.0
 40
0.5
 50
180.000079
 51
270.000157
  0
LINE
  8
LC-001-002-----0
 62
     1
  5
9D
 10
480.854982
 20
429.005046
 30
0.0
 11
477.454981
 21
429.005037
 31
0.0
  0
LINE
  8
LC-001-002-----0
 62
     1
  5
9E
 10
443.617832
 20
497.304944
 30
0.0
 11
437.306167
 21
518.204949
 31
0.0
  0
LINE
  8
LC-001-002-----0
 62
     1
  5
9F
 10
464.34776
 20
492.642683
 30
0.0
 11
462.650815
 21
492.941896
 31
0.0
  0
ARC
  8
LC-002-002-RND-0
 62
     1
  5
A0
 10
484.354962
 20
441.805056
 30
0.0
 40
0.5
 50
270.000157
 51
0.000079
  0
LINE
  8
LC-001-002-----0
 62
     1
  5
A1
 10
445.264857
 20
497.304948
 30
0.0
 11
438.96419
 21
518.204952
 31
0.0
  0
LINE
  8
LC-001-002-----0
 62
     1
  5
A2
 10
477.454951
 20
450.305037
 30
0.0
 11
477.454981
 21
429.005037
 31
0.0
  0
LINE
  8
LC-001-002-----0
 62
     1
  5
A3
 10
477.454964
 20
441.305037
 30
0.0
 11
420.255227
 21
441.30488
 31
0.0
  0
LINE
  8
LC-001-002-----0
 62
     1
  5
A4
 10
484.85494
 20
458.005057
 30
0.0
 11
484.854962
 21
441.805056
 31
0.0
  0
LINE
  8
LC-001-002-----0
 62
     1
  5
A5
 10
454.903706
 20
533.004974
 30
0.0
 11
406.455101
 21
533.004907
 31
0.0
  0
INSERT
  8
LC-003-005-----0
 62
     2
  5
AE
  2
*X2
 10
0.0
 20
0.0
 30
0.0
  0
LINE
  8
LC-001-002-----0
 62
     1
  5
AF
 10
434.318596
 20
497.304918
 30
0.0
 11
429.863333
 21
518.204939
 31
0.0
  0
LINE
  8
LC-001-002-----0
 62
     1
  5
B0
 10
455.043768
 20
518.204974
 30
0.0
 11
406.455121
 21
518.204907
 31
0.0
  0
LINE
  8
LC-001-002-----0
 62
     1
  5
B1
 10
462.650803
 20
497.304996
 30
0.0
 11
406.45515
 21
497.304842
 31
0.0
  0
LINE
  8
LC-001-002-----0
 62
     1
  5
B2
 10
407.604848
 20
492.642527
 30
0.0
 11
407.604943
 21
458.004845
 31
0.0
  0
LINE
  8
LC-001-002-----0
 62
     1
  5
B3
 10
419.251835
 20
497.304877
 30
0.0
 11
416.945592
 21
518.204921
 31
0.0
  0
LINE
  8
LC-001-002-----0
 62
     1
  5
B4
 10
488.898024
 20
458.033536
 30
0.0
 11
492.040767
 21
459.829401
 31
0.0
  0
LINE
  8
LC-001-002-----0
 62
     1
  5
B5
 10
318.451702
 20
461.693661
 30
0.0
 11
315.442635
 21
461.693661
 31
0.0
  0
LINE
  8
LC-001-002-----0
 62
     1
  5
B6
 10
309.451702
 20
462.086971
 30
0.0
 11
309.451702
 21
462.086971
 31
0.0
  0
LINE
  8
LC-001-002-----0
 62
     1
  5
B7
 10
317.451702
 20
470.693661
 30
0.0
 11
315.442635
 21
470.693661
 31
0.0
  0
LINE
  8
LC-001-002-----0
 62
     1
  5
B8
 10
305.763802
 20
476.381487
 30
0.0
 11
307.451702
 21
470.693661
 31
0.0
  0
LINE
  8
LC-001-002-----0
 62
     1
  5
B9
 10
318.451702
 20
461.693661
 30
0.0
 11
317.451702
 21
470.693661
 31
0.0
  0
LINE
  8
LC-001-002-----0
 62
     1
  5
BA
 10
307.451702
 20
470.693268
 30
0.0
 11
306.451702
 21
461.693268
 31
0.0
  0
ARC
  8
LC-002-002-RND-0
 62
     1
  5
BB
 10
302.148235
 20
474.768671
 30
0.0
 40
3.925
 50
24.105895
 51
90.12741
  0
ARC
  8
LC-001-002-----0
 62
     1
  5
BC
 10
302.139411
 20
473.160903
 30
0.0
 40
5.576109
 50
89.908616
 51
139.911749
  0
ARC
  8
LC-002-002-RND-0
 62
     1
  5
BD
 10
300.876224
 20
474.223769
 30
0.0
 40
3.925
 50
139.911749
 51
220.616449
  0
LINE
  8
LC-001-002-----0
 62
     1
  5
BE
 10
319.139601
 20
476.381487
 30
0.0
 11
317.451702
 21
470.693661
 31
0.0
  0
ARC
  8
LC-002-002-RND-0
 62
     1
  5
BF
 10
324.027179
 20
474.224163
 30
0.0
 40
3.925
 50
315.504186
 51
40.088251
  0
LINE
  8
LC-001-002-----0
 62
     1
  5
C0
 10
327.006586
 20
471.669019
 30
0.0
 11
318.451702
 21
461.693661
 31
0.0
  0
LINE
  8
LC-001-002-----0
 62
     1
  5
C1
 10
297.896818
 20
471.668625
 30
0.0
 11
306.451702
 21
461.693268
 31
0.0
  0
ARC
  8
LC-002-002-RND-0
 62
     1
  5
C2
 10
322.755168
 20
474.768671
 30
0.0
 40
3.925
 50
89.87259
 51
155.894105
  0
ARC
  8
LC-001-002-----0
 62
     1
  5
C3
 10
322.763992
 20
473.160903
 30
0.0
 40
5.576109
 50
40.088251
 51
90.091384
  0
LINE
  8
LC-001-002-----0
 62
     1
  5
C4
 10
506.451702
 20
461.68925
 30
0.0
 11
503.442508
 21
461.68925
 31
0.0
  0
LINE
  8
LC-001-002-----0
 62
     1
  5
C5
 10
497.451702
 20
462.086971
 30
0.0
 11
497.451702
 21
462.086971
 31
0.0
  0
LINE
  8
LC-001-002-----0
 62
     1
  5
C6
 10
505.451702
 20
470.68925
 30
0.0
 11
503.442508
 21
470.68925
 31
0.0
  0
LINE
  8
LC-001-002-----0
 62
     1
  5
C7
 10
493.763802
 20
476.377076
 30
0.0
 11
495.451702
 21
470.68925
 31
0.0
  0
LINE
  8
LC-001-002-----0
 62
     1
  5
C8
 10
506.451702
 20
461.68925
 30
0.0
 11
505.451702
 21
470.68925
 31
0.0
  0
LINE
  8
LC-001-002-----0
 62
     1
  5
C9
 10
495.451702
 20
470.68925
 30
0.0
 11
494.451702
 21
461.68925
 31
0.0
  0
ARC
  8
LC-002-002-RND-0
 62
     1
  5
CA
 10
490.148235
 20
474.764259
 30
0.0
 40
3.925
 50
24.105895
 51
90.12741
  0
ARC
  8
LC-001-002-----0
 62
     1
  5
CB
 10
490.139411
 20
473.156492
 30
0.0
 40
5.576109
 50
89.908616
 51
139.911749
  0
ARC
  8
LC-002-002-RND-0
 62
     1
  5
CC
 10
488.876224
 20
474.219751
 30
0.0
 40
3.925
 50
139.911749
 51
220.616449
  0
LINE
  8
LC-001-002-----0
 62
     1
  5
CD
 10
507.139601
 20
476.377076
 30
0.0
 11
505.451702
 21
470.68925
 31
0.0
  0
ARC
  8
LC-002-002-RND-0
 62
     1
  5
CE
 10
512.027179
 20
474.219751
 30
0.0
 40
3.925
 50
319.383551
 51
40.088251
  0
LINE
  8
LC-001-002-----0
 62
     1
  5
CF
 10
515.006586
 20
471.664607
 30
0.0
 11
506.451702
 21
461.68925
 31
0.0
  0
LINE
  8
LC-001-002-----0
 62
     1
  5
D0
 10
485.896818
 20
471.664607
 30
0.0
 11
494.451702
 21
461.68925
 31
0.0
  0
ARC
  8
LC-002-002-RND-0
 62
     1
  5
D1
 10
510.755168
 20
474.764259
 30
0.0
 40
3.925
 50
89.87259
 51
155.894105
  0
ARC
  8
LC-001-002-----0
 62
     1
  5
D2
 10
510.763992
 20
473.156492
 30
0.0
 40
5.576109
 50
40.088251
 51
90.091384
  0
ARC
  8
LC-002-002-RND-0
 62
     1
  5
D3
 10
505.427787
 20
458.533523
 30
0.0
 40
1.0
 50
45.0
 51
90.0
  0
INSERT
  8
LC-003-005-----0
 62
     2
  5
E6
  2
*X3
 10
0.0
 20
0.0
 30
0.0
  0
LINE
  8
LC-001-002-----0
 62
     1
  5
E7
 10
493.556214
 20
458.033523
 30
0.0
 11
494.763321
 21
459.24063
 31
0.0
  0
LINE
  8
LC-001-002-----0
 62
     1
  5
E8
 10
483.449213
 20
437.033519
 30
0.0
 11
482.949573
 21
437.033519
 31
0.0
  0
ARC
  8
LC-001-002-----0
 62
     1
  5
E9
 10
528.140056
 20
464.302437
 30
0.0
 40
2.0
 50
282.000248
 51
327.70757
  0
ARC
  8
LC-002-002-RND-0
 62
     1
  5
EA
 10
482.949574
 20
435.533519
 30
0.0
 40
1.5
 50
90.00002
 51
180.000248
  0
LINE
  8
LC-001-002-----0
 62
     1
  5
EB
 10
503.458666
 20
474.886277
 30
0.0
 11
503.442508
 21
474.902435
 31
0.0
  0
INSERT
  8
LC-003-005-----0
 62
     2
  5
FA
  2
*X4
 10
0.0
 20
0.0
 30
0.0
  0
ARC
  8
LC-002-002-RND-0
 62
     1
  5
FB
 10
329.44979
 20
439.033174
 30
0.0
 40
3.0
 50
180.000136
 51
270.0
  0
LINE
  8
LC-001-002-----0
 62
     1
  5
FC
 10
326.449753
 20
455.033175
 30
0.0
 11
326.44979
 21
439.033167
 31
0.0
  0
ARC
  8
LC-002-002-RND-0
 62
     1
  5
FD
 10
324.449753
 20
455.033166
 30
0.0
 40
2.0
 50
0.000248
 51
90.000248
  0
LINE
  8
LC-001-002-----0
 62
     1
  5
FE
 10
319.34271
 20
457.033146
 30
0.0
 11
324.449744
 21
457.033166
 31
0.0
  0
LINE
  8
LC-001-002-----0
 62
     1
  5
FF
 10
315.449811
 20
458.53313
 30
0.0
 11
317.428491
 21
458.533138
 31
0.0
  0
LINE
  8
LC-001-002-----0
 62
     1
  5
100
 10
304.526825
 20
457.033074
 30
0.0
 11
305.556936
 21
457.033089
 31
0.0
  0
LINE
  8
LC-001-002-----0
 62
     1
  5
101
 10
304.526825
 20
457.033074
 30
0.0
 11
284.135102
 21
461.367468
 31
0.0
  0
LINE
  8
LC-001-002-----0
 62
     1
  5
102
 10
495.470428
 20
459.533523
 30
0.0
 11
497.442508
 21
459.533523
 31
0.0
  0
LINE
  8
LC-001-002-----0
 62
     1
  5
103
 10
308.949807
 20
459.533102
 30
0.0
 11
308.949811
 21
458.533102
 31
0.0
  0
LINE
  8
LC-001-002-----0
 62
     1
  5
104
 10
315.949807
 20
459.533132
 30
0.0
 11
315.949811
 21
458.533132
 31
0.0
  0
ARC
  8
LC-002-002-RND-0
 62
     1
  5
105
 10
319.342706
 20
458.033146
 30
0.0
 40
1.0
 50
225.000248
 51
270.000228
  0
ARC
  8
LC-002-002-RND-0
 62
     1
  5
106
 10
305.556922
 20
458.033089
 30
0.0
 40
1.0
 50
270.000823
 51
315.000248
  0
LINE
  8
LC-001-002-----0
 62
     1
  5
107
 10
307.471131
 20
458.533096
 30
0.0
 11
309.449811
 21
458.533104
 31
0.0
  0
LINE
  8
LC-001-002-----0
 62
     1
  5
108
 10
318.635603
 20
457.326036
 30
0.0
 11
317.428491
 21
458.533138
 31
0.0
  0
LINE
  8
LC-001-002-----0
 62
     1
  5
109
 10
307.471131
 20
458.533096
 30
0.0
 11
306.264032
 21
457.325986
 31
0.0
  0
LINE
  8
LC-001-002-----0
 62
     1
  5
10A
 10
508.266998
 20
458.033516
 30
0.0
 11
507.341998
 21
458.033526
 31
0.0
  0
LINE
  8
LC-001-002-----0
 62
     1
  5
10B
 10
281.949873
 20
463.24848
 30
0.0
 11
283.068177
 21
463.233422
 31
0.0
  0
LINE
  8
LC-001-002-----0
 62
     1
  5
10C
 10
329.44979
 20
436.033174
 30
0.0
 11
329.949444
 21
436.033174
 31
0.0
  0
LINE
  8
LC-001-002-----0
 62
     1
  5
10D
 10
324.449753
 20
458.033178
 30
0.0
 11
319.342674
 21
458.033178
 31
0.0
  0
LINE
  8
LC-001-002-----0
 62
     1
  5
10E
 10
331.449444
 20
435.533188
 30
0.0
 11
331.449444
 21
433.03319
 31
0.0
  0
ARC
  8
LC-002-002-RND-0
 62
     1
  5
10F
 10
329.44979
 20
439.033186
 30
0.0
 40
2.0
 50
180.000136
 51
270.000228
  0
ARC
  8
LC-002-002-RND-0
 62
     1
  5
110
 10
324.449753
 20
455.033178
 30
0.0
 40
3.0
 50
0.000136
 51
90.0
  0
ARC
  8
LC-001-002-----0
 62
     1
  5
111
 10
284.758838
 20
464.301911
 30
0.0
 40
3.0
 50
200.557271
 51
258.0
  0
ARC
  8
LC-001-002-----0
 62
     1
  5
112
 10
284.758838
 20
464.301911
 30
0.0
 40
2.0
 50
212.292677
 51
258.0
  0
ARC
  8
LC-002-002-RND-0
 62
     1
  5
113
 10
329.949444
 20
435.533174
 30
0.0
 40
0.5
 50
0.0
 51
90.0
  0
ARC
  8
LC-002-002-RND-0
 62
     1
  5
114
 10
329.949444
 20
435.533188
 30
0.0
 40
1.5
 50
0.0
 51
90.000228
  0
LINE
  8
LC-001-002-----0
 62
     1
  5
115
 10
330.449444
 20
435.533174
 30
0.0
 11
330.449444
 21
433.03319
 31
0.0
  0
LINE
  8
LC-001-002-----0
 62
     1
  5
116
 10
330.449444
 20
433.03319
 30
0.0
 11
331.449444
 21
433.03319
 31
0.0
  0
LINE
  8
LC-001-002-----0
 62
     1
  5
117
 10
329.449798
 20
437.033186
 30
0.0
 11
329.949438
 21
437.033188
 31
0.0
  0
LINE
  8
LC-001-002-----0
 62
     1
  5
118
 10
327.449753
 20
455.033186
 30
0.0
 11
327.44979
 21
439.033182
 31
0.0
  0
LINE
  8
LC-001-002-----0
 62
     1
  5
119
 10
317.428486
 20
459.533138
 30
0.0
 11
315.442635
 21
459.53313
 31
0.0
  0
LINE
  8
LC-001-002-----0
 62
     1
  5
11A
 10
319.342706
 20
458.033146
 30
0.0
 11
318.135594
 21
459.240248
 31
0.0
  0
LINE
  8
LC-001-002-----0
 62
     1
  5
11B
 10
304.631922
 20
458.033075
 30
0.0
 11
305.556922
 21
458.033089
 31
0.0
  0
LINE
  8
LC-001-002-----0
 62
     1
  5
11C
 10
306.764021
 20
459.240199
 30
0.0
 11
305.556922
 21
458.033089
 31
0.0
  0
LINE
  8
LC-001-002-----0
 62
     1
  5
11D
 10
304.631922
 20
458.033075
 30
0.0
 11
284.343014
 21
462.345616
 31
0.0
  0
ARC
  8
LC-002-002-RND-0
 62
     1
  5
11E
 10
317.42849
 20
458.533138
 30
0.0
 40
1.0
 50
45.000248
 51
90.000248
  0
ARC
  8
LC-002-002-RND-0
 62
     1
  5
11F
 10
307.471131
 20
458.533095
 30
0.0
 40
1.0
 50
90.000248
 51
135.000248
  0
INSERT
  8
LC-003-005-----0
 62
     2
  5
12F
  2
*X5
 10
0.0
 20
0.0
 30
0.0
  0
INSERT
  8
LC-003-005-----0
 62
     2
  5
13B
  2
*X6
 10
0.0
 20
0.0
 30
0.0
  0
LINE
  8
LC-001-002-----0
 62
     1
  5
13C
 10
485.44918
 20
455.033527
 30
0.0
 11
485.449213
 21
439.033523
 31
0.0
  0
LINE
  8
LC-001-002-----0
 62
     1
  5
13D
 10
482.449584
 20
433.033519
 30
0.0
 11
481.449584
 21
433.033515
 31
0.0
  0
ARC
  8
LC-002-002-RND-0
 62
     1
  5
13E
 10
482.949574
 20
435.533505
 30
0.0
 40
0.5
 50
90.000248
 51
180.000248
  0
ARC
  8
LC-002-002-RND-0
 62
     1
  5
13F
 10
495.470428
 20
458.533523
 30
0.0
 40
1.0
 50
90.0
 51
135.0
  0
ARC
  8
LC-002-002-RND-0
 62
     1
  5
140
 10
483.449213
 20
439.033507
 30
0.0
 40
3.0
 50
270.000248
 51
0.000111
  0
LINE
  8
LC-001-002-----0
 62
     1
  5
141
 10
486.44918
 20
455.033521
 30
0.0
 11
486.449213
 21
439.033513
 31
0.0
  0
ARC
  8
LC-002-002-RND-0
 62
     1
  5
142
 10
488.44918
 20
455.033521
 30
0.0
 40
2.0
 50
90.0
 51
180.0
  0
LINE
  8
LC-001-002-----0
 62
     1
  5
143
 10
493.556214
 20
457.033523
 30
0.0
 11
488.44918
 21
457.033521
 31
0.0
  0
LINE
  8
LC-001-002-----0
 62
     1
  5
144
 10
497.449107
 20
458.533523
 30
0.0
 11
495.470427
 21
458.533523
 31
0.0
  0
LINE
  8
LC-001-002-----0
 62
     1
  5
145
 10
508.3721
 20
457.033515
 30
0.0
 11
507.341988
 21
457.033526
 31
0.0
  0
LINE
  8
LC-001-002-----0
 62
     1
  5
146
 10
508.3721
 20
457.033515
 30
0.0
 11
528.763803
 21
461.367997
 31
0.0
  0
LINE
  8
LC-001-002-----0
 62
     1
  5
147
 10
482.449574
 20
435.533503
 30
0.0
 11
482.449584
 21
433.033519
 31
0.0
  0
LINE
  8
LC-001-002-----0
 62
     1
  5
148
 10
503.949107
 20
459.533523
 30
0.0
 11
503.949107
 21
458.533523
 31
0.0
  0
LINE
  8
LC-001-002-----0
 62
     1
  5
149
 10
496.949107
 20
459.533523
 30
0.0
 11
496.949107
 21
458.533523
 31
0.0
  0
ARC
  8
LC-002-002-RND-0
 62
     1
  5
14A
 10
493.556214
 20
458.033523
 30
0.0
 40
1.0
 50
270.00002
 51
315.0
  0
ARC
  8
LC-002-002-RND-0
 62
     1
  5
14B
 10
507.341998
 20
458.033526
 30
0.0
 40
1.0
 50
225.0
 51
269.999425
  0
LINE
  8
LC-001-002-----0
 62
     1
  5
14C
 10
505.427787
 20
458.533524
 30
0.0
 11
503.449107
 21
458.533523
 31
0.0
  0
LINE
  8
LC-001-002-----0
 62
     1
  5
14D
 10
494.263321
 20
457.326416
 30
0.0
 11
495.470427
 21
458.533523
 31
0.0
  0
LINE
  8
LC-001-002-----0
 62
     1
  5
14E
 10
505.427787
 20
458.533524
 30
0.0
 11
506.634891
 21
457.326419
 31
0.0
  0
LINE
  8
LC-001-002-----0
 62
     1
  5
14F
 10
506.134894
 20
459.24063
 30
0.0
 11
507.341998
 21
458.033526
 31
0.0
  0
LINE
  8
LC-001-002-----0
 62
     1
  5
150
 10
508.266998
 20
458.033516
 30
0.0
 11
528.555887
 21
462.346144
 31
0.0
  0
LINE
  8
LC-001-002-----0
 62
     1
  5
151
 10
530.949025
 20
463.249019
 30
0.0
 11
529.830721
 21
463.233956
 31
0.0
  0
LINE
  8
LC-001-002-----0
 62
     1
  5
152
 10
483.449226
 20
436.033507
 30
0.0
 11
482.949571
 21
436.033505
 31
0.0
  0
LINE
  8
LC-001-002-----0
 62
     1
  5
153
 10
488.449167
 20
458.033533
 30
0.0
 11
493.556246
 21
458.033555
 31
0.0
  0
LINE
  8
LC-001-002-----0
 62
     1
  5
154
 10
481.449574
 20
435.533513
 30
0.0
 11
481.449584
 21
433.033515
 31
0.0
  0
ARC
  8
LC-002-002-RND-0
 62
     1
  5
155
 10
483.449213
 20
439.033519
 30
0.0
 40
2.0
 50
270.00002
 51
0.000111
  0
ARC
  8
LC-002-002-RND-0
 62
     1
  5
156
 10
488.44918
 20
455.033533
 30
0.0
 40
3.0
 50
90.000248
 51
180.000111
  0
ARC
  8
LC-001-002-----0
 62
     1
  5
157
 10
528.140056
 20
464.302437
 30
0.0
 40
3.0
 50
282.000248
 51
339.442977
  0
LINE
  8
LC-001-002-----0
 62
     1
  5
158
 10
488.897794
 20
458.033405
 30
0.0
 11
406.455217
 21
458.033357
 31
0.0
  0
LINE
  8
LC-001-002-----0
 62
     1
  5
159
 10
324.012614
 20
458.033178
 30
0.0
 11
406.455191
 21
458.033357
 31
0.0
  0
LINE
  8
LC-001-002-----0
 62
     1
  5
15A
 10
306.451715
 20
435.586011
 30
0.0
 11
308.951715
 21
435.586011
 31
0.0
  0
LINE
  8
LC-001-002-----0
 62
     1
  5
15B
 10
319.502321
 20
435.586011
 30
0.0
 11
319.502321
 21
434.586011
 31
0.0
  0
LINE
  8
LC-001-002-----0
 62
     1
  5
15C
 10
315.951715
 20
435.586011
 30
0.0
 11
319.502321
 21
435.586011
 31
0.0
  0
INSERT
  8
LC-003-005-----0
 62
     2
  5
172
  2
*X7
 10
0.0
 20
0.0
 30
0.0
  0
INSERT
  8
LC-003-005-----0
 62
     2
  5
178
  2
*X8
 10
0.0
 20
0.0
 30
0.0
  0
LINE
  8
LC-001-002-----0
 62
     1
  5
179
 10
531.188985
 20
457.753072
 30
0.0
 11
530.895138
 21
458.560402
 31
0.0
  0
LINE
  8
LC-001-002-----0
 62
     1
  5
17A
 10
530.895138
 20
458.560402
 30
0.0
 11
511.734113
 21
451.586299
 31
0.0
  0
LINE
  8
LC-001-002-----0
 62
     1
  5
17B
 10
531.188985
 20
457.753072
 30
0.0
 11
511.498607
 21
450.586299
 31
0.0
  0
LINE
  8
LC-001-002-----0
 62
     1
  5
17C
 10
508.458717
 20
451.586291
 30
0.0
 11
511.734113
 21
451.586299
 31
0.0
  0
LINE
  8
LC-001-002-----0
 62
     1
  5
17D
 10
508.45872
 20
450.586291
 30
0.0
 11
511.498607
 21
450.586299
 31
0.0
  0
ARC
  8
LC-002-002-RND-0
 62
     1
  5
17E
 10
508.458721
 20
450.086291
 30
0.0
 40
1.5
 50
90.000157
 51
180.000157
  0
ARC
  8
LC-002-002-RND-0
 62
     1
  5
17F
 10
508.458721
 20
450.086291
 30
0.0
 40
0.5
 50
90.000157
 51
180.000157
  0
LINE
  8
LC-001-002-----0
 62
     1
  5
180
 10
507.958759
 20
436.086289
 30
0.0
 11
507.958721
 21
450.086289
 31
0.0
  0
LINE
  8
LC-001-002-----0
 62
     1
  5
181
 10
506.958759
 20
436.086286
 30
0.0
 11
506.958721
 21
450.086286
 31
0.0
  0
ARC
  8
LC-002-002-RND-0
 62
     1
  5
182
 10
506.458759
 20
436.086285
 30
0.0
 40
1.5
 50
270.000157
 51
0.000157
  0
ARC
  8
LC-002-002-RND-0
 62
     1
  5
183
 10
506.458759
 20
436.086285
 30
0.0
 40
0.5
 50
270.000157
 51
0.000157
  0
LINE
  8
LC-001-002-----0
 62
     1
  5
184
 10
506.458761
 20
435.586285
 30
0.0
 11
503.958761
 21
435.586278
 31
0.0
  0
LINE
  8
LC-001-002-----0
 62
     1
  5
185
 10
503.958761
 20
435.586278
 30
0.0
 11
503.958764
 21
434.586278
 31
0.0
  0
LINE
  8
LC-001-002-----0
 62
     1
  5
186
 10
304.951715
 20
436.086011
 30
0.0
 11
304.951715
 21
450.086011
 31
0.0
  0
LINE
  8
LC-001-002-----0
 62
     1
  5
187
 10
305.951715
 20
436.086011
 30
0.0
 11
305.951715
 21
450.086011
 31
0.0
  0
LINE
  8
LC-001-002-----0
 62
     1
  5
188
 10
315.951715
 20
435.586011
 30
0.0
 11
315.951715
 21
434.586011
 31
0.0
  0
LINE
  8
LC-001-002-----0
 62
     1
  5
189
 10
306.451715
 20
434.586011
 30
0.0
 11
309.442635
 21
434.586011
 31
0.0
  0
ARC
  8
LC-002-002-RND-0
 62
     1
  5
18A
 10
304.451715
 20
450.086011
 30
0.0
 40
1.5
 50
0.0
 51
90.0
  0
ARC
  8
LC-002-002-RND-0
 62
     1
  5
18B
 10
306.451715
 20
436.086011
 30
0.0
 40
1.5
 50
180.0
 51
270.0
  0
ARC
  8
LC-002-002-RND-0
 62
     1
  5
18C
 10
304.451715
 20
450.086011
 30
0.0
 40
0.5
 50
0.0
 51
90.0
  0
LINE
  8
LC-001-002-----0
 62
     1
  5
18D
 10
304.451715
 20
451.586011
 30
0.0
 11
301.176319
 21
451.586011
 31
0.0
  0
LINE
  8
LC-001-002-----0
 62
     1
  5
18E
 10
281.721431
 20
457.752729
 30
0.0
 11
301.411828
 21
450.586011
 31
0.0
  0
LINE
  8
LC-001-002-----0
 62
     1
  5
18F
 10
304.451715
 20
450.586011
 30
0.0
 11
301.411828
 21
450.586011
 31
0.0
  0
ARC
  8
LC-002-002-RND-0
 62
     1
  5
190
 10
306.451715
 20
436.086011
 30
0.0
 40
0.5
 50
180.0
 51
270.0
  0
LINE
  8
LC-001-002-----0
 62
     1
  5
191
 10
281.721431
 20
457.752729
 30
0.0
 11
282.015275
 21
458.56006
 31
0.0
  0
LINE
  8
LC-001-002-----0
 62
     1
  5
192
 10
308.951715
 20
435.586011
 30
0.0
 11
308.951715
 21
434.586011
 31
0.0
  0
LINE
  8
LC-001-002-----0
 62
     1
  5
193
 10
282.015275
 20
458.56006
 30
0.0
 11
301.176319
 21
451.586011
 31
0.0
  0
LINE
  8
LC-001-002-----0
 62
     1
  5
194
 10
320.869636
 20
459.829166
 30
0.0
 11
323.831445
 21
467.96667
 31
0.0
  0
LINE
  8
LC-001-002-----0
 62
     1
  5
195
 10
496.958761
 20
435.586259
 30
0.0
 11
493.408156
 21
435.586249
 31
0.0
  0
LINE
  8
LC-001-002-----0
 62
     1
  5
196
 10
496.958761
 20
435.586259
 30
0.0
 11
496.958764
 21
434.586259
 31
0.0
  0
LINE
  8
LC-001-002-----0
 62
     1
  5
197
 10
493.408156
 20
435.586249
 30
0.0
 11
493.408158
 21
434.586249
 31
0.0
  0
LINE
  8
LC-001-002-----0
 62
     1
  5
198
 10
506.458764
 20
434.586285
 30
0.0
 11
503.442508
 21
434.586277
 31
0.0
  0
INSERT
  8
LC-003-005-----0
 62
     2
  5
1A8
  2
*X9
 10
0.0
 20
0.0
 30
0.0
  0
INSERT
  8
LC-003-005-----0
 62
     2
  5
1AE
  2
*X10
 10
0.0
 20
0.0
 30
0.0
  0
LINE
  8
LC-001-002-----0
 62
     1
  5
1AF
 10
492.040767
 20
459.829401
 30
0.0
 11
489.087013
 21
467.944704
 31
0.0
  0
LINE
  8
LC-001-002-----0
 62
     1
  5
1B0
 10
503.458666
 20
474.886277
 30
0.0
 11
503.442508
 21
474.886277
 31
0.0
  0
LINE
  8
LC-001-002-----0
 62
     1
  5
1B1
 10
343.945585
 20
411.891304
 30
0.0
 11
343.939214
 21
123.342511
 31
0.0
  0
LINE
  8
LC-001-002-----0
 62
     1
  5
1B2
 10
468.945585
 20
411.888544
 30
0.0
 11
468.939214
 21
123.339752
 31
0.0
  0
LINE
  8
LC-001-002-----0
 62
     1
  5
1B3
 10
467.599357
 20
118.339781
 30
0.0
 11
465.939103
 21
118.339818
 31
0.0
  0
LINE
  8
LC-001-002-----0
 62
     1
  5
1B4
 10
345.278849
 20
118.342482
 30
0.0
 11
346.939103
 21
118.342445
 31
0.0
  0
LINE
  8
LC-001-002-----0
 62
     1
  5
1B5
 10
491.946092
 20
434.839244
 30
0.0
 11
490.94607
 21
433.839266
 31
0.0
  0
LINE
  8
LC-001-002-----0
 62
     1
  5
1B6
 10
489.196069
 20
433.839304
 30
0.0
 11
487.196025
 21
431.839349
 31
0.0
  0
LINE
  8
LC-001-002-----0
 62
     1
  5
1B7
 10
488.946159
 20
437.831952
 30
0.0
 11
484.196053
 21
433.082055
 31
0.0
  0
LINE
  8
LC-001-002-----0
 62
     1
  5
1B8
 10
320.94609
 20
434.843019
 30
0.0
 11
321.946068
 21
433.842997
 31
0.0
  0
LINE
  8
LC-001-002-----0
 62
     1
  5
1B9
 10
323.696069
 20
433.842958
 30
0.0
 11
325.696025
 21
431.842914
 31
0.0
  0
LINE
  8
LC-001-002-----0
 62
     1
  5
1BA
 10
323.946157
 20
437.835595
 30
0.0
 11
328.696053
 21
433.085489
 31
0.0
  0
LINE
  8
LC-001-002-----0
 62
     1
  5
1BB
 10
321.946068
 20
433.842997
 30
0.0
 11
323.696069
 21
433.842958
 31
0.0
  0
LINE
  8
LC-001-002-----0
 62
     1
  5
1BC
 10
323.946157
 20
437.835595
 30
0.0
 11
323.946526
 21
454.587346
 31
0.0
  0
INSERT
  8
LC-003-005-----0
 62
     2
  5
238
  2
*X11
 10
0.0
 20
0.0
 30
0.0
  0
LINE
  8
LC-001-002-----0
 62
     1
  5
239
 10
305.441367
 20
451.585026
 30
0.0
 11
302.240331
 21
451.584786
 31
0.0
  0
LINE
  8
LC-001-002-----0
 62
     1
  5
23A
 10
315.442635
 20
436.343169
 30
0.0
 11
320.946124
 21
436.34308
 31
0.0
  0
LINE
  8
LC-001-002-----0
 62
     1
  5
23B
 10
328.695817
 20
422.39164
 30
0.0
 11
328.696053
 21
433.085489
 31
0.0
  0
LINE
  8
LC-001-002-----0
 62
     1
  5
23C
 10
337.688457
 20
422.391442
 30
0.0
 11
328.695817
 21
422.39164
 31
0.0
  0
LINE
  8
LC-001-002-----0
 62
     1
  5
23D
 10
346.939103
 20
118.342445
 30
0.0
 11
346.945612
 21
413.133878
 31
0.0
  0
ARC
  8
LC-002-002-RND-0
 62
     1
  5
23E
 10
306.941037
 20
436.843305
 30
0.0
 40
0.5
 50
179.999069
 51
269.998983
  0
LINE
  8
LC-001-002-----0
 62
     1
  5
23F
 10
325.696025
 20
431.842914
 30
0.0
 11
325.695817
 21
422.391706
 31
0.0
  0
LINE
  8
LC-001-002-----0
 62
     1
  5
240
 10
320.946124
 20
436.343315
 30
0.0
 11
320.94609
 21
434.843019
 31
0.0
  0
LINE
  8
LC-001-002-----0
 62
     1
  5
241
 10
490.94607
 20
433.839266
 30
0.0
 11
489.196069
 21
433.839304
 31
0.0
  0
LINE
  8
LC-001-002-----0
 62
     1
  5
242
 10
488.946159
 20
437.831952
 30
0.0
 11
488.946528
 21
454.583559
 31
0.0
  0
ARC
  8
LC-002-002-RND-0
 62
     1
  5
243
 10
484.195817
 20
422.388207
 30
0.0
 40
3.0
 50
269.998735
 51
359.998735
  0
LINE
  8
LC-001-002-----0
 62
     1
  5
244
 10
336.44575
 20
419.391469
 30
0.0
 11
328.69575
 21
419.39164
 31
0.0
  0
LINE
  8
LC-001-002-----0
 62
     1
  5
245
 10
507.451556
 20
451.580566
 30
0.0
 11
510.652591
 21
451.580184
 31
0.0
  0
LINE
  8
LC-001-002-----0
 62
     1
  5
246
 10
306.441037
 20
436.843313
 30
0.0
 11
306.441259
 21
450.585101
 31
0.0
  0
LINE
  8
LC-001-002-----0
 62
     1
  5
247
 10
306.941029
 20
436.343305
 30
0.0
 11
309.442635
 21
436.343265
 31
0.0
  0
LINE
  8
LC-001-002-----0
 62
     1
  5
248
 10
500.449614
 20
436.339066
 30
0.0
 11
500.442508
 21
436.339066
 31
0.0
  0
LINE
  8
LC-001-002-----0
 62
     1
  5
249
 10
484.195817
 20
422.388207
 30
0.0
 11
484.196053
 21
433.082055
 31
0.0
  0
LINE
  8
LC-001-002-----0
 62
     1
  5
24A
 10
337.688457
 20
422.391442
 30
0.0
 11
406.445817
 21
422.389924
 31
0.0
  0
LINE
  8
LC-001-002-----0
 62
     1
  5
24B
 10
475.203176
 20
422.388406
 30
0.0
 11
484.195817
 21
422.388207
 31
0.0
  0
LINE
  8
LC-001-002-----0
 62
     1
  5
24C
 10
346.939103
 20
118.342445
 30
0.0
 11
406.439103
 21
118.341131
 31
0.0
  0
LINE
  8
LC-001-002-----0
 62
     1
  5
24D
 10
336.44575
 20
419.391469
 30
0.0
 11
343.945585
 21
411.891304
 31
0.0
  0
LINE
  8
LC-001-002-----0
 62
     1
  5
24E
 10
465.939103
 20
118.339818
 30
0.0
 11
465.945612
 21
413.131251
 31
0.0
  0
LINE
  8
LC-001-002-----0
 62
     1
  5
24F
 10
337.688457
 20
422.391442
 30
0.0
 11
346.945612
 21
413.133878
 31
0.0
  0
LINE
  8
LC-001-002-----0
 62
     1
  5
250
 10
346.945612
 20
413.133878
 30
0.0
 11
406.445612
 21
413.132564
 31
0.0
  0
ARC
  8
LC-002-002-RND-0
 62
     1
  5
251
 10
505.951234
 20
436.838911
 30
0.0
 40
0.5
 50
269.998487
 51
359.998401
  0
LINE
  8
LC-001-002-----0
 62
     1
  5
252
 10
487.196025
 20
431.839349
 30
0.0
 11
487.195817
 21
422.388141
 31
0.0
  0
LINE
  8
LC-001-002-----0
 62
     1
  5
253
 10
491.946126
 20
436.339539
 30
0.0
 11
491.946092
 21
434.839244
 31
0.0
  0
LINE
  8
LC-001-002-----0
 62
     1
  5
254
 10
343.939214
 20
123.342511
 30
0.0
 11
345.278849
 21
118.342482
 31
0.0
  0
INSERT
  8
LC-003-005-----0
 62
     2
  5
2DA
  2
*X12
 10
0.0
 20
0.0
 30
0.0
  0
ARC
  8
LC-002-002-RND-0
 62
     1
  5
2DB
 10
328.695817
 20
422.39164
 30
0.0
 40
3.0
 50
179.998735
 51
269.998735
  0
LINE
  8
LC-001-002-----0
 62
     1
  5
2DC
 10
476.44575
 20
419.388378
 30
0.0
 11
484.19575
 21
419.388207
 31
0.0
  0
LINE
  8
LC-001-002-----0
 62
     1
  5
2DD
 10
534.188384
 20
463.338311
 30
0.0
 11
510.131638
 21
454.583091
 31
0.0
  0
LINE
  8
LC-001-002-----0
 62
     1
  5
2DE
 10
506.451234
 20
436.838897
 30
0.0
 11
506.451619
 21
450.580685
 31
0.0
  0
LINE
  8
LC-001-002-----0
 62
     1
  5
2DF
 10
505.951221
 20
436.338911
 30
0.0
 11
503.442508
 21
436.338981
 31
0.0
  0
LINE
  8
LC-001-002-----0
 62
     1
  5
2E0
 10
475.203176
 20
422.388406
 30
0.0
 11
406.445817
 21
422.389924
 31
0.0
  0
LINE
  8
LC-001-002-----0
 62
     1
  5
2E1
 10
465.939103
 20
118.339818
 30
0.0
 11
406.439103
 21
118.341131
 31
0.0
  0
LINE
  8
LC-001-002-----0
 62
     1
  5
2E2
 10
476.44575
 20
419.388378
 30
0.0
 11
468.945585
 21
411.888544
 31
0.0
  0
LINE
  8
LC-001-002-----0
 62
     1
  5
2E3
 10
475.203176
 20
422.388406
 30
0.0
 11
465.945612
 21
413.131251
 31
0.0
  0
LINE
  8
LC-001-002-----0
 62
     1
  5
2E4
 10
465.945612
 20
413.131251
 30
0.0
 11
406.445612
 21
413.132564
 31
0.0
  0
LINE
  8
LC-001-002-----0
 62
     1
  5
2E5
 10
468.939214
 20
123.339752
 30
0.0
 11
467.599357
 21
118.339781
 31
0.0
  0
LINE
  8
LC-004-006-MLN-0
 62
     2
  5
2E8
 10
406.44848
 20
543.004907
 30
0.0
 11
406.445306
 21
399.266022
 31
0.0
  0
LINE
  8
LC-001-002-----0
 62
     1
  5
2E9
 10
534.188384
 20
463.338311
 30
0.0
 11
581.446721
 21
463.337268
 31
0.0
  0
LINE
  8
LC-001-002-----0
 62
     1
  5
2EA
 10
583.446676
 20
461.337223
 30
0.0
 11
583.446654
 21
460.337223
 31
0.0
  0
LINE
  8
LC-001-002-----0
 62
     1
  5
2EB
 10
534.717292
 20
460.338299
 30
0.0
 11
583.446654
 21
460.337223
 31
0.0
  0
LINE
  8
LC-001-002-----0
 62
     1
  5
2EC
 10
534.717292
 20
460.338299
 30
0.0
 11
510.652591
 21
451.580184
 31
0.0
  0
LINE
  8
LC-001-002-----0
 62
     1
  5
2ED
 10
278.705058
 20
463.343952
 30
0.0
 11
231.446721
 21
463.344995
 31
0.0
  0
LINE
  8
LC-001-002-----0
 62
     1
  5
2EE
 10
278.176017
 20
460.343963
 30
0.0
 11
229.446654
 21
460.345039
 31
0.0
  0
LINE
  8
LC-001-002-----0
 62
     1
  5
2EF
 10
278.176017
 20
460.343963
 30
0.0
 11
302.240331
 21
451.584786
 31
0.0
  0
LINE
  8
LC-001-002-----0
 62
     1
  5
2F0
 10
278.705058
 20
463.343952
 30
0.0
 11
302.761417
 21
454.587669
 31
0.0
  0
LINE
  8
LC-001-002-----0
 62
     1
  5
2F1
 10
229.446677
 20
461.345039
 30
0.0
 11
229.446654
 21
460.345039
 31
0.0
  0
ARC
  8
LC-002-002-RND-0
 62
     1
  5
2F2
 10
231.446677
 20
461.344995
 30
0.0
 40
2.0
 50
89.998735
 51
179.998735
  0
ARC
  8
LC-002-002-RND-0
 62
     1
  5
2F3
 10
581.446676
 20
461.337268
 30
0.0
 40
2.0
 50
359.998735
 51
89.998735
  0
INSERT
  8
LC-003-005-----0
 62
     2
  5
33C
  2
*X13
 10
0.0
 20
0.0
 30
0.0
  0
LINE
  8
LC-001-002-----0
 62
     1
  5
33D
 10
302.761417
 20
454.587669
 30
0.0
 11
309.442635
 21
454.587522
 31
0.0
  0
LINE
  8
LC-001-002-----0
 62
     1
  5
33E
 10
506.451619
 20
450.580685
 30
0.0
 11
507.451556
 21
451.580566
 31
0.0
  0
LINE
  8
LC-001-002-----0
 62
     1
  5
33F
 10
306.441259
 20
450.585101
 30
0.0
 11
305.441367
 21
451.585026
 31
0.0
  0
LINE
  8
LC-001-002-----0
 62
     1
  5
340
 10
315.442635
 20
427.347286
 30
0.0
 11
315.442635
 21
440.843268
 31
0.0
  0
LINE
  8
LC-001-002-----0
 62
     1
  5
341
 10
309.442635
 20
427.347551
 30
0.0
 11
309.442635
 21
440.843268
 31
0.0
  0
LINE
  8
LC-001-002-----0
 62
     1
  5
342
 10
314.942635
 20
478.843268
 30
0.0
 11
309.942635
 21
478.843268
 31
0.0
  0
LINE
  8
LC-001-002-----0
 62
     1
  5
343
 10
314.942635
 20
478.843268
 30
0.0
 11
315.442635
 21
478.343268
 31
0.0
  0
LINE
  8
LC-001-002-----0
 62
     1
  5
344
 10
309.942635
 20
478.843268
 30
0.0
 11
309.442635
 21
478.343268
 31
0.0
  0
LINE
  8
LC-001-002-----0
 62
     1
  5
345
 10
315.442635
 20
478.343268
 30
0.0
 11
309.442635
 21
478.343268
 31
0.0
  0
LINE
  8
LC-005-003-----0
 62
     2
  5
347
 10
314.942635
 20
426.847308
 30
0.0
 11
314.942635
 21
440.843268
 31
0.0
  0
LINE
  8
LC-005-003-----0
 62
     2
  5
348
 10
309.942635
 20
426.847529
 30
0.0
 11
309.942635
 21
440.843268
 31
0.0
  0
LINE
  8
LC-004-006-MLN-0
 62
     2
  5
349
 10
312.442635
 20
488.843268
 30
0.0
 11
312.442635
 21
418.843268
 31
0.0
  0
LINE
  8
LC-001-002-----0
 62
     1
  5
34A
 10
309.442635
 20
440.843268
 30
0.0
 11
311.442635
 21
440.843268
 31
0.0
  0
LINE
  8
LC-001-002-----0
 62
     1
  5
34B
 10
307.442635
 20
446.843268
 30
0.0
 11
307.442635
 21
442.843268
 31
0.0
  0
LINE
  8
LC-001-002-----0
 62
     1
  5
34C
 10
317.442635
 20
446.843268
 30
0.0
 11
317.442635
 21
442.843268
 31
0.0
  0
LINE
  8
LC-001-002-----0
 62
     1
  5
34D
 10
309.442635
 20
448.843268
 30
0.0
 11
311.442635
 21
448.843268
 31
0.0
  0
LINE
  8
LC-001-002-----0
 62
     1
  5
34E
 10
313.442635
 20
448.843268
 30
0.0
 11
315.442635
 21
448.843268
 31
0.0
  0
LINE
  8
LC-001-002-----0
 62
     1
  5
34F
 10
313.442635
 20
440.843268
 30
0.0
 11
315.442635
 21
440.843268
 31
0.0
  0
LINE
  8
LC-001-002-----0
 62
     1
  5
350
 10
315.442635
 20
448.843268
 30
0.0
 11
315.442635
 21
459.593268
 31
0.0
  0
LINE
  8
LC-001-002-----0
 62
     1
  5
351
 10
315.442635
 20
461.693268
 30
0.0
 11
315.442635
 21
478.343268
 31
0.0
  0
LINE
  8
LC-001-002-----0
 62
     1
  5
352
 10
309.442635
 20
440.843268
 30
0.0
 11
309.442635
 21
459.593268
 31
0.0
  0
LINE
  8
LC-001-002-----0
 62
     1
  5
353
 10
309.442635
 20
461.693268
 30
0.0
 11
309.442635
 21
478.343268
 31
0.0
  0
LINE
  8
LC-005-003-----0
 62
     2
  5
354
 10
309.942635
 20
448.843268
 30
0.0
 11
309.942635
 21
459.593268
 31
0.0
  0
LINE
  8
LC-005-003-----0
 62
     2
  5
355
 10
309.942635
 20
461.693268
 30
0.0
 11
309.942635
 21
478.843268
 31
0.0
  0
LINE
  8
LC-005-003-----0
 62
     2
  5
356
 10
314.942635
 20
448.843268
 30
0.0
 11
314.942635
 21
459.593268
 31
0.0
  0
LINE
  8
LC-005-003-----0
 62
     2
  5
357
 10
314.942635
 20
461.693268
 30
0.0
 11
314.942635
 21
478.843268
 31
0.0
  0
LINE
  8
LC-001-002-----0
 62
     1
  5
358
 10
313.442635
 20
448.843268
 30
0.0
 11
313.442635
 21
440.843268
 31
0.0
  0
LINE
  8
LC-001-002-----0
 62
     1
  5
359
 10
311.442635
 20
448.843268
 30
0.0
 11
311.442635
 21
440.843268
 31
0.0
  0
ARC
  8
LC-002-002-RND-0
 62
     1
  5
35A
 10
315.442635
 20
446.843268
 30
0.0
 40
2.0
 50
360.0
 51
90.0
  0
ARC
  8
LC-002-002-RND-0
 62
     1
  5
35B
 10
315.442635
 20
442.843268
 30
0.0
 40
2.0
 50
270.0
 51
360.0
  0
ARC
  8
LC-002-002-RND-0
 62
     1
  5
35C
 10
309.442635
 20
442.843268
 30
0.0
 40
2.0
 50
180.0
 51
270.0
  0
ARC
  8
LC-002-002-RND-0
 62
     1
  5
35D
 10
309.442635
 20
446.843268
 30
0.0
 40
2.0
 50
90.0
 51
180.0
  0
LINE
  8
LC-001-002-----0
 62
     1
  5
35E
 10
497.442508
 20
427.343268
 30
0.0
 11
497.442508
 21
440.843268
 31
0.0
  0
LINE
  8
LC-001-002-----0
 62
     1
  5
35F
 10
502.942514
 20
426.843268
 30
0.0
 11
497.942514
 21
426.843268
 31
0.0
  0
LINE
  8
LC-001-002-----0
 62
     1
  5
360
 10
503.442508
 20
427.343268
 30
0.0
 11
503.442508
 21
440.843268
 31
0.0
  0
LINE
  8
LC-001-002-----0
 62
     1
  5
361
 10
497.942508
 20
478.843268
 30
0.0
 11
502.942508
 21
478.843268
 31
0.0
  0
LINE
  8
LC-001-002-----0
 62
     1
  5
362
 10
497.942508
 20
478.843268
 30
0.0
 11
497.442508
 21
478.343268
 31
0.0
  0
LINE
  8
LC-001-002-----0
 62
     1
  5
363
 10
502.942508
 20
478.843268
 30
0.0
 11
503.442508
 21
478.343268
 31
0.0
  0
LINE
  8
LC-001-002-----0
 62
     1
  5
364
 10
497.442508
 20
478.343268
 30
0.0
 11
503.442508
 21
478.343268
 31
0.0
  0
LINE
  8
LC-001-002-----0
 62
     1
  5
365
 10
502.942514
 20
426.843268
 30
0.0
 11
503.442514
 21
427.343268
 31
0.0
  0
LINE
  8
LC-001-002-----0
 62
     1
  5
366
 10
497.942514
 20
426.843268
 30
0.0
 11
497.442514
 21
427.343268
 31
0.0
  0
LINE
  8
LC-001-002-----0
 62
     1
  5
367
 10
503.442514
 20
427.343268
 30
0.0
 11
497.442514
 21
427.343268
 31
0.0
  0
LINE
  8
LC-005-003-----0
 62
     2
  5
368
 10
497.942508
 20
426.843268
 30
0.0
 11
497.942508
 21
440.843268
 31
0.0
  0
LINE
  8
LC-005-003-----0
 62
     2
  5
369
 10
502.942508
 20
426.843268
 30
0.0
 11
502.942508
 21
440.843268
 31
0.0
  0
LINE
  8
LC-004-006-MLN-0
 62
     2
  5
36A
 10
500.442508
 20
488.843268
 30
0.0
 11
500.442508
 21
418.843268
 31
0.0
  0
LINE
  8
LC-001-002-----0
 62
     1
  5
36B
 10
503.442508
 20
440.843268
 30
0.0
 11
501.442508
 21
440.843268
 31
0.0
  0
LINE
  8
LC-001-002-----0
 62
     1
  5
36C
 10
505.442508
 20
446.843268
 30
0.0
 11
505.442508
 21
442.843268
 31
0.0
  0
LINE
  8
LC-001-002-----0
 62
     1
  5
36D
 10
495.442508
 20
446.843268
 30
0.0
 11
495.442508
 21
442.843268
 31
0.0
  0
LINE
  8
LC-001-002-----0
 62
     1
  5
36E
 10
503.442508
 20
448.843268
 30
0.0
 11
501.442508
 21
448.843268
 31
0.0
  0
LINE
  8
LC-001-002-----0
 62
     1
  5
36F
 10
499.442508
 20
448.843268
 30
0.0
 11
497.442508
 21
448.843268
 31
0.0
  0
LINE
  8
LC-001-002-----0
 62
     1
  5
370
 10
499.442508
 20
440.843268
 30
0.0
 11
497.442508
 21
440.843268
 31
0.0
  0
LINE
  8
LC-001-002-----0
 62
     1
  5
371
 10
497.442508
 20
440.843268
 30
0.0
 11
497.442508
 21
459.58925
 31
0.0
  0
LINE
  8
LC-001-002-----0
 62
     1
  5
372
 10
497.442508
 20
461.68925
 30
0.0
 11
497.442508
 21
478.343268
 31
0.0
  0
LINE
  8
LC-001-002-----0
 62
     1
  5
373
 10
503.442508
 20
448.843268
 30
0.0
 11
503.442508
 21
459.588985
 31
0.0
  0
LINE
  8
LC-001-002-----0
 62
     1
  5
374
 10
503.442508
 20
461.688985
 30
0.0
 11
503.442508
 21
478.343268
 31
0.0
  0
LINE
  8
LC-005-003-----0
 62
     2
  5
375
 10
502.942508
 20
448.843268
 30
0.0
 11
502.942508
 21
459.589007
 31
0.0
  0
LINE
  8
LC-005-003-----0
 62
     2
  5
376
 10
502.942508
 20
461.689007
 30
0.0
 11
502.942508
 21
478.843268
 31
0.0
  0
LINE
  8
LC-005-003-----0
 62
     2
  5
377
 10
497.942508
 20
448.843268
 30
0.0
 11
497.942508
 21
459.589228
 31
0.0
  0
LINE
  8
LC-005-003-----0
 62
     2
  5
378
 10
497.942508
 20
461.689228
 30
0.0
 11
497.942508
 21
478.843268
 31
0.0
  0
LINE
  8
LC-001-002-----0
 62
     1
  5
379
 10
499.442508
 20
448.843268
 30
0.0
 11
499.442508
 21
440.843268
 31
0.0
  0
LINE
  8
LC-001-002-----0
 62
     1
  5
37A
 10
501.442508
 20
448.843268
 30
0.0
 11
501.442508
 21
440.843268
 31
0.0
  0
ARC
  8
LC-002-002-RND-0
 62
     1
  5
37B
 10
497.442508
 20
446.843268
 30
0.0
 40
2.0
 50
90.0
 51
180.0
  0
ARC
  8
LC-002-002-RND-0
 62
     1
  5
37C
 10
497.442508
 20
442.843268
 30
0.0
 40
2.0
 50
180.0
 51
270.0
  0
ARC
  8
LC-002-002-RND-0
 62
     1
  5
37D
 10
503.442508
 20
442.843268
 30
0.0
 40
2.0
 50
270.0
 51
0.0
  0
ARC
  8
LC-002-002-RND-0
 62
     1
  5
37E
 10
503.442508
 20
446.843268
 30
0.0
 40
2.0
 50
0.0
 51
90.0
  0
ARC
  8
LC-001-002-----0
 62
     1
  5
37F
 10
327.603434
 20
353.67536
 30
0.0
 40
0.665919
 50
90.0
 51
264.0
  0
INSERT
  8
LC-003-005-----0
 62
     2
  5
3BC
  2
*X14
 10
0.0
 20
0.0
 30
0.0
  0
ARC
  8
LC-002-002-RND-0
 62
     1
  5
3BD
 10
341.937515
 20
350.861557
 30
0.0
 40
1.0
 50
360.0
 51
84.0
  0
ARC
  8
LC-002-002-RND-0
 62
     1
  5
3BE
 10
470.937515
 20
350.861557
 30
0.0
 40
1.0
 50
96.0
 51
180.0
  0
ARC
  8
LC-002-002-RND-0
 62
     1
  5
3BF
 10
342.437515
 20
342.511113
 30
0.0
 40
0.5
 50
270.0
 51
360.0
  0
LINE
  8
LC-001-002-----0
 62
     1
  5
3C0
 10
342.937515
 20
128.918575
 30
0.0
 11
342.937515
 21
128.841131
 31
0.0
  0
ARC
  8
LC-001-002-----0
 62
     1
  5
3C1
 10
327.603434
 20
329.015029
 30
0.0
 40
0.665919
 50
90.0
 51
264.0
  0
ARC
  8
LC-001-002-----0
 62
     1
  5
3C2
 10
327.603434
 20
341.345195
 30
0.0
 40
0.665919
 50
90.0
 51
264.0
  0
LINE
  8
LC-001-002-----0
 62
     1
  5
3C3
 10
469.937515
 20
128.918575
 30
0.0
 11
469.937515
 21
128.841131
 31
0.0
  0
ARC
  8
LC-002-002-RND-0
 62
     1
  5
3C4
 10
341.937515
 20
338.531392
 30
0.0
 40
1.0
 50
360.0
 51
84.0
  0
LINE
  8
LC-001-002-----0
 62
     1
  5
3C5
 10
485.271596
 20
354.341279
 30
0.0
 11
468.937515
 21
354.341279
 31
0.0
  0
LINE
  8
LC-001-002-----0
 62
     1
  5
3C6
 10
327.603434
 20
342.011113
 30
0.0
 11
342.437515
 21
342.011113
 31
0.0
  0
LINE
  8
LC-001-002-----0
 62
     1
  5
3C7
 10
327.533826
 20
340.682924
 30
0.0
 11
342.042043
 21
339.525914
 31
0.0
  0
LINE
  8
LC-001-002-----0
 62
     1
  5
3C8
 10
469.937515
 20
305.520616
 30
0.0
 11
469.937515
 21
313.87106
 31
0.0
  0
ARC
  8
LC-002-002-RND-0
 62
     1
  5
3C9
 10
341.937515
 20
326.201226
 30
0.0
 40
1.0
 50
360.0
 51
84.0
  0
LINE
  8
LC-001-002-----0
 62
     1
  5
3CA
 10
327.603434
 20
329.680948
 30
0.0
 11
342.437515
 21
329.680948
 31
0.0
  0
LINE
  8
LC-001-002-----0
 62
     1
  5
3CB
 10
327.533826
 20
328.352758
 30
0.0
 11
342.042043
 21
327.195748
 31
0.0
  0
ARC
  8
LC-002-002-RND-0
 62
     1
  5
3CC
 10
470.937515
 20
128.918575
 30
0.0
 40
1.0
 50
96.0
 51
180.0
  0
ARC
  8
LC-001-002-----0
 62
     1
  5
3CD
 10
327.603434
 20
316.684863
 30
0.0
 40
0.665919
 50
90.0
 51
264.0
  0
ARC
  8
LC-002-002-RND-0
 62
     1
  5
3CE
 10
341.937515
 20
313.87106
 30
0.0
 40
1.0
 50
360.0
 51
84.0
  0
LINE
  8
LC-001-002-----0
 62
     1
  5
3CF
 10
327.603434
 20
317.350782
 30
0.0
 11
342.437515
 21
317.350782
 31
0.0
  0
LINE
  8
LC-001-002-----0
 62
     1
  5
3D0
 10
327.533826
 20
316.022592
 30
0.0
 11
342.042043
 21
314.865582
 31
0.0
  0
LINE
  8
LC-001-002-----0
 62
     1
  5
3D1
 10
469.937515
 20
330.180948
 30
0.0
 11
469.937515
 21
338.531392
 31
0.0
  0
ARC
  8
LC-001-002-----0
 62
     1
  5
3D2
 10
327.603434
 20
304.354698
 30
0.0
 40
0.665919
 50
90.0
 51
264.0
  0
ARC
  8
LC-002-002-RND-0
 62
     1
  5
3D3
 10
341.937515
 20
301.540895
 30
0.0
 40
1.0
 50
360.0
 51
84.0
  0
LINE
  8
LC-001-002-----0
 62
     1
  5
3D4
 10
327.603434
 20
305.020616
 30
0.0
 11
342.437515
 21
305.020616
 31
0.0
  0
LINE
  8
LC-001-002-----0
 62
     1
  5
3D5
 10
327.533826
 20
303.692427
 30
0.0
 11
342.042043
 21
302.535417
 31
0.0
  0
LINE
  8
LC-001-002-----0
 62
     1
  5
3D6
 10
469.937515
 20
280.860285
 30
0.0
 11
469.937515
 21
289.210729
 31
0.0
  0
LINE
  8
LC-001-002-----0
 62
     1
  5
3D7
 10
469.937515
 20
256.199954
 30
0.0
 11
469.937515
 21
264.550398
 31
0.0
  0
LINE
  8
LC-001-002-----0
 62
     1
  5
3D8
 10
469.937515
 20
342.511113
 30
0.0
 11
469.937515
 21
350.861557
 31
0.0
  0
ARC
  8
LC-001-002-----0
 62
     1
  5
3D9
 10
327.603434
 20
292.024532
 30
0.0
 40
0.665919
 50
90.0
 51
264.0
  0
ARC
  8
LC-002-002-RND-0
 62
     1
  5
3DA
 10
341.937515
 20
289.210729
 30
0.0
 40
1.0
 50
360.0
 51
84.0
  0
LINE
  8
LC-001-002-----0
 62
     1
  5
3DB
 10
327.603434
 20
292.690451
 30
0.0
 11
342.437515
 21
292.690451
 31
0.0
  0
LINE
  8
LC-001-002-----0
 62
     1
  5
3DC
 10
327.533826
 20
291.362261
 30
0.0
 11
342.042043
 21
290.205251
 31
0.0
  0
LINE
  8
LC-001-002-----0
 62
     1
  5
3DD
 10
469.937515
 20
317.850782
 30
0.0
 11
469.937515
 21
326.201226
 31
0.0
  0
ARC
  8
LC-001-002-----0
 62
     1
  5
3DE
 10
327.603434
 20
279.694366
 30
0.0
 40
0.665919
 50
90.0
 51
264.0
  0
ARC
  8
LC-002-002-RND-0
 62
     1
  5
3DF
 10
341.937515
 20
276.880563
 30
0.0
 40
1.0
 50
360.0
 51
84.0
  0
LINE
  8
LC-001-002-----0
 62
     1
  5
3E0
 10
327.603434
 20
280.360285
 30
0.0
 11
342.437515
 21
280.360285
 31
0.0
  0
LINE
  8
LC-001-002-----0
 62
     1
  5
3E1
 10
327.533826
 20
279.032095
 30
0.0
 11
342.042043
 21
277.875085
 31
0.0
  0
LINE
  8
LC-001-002-----0
 62
     1
  5
3E2
 10
469.937515
 20
293.190451
 30
0.0
 11
469.937515
 21
301.540895
 31
0.0
  0
ARC
  8
LC-001-002-----0
 62
     1
  5
3E3
 10
327.603434
 20
267.364201
 30
0.0
 40
0.665919
 50
90.0
 51
264.0
  0
ARC
  8
LC-002-002-RND-0
 62
     1
  5
3E4
 10
341.937515
 20
264.550398
 30
0.0
 40
1.0
 50
360.0
 51
84.0
  0
LINE
  8
LC-001-002-----0
 62
     1
  5
3E5
 10
327.603434
 20
268.030119
 30
0.0
 11
342.437515
 21
268.030119
 31
0.0
  0
LINE
  8
LC-001-002-----0
 62
     1
  5
3E6
 10
327.533826
 20
266.70193
 30
0.0
 11
342.042043
 21
265.54492
 31
0.0
  0
LINE
  8
LC-001-002-----0
 62
     1
  5
3E7
 10
469.937515
 20
268.530119
 30
0.0
 11
469.937515
 21
276.880563
 31
0.0
  0
ARC
  8
LC-001-002-----0
 62
     1
  5
3E8
 10
327.603434
 20
255.034035
 30
0.0
 40
0.665919
 50
90.0
 51
264.0
  0
ARC
  8
LC-002-002-RND-0
 62
     1
  5
3E9
 10
341.937515
 20
252.220232
 30
0.0
 40
1.0
 50
360.0
 51
84.0
  0
LINE
  8
LC-001-002-----0
 62
     1
  5
3EA
 10
327.603434
 20
354.341279
 30
0.0
 11
343.937515
 21
354.341279
 31
0.0
  0
LINE
  8
LC-001-002-----0
 62
     1
  5
3EB
 10
327.603434
 20
255.699954
 30
0.0
 11
342.437515
 21
255.699954
 31
0.0
  0
LINE
  8
LC-001-002-----0
 62
     1
  5
3EC
 10
469.937515
 20
243.869788
 30
0.0
 11
469.937515
 21
252.220232
 31
0.0
  0
LINE
  8
LC-001-002-----0
 62
     1
  5
3ED
 10
327.533826
 20
254.371764
 30
0.0
 11
342.042043
 21
253.214754
 31
0.0
  0
LINE
  8
LC-001-002-----0
 62
     1
  5
3EE
 10
469.937515
 20
231.539622
 30
0.0
 11
469.937515
 21
239.890066
 31
0.0
  0
ARC
  8
LC-001-002-----0
 62
     1
  5
3EF
 10
327.603434
 20
242.703869
 30
0.0
 40
0.665919
 50
90.0
 51
264.0
  0
ARC
  8
LC-002-002-RND-0
 62
     1
  5
3F0
 10
341.937515
 20
239.890066
 30
0.0
 40
1.0
 50
360.0
 51
84.0
  0
LINE
  8
LC-001-002-----0
 62
     1
  5
3F1
 10
327.603434
 20
243.369788
 30
0.0
 11
342.437515
 21
243.369788
 31
0.0
  0
LINE
  8
LC-001-002-----0
 62
     1
  5
3F2
 10
327.533826
 20
242.041598
 30
0.0
 11
342.042043
 21
240.884588
 31
0.0
  0
LINE
  8
LC-001-002-----0
 62
     1
  5
3F3
 10
469.937515
 20
219.209457
 30
0.0
 11
469.937515
 21
227.559901
 31
0.0
  0
ARC
  8
LC-001-002-----0
 62
     1
  5
3F4
 10
327.603434
 20
230.373704
 30
0.0
 40
0.665919
 50
90.0
 51
264.0
  0
ARC
  8
LC-002-002-RND-0
 62
     1
  5
3F5
 10
341.937515
 20
227.559901
 30
0.0
 40
1.0
 50
360.0
 51
84.0
  0
LINE
  8
LC-001-002-----0
 62
     1
  5
3F6
 10
327.603434
 20
231.039622
 30
0.0
 11
342.437515
 21
231.039622
 31
0.0
  0
LINE
  8
LC-001-002-----0
 62
     1
  5
3F7
 10
327.533826
 20
229.711433
 30
0.0
 11
342.042043
 21
228.554423
 31
0.0
  0
LINE
  8
LC-001-002-----0
 62
     1
  5
3F8
 10
469.937515
 20
206.879291
 30
0.0
 11
469.937515
 21
215.229735
 31
0.0
  0
LINE
  8
LC-001-002-----0
 62
     1
  5
3F9
 10
342.937515
 20
305.520616
 30
0.0
 11
342.937515
 21
313.87106
 31
0.0
  0
ARC
  8
LC-002-002-RND-0
 62
     1
  5
3FA
 10
341.937515
 20
128.918575
 30
0.0
 40
1.0
 50
360.0
 51
84.0
  0
LINE
  8
LC-001-002-----0
 62
     1
  5
3FB
 10
342.937515
 20
330.180948
 30
0.0
 11
342.937515
 21
338.531392
 31
0.0
  0
LINE
  8
LC-001-002-----0
 62
     1
  5
3FC
 10
469.937515
 20
194.549125
 30
0.0
 11
469.937515
 21
202.899569
 31
0.0
  0
LINE
  8
LC-001-002-----0
 62
     1
  5
3FD
 10
469.937515
 20
182.21896
 30
0.0
 11
469.937515
 21
190.569404
 31
0.0
  0
ARC
  8
LC-001-002-----0
 62
     1
  5
3FE
 10
327.603434
 20
218.043538
 30
0.0
 40
0.665919
 50
90.0
 51
264.0
  0
LINE
  8
LC-001-002-----0
 62
     1
  5
3FF
 10
469.937515
 20
169.888794
 30
0.0
 11
469.937515
 21
178.239238
 31
0.0
  0
ARC
  8
LC-002-002-RND-0
 62
     1
  5
400
 10
341.937515
 20
215.229735
 30
0.0
 40
1.0
 50
360.0
 51
84.0
  0
LINE
  8
LC-001-002-----0
 62
     1
  5
401
 10
469.937515
 20
157.558628
 30
0.0
 11
469.937515
 21
165.909072
 31
0.0
  0
LINE
  8
LC-001-002-----0
 62
     1
  5
402
 10
469.937515
 20
145.228463
 30
0.0
 11
469.937515
 21
153.578907
 31
0.0
  0
ARC
  8
LC-002-002-RND-0
 62
     1
  5
403
 10
470.437515
 20
330.180948
 30
0.0
 40
0.5
 50
180.0
 51
270.0
  0
ARC
  8
LC-002-002-RND-0
 62
     1
  5
404
 10
470.437515
 20
293.190451
 30
0.0
 40
0.5
 50
180.0
 51
270.0
  0
ARC
  8
LC-002-002-RND-0
 62
     1
  5
405
 10
470.437515
 20
280.860285
 30
0.0
 40
0.5
 50
180.0
 51
270.0
  0
LINE
  8
LC-001-002-----0
 62
     1
  5
406
 10
469.937515
 20
132.898297
 30
0.0
 11
469.937515
 21
141.248741
 31
0.0
  0
LINE
  8
LC-001-002-----0
 62
     1
  5
407
 10
469.437515
 20
128.341131
 30
0.0
 11
468.937515
 21
128.341131
 31
0.0
  0
LINE
  8
LC-001-002-----0
 62
     1
  5
408
 10
469.937515
 20
128.841131
 30
0.0
 11
469.437515
 21
128.341131
 31
0.0
  0
LINE
  8
LC-001-002-----0
 62
     1
  5
409
 10
327.603434
 20
218.709457
 30
0.0
 11
342.437515
 21
218.709457
 31
0.0
  0
LINE
  8
LC-001-002-----0
 62
     1
  5
40A
 10
327.533826
 20
217.381267
 30
0.0
 11
342.042043
 21
216.224257
 31
0.0
  0
LINE
  8
LC-001-002-----0
 62
     1
  5
40B
 10
468.937515
 20
128.341131
 30
0.0
 11
468.937515
 21
354.341279
 31
0.0
  0
ARC
  8
LC-001-002-----0
 62
     1
  5
40C
 10
327.603434
 20
205.713372
 30
0.0
 40
0.665919
 50
90.0
 51
264.0
  0
LINE
  8
LC-001-002-----0
 62
     1
  5
40D
 10
485.341203
 20
353.013089
 30
0.0
 11
470.832986
 21
351.856079
 31
0.0
  0
ARC
  8
LC-001-002-----0
 62
     1
  5
40E
 10
485.271596
 20
353.67536
 30
0.0
 40
0.665919
 50
276.0
 51
90.0
  0
INSERT
  8
LC-003-005-----0
 62
     2
  5
44F
  2
*X15
 10
0.0
 20
0.0
 30
0.0
  0
ARC
  8
LC-002-002-RND-0
 62
     1
  5
450
 10
470.437515
 20
342.511113
 30
0.0
 40
0.5
 50
180.0
 51
270.0
  0
ARC
  8
LC-002-002-RND-0
 62
     1
  5
451
 10
341.937515
 20
202.899569
 30
0.0
 40
1.0
 50
360.0
 51
84.0
  0
ARC
  8
LC-001-002-----0
 62
     1
  5
452
 10
485.271596
 20
329.015029
 30
0.0
 40
0.665919
 50
276.0
 51
90.0
  0
LINE
  8
LC-001-002-----0
 62
     1
  5
453
 10
327.603434
 20
206.379291
 30
0.0
 11
342.437515
 21
206.379291
 31
0.0
  0
ARC
  8
LC-001-002-----0
 62
     1
  5
454
 10
485.271596
 20
341.345195
 30
0.0
 40
0.665919
 50
276.0
 51
90.0
  0
ARC
  8
LC-002-002-RND-0
 62
     1
  5
455
 10
470.937515
 20
338.531392
 30
0.0
 40
1.0
 50
96.0
 51
180.0
  0
LINE
  8
LC-001-002-----0
 62
     1
  5
456
 10
485.271596
 20
342.011113
 30
0.0
 11
470.437515
 21
342.011113
 31
0.0
  0
LINE
  8
LC-001-002-----0
 62
     1
  5
457
 10
485.341203
 20
340.682924
 30
0.0
 11
470.832986
 21
339.525914
 31
0.0
  0
ARC
  8
LC-002-002-RND-0
 62
     1
  5
458
 10
470.937515
 20
326.201226
 30
0.0
 40
1.0
 50
96.0
 51
180.0
  0
LINE
  8
LC-001-002-----0
 62
     1
  5
459
 10
485.271596
 20
329.680948
 30
0.0
 11
470.437515
 21
329.680948
 31
0.0
  0
LINE
  8
LC-001-002-----0
 62
     1
  5
45A
 10
485.341203
 20
328.352758
 30
0.0
 11
470.832986
 21
327.195748
 31
0.0
  0
ARC
  8
LC-001-002-----0
 62
     1
  5
45B
 10
485.271596
 20
316.684863
 30
0.0
 40
0.665919
 50
276.0
 51
90.0
  0
ARC
  8
LC-002-002-RND-0
 62
     1
  5
45C
 10
470.937515
 20
313.87106
 30
0.0
 40
1.0
 50
96.0
 51
180.0
  0
LINE
  8
LC-001-002-----0
 62
     1
  5
45D
 10
485.271596
 20
317.350782
 30
0.0
 11
470.437515
 21
317.350782
 31
0.0
  0
LINE
  8
LC-001-002-----0
 62
     1
  5
45E
 10
485.341203
 20
316.022592
 30
0.0
 11
470.832986
 21
314.865582
 31
0.0
  0
ARC
  8
LC-001-002-----0
 62
     1
  5
45F
 10
485.271596
 20
304.354698
 30
0.0
 40
0.665919
 50
276.0
 51
90.0
  0
ARC
  8
LC-002-002-RND-0
 62
     1
  5
460
 10
470.937515
 20
301.540895
 30
0.0
 40
1.0
 50
96.0
 51
180.0
  0
LINE
  8
LC-001-002-----0
 62
     1
  5
461
 10
485.271596
 20
305.020616
 30
0.0
 11
470.437515
 21
305.020616
 31
0.0
  0
LINE
  8
LC-001-002-----0
 62
     1
  5
462
 10
485.341203
 20
303.692427
 30
0.0
 11
470.832986
 21
302.535417
 31
0.0
  0
ARC
  8
LC-001-002-----0
 62
     1
  5
463
 10
485.271596
 20
292.024532
 30
0.0
 40
0.665919
 50
276.0
 51
90.0
  0
ARC
  8
LC-002-002-RND-0
 62
     1
  5
464
 10
470.937515
 20
289.210729
 30
0.0
 40
1.0
 50
96.0
 51
180.0
  0
LINE
  8
LC-001-002-----0
 62
     1
  5
465
 10
485.271596
 20
292.690451
 30
0.0
 11
470.437515
 21
292.690451
 31
0.0
  0
LINE
  8
LC-001-002-----0
 62
     1
  5
466
 10
485.341203
 20
291.362261
 30
0.0
 11
470.832986
 21
290.205251
 31
0.0
  0
LINE
  8
LC-001-002-----0
 62
     1
  5
467
 10
327.533826
 20
205.051102
 30
0.0
 11
342.042043
 21
203.894091
 31
0.0
  0
ARC
  8
LC-001-002-----0
 62
     1
  5
468
 10
485.271596
 20
279.694366
 30
0.0
 40
0.665919
 50
276.0
 51
90.0
  0
ARC
  8
LC-002-002-RND-0
 62
     1
  5
469
 10
470.937515
 20
276.880563
 30
0.0
 40
1.0
 50
96.0
 51
180.0
  0
LINE
  8
LC-001-002-----0
 62
     1
  5
46A
 10
342.937515
 20
280.860285
 30
0.0
 11
342.937515
 21
289.210729
 31
0.0
  0
LINE
  8
LC-001-002-----0
 62
     1
  5
46B
 10
485.271596
 20
280.360285
 30
0.0
 11
470.437515
 21
280.360285
 31
0.0
  0
LINE
  8
LC-001-002-----0
 62
     1
  5
46C
 10
342.937515
 20
256.199954
 30
0.0
 11
342.937515
 21
264.550398
 31
0.0
  0
ARC
  8
LC-001-002-----0
 62
     1
  5
46D
 10
327.603434
 20
193.383207
 30
0.0
 40
0.665919
 50
90.0
 51
264.0
  0
ARC
  8
LC-002-002-RND-0
 62
     1
  5
46E
 10
341.937515
 20
190.569404
 30
0.0
 40
1.0
 50
360.0
 51
84.0
  0
LINE
  8
LC-001-002-----0
 62
     1
  5
46F
 10
327.603434
 20
194.049125
 30
0.0
 11
342.437515
 21
194.049125
 31
0.0
  0
LINE
  8
LC-001-002-----0
 62
     1
  5
470
 10
327.533826
 20
192.720936
 30
0.0
 11
342.042043
 21
191.563926
 31
0.0
  0
LINE
  8
LC-001-002-----0
 62
     1
  5
471
 10
485.341203
 20
279.032095
 30
0.0
 11
470.832986
 21
277.875085
 31
0.0
  0
ARC
  8
LC-001-002-----0
 62
     1
  5
472
 10
327.603434
 20
181.053041
 30
0.0
 40
0.665919
 50
90.0
 51
264.0
  0
ARC
  8
LC-002-002-RND-0
 62
     1
  5
473
 10
341.937515
 20
178.239238
 30
0.0
 40
1.0
 50
360.0
 51
84.0
  0
LINE
  8
LC-001-002-----0
 62
     1
  5
474
 10
327.603434
 20
181.71896
 30
0.0
 11
342.437515
 21
181.71896
 31
0.0
  0
LINE
  8
LC-001-002-----0
 62
     1
  5
475
 10
327.533826
 20
180.39077
 30
0.0
 11
342.042043
 21
179.23376
 31
0.0
  0
ARC
  8
LC-001-002-----0
 62
     1
  5
476
 10
485.271596
 20
267.364201
 30
0.0
 40
0.665919
 50
276.0
 51
90.0
  0
ARC
  8
LC-001-002-----0
 62
     1
  5
477
 10
327.603434
 20
168.722875
 30
0.0
 40
0.665919
 50
90.0
 51
264.0
  0
ARC
  8
LC-002-002-RND-0
 62
     1
  5
478
 10
341.937515
 20
165.909072
 30
0.0
 40
1.0
 50
360.0
 51
84.0
  0
LINE
  8
LC-001-002-----0
 62
     1
  5
479
 10
327.603434
 20
169.388794
 30
0.0
 11
342.437515
 21
169.388794
 31
0.0
  0
LINE
  8
LC-001-002-----0
 62
     1
  5
47A
 10
327.533826
 20
168.060605
 30
0.0
 11
342.042043
 21
166.903594
 31
0.0
  0
ARC
  8
LC-002-002-RND-0
 62
     1
  5
47B
 10
470.937515
 20
264.550398
 30
0.0
 40
1.0
 50
96.0
 51
180.0
  0
ARC
  8
LC-001-002-----0
 62
     1
  5
47C
 10
327.603434
 20
156.39271
 30
0.0
 40
0.665919
 50
90.0
 51
264.0
  0
ARC
  8
LC-002-002-RND-0
 62
     1
  5
47D
 10
341.937515
 20
153.578907
 30
0.0
 40
1.0
 50
360.0
 51
84.0
  0
LINE
  8
LC-001-002-----0
 62
     1
  5
47E
 10
327.603434
 20
157.058628
 30
0.0
 11
342.437515
 21
157.058628
 31
0.0
  0
LINE
  8
LC-001-002-----0
 62
     1
  5
47F
 10
327.533826
 20
155.730439
 30
0.0
 11
342.042043
 21
154.573429
 31
0.0
  0
LINE
  8
LC-001-002-----0
 62
     1
  5
480
 10
485.271596
 20
268.030119
 30
0.0
 11
470.437515
 21
268.030119
 31
0.0
  0
ARC
  8
LC-001-002-----0
 62
     1
  5
481
 10
327.603434
 20
144.062544
 30
0.0
 40
0.665919
 50
90.0
 51
264.0
  0
ARC
  8
LC-002-002-RND-0
 62
     1
  5
482
 10
341.937515
 20
141.248741
 30
0.0
 40
1.0
 50
360.0
 51
84.0
  0
LINE
  8
LC-001-002-----0
 62
     1
  5
483
 10
327.603434
 20
144.728463
 30
0.0
 11
342.437515
 21
144.728463
 31
0.0
  0
LINE
  8
LC-001-002-----0
 62
     1
  5
484
 10
327.533826
 20
143.400273
 30
0.0
 11
342.042043
 21
142.243263
 31
0.0
  0
LINE
  8
LC-001-002-----0
 62
     1
  5
485
 10
485.341203
 20
266.70193
 30
0.0
 11
470.832986
 21
265.54492
 31
0.0
  0
ARC
  8
LC-001-002-----0
 62
     1
  5
486
 10
327.603434
 20
131.732378
 30
0.0
 40
0.665919
 50
90.0
 51
264.0
  0
ARC
  8
LC-002-002-RND-0
 62
     1
  5
487
 10
341.937515
 20
128.918575
 30
0.0
 40
1.0
 50
360.0
 51
84.0
  0
LINE
  8
LC-001-002-----0
 62
     1
  5
488
 10
327.603434
 20
132.398297
 30
0.0
 11
342.437515
 21
132.398297
 31
0.0
  0
LINE
  8
LC-001-002-----0
 62
     1
  5
489
 10
327.533826
 20
131.070108
 30
0.0
 11
342.042043
 21
129.913097
 31
0.0
  0
ARC
  8
LC-001-002-----0
 62
     1
  5
48A
 10
485.271596
 20
255.034035
 30
0.0
 40
0.665919
 50
276.0
 51
90.0
  0
LINE
  8
LC-001-002-----0
 62
     1
  5
48B
 10
342.937515
 20
342.511113
 30
0.0
 11
342.937515
 21
350.861557
 31
0.0
  0
LINE
  8
LC-001-002-----0
 62
     1
  5
48C
 10
342.937515
 20
317.850782
 30
0.0
 11
342.937515
 21
326.201226
 31
0.0
  0
LINE
  8
LC-001-002-----0
 62
     1
  5
48D
 10
342.937515
 20
293.190451
 30
0.0
 11
342.937515
 21
301.540895
 31
0.0
  0
LINE
  8
LC-001-002-----0
 62
     1
  5
48E
 10
342.937515
 20
268.530119
 30
0.0
 11
342.937515
 21
276.880563
 31
0.0
  0
LINE
  8
LC-001-002-----0
 62
     1
  5
48F
 10
342.937515
 20
243.869788
 30
0.0
 11
342.937515
 21
252.220232
 31
0.0
  0
LINE
  8
LC-001-002-----0
 62
     1
  5
490
 10
342.937515
 20
231.539622
 30
0.0
 11
342.937515
 21
239.890066
 31
0.0
  0
LINE
  8
LC-001-002-----0
 62
     1
  5
491
 10
342.937515
 20
219.209457
 30
0.0
 11
342.937515
 21
227.559901
 31
0.0
  0
LINE
  8
LC-001-002-----0
 62
     1
  5
492
 10
342.937515
 20
206.879291
 30
0.0
 11
342.937515
 21
215.229735
 31
0.0
  0
LINE
  8
LC-001-002-----0
 62
     1
  5
493
 10
342.937515
 20
194.549125
 30
0.0
 11
342.937515
 21
202.899569
 31
0.0
  0
LINE
  8
LC-001-002-----0
 62
     1
  5
494
 10
342.937515
 20
182.21896
 30
0.0
 11
342.937515
 21
190.569404
 31
0.0
  0
LINE
  8
LC-001-002-----0
 62
     1
  5
495
 10
342.937515
 20
169.888794
 30
0.0
 11
342.937515
 21
178.239238
 31
0.0
  0
LINE
  8
LC-001-002-----0
 62
     1
  5
496
 10
342.937515
 20
157.558628
 30
0.0
 11
342.937515
 21
165.909072
 31
0.0
  0
LINE
  8
LC-001-002-----0
 62
     1
  5
497
 10
342.937515
 20
145.228463
 30
0.0
 11
342.937515
 21
153.578907
 31
0.0
  0
ARC
  8
LC-002-002-RND-0
 62
     1
  5
498
 10
342.437515
 20
330.180948
 30
0.0
 40
0.5
 50
270.0
 51
360.0
  0
ARC
  8
LC-002-002-RND-0
 62
     1
  5
499
 10
342.437515
 20
317.850782
 30
0.0
 40
0.5
 50
270.0
 51
360.0
  0
ARC
  8
LC-002-002-RND-0
 62
     1
  5
49A
 10
342.437515
 20
305.520616
 30
0.0
 40
0.5
 50
270.0
 51
360.0
  0
ARC
  8
LC-002-002-RND-0
 62
     1
  5
49B
 10
342.437515
 20
293.190451
 30
0.0
 40
0.5
 50
270.0
 51
360.0
  0
ARC
  8
LC-002-002-RND-0
 62
     1
  5
49C
 10
470.937515
 20
252.220232
 30
0.0
 40
1.0
 50
96.0
 51
180.0
  0
ARC
  8
LC-002-002-RND-0
 62
     1
  5
49D
 10
342.437515
 20
280.860285
 30
0.0
 40
0.5
 50
270.0
 51
360.0
  0
LINE
  8
LC-001-002-----0
 62
     1
  5
49E
 10
485.271596
 20
255.699954
 30
0.0
 11
470.437515
 21
255.699954
 31
0.0
  0
ARC
  8
LC-002-002-RND-0
 62
     1
  5
49F
 10
342.437515
 20
268.530119
 30
0.0
 40
0.5
 50
270.0
 51
360.0
  0
ARC
  8
LC-002-002-RND-0
 62
     1
  5
4A0
 10
342.437515
 20
256.199954
 30
0.0
 40
0.5
 50
270.0
 51
360.0
  0
LINE
  8
LC-001-002-----0
 62
     1
  5
4A1
 10
485.341203
 20
254.371764
 30
0.0
 11
470.832986
 21
253.214754
 31
0.0
  0
ARC
  8
LC-002-002-RND-0
 62
     1
  5
4A2
 10
342.437515
 20
243.869788
 30
0.0
 40
0.5
 50
270.0
 51
360.0
  0
ARC
  8
LC-002-002-RND-0
 62
     1
  5
4A3
 10
342.437515
 20
231.539622
 30
0.0
 40
0.5
 50
270.0
 51
360.0
  0
ARC
  8
LC-002-002-RND-0
 62
     1
  5
4A4
 10
470.937515
 20
239.890066
 30
0.0
 40
1.0
 50
96.0
 51
180.0
  0
LINE
  8
LC-001-002-----0
 62
     1
  5
4A5
 10
485.271596
 20
243.369788
 30
0.0
 11
470.437515
 21
243.369788
 31
0.0
  0
ARC
  8
LC-002-002-RND-0
 62
     1
  5
4A6
 10
342.437515
 20
219.209457
 30
0.0
 40
0.5
 50
270.0
 51
360.0
  0
LINE
  8
LC-001-002-----0
 62
     1
  5
4A7
 10
485.341203
 20
242.041598
 30
0.0
 11
470.832986
 21
240.884588
 31
0.0
  0
ARC
  8
LC-001-002-----0
 62
     1
  5
4A8
 10
485.271596
 20
230.373704
 30
0.0
 40
0.665919
 50
276.0
 51
90.0
  0
ARC
  8
LC-002-002-RND-0
 62
     1
  5
4A9
 10
342.437515
 20
206.879291
 30
0.0
 40
0.5
 50
270.0
 51
360.0
  0
ARC
  8
LC-002-002-RND-0
 62
     1
  5
4AA
 10
342.437515
 20
194.549125
 30
0.0
 40
0.5
 50
270.0
 51
360.0
  0
ARC
  8
LC-002-002-RND-0
 62
     1
  5
4AB
 10
342.437515
 20
182.21896
 30
0.0
 40
0.5
 50
270.0
 51
360.0
  0
ARC
  8
LC-002-002-RND-0
 62
     1
  5
4AC
 10
470.937515
 20
227.559901
 30
0.0
 40
1.0
 50
96.0
 51
180.0
  0
ARC
  8
LC-002-002-RND-0
 62
     1
  5
4AD
 10
342.437515
 20
169.888794
 30
0.0
 40
0.5
 50
270.0
 51
360.0
  0
ARC
  8
LC-002-002-RND-0
 62
     1
  5
4AE
 10
342.437515
 20
157.558628
 30
0.0
 40
0.5
 50
270.0
 51
360.0
  0
ARC
  8
LC-002-002-RND-0
 62
     1
  5
4AF
 10
342.437515
 20
145.228463
 30
0.0
 40
0.5
 50
270.0
 51
360.0
  0
ARC
  8
LC-002-002-RND-0
 62
     1
  5
4B0
 10
342.437515
 20
132.898297
 30
0.0
 40
0.5
 50
270.0
 51
360.0
  0
LINE
  8
LC-001-002-----0
 62
     1
  5
4B1
 10
485.271596
 20
231.039622
 30
0.0
 11
470.437515
 21
231.039622
 31
0.0
  0
LINE
  8
LC-001-002-----0
 62
     1
  5
4B2
 10
485.341203
 20
229.711433
 30
0.0
 11
470.832986
 21
228.554423
 31
0.0
  0
ARC
  8
LC-001-002-----0
 62
     1
  5
4B3
 10
485.271596
 20
218.043538
 30
0.0
 40
0.665919
 50
276.0
 51
90.0
  0
ARC
  8
LC-002-002-RND-0
 62
     1
  5
4B4
 10
470.937515
 20
215.229735
 30
0.0
 40
1.0
 50
96.0
 51
180.0
  0
LINE
  8
LC-001-002-----0
 62
     1
  5
4B5
 10
485.271596
 20
218.709457
 30
0.0
 11
470.437515
 21
218.709457
 31
0.0
  0
LINE
  8
LC-001-002-----0
 62
     1
  5
4B6
 10
485.341203
 20
217.381267
 30
0.0
 11
470.832986
 21
216.224257
 31
0.0
  0
ARC
  8
LC-001-002-----0
 62
     1
  5
4B7
 10
485.271596
 20
205.713372
 30
0.0
 40
0.665919
 50
276.0
 51
90.0
  0
ARC
  8
LC-002-002-RND-0
 62
     1
  5
4B8
 10
470.937515
 20
202.899569
 30
0.0
 40
1.0
 50
96.0
 51
180.0
  0
LINE
  8
LC-001-002-----0
 62
     1
  5
4B9
 10
485.271596
 20
206.379291
 30
0.0
 11
470.437515
 21
206.379291
 31
0.0
  0
LINE
  8
LC-001-002-----0
 62
     1
  5
4BA
 10
485.341203
 20
205.051102
 30
0.0
 11
470.832986
 21
203.894091
 31
0.0
  0
ARC
  8
LC-001-002-----0
 62
     1
  5
4BB
 10
485.271596
 20
193.383207
 30
0.0
 40
0.665919
 50
276.0
 51
90.0
  0
ARC
  8
LC-002-002-RND-0
 62
     1
  5
4BC
 10
470.937515
 20
190.569404
 30
0.0
 40
1.0
 50
96.0
 51
180.0
  0
LINE
  8
LC-001-002-----0
 62
     1
  5
4BD
 10
485.271596
 20
194.049125
 30
0.0
 11
470.437515
 21
194.049125
 31
0.0
  0
LINE
  8
LC-001-002-----0
 62
     1
  5
4BE
 10
485.341203
 20
192.720936
 30
0.0
 11
470.832986
 21
191.563926
 31
0.0
  0
ARC
  8
LC-001-002-----0
 62
     1
  5
4BF
 10
485.271596
 20
181.053041
 30
0.0
 40
0.665919
 50
276.0
 51
90.0
  0
ARC
  8
LC-002-002-RND-0
 62
     1
  5
4C0
 10
470.937515
 20
178.239238
 30
0.0
 40
1.0
 50
96.0
 51
180.0
  0
LINE
  8
LC-001-002-----0
 62
     1
  5
4C1
 10
485.271596
 20
181.71896
 30
0.0
 11
470.437515
 21
181.71896
 31
0.0
  0
LINE
  8
LC-001-002-----0
 62
     1
  5
4C2
 10
485.341203
 20
180.39077
 30
0.0
 11
470.832986
 21
179.23376
 31
0.0
  0
ARC
  8
LC-001-002-----0
 62
     1
  5
4C3
 10
485.271596
 20
168.722875
 30
0.0
 40
0.665919
 50
276.0
 51
90.0
  0
ARC
  8
LC-002-002-RND-0
 62
     1
  5
4C4
 10
470.937515
 20
165.909072
 30
0.0
 40
1.0
 50
96.0
 51
180.0
  0
LINE
  8
LC-001-002-----0
 62
     1
  5
4C5
 10
485.271596
 20
169.388794
 30
0.0
 11
470.437515
 21
169.388794
 31
0.0
  0
LINE
  8
LC-001-002-----0
 62
     1
  5
4C6
 10
485.341203
 20
168.060605
 30
0.0
 11
470.832986
 21
166.903594
 31
0.0
  0
ARC
  8
LC-001-002-----0
 62
     1
  5
4C7
 10
485.271596
 20
156.39271
 30
0.0
 40
0.665919
 50
276.0
 51
90.0
  0
ARC
  8
LC-002-002-RND-0
 62
     1
  5
4C8
 10
470.937515
 20
153.578907
 30
0.0
 40
1.0
 50
96.0
 51
180.0
  0
LINE
  8
LC-001-002-----0
 62
     1
  5
4C9
 10
485.271596
 20
157.058628
 30
0.0
 11
470.437515
 21
157.058628
 31
0.0
  0
LINE
  8
LC-001-002-----0
 62
     1
  5
4CA
 10
485.341203
 20
155.730439
 30
0.0
 11
470.832986
 21
154.573429
 31
0.0
  0
ARC
  8
LC-001-002-----0
 62
     1
  5
4CB
 10
485.271596
 20
144.062544
 30
0.0
 40
0.665919
 50
276.0
 51
90.0
  0
ARC
  8
LC-002-002-RND-0
 62
     1
  5
4CC
 10
470.937515
 20
141.248741
 30
0.0
 40
1.0
 50
96.0
 51
180.0
  0
LINE
  8
LC-001-002-----0
 62
     1
  5
4CD
 10
485.271596
 20
144.728463
 30
0.0
 11
470.437515
 21
144.728463
 31
0.0
  0
LINE
  8
LC-001-002-----0
 62
     1
  5
4CE
 10
485.341203
 20
143.400273
 30
0.0
 11
470.832986
 21
142.243263
 31
0.0
  0
ARC
  8
LC-001-002-----0
 62
     1
  5
4CF
 10
485.271596
 20
131.732378
 30
0.0
 40
0.665919
 50
276.0
 51
90.0
  0
ARC
  8
LC-002-002-RND-0
 62
     1
  5
4D0
 10
470.937515
 20
128.918575
 30
0.0
 40
1.0
 50
96.0
 51
180.0
  0
LINE
  8
LC-001-002-----0
 62
     1
  5
4D1
 10
485.271596
 20
132.398297
 30
0.0
 11
470.437515
 21
132.398297
 31
0.0
  0
LINE
  8
LC-001-002-----0
 62
     1
  5
4D2
 10
485.341203
 20
131.070108
 30
0.0
 11
470.832986
 21
129.913097
 31
0.0
  0
ARC
  8
LC-002-002-RND-0
 62
     1
  5
4D3
 10
470.437515
 20
317.850782
 30
0.0
 40
0.5
 50
180.0
 51
270.0
  0
ARC
  8
LC-002-002-RND-0
 62
     1
  5
4D4
 10
470.437515
 20
305.520616
 30
0.0
 40
0.5
 50
180.0
 51
270.0
  0
ARC
  8
LC-002-002-RND-0
 62
     1
  5
4D5
 10
470.437515
 20
268.530119
 30
0.0
 40
0.5
 50
180.0
 51
270.0
  0
ARC
  8
LC-002-002-RND-0
 62
     1
  5
4D6
 10
470.437515
 20
256.199954
 30
0.0
 40
0.5
 50
180.0
 51
270.0
  0
ARC
  8
LC-002-002-RND-0
 62
     1
  5
4D7
 10
470.437515
 20
243.869788
 30
0.0
 40
0.5
 50
180.0
 51
270.0
  0
ARC
  8
LC-002-002-RND-0
 62
     1
  5
4D8
 10
470.437515
 20
231.539622
 30
0.0
 40
0.5
 50
180.0
 51
270.0
  0
ARC
  8
LC-002-002-RND-0
 62
     1
  5
4D9
 10
470.437515
 20
219.209457
 30
0.0
 40
0.5
 50
180.0
 51
270.0
  0
ARC
  8
LC-002-002-RND-0
 62
     1
  5
4DA
 10
470.437515
 20
206.879291
 30
0.0
 40
0.5
 50
180.0
 51
270.0
  0
ARC
  8
LC-002-002-RND-0
 62
     1
  5
4DB
 10
470.437515
 20
194.549125
 30
0.0
 40
0.5
 50
180.0
 51
270.0
  0
ARC
  8
LC-002-002-RND-0
 62
     1
  5
4DC
 10
470.437515
 20
182.21896
 30
0.0
 40
0.5
 50
180.0
 51
270.0
  0
ARC
  8
LC-002-002-RND-0
 62
     1
  5
4DD
 10
470.437515
 20
169.888794
 30
0.0
 40
0.5
 50
180.0
 51
270.0
  0
ARC
  8
LC-002-002-RND-0
 62
     1
  5
4DE
 10
470.437515
 20
157.558628
 30
0.0
 40
0.5
 50
180.0
 51
270.0
  0
ARC
  8
LC-002-002-RND-0
 62
     1
  5
4DF
 10
470.437515
 20
145.228463
 30
0.0
 40
0.5
 50
180.0
 51
270.0
  0
ARC
  8
LC-002-002-RND-0
 62
     1
  5
4E0
 10
470.437515
 20
132.898297
 30
0.0
 40
0.5
 50
180.0
 51
270.0
  0
LINE
  8
LC-001-002-----0
 62
     1
  5
4E1
 10
342.937515
 20
132.898297
 30
0.0
 11
342.937515
 21
141.248741
 31
0.0
  0
LINE
  8
LC-001-002-----0
 62
     1
  5
4E2
 10
343.437515
 20
128.341131
 30
0.0
 11
343.937515
 21
128.341131
 31
0.0
  0
LINE
  8
LC-001-002-----0
 62
     1
  5
4E3
 10
342.937515
 20
128.841131
 30
0.0
 11
343.437515
 21
128.341131
 31
0.0
  0
LINE
  8
LC-001-002-----0
 62
     1
  5
4E4
 10
343.937515
 20
128.341131
 30
0.0
 11
343.937515
 21
354.341279
 31
0.0
  0
LINE
  8
LC-001-002-----0
 62
     1
  5
4E5
 10
327.533826
 20
353.013089
 30
0.0
 11
342.042043
 21
351.856079
 31
0.0
  0
CIRCLE
  8
LC-006-221-----0
 62
     1
  5
4E7
 10
327.386925
 20
341.355415
 30
0.0
 40
0.5
  0
DIMENSION
  8
LC-005-003-----0
 62
     2
  5
506
  2
*D16
 10
540.0
 20
236.340548
 30
0.0
 11
540.0
 21
236.340548
 31
0.0
 13
485.271596
 23
354.341279
 33
0.0
 14
465.939103
 24
118.339818
 34
0.0
 50
90.0
  3
LC-DIM-L-0140-02-02
  0
DIMENSION
  8
LC-005-003-----0
 62
     2
  5
522
  2
*D17
 10
588.005936
 20
268.861519
 30
0.0
 11
588.005936
 21
268.861519
 31
0.0
 13
484.19575
 23
419.388207
 33
0.0
 14
465.939103
 24
118.339818
 34
0.0
 50
89.998735
  3
LC-DIM-L-0140-01-02
  0
DIMENSION
  8
LC-005-003-----0
 62
     2
  5
53D
  2
*D18
 10
666.406421
 20
290.835392
 30
0.0
 11
666.406421
 21
290.835392
 31
0.0
 13
581.446721
 23
463.337268
 33
0.0
 14
465.939103
 24
118.339818
 34
0.0
 50
89.998735
  3
LC-DIM-L-0140-02-02
  0
LINE
  8
LC-001-002-----0
 62
     1
  5
53E
 10
510.131638
 20
454.583091
 30
0.0
 11
503.442508
 21
454.583239
 31
0.0
  0
LINE
  8
LC-001-002-----0
 62
     1
  5
53F
 10
309.442635
 20
470.693661
 30
0.0
 11
307.451702
 21
470.693661
 31
0.0
  0
LINE
  8
LC-001-002-----0
 62
     1
  5
540
 10
315.451702
 20
461.693268
 30
0.0
 11
315.451702
 21
462.086577
 31
0.0
  0
LINE
  8
LC-001-002-----0
 62
     1
  5
541
 10
315.451702
 20
440.843288
 30
0.0
 11
315.451702
 21
448.843247
 31
0.0
  0
LINE
  8
LC-001-002-----0
 62
     1
  5
542
 10
315.442635
 20
454.587389
 30
0.0
 11
323.946526
 21
454.587202
 31
0.0
  0
LINE
  8
LC-001-002-----0
 62
     1
  5
543
 10
307.01939
 20
461.693268
 30
0.0
 11
306.451702
 21
461.693268
 31
0.0
  0
LINE
  8
LC-001-002-----0
 62
     1
  5
544
 10
309.442635
 20
459.533104
 30
0.0
 11
307.471127
 21
459.533095
 31
0.0
  0
LINE
  8
LC-001-002-----0
 62
     1
  5
545
 10
315.442635
 20
434.586011
 30
0.0
 11
319.502321
 21
434.586011
 31
0.0
  0
DIMENSION
  8
LC-005-003-----0
 62
     2
  5
55F
  2
*D19
 10
406.446654
 20
540.0
 30
0.0
 11
406.446654
 21
540.0
 31
0.0
  1
%%c<>
 13
229.446654
 23
460.345039
 33
0.0
 14
583.446654
 24
460.337223
 34
0.0
  3
LC-DIM-L-0140-02-02
  0
DIMENSION
  8
LC-005-003-----0
 62
     2
  5
579
  2
*D20
 10
406.44575
 20
360.0
 30
0.0
 11
406.44575
 21
360.0
 31
0.0
  1
%%c<>
 13
336.44575
 23
419.391469
 33
0.0
 14
476.44575
 24
419.388378
 34
0.0
  3
LC-DIM-L-0140-02-02
  0
LINE
  8
LC-001-002-----0
 62
     1
  5
57A
 10
497.442508
 20
470.68925
 30
0.0
 11
495.451702
 21
470.68925
 31
0.0
  0
LINE
  8
LC-001-002-----0
 62
     1
  5
57B
 10
503.442508
 20
461.68925
 30
0.0
 11
505.427787
 21
461.68925
 31
0.0
  0
LINE
  8
LC-001-002-----0
 62
     1
  5
57C
 10
494.91323
 20
461.68925
 30
0.0
 11
494.451702
 21
461.68925
 31
0.0
  0
LINE
  8
LC-001-002-----0
 62
     1
  5
57D
 10
497.442508
 20
454.583371
 30
0.0
 11
488.946528
 21
454.583559
 31
0.0
  0
LINE
  8
LC-001-002-----0
 62
     1
  5
57E
 10
497.442508
 20
436.33915
 30
0.0
 11
491.946126
 21
436.339305
 31
0.0
  0
LINE
  8
LC-001-002-----0
 62
     1
  5
57F
 10
497.442508
 20
434.58626
 30
0.0
 11
493.408158
 21
434.586249
 31
0.0
  0
LINE
  8
LC-001-002-----0
 62
     1
  5
580
 10
503.45876
 20
440.843334
 30
0.0
 11
503.458738
 21
448.843202
 31
0.0
  0
LINE
  8
LC-001-002-----0
 62
     1
  5
583
 10
494.672273
 20
433.917124
 30
0.0
 11
494.672284
 21
430.055382
 31
0.0
  0
LINE
  8
LC-001-002-----0
 62
     1
  5
586
 10
497.442414
 20
429.38626
 30
0.0
 11
496.115662
 21
429.386257
 31
0.0
  0
LINE
  8
LC-001-002-----0
 62
     1
  5
587
 10
504.775916
 20
429.38628
 30
0.0
 11
503.442414
 21
429.386277
 31
0.0
  0
LINE
  8
LC-001-002-----0
 62
     1
  5
58A
 10
506.219279
 20
433.917156
 30
0.0
 11
506.219289
 21
430.055413
 31
0.0
  0
LINE
  8
LC-001-002-----0
 62
     1
  5
58F
 10
318.219869
 20
433.92102
 30
0.0
 11
318.219688
 21
430.059278
 31
0.0
  0
LINE
  8
LC-001-002-----0
 62
     1
  5
592
 10
315.449528
 20
429.390278
 30
0.0
 11
316.77628
 21
429.390216
 31
0.0
  0
LINE
  8
LC-001-002-----0
 62
     1
  5
594
 10
308.116026
 20
429.390622
 30
0.0
 11
309.449528
 21
429.39056
 31
0.0
  0
LINE
  8
LC-001-002-----0
 62
     1
  5
596
 10
306.672863
 20
433.921562
 30
0.0
 11
306.672682
 21
430.059819
 31
0.0
  0
LINE
  8
LC-001-002-----0
 62
     1
  5
599
 10
309.449338
 20
427.347551
 30
0.0
 11
315.449338
 21
427.347286
 31
0.0
  0
LINE
  8
LC-001-002-----0
 62
     1
  5
59A
 10
314.949316
 20
426.847308
 30
0.0
 11
315.449338
 21
427.347286
 31
0.0
  0
LINE
  8
LC-001-002-----0
 62
     1
  5
59B
 10
309.949316
 20
426.847529
 30
0.0
 11
314.949316
 21
426.847308
 31
0.0
  0
LINE
  8
LC-001-002-----0
 62
     1
  5
59C
 10
309.949316
 20
426.847529
 30
0.0
 11
309.449338
 21
427.347551
 31
0.0
  0
LINE
  8
LC-004-006-MLN-0
 62
     2
  5
59D
 10
406.444344
 20
355.708
 30
0.0
 11
406.438883
 21
108.341131
 31
0.0
  0
LINE
  8
LC-001-002-----0
 62
     1
  5
59E
 10
315.699764
 20
460.993268
 30
0.0
 11
316.644691
 21
460.993268
 31
0.0
  0
LINE
  8
LC-001-002-----0
 62
     1
  5
59F
 10
315.699764
 20
460.293268
 30
0.0
 11
316.644691
 21
460.293268
 31
0.0
  0
INSERT
  8
LC-003-005-----0
 62
     2
  5
5AD
  2
*X21
 10
0.0
 20
0.0
 30
0.0
  0
LINE
  8
LC-001-002-----0
 62
     1
  5
5AE
 10
307.01939
 20
459.593268
 30
0.0
 11
317.980138
 21
459.593268
 31
0.0
  0
LINE
  8
LC-001-002-----0
 62
     1
  5
5AF
 10
307.01939
 20
461.693268
 30
0.0
 11
317.980138
 21
461.693268
 31
0.0
  0
LINE
  8
LC-001-002-----0
 62
     1
  5
5B0
 10
309.299764
 20
460.993268
 30
0.0
 11
309.299764
 21
460.293268
 31
0.0
  0
LINE
  8
LC-001-002-----0
 62
     1
  5
5B1
 10
309.299764
 20
460.293268
 30
0.0
 11
315.699764
 21
460.293268
 31
0.0
  0
LINE
  8
LC-001-002-----0
 62
     1
  5
5B2
 10
315.699764
 20
460.293268
 30
0.0
 11
315.699764
 21
460.993268
 31
0.0
  0
LINE
  8
LC-001-002-----0
 62
     1
  5
5B3
 10
315.699764
 20
460.993268
 30
0.0
 11
309.299764
 21
460.993268
 31
0.0
  0
LINE
  8
LC-001-002-----0
 62
     1
  5
5B4
 10
307.01939
 20
459.593268
 30
0.0
 11
308.354837
 21
460.293268
 31
0.0
  0
LINE
  8
LC-001-002-----0
 62
     1
  5
5B5
 10
307.01939
 20
460.993268
 30
0.0
 11
307.687114
 21
460.643268
 31
0.0
  0
LINE
  8
LC-001-002-----0
 62
     1
  5
5B6
 10
307.01939
 20
460.993268
 30
0.0
 11
307.01939
 21
461.693268
 31
0.0
  0
LINE
  8
LC-001-002-----0
 62
     1
  5
5B7
 10
307.01939
 20
461.693268
 30
0.0
 11
308.354837
 21
460.993268
 31
0.0
  0
LINE
  8
LC-001-002-----0
 62
     1
  5
5B8
 10
317.980138
 20
461.693268
 30
0.0
 11
316.644691
 21
460.993268
 31
0.0
  0
LINE
  8
LC-001-002-----0
 62
     1
  5
5B9
 10
317.980138
 20
460.993268
 30
0.0
 11
316.644691
 21
460.293268
 31
0.0
  0
LINE
  8
LC-001-002-----0
 62
     1
  5
5BA
 10
317.980138
 20
460.293268
 30
0.0
 11
317.312415
 21
460.643268
 31
0.0
  0
LINE
  8
LC-001-002-----0
 62
     1
  5
5BB
 10
317.980138
 20
459.593268
 30
0.0
 11
316.644691
 21
460.293268
 31
0.0
  0
LINE
  8
LC-001-002-----0
 62
     1
  5
5BC
 10
308.354837
 20
460.993268
 30
0.0
 11
309.299764
 21
460.993268
 31
0.0
  0
LINE
  8
LC-001-002-----0
 62
     1
  5
5BD
 10
308.354837
 20
460.293268
 30
0.0
 11
309.299764
 21
460.293268
 31
0.0
  0
LINE
  8
LC-001-002-----0
 62
     1
  5
5BE
 10
307.01939
 20
460.293268
 30
0.0
 11
308.354837
 21
460.993268
 31
0.0
  0
LINE
  8
LC-001-002-----0
 62
     1
  5
5BF
 10
307.01939
 20
460.293268
 30
0.0
 11
307.01939
 21
459.593268
 31
0.0
  0
LINE
  8
LC-001-002-----0
 62
     1
  5
5C0
 10
317.980138
 20
460.293268
 30
0.0
 11
317.980138
 21
459.593268
 31
0.0
  0
LINE
  8
LC-001-002-----0
 62
     1
  5
5C1
 10
317.980138
 20
460.993268
 30
0.0
 11
317.980138
 21
461.693268
 31
0.0
  0
LINE
  8
LC-001-002-----0
 62
     1
  5
5C2
 10
497.193573
 20
460.989261
 30
0.0
 11
496.248646
 21
460.989302
 31
0.0
  0
LINE
  8
LC-001-002-----0
 62
     1
  5
5C3
 10
497.193542
 20
460.289261
 30
0.0
 11
496.248615
 21
460.289302
 31
0.0
  0
INSERT
  8
LC-003-005-----0
 62
     2
  5
5CE
  2
*X22
 10
0.0
 20
0.0
 30
0.0
  0
LINE
  8
LC-001-002-----0
 62
     1
  5
5CF
 10
505.873885
 20
459.588877
 30
0.0
 11
494.913138
 21
459.589361
 31
0.0
  0
LINE
  8
LC-001-002-----0
 62
     1
  5
5D0
 10
505.873978
 20
461.688877
 30
0.0
 11
494.91323
 21
461.689361
 31
0.0
  0
LINE
  8
LC-001-002-----0
 62
     1
  5
5D1
 10
503.593573
 20
460.988978
 30
0.0
 11
503.593542
 21
460.288978
 31
0.0
  0
LINE
  8
LC-001-002-----0
 62
     1
  5
5D2
 10
503.593542
 20
460.288978
 30
0.0
 11
497.193542
 21
460.289261
 31
0.0
  0
LINE
  8
LC-001-002-----0
 62
     1
  5
5D3
 10
497.193542
 20
460.289261
 30
0.0
 11
497.193573
 21
460.989261
 31
0.0
  0
LINE
  8
LC-001-002-----0
 62
     1
  5
5D4
 10
497.193573
 20
460.989261
 30
0.0
 11
503.593573
 21
460.988978
 31
0.0
  0
LINE
  8
LC-001-002-----0
 62
     1
  5
5D5
 10
505.873885
 20
459.588877
 30
0.0
 11
504.53847
 21
460.288936
 31
0.0
  0
LINE
  8
LC-001-002-----0
 62
     1
  5
5D6
 10
505.873947
 20
460.988877
 30
0.0
 11
505.206208
 21
460.638907
 31
0.0
  0
LINE
  8
LC-001-002-----0
 62
     1
  5
5D7
 10
505.873947
 20
460.988877
 30
0.0
 11
505.873978
 21
461.688877
 31
0.0
  0
LINE
  8
LC-001-002-----0
 62
     1
  5
5D8
 10
505.873978
 20
461.688877
 30
0.0
 11
504.538501
 21
460.988936
 31
0.0
  0
LINE
  8
LC-001-002-----0
 62
     1
  5
5D9
 10
494.91323
 20
461.689361
 30
0.0
 11
496.248646
 21
460.989302
 31
0.0
  0
LINE
  8
LC-001-002-----0
 62
     1
  5
5DA
 10
494.913199
 20
460.989361
 30
0.0
 11
496.248615
 21
460.289302
 31
0.0
  0
LINE
  8
LC-001-002-----0
 62
     1
  5
5DB
 10
494.913169
 20
460.289361
 30
0.0
 11
495.580907
 21
460.639332
 31
0.0
  0
LINE
  8
LC-001-002-----0
 62
     1
  5
5DC
 10
494.913138
 20
459.589361
 30
0.0
 11
496.248615
 21
460.289302
 31
0.0
  0
LINE
  8
LC-001-002-----0
 62
     1
  5
5DD
 10
504.538501
 20
460.988936
 30
0.0
 11
503.593573
 21
460.988978
 31
0.0
  0
LINE
  8
LC-001-002-----0
 62
     1
  5
5DE
 10
504.53847
 20
460.288936
 30
0.0
 11
503.593542
 21
460.288978
 31
0.0
  0
LINE
  8
LC-001-002-----0
 62
     1
  5
5DF
 10
505.873916
 20
460.288877
 30
0.0
 11
504.538501
 21
460.988936
 31
0.0
  0
LINE
  8
LC-001-002-----0
 62
     1
  5
5E0
 10
505.873916
 20
460.288877
 30
0.0
 11
505.873885
 21
459.588877
 31
0.0
  0
LINE
  8
LC-001-002-----0
 62
     1
  5
5E1
 10
494.913169
 20
460.289361
 30
0.0
 11
494.913138
 21
459.589361
 31
0.0
  0
LINE
  8
LC-001-002-----0
 62
     1
  5
5E2
 10
494.913199
 20
460.989361
 30
0.0
 11
494.91323
 21
461.689361
 31
0.0
  0
LINE
  8
LC-001-002-----0
 62
     1
  5
5E3
 10
505.414589
 20
459.533523
 30
0.0
 11
503.442508
 21
459.533523
 31
0.0
  0
INSERT
  8
LC-003-005-----0
 62
     2
  5
5F3
  2
*X23
 10
0.0
 20
0.0
 30
0.0
  0
DIMENSION
  8
LC-005-003-----0
 62
     2
  5
60D
  2
*D24
 10
406.439214
 20
58.272
 30
0.0
 11
406.439214
 21
58.272
 31
0.0
  1
%%c<>
 13
343.939214
 23
123.342511
 33
0.0
 14
468.939214
 24
123.339752
 34
0.0
  3
LC-DIM-L-0140-02-02
  0
DIMENSION
  8
LC-005-003-----0
 62
     2
  5
627
  2
*D25
 10
406.437515
 20
0.0
 30
0.0
 11
406.437515
 21
0.0
 31
0.0
  1
%%c159
 13
326.938427
 23
131.76723
 33
0.0
 14
485.936602
 24
131.76723
 34
0.0
  3
LC-DIM-L-0140-02-02
  0
ENDSEC
  0
EOF
