  0
SECTION
  2
HEADER
  9
$ACADVER
  1
AC1015
  9
$ACADMAINTVER
 70
     6
  9
$DWGCODEPAGE
  3
DOS850
  9
$INSBASE
 10
0.0
 20
0.0
 30
0.0
  9
$EXTMIN
 10
-206.430358
 20
-261.9
 30
0.0
  9
$EXTMAX
 10
981.569642
 20
578.1
 30
0.0
  9
$LIMMIN
 10
-206.430358
 20
-261.9
  9
$LIMMAX
 10
981.569642
 20
578.1
  9
$ORTHOMODE
 70
     0
  9
$REGENMODE
 70
     1
  9
$FILLMODE
 70
     1
  9
$QTEXTMODE
 70
     0
  9
$MIRRTEXT
 70
     1
  9
$LTSCALE
 40
2.0
  9
$ATTMODE
 70
     1
  9
$TEXTSIZE
 40
2.5
  9
$TRACEWID
 40
1.0
  9
$TEXTSTYLE
  7
Standard
  9
$CLAYER
  8
0
  9
$CELTYPE
  6
ByLayer
  9
$CECOLOR
 62
     7
  9
$CELTSCALE
 40
1.0
  9
$DISPSILH
 70
     0
  9
$DIMSCALE
 40
2.0
  9
$DIMASZ
 40
3.5
  9
$DIMEXO
 40
0.625
  9
$DIMDLI
 40
3.75
  9
$DIMRND
 40
0.0
  9
$DIMDLE
 40
0.0
  9
$DIMEXE
 40
1.25
  9
$DIMTP
 40
0.0
  9
$DIMTM
 40
0.0
  9
$DIMTXT
 40
3.5
  9
$DIMCEN
 40
2.5
  9
$DIMTSZ
 40
0.0
  9
$DIMTOL
 70
     0
  9
$DIMLIM
 70
     0
  9
$DIMTIH
 70
     0
  9
$DIMTOH
 70
     0
  9
$DIMSE1
 70
     0
  9
$DIMSE2
 70
     0
  9
$DIMTAD
 70
     1
  9
$DIMZIN
 70
     8
  9
$DIMBLK
  1

  9
$DIMASO
 70
     1
  9
$DIMSHO
 70
     1
  9
$DIMPOST
  1

  9
$DIMAPOST
  1

  9
$DIMALT
 70
     0
  9
$DIMALTD
 70
     3
  9
$DIMALTF
 40
0.03937
  9
$DIMLFAC
 40
1.0
  9
$DIMTOFL
 70
     1
  9
$DIMTVP
 40
0.0
  9
$DIMTIX
 70
     0
  9
$DIMSOXD
 70
     0
  9
$DIMSAH
 70
     0
  9
$DIMBLK1
  1

  9
$DIMBLK2
  1

  9
$DIMSTYLE
  2
ISO-25
  9
$DIMCLRD
 70
     0
  9
$DIMCLRE
 70
     0
  9
$DIMCLRT
 70
     0
  9
$DIMTFAC
 40
1.0
  9
$DIMGAP
 40
0.625
  9
$DIMJUST
 70
     0
  9
$DIMSD1
 70
     0
  9
$DIMSD2
 70
     0
  9
$DIMTOLJ
 70
     0
  9
$DIMTZIN
 70
     8
  9
$DIMALTZ
 70
     0
  9
$DIMALTTZ
 70
     0
  9
$DIMUPT
 70
     0
  9
$DIMDEC
 70
     2
  9
$DIMTDEC
 70
     2
  9
$DIMALTU
 70
     2
  9
$DIMALTTD
 70
     3
  9
$DIMTXSTY
  7
Standard
  9
$DIMAUNIT
 70
     0
  9
$DIMADEC
 70
     0
  9
$DIMALTRND
 40
0.0
  9
$DIMAZIN
 70
     0
  9
$DIMDSEP
 70
    44
  9
$DIMATFIT
 70
     3
  9
$DIMFRAC
 70
     0
  9
$DIMLDRBLK
  1

  9
$DIMLUNIT
 70
     2
  9
$DIMLWD
 70
    -2
  9
$DIMLWE
 70
    -2
  9
$DIMTMOVE
 70
     0
  9
$LUNITS
 70
     2
  9
$LUPREC
 70
     4
  9
$SKETCHINC
 40
1.0
  9
$FILLETRAD
 40
10.0
  9
$AUNITS
 70
     0
  9
$AUPREC
 70
     0
  9
$MENU
  1
.
  9
$ELEVATION
 40
0.0
  9
$PELEVATION
 40
0.0
  9
$THICKNESS
 40
0.0
  9
$LIMCHECK
 70
     0
  9
$CHAMFERA
 40
10.0
  9
$CHAMFERB
 40
10.0
  9
$CHAMFERC
 40
20.0
  9
$CHAMFERD
 40
0.0
  9
$SKPOLY
 70
     0
  9
$TDCREATE
 40
2453824.607121713
  9
$TDUCREATE
 40
2453824.52378838
  9
$TDUPDATE
 40
2453824.607121725
  9
$TDUUPDATE
 40
2453824.523788391
  9
$TDINDWG
 40
0.0000000116
  9
$TDUSRTIMER
 40
0.0000000116
  9
$USRTIMER
 70
     1
  9
$ANGBASE
 50
0.0
  9
$ANGDIR
 70
     0
  9
$PDMODE
 70
     0
  9
$PDSIZE
 40
0.0
  9
$PLINEWID
 40
0.0
  9
$SPLFRAME
 70
     0
  9
$SPLINETYPE
 70
     6
  9
$SPLINESEGS
 70
     8
  9
$HANDSEED
  5
6A8
  9
$SURFTAB1
 70
     6
  9
$SURFTAB2
 70
     6
  9
$SURFTYPE
 70
     6
  9
$SURFU
 70
     6
  9
$SURFV
 70
     6
  9
$UCSBASE
  2

  9
$UCSNAME
  2

  9
$UCSORG
 10
0.0
 20
0.0
 30
0.0
  9
$UCSXDIR
 10
1.0
 20
0.0
 30
0.0
  9
$UCSYDIR
 10
0.0
 20
1.0
 30
0.0
  9
$UCSORTHOREF
  2

  9
$UCSORTHOVIEW
 70
     0
  9
$UCSORGTOP
 10
0.0
 20
0.0
 30
0.0
  9
$UCSORGBOTTOM
 10
0.0
 20
0.0
 30
0.0
  9
$UCSORGLEFT
 10
0.0
 20
0.0
 30
0.0
  9
$UCSORGRIGHT
 10
0.0
 20
0.0
 30
0.0
  9
$UCSORGFRONT
 10
0.0
 20
0.0
 30
0.0
  9
$UCSORGBACK
 10
0.0
 20
0.0
 30
0.0
  9
$PUCSBASE
  2

  9
$PUCSNAME
  2

  9
$PUCSORG
 10
0.0
 20
0.0
 30
0.0
  9
$PUCSXDIR
 10
1.0
 20
0.0
 30
0.0
  9
$PUCSYDIR
 10
0.0
 20
1.0
 30
0.0
  9
$PUCSORTHOREF
  2

  9
$PUCSORTHOVIEW
 70
     0
  9
$PUCSORGTOP
 10
0.0
 20
0.0
 30
0.0
  9
$PUCSORGBOTTOM
 10
0.0
 20
0.0
 30
0.0
  9
$PUCSORGLEFT
 10
0.0
 20
0.0
 30
0.0
  9
$PUCSORGRIGHT
 10
0.0
 20
0.0
 30
0.0
  9
$PUCSORGFRONT
 10
0.0
 20
0.0
 30
0.0
  9
$PUCSORGBACK
 10
0.0
 20
0.0
 30
0.0
  9
$USERI1
 70
     0
  9
$USERI2
 70
     0
  9
$USERI3
 70
     0
  9
$USERI4
 70
     0
  9
$USERI5
 70
     0
  9
$USERR1
 40
0.0
  9
$USERR2
 40
0.0
  9
$USERR3
 40
0.0
  9
$USERR4
 40
0.0
  9
$USERR5
 40
0.0
  9
$WORLDVIEW
 70
     1
  9
$SHADEDGE
 70
     3
  9
$SHADEDIF
 70
    70
  9
$TILEMODE
 70
     1
  9
$MAXACTVP
 70
    64
  9
$PINSBASE
 10
0.0
 20
0.0
 30
0.0
  9
$PLIMCHECK
 70
     0
  9
$PEXTMIN
 10
-206.430358
 20
-261.9
 30
0.0
  9
$PEXTMAX
 10
981.569642
 20
578.1
 30
0.0
  9
$PLIMMIN
 10
-206.430358
 20
-261.9
  9
$PLIMMAX
 10
981.569642
 20
578.1
  9
$UNITMODE
 70
     0
  9
$VISRETAIN
 70
     1
  9
$PLINEGEN
 70
     0
  9
$PSLTSCALE
 70
     1
  9
$TREEDEPTH
 70
  3020
  9
$CMLSTYLE
  2
Standard
  9
$CMLJUST
 70
     0
  9
$CMLSCALE
 40
20.0
  9
$PROXYGRAPHICS
 70
     1
  9
$MEASUREMENT
 70
     1
  9
$CELWEIGHT
370
    -1
  9
$ENDCAPS
280
     0
  9
$JOINSTYLE
280
     0
  9
$LWDISPLAY
290
     0
  9
$INSUNITS
 70
     4
  9
$HYPERLINKBASE
  1

  9
$STYLESHEET
  1

  9
$XEDIT
290
     1
  9
$CEPSNTYPE
380
     0
  9
$PSTYLEMODE
290
     1
  9
$FINGERPRINTGUID
  2
{FAEB1C30-E019-11D5-929B-00C0DF256EC4}
  9
$VERSIONGUID
  2
{FAEB1C32-E019-11D5-929B-00C0DF256EC4}
  9
$EXTNAMES
290
     1
  9
$PSVPSCALE
 40
0.0
  9
$OLESTARTUP
290
     0
  0
ENDSEC
  0
SECTION
  2
CLASSES
  0
CLASS
  1
ACDBDICTIONARYWDFLT
  2
AcDbDictionaryWithDefault
  3
ObjectDBX Classes
 90
        0
280
     0
281
     0
  0
CLASS
  1
ACDBPLACEHOLDER
  2
AcDbPlaceHolder
  3
ObjectDBX Classes
 90
        0
280
     0
281
     0
  0
CLASS
  1
LAYOUT
  2
AcDbLayout
  3
ObjectDBX Classes
 90
        0
280
     0
281
     0
  0
ENDSEC
  0
SECTION
  2
TABLES
  0
TABLE
  2
VPORT
  5
8
330
0
100
AcDbSymbolTable
 70
     2
  0
VPORT
  5
29
330
8
100
AcDbSymbolTableRecord
100
AcDbViewportTableRecord
  2
*ACTIVE
 70
     0
 10
0.0
 20
0.0
 11
1.0
 21
1.0
 12
387.569642
 22
158.1
 13
0.0
 23
0.0
 14
1.0
 24
1.0
 15
0.0
 25
0.0
 16
0.0
 26
0.0
 36
1.0
 17
0.0
 27
0.0
 37
0.0
 40
840.0
 41
1.414286
 42
50.0
 43
0.0
 44
0.0
 50
0.0
 51
0.0
 71
    16
 72
   100
 73
     1
 74
     0
 75
     0
 76
     0
 77
     0
 78
     0
281
     0
 65
     0
110
0.0
120
0.0
130
0.0
111
1.0
121
0.0
131
0.0
112
0.0
122
1.0
132
0.0
 79
     0
146
0.0
  0
ENDTAB
  0
TABLE
  2
LTYPE
  5
5
330
0
100
AcDbSymbolTable
 70
     3
  0
LTYPE
  5
14
330
5
100
AcDbSymbolTableRecord
100
AcDbLinetypeTableRecord
  2
ByBlock
 70
     0
  3

 72
    65
 73
     0
 40
0.0
  0
LTYPE
  5
15
330
5
100
AcDbSymbolTableRecord
100
AcDbLinetypeTableRecord
  2
ByLayer
 70
     0
  3

 72
    65
 73
     0
 40
0.0
  0
LTYPE
  5
16
330
5
100
AcDbSymbolTableRecord
100
AcDbLinetypeTableRecord
  2
Continuous
 70
     0
  3
Solid line
 72
    65
 73
     0
 40
0.0
  0
LTYPE
  5
2A
330
5
100
AcDbSymbolTableRecord
100
AcDbLinetypeTableRecord
  2
DASHED
 70
     0
  3
__ __ __ __ __
 72
    65
 73
     2
 40
6.25
 49
5.0
 74
     4
 75
     0
340
0
 46
1.0
 50
0.0
 44
0.0
 45
0.0
 49
-1.25
 74
     4
 75
     0
340
0
 46
1.0
 50
0.0
 44
0.0
 45
0.0
  0
LTYPE
  5
1E4
330
5
100
AcDbSymbolTableRecord
100
AcDbLinetypeTableRecord
  2
CENTER
 70
     0
  3
__ . __ . __ . __ . __
 72
    65
 73
     4
 40
7.5
 49
5.0
 74
     4
 75
     0
340
0
 46
1.0
 50
0.0
 44
0.0
 45
0.0
 49
-1.25
 74
     4
 75
     0
340
0
 46
1.0
 50
0.0
 44
0.0
 45
0.0
 49
0.0
 74
     4
 75
     0
340
0
 46
1.0
 50
0.0
 44
0.0
 45
0.0
 49
-1.25
 74
     4
 75
     0
340
0
 46
1.0
 50
0.0
 44
0.0
 45
0.0
  0
ENDTAB
  0
TABLE
  2
LAYER
  5
2
330
0
100
AcDbSymbolTable
 70
    12
  0
LAYER
  5
10
330
2
100
AcDbSymbolTableRecord
100
AcDbLayerTableRecord
  2
0
 70
     0
 62
     7
  6
Continuous
370
    -3
390
F
  0
LAYER
  5
2B
330
2
100
AcDbSymbolTableRecord
100
AcDbLayerTableRecord
  2
LC-INFO-1-2-mm-A2-0
 70
     1
 62
     7
  6
ByBlock
370
    -3
390
F
  0
LAYER
  5
2C
330
2
100
AcDbSymbolTableRecord
100
AcDbLayerTableRecord
  2
LC-CUT-HIDDEN
 70
     0
 62
     7
  6
DASHED
370
    -3
390
F
  0
LAYER
  5
2D
330
2
100
AcDbSymbolTableRecord
100
AcDbLayerTableRecord
  2
LC-VIEWPORT
 70
     0
 62
     7
  6
ByBlock
370
    -3
390
F
  0
LAYER
  5
2E
330
2
100
AcDbSymbolTableRecord
100
AcDbLayerTableRecord
  2
LC-3D-HIDDEN
 70
     0
 62
     9
  6
DASHED
370
    -3
390
F
  0
LAYER
  5
31
330
2
100
AcDbSymbolTableRecord
100
AcDbLayerTableRecord
  2
LC-001-002-----0
 70
     0
 62
     1
  6
ByBlock
370
    -3
390
F
  0
LAYER
  5
3A
330
2
100
AcDbSymbolTableRecord
100
AcDbLayerTableRecord
  2
LC-002-002-RND-0
 70
     0
 62
     1
  6
ByBlock
370
    -3
390
F
  0
LAYER
  5
4B
330
2
100
AcDbSymbolTableRecord
100
AcDbLayerTableRecord
  2
LC-003-005-----0
 70
     0
 62
     2
  6
ByBlock
370
    -3
390
F
  0
LAYER
  5
A8
330
2
100
AcDbSymbolTableRecord
100
AcDbLayerTableRecord
  2
LC-004-002-___-0
 70
     0
 62
     2
  6
DASHED
370
    -3
390
F
  0
LAYER
  5
1E5
330
2
100
AcDbSymbolTableRecord
100
AcDbLayerTableRecord
  2
LC-005-006-MLN-0
 70
     0
 62
     2
  6
CENTER
370
    -3
390
F
  0
LAYER
  5
3DC
330
2
100
AcDbSymbolTableRecord
100
AcDbLayerTableRecord
  2
LC-006-003-----0
 70
     0
 62
     2
  6
ByBlock
370
    -3
390
F
  0
LAYER
  5
417
330
2
100
AcDbSymbolTableRecord
100
AcDbLayerTableRecord
  2
Defpoints
 70
     0
 62
     7
  6
Continuous
290
     0
370
    -3
390
F
  0
ENDTAB
  0
TABLE
  2
STYLE
  5
3
330
0
100
AcDbSymbolTable
 70
     4
  0
STYLE
  5
11
330
3
100
AcDbSymbolTableRecord
100
AcDbTextStyleTableRecord
  2
Standard
 70
     0
 40
0.0
 41
1.0
 50
0.0
 71
     0
 42
2.5
  3
txt
  4

  0
STYLE
  5
2F
330
3
100
AcDbSymbolTableRecord
100
AcDbTextStyleTableRecord
  2
LCTX0-400-0-0-DIN-Schrift
 70
     0
 40
0.0
 41
0.8
 50
0.0
 71
     0
 42
3.5
  3
MONOTXT
  4

  0
STYLE
  5
30
330
3
100
AcDbSymbolTableRecord
100
AcDbTextStyleTableRecord
  2
LCTX15-400-0-0-Arial
 70
     0
 40
0.0
 41
0.8
 50
0.0
 71
     0
 42
3.5
  3

  4

1001
ACAD
1000
Arial
1071
 16777218
  0
STYLE
  5
414
330
3
100
AcDbSymbolTableRecord
100
AcDbTextStyleTableRecord
  2
LCTX15-400-0-0pDIN-Schrift
 70
     0
 40
2.5
 41
0.8
 50
15.0
 71
     0
 42
3.5
  3
STANDARD
  4

  0
ENDTAB
  0
TABLE
  2
VIEW
  5
6
330
0
100
AcDbSymbolTable
 70
     0
  0
ENDTAB
  0
TABLE
  2
UCS
  5
7
330
0
100
AcDbSymbolTable
 70
     0
  0
ENDTAB
  0
TABLE
  2
APPID
  5
9
330
0
100
AcDbSymbolTable
 70
     1
  0
APPID
  5
12
330
9
100
AcDbSymbolTableRecord
100
AcDbRegAppTableRecord
  2
ACAD
 70
     0
  0
ENDTAB
  0
TABLE
  2
DIMSTYLE
  5
A
330
0
100
AcDbSymbolTable
 70
     3
100
AcDbDimStyleTable
  0
DIMSTYLE
105
27
330
A
100
AcDbSymbolTableRecord
100
AcDbDimStyleTableRecord
  2
ISO-25
 70
     0
 41
2.5
 42
0.625
 43
3.75
 44
1.25
 73
     0
 74
     0
 77
     1
 78
     8
140
2.5
141
2.5
143
0.03937
147
0.625
171
     3
172
     1
271
     2
272
     2
274
     3
278
    44
283
     0
284
     8
340
11
  0
DIMSTYLE
105
415
102
{ACAD_REACTORS
330
416
330
424
330
432
330
43F
330
4B3
102
}
330
A
100
AcDbSymbolTableRecord
100
AcDbDimStyleTableRecord
  2
LC-DIM-L-0140-02-02
 70
     0
 40
2.0
 41
14.0
 42
0.0
 43
7.5
 44
1.8
 73
     0
 74
     0
 77
     1
 78
     8
 79
     2
140
14.0
141
0.0
146
0.71
147
1.5
176
     2
177
     2
178
     2
179
     2
271
     2
278
    44
289
     1
340
414
  0
DIMSTYLE
105
68A
102
{ACAD_REACTORS
330
68B
330
698
102
}
330
A
100
AcDbSymbolTableRecord
100
AcDbDimStyleTableRecord
  2
LC-DIM-L-0140-01-02
 70
     0
 40
2.0
 41
14.0
 42
0.0
 43
7.5
 44
1.8
 73
     0
 74
     0
 77
     1
 78
     8
 79
     2
140
14.0
141
0.0
146
0.71
147
1.5
176
     2
177
     2
178
     2
179
     1
271
     1
278
    44
289
     1
340
414
  0
ENDTAB
  0
TABLE
  2
BLOCK_RECORD
  5
1
330
0
100
AcDbSymbolTable
 70
    27
  0
BLOCK_RECORD
  5
1F
330
1
100
AcDbSymbolTableRecord
100
AcDbBlockTableRecord
  2
*Model_Space
340
22
  0
BLOCK_RECORD
  5
1B
330
1
100
AcDbSymbolTableRecord
100
AcDbBlockTableRecord
  2
*Paper_Space
340
1E
  0
BLOCK_RECORD
  5
23
330
1
100
AcDbSymbolTableRecord
100
AcDbBlockTableRecord
  2
*Paper_Space0
340
26
  0
BLOCK_RECORD
  5
48
330
1
100
AcDbSymbolTableRecord
100
AcDbBlockTableRecord
  2
*X11
340
0
102
{BLKREFS
331
58
102
}
  0
BLOCK_RECORD
  5
7B
330
1
100
AcDbSymbolTableRecord
100
AcDbBlockTableRecord
  2
*X22
340
0
102
{BLKREFS
331
80
102
}
  0
BLOCK_RECORD
  5
97
330
1
100
AcDbSymbolTableRecord
100
AcDbBlockTableRecord
  2
*X33
340
0
102
{BLKREFS
331
A6
102
}
  0
BLOCK_RECORD
  5
CA
330
1
100
AcDbSymbolTableRecord
100
AcDbBlockTableRecord
  2
*X44
340
0
102
{BLKREFS
331
D1
102
}
  0
BLOCK_RECORD
  5
F7
330
1
100
AcDbSymbolTableRecord
100
AcDbBlockTableRecord
  2
*X55
340
0
102
{BLKREFS
331
108
102
}
  0
BLOCK_RECORD
  5
10D
330
1
100
AcDbSymbolTableRecord
100
AcDbBlockTableRecord
  2
*X66
340
0
102
{BLKREFS
331
11B
102
}
  0
BLOCK_RECORD
  5
141
330
1
100
AcDbSymbolTableRecord
100
AcDbBlockTableRecord
  2
*X77
340
0
102
{BLKREFS
331
150
102
}
  0
BLOCK_RECORD
  5
151
330
1
100
AcDbSymbolTableRecord
100
AcDbBlockTableRecord
  2
*X88
340
0
102
{BLKREFS
331
15C
102
}
  0
BLOCK_RECORD
  5
185
330
1
100
AcDbSymbolTableRecord
100
AcDbBlockTableRecord
  2
*X99
340
0
102
{BLKREFS
331
19A
102
}
  0
BLOCK_RECORD
  5
19B
330
1
100
AcDbSymbolTableRecord
100
AcDbBlockTableRecord
  2
*X1010
340
0
102
{BLKREFS
331
1A0
102
}
  0
BLOCK_RECORD
  5
1C0
330
1
100
AcDbSymbolTableRecord
100
AcDbBlockTableRecord
  2
*X1111
340
0
102
{BLKREFS
331
1CF
102
}
  0
BLOCK_RECORD
  5
1D0
330
1
100
AcDbSymbolTableRecord
100
AcDbBlockTableRecord
  2
*X1212
340
0
102
{BLKREFS
331
1D5
102
}
  0
BLOCK_RECORD
  5
218
330
1
100
AcDbSymbolTableRecord
100
AcDbBlockTableRecord
  2
*X1313
340
0
102
{BLKREFS
331
2CC
102
}
  0
BLOCK_RECORD
  5
2CD
330
1
100
AcDbSymbolTableRecord
100
AcDbBlockTableRecord
  2
*X1414
340
0
102
{BLKREFS
331
377
102
}
  0
BLOCK_RECORD
  5
381
330
1
100
AcDbSymbolTableRecord
100
AcDbBlockTableRecord
  2
*X1515
340
0
102
{BLKREFS
331
3AA
102
}
  0
BLOCK_RECORD
  5
3AB
330
1
100
AcDbSymbolTableRecord
100
AcDbBlockTableRecord
  2
*X1616
340
0
102
{BLKREFS
331
3CE
102
}
  0
BLOCK_RECORD
  5
418
330
1
100
AcDbSymbolTableRecord
100
AcDbBlockTableRecord
  2
*D17
340
0
  0
BLOCK_RECORD
  5
425
330
1
100
AcDbSymbolTableRecord
100
AcDbBlockTableRecord
  2
*D18
340
0
  0
BLOCK_RECORD
  5
433
330
1
100
AcDbSymbolTableRecord
100
AcDbBlockTableRecord
  2
*D19
340
0
  0
BLOCK_RECORD
  5
440
330
1
100
AcDbSymbolTableRecord
100
AcDbBlockTableRecord
  2
*D20
340
0
  0
BLOCK_RECORD
  5
46F
330
1
100
AcDbSymbolTableRecord
100
AcDbBlockTableRecord
  2
*X1721
340
0
102
{BLKREFS
331
47C
102
}
  0
BLOCK_RECORD
  5
493
330
1
100
AcDbSymbolTableRecord
100
AcDbBlockTableRecord
  2
*X1822
340
0
102
{BLKREFS
331
49D
102
}
  0
BLOCK_RECORD
  5
4B4
330
1
100
AcDbSymbolTableRecord
100
AcDbBlockTableRecord
  2
*D23
340
0
  0
BLOCK_RECORD
  5
5F0
330
1
100
AcDbSymbolTableRecord
100
AcDbBlockTableRecord
  2
*X1924
340
0
102
{BLKREFS
331
689
102
}
  0
BLOCK_RECORD
  5
68C
330
1
100
AcDbSymbolTableRecord
100
AcDbBlockTableRecord
  2
*D25
340
0
  0
BLOCK_RECORD
  5
699
330
1
100
AcDbSymbolTableRecord
100
AcDbBlockTableRecord
  2
*D26
340
0
  0
ENDTAB
  0
ENDSEC
  0
SECTION
  2
BLOCKS
  0
BLOCK
  5
20
330
1F
100
AcDbEntity
  8
0
100
AcDbBlockBegin
  2
*Model_Space
 70
     0
 71
     0
 10
0.0
 20
0.0
 30
0.0
  3
*Model_Space
  1

  0
ENDBLK
  5
21
330
1F
100
AcDbEntity
  8
0
100
AcDbBlockEnd
  0
BLOCK
  5
1C
330
1B
100
AcDbEntity
 67
     1
  8
0
100
AcDbBlockBegin
  2
*Paper_Space
 70
     0
 71
     0
 10
0.0
 20
0.0
 30
0.0
  3
*Paper_Space
  1

  0
ENDBLK
  5
1D
330
1B
100
AcDbEntity
 67
     1
  8
0
100
AcDbBlockEnd
  0
BLOCK
  5
24
330
23
100
AcDbEntity
  8
0
100
AcDbBlockBegin
  2
*Paper_Space0
 70
     0
 71
     0
 10
0.0
 20
0.0
 30
0.0
  3
*Paper_Space0
  1

  0
ENDBLK
  5
25
330
23
100
AcDbEntity
  8
0
100
AcDbBlockEnd
  0
BLOCK
  5
49
330
48
100
AcDbEntity
  8
0
100
AcDbBlockBegin
  2
*X11
 70
     1
 71
     0
 10
0.0
 20
0.0
 30
0.0
  3
*X11
  1

  4
*X1
  0
LINE
  5
4C
330
48
100
AcDbEntity
  8
LC-003-005-----0
 62
     7
370
    25
100
AcDbLine
 10
160.978456
 20
390.081053
 30
0.0
 11
161.546027
 21
390.648624
 31
0.0
  0
LINE
  5
4D
330
48
100
AcDbEntity
  8
LC-003-005-----0
 62
     7
370
    25
100
AcDbLine
 10
158.150029
 20
390.081053
 30
0.0
 11
161.546023
 21
393.477047
 31
0.0
  0
LINE
  5
4E
330
48
100
AcDbEntity
  8
LC-003-005-----0
 62
     7
370
    25
100
AcDbLine
 10
158.646023
 20
393.405474
 30
0.0
 11
161.546019
 21
396.30547
 31
0.0
  0
LINE
  5
4F
330
48
100
AcDbEntity
  8
LC-003-005-----0
 62
     7
370
    25
100
AcDbLine
 10
158.646019
 20
396.233898
 30
0.0
 11
161.546015
 21
399.133894
 31
0.0
  0
LINE
  5
50
330
48
100
AcDbEntity
  8
LC-003-005-----0
 62
     7
370
    25
100
AcDbLine
 10
158.646015
 20
399.062321
 30
0.0
 11
161.546011
 21
401.962317
 31
0.0
  0
LINE
  5
51
330
48
100
AcDbEntity
  8
LC-003-005-----0
 62
     7
370
    25
100
AcDbLine
 10
158.646011
 20
401.890744
 30
0.0
 11
161.546007
 21
404.79074
 31
0.0
  0
LINE
  5
52
330
48
100
AcDbEntity
  8
LC-003-005-----0
 62
     7
370
    25
100
AcDbLine
 10
158.646007
 20
404.719167
 30
0.0
 11
161.546004
 21
407.619163
 31
0.0
  0
LINE
  5
53
330
48
100
AcDbEntity
  8
LC-003-005-----0
 62
     7
370
    25
100
AcDbLine
 10
158.646004
 20
407.547591
 30
0.0
 11
161.546
 21
410.447587
 31
0.0
  0
LINE
  5
54
330
48
100
AcDbEntity
  8
LC-003-005-----0
 62
     7
370
    25
100
AcDbLine
 10
158.646
 20
410.376014
 30
0.0
 11
162.045995
 21
413.776009
 31
0.0
  0
LINE
  5
55
330
48
100
AcDbEntity
  8
LC-003-005-----0
 62
     7
370
    25
100
AcDbLine
 10
158.645996
 20
413.204437
 30
0.0
 11
162.045991
 21
416.604432
 31
0.0
  0
LINE
  5
56
330
48
100
AcDbEntity
  8
LC-003-005-----0
 62
     7
370
    25
100
AcDbLine
 10
158.645992
 20
416.03286
 30
0.0
 11
161.694185
 21
419.081053
 31
0.0
  0
LINE
  5
57
330
48
100
AcDbEntity
  8
LC-003-005-----0
 62
     7
370
    25
100
AcDbLine
 10
158.645988
 20
418.861284
 30
0.0
 11
158.865757
 21
419.081053
 31
0.0
  0
ENDBLK
  5
4A
330
48
100
AcDbEntity
  8
0
100
AcDbBlockEnd
  0
BLOCK
  5
7C
330
7B
100
AcDbEntity
  8
0
100
AcDbBlockBegin
  2
*X22
 70
     1
 71
     0
 10
0.0
 20
0.0
 30
0.0
  3
*X22
  1

  4
*X2
  0
LINE
  5
7E
330
7B
100
AcDbEntity
  8
LC-003-005-----0
 62
     7
370
    25
100
AcDbLine
 10
175.195926
 20
455.210211
 30
0.0
 11
176.350018
 21
456.364303
 31
0.0
  0
LINE
  5
7F
330
7B
100
AcDbEntity
  8
LC-003-005-----0
 62
     7
370
    25
100
AcDbLine
 10
188.144544
 20
490.786246
 30
0.0
 11
191.439359
 21
494.081062
 31
0.0
  0
ENDBLK
  5
7D
330
7B
100
AcDbEntity
  8
0
100
AcDbBlockEnd
  0
BLOCK
  5
98
330
97
100
AcDbEntity
  8
0
100
AcDbBlockBegin
  2
*X33
 70
     1
 71
     0
 10
0.0
 20
0.0
 30
0.0
  3
*X33
  1

  4
*X3
  0
LINE
  5
9A
330
97
100
AcDbEntity
  8
LC-003-005-----0
 62
     7
370
    25
100
AcDbLine
 10
305.228439
 20
390.081252
 30
0.0
 11
307.196445
 21
392.049258
 31
0.0
  0
LINE
  5
9B
330
97
100
AcDbEntity
  8
LC-003-005-----0
 62
     7
370
    25
100
AcDbLine
 10
303.5455
 20
391.226741
 30
0.0
 11
306.445496
 21
394.126737
 31
0.0
  0
LINE
  5
9C
330
97
100
AcDbEntity
  8
LC-003-005-----0
 62
     7
370
    25
100
AcDbLine
 10
303.545496
 20
394.055164
 30
0.0
 11
306.445492
 21
396.95516
 31
0.0
  0
LINE
  5
9D
330
97
100
AcDbEntity
  8
LC-003-005-----0
 62
     7
370
    25
100
AcDbLine
 10
303.545492
 20
396.883587
 30
0.0
 11
306.445488
 21
399.783583
 31
0.0
  0
LINE
  5
9E
330
97
100
AcDbEntity
  8
LC-003-005-----0
 62
     7
370
    25
100
AcDbLine
 10
303.545488
 20
399.71201
 30
0.0
 11
306.445484
 21
402.612006
 31
0.0
  0
LINE
  5
9F
330
97
100
AcDbEntity
  8
LC-003-005-----0
 62
     7
370
    25
100
AcDbLine
 10
303.545484
 20
402.540434
 30
0.0
 11
306.44548
 21
405.44043
 31
0.0
  0
LINE
  5
A0
330
97
100
AcDbEntity
  8
LC-003-005-----0
 62
     7
370
    25
100
AcDbLine
 10
303.54548
 20
405.368857
 30
0.0
 11
306.445476
 21
408.268853
 31
0.0
  0
LINE
  5
A1
330
97
100
AcDbEntity
  8
LC-003-005-----0
 62
     7
370
    25
100
AcDbLine
 10
303.545477
 20
408.19728
 30
0.0
 11
306.445473
 21
411.097276
 31
0.0
  0
LINE
  5
A2
330
97
100
AcDbEntity
  8
LC-003-005-----0
 62
     7
370
    25
100
AcDbLine
 10
303.545473
 20
411.025703
 30
0.0
 11
306.445469
 21
413.925699
 31
0.0
  0
LINE
  5
A3
330
97
100
AcDbEntity
  8
LC-003-005-----0
 62
     7
370
    25
100
AcDbLine
 10
303.045469
 20
413.354127
 30
0.0
 11
306.445465
 21
416.754123
 31
0.0
  0
LINE
  5
A4
330
97
100
AcDbEntity
  8
LC-003-005-----0
 62
     7
370
    25
100
AcDbLine
 10
303.045466
 20
416.182551
 30
0.0
 11
305.944169
 21
419.081254
 31
0.0
  0
LINE
  5
A5
330
97
100
AcDbEntity
  8
LC-003-005-----0
 62
     7
370
    25
100
AcDbLine
 10
303.045462
 20
419.010974
 30
0.0
 11
303.115734
 21
419.081247
 31
0.0
  0
ENDBLK
  5
99
330
97
100
AcDbEntity
  8
0
100
AcDbBlockEnd
  0
BLOCK
  5
CB
330
CA
100
AcDbEntity
  8
0
100
AcDbBlockBegin
  2
*X44
 70
     1
 71
     0
 10
0.0
 20
0.0
 30
0.0
  3
*X44
  1

  4
*X4
  0
LINE
  5
CD
330
CA
100
AcDbEntity
  8
LC-003-005-----0
 62
     7
370
    25
100
AcDbLine
 10
289.785264
 20
453.834037
 30
0.0
 11
290.233299
 21
454.282073
 31
0.0
  0
LINE
  5
CE
330
CA
100
AcDbEntity
  8
LC-003-005-----0
 62
     7
370
    25
100
AcDbLine
 10
288.741331
 20
455.618532
 30
0.0
 11
289.47854
 21
456.35574
 31
0.0
  0
LINE
  5
CF
330
CA
100
AcDbEntity
  8
LC-003-005-----0
 62
     7
370
    25
100
AcDbLine
 10
275.03512
 20
489.995581
 30
0.0
 11
276.647625
 21
491.608087
 31
0.0
  0
LINE
  5
D0
330
CA
100
AcDbEntity
  8
LC-003-005-----0
 62
     7
370
    25
100
AcDbLine
 10
274.278563
 20
492.067452
 30
0.0
 11
275.892866
 21
493.681754
 31
0.0
  0
ENDBLK
  5
CC
330
CA
100
AcDbEntity
  8
0
100
AcDbBlockEnd
  0
BLOCK
  5
F8
330
F7
100
AcDbEntity
  8
0
100
AcDbBlockBegin
  2
*X55
 70
     1
 71
     0
 10
0.0
 20
0.0
 30
0.0
  3
*X55
  1

  4
*X5
  0
LINE
  5
FA
330
F7
100
AcDbEntity
  8
LC-003-005-----0
 62
     7
370
    25
100
AcDbLine
 10
321.49956
 20
419.548347
 30
0.0
 11
320.792453
 21
420.255453
 31
0.0
  0
LINE
  5
FB
330
F7
100
AcDbEntity
  8
LC-003-005-----0
 62
     7
370
    25
100
AcDbLine
 10
320.032388
 20
418.187091
 30
0.0
 11
319.109715
 21
419.109765
 31
0.0
  0
LINE
  5
FC
330
F7
100
AcDbEntity
  8
LC-003-005-----0
 62
     7
370
    25
100
AcDbLine
 10
317.281318
 20
418.109734
 30
0.0
 11
316.2813
 21
419.109753
 31
0.0
  0
LINE
  5
FD
330
F7
100
AcDbEntity
  8
LC-003-005-----0
 62
     7
370
    25
100
AcDbLine
 10
314.454699
 20
418.107926
 30
0.0
 11
313.602898
 21
418.959727
 31
0.0
  0
LINE
  5
FE
330
F7
100
AcDbEntity
  8
LC-003-005-----0
 62
     7
370
    25
100
AcDbLine
 10
312.743956
 20
416.990243
 30
0.0
 11
312.010706
 21
417.723493
 31
0.0
  0
LINE
  5
FF
330
F7
100
AcDbEntity
  8
LC-003-005-----0
 62
     7
370
    25
100
AcDbLine
 10
312.539705
 20
414.366066
 30
0.0
 11
311.539703
 21
415.366068
 31
0.0
  0
LINE
  5
100
330
F7
100
AcDbEntity
  8
LC-003-005-----0
 62
     7
370
    25
100
AcDbLine
 10
312.539711
 20
411.537633
 30
0.0
 11
311.539708
 21
412.537635
 31
0.0
  0
LINE
  5
101
330
F7
100
AcDbEntity
  8
LC-003-005-----0
 62
     7
370
    25
100
AcDbLine
 10
312.539716
 20
408.709201
 30
0.0
 11
311.539714
 21
409.709203
 31
0.0
  0
LINE
  5
102
330
F7
100
AcDbEntity
  8
LC-003-005-----0
 62
     7
370
    25
100
AcDbLine
 10
312.539722
 20
405.880768
 30
0.0
 11
311.53972
 21
406.88077
 31
0.0
  0
LINE
  5
103
330
F7
100
AcDbEntity
  8
LC-003-005-----0
 62
     7
370
    25
100
AcDbLine
 10
312.539728
 20
403.052335
 30
0.0
 11
311.539726
 21
404.052337
 31
0.0
  0
LINE
  5
104
330
F7
100
AcDbEntity
  8
LC-003-005-----0
 62
     7
370
    25
100
AcDbLine
 10
312.539733
 20
400.223902
 30
0.0
 11
311.539731
 21
401.223904
 31
0.0
  0
LINE
  5
105
330
F7
100
AcDbEntity
  8
LC-003-005-----0
 62
     7
370
    25
100
AcDbLine
 10
311.799114
 20
398.136094
 30
0.0
 11
311.089583
 21
398.845625
 31
0.0
  0
LINE
  5
106
330
F7
100
AcDbEntity
  8
LC-003-005-----0
 62
     7
370
    25
100
AcDbLine
 10
309.966545
 20
397.140236
 30
0.0
 11
308.997651
 21
398.109131
 31
0.0
  0
LINE
  5
107
330
F7
100
AcDbEntity
  8
LC-003-005-----0
 62
     7
370
    25
100
AcDbLine
 10
308.540098
 20
395.738256
 30
0.0
 11
307.545182
 21
396.733172
 31
0.0
  0
ENDBLK
  5
F9
330
F7
100
AcDbEntity
  8
0
100
AcDbBlockEnd
  0
BLOCK
  5
10E
330
10D
100
AcDbEntity
  8
0
100
AcDbBlockBegin
  2
*X66
 70
     1
 71
     0
 10
0.0
 20
0.0
 30
0.0
  3
*X66
  1

  4
*X6
  0
LINE
  5
110
330
10D
100
AcDbEntity
  8
LC-003-005-----0
 62
     7
370
    25
100
AcDbLine
 10
356.805927
 20
423.839959
 30
0.0
 11
356.33021
 21
424.315677
 31
0.0
  0
LINE
  5
111
330
10D
100
AcDbEntity
  8
LC-003-005-----0
 62
     7
370
    25
100
AcDbLine
 10
355.257554
 20
422.559905
 30
0.0
 11
354.439157
 21
423.378302
 31
0.0
  0
LINE
  5
112
330
10D
100
AcDbEntity
  8
LC-003-005-----0
 62
     7
370
    25
100
AcDbLine
 10
352.949677
 20
422.039355
 30
0.0
 11
352.106551
 21
422.882481
 31
0.0
  0
LINE
  5
113
330
10D
100
AcDbEntity
  8
LC-003-005-----0
 62
     7
370
    25
100
AcDbLine
 10
350.617071
 20
421.543534
 30
0.0
 11
349.773945
 21
422.38666
 31
0.0
  0
LINE
  5
114
330
10D
100
AcDbEntity
  8
LC-003-005-----0
 62
     7
370
    25
100
AcDbLine
 10
348.284465
 20
421.047713
 30
0.0
 11
347.441339
 21
421.890839
 31
0.0
  0
LINE
  5
115
330
10D
100
AcDbEntity
  8
LC-003-005-----0
 62
     7
370
    25
100
AcDbLine
 10
345.951859
 20
420.551892
 30
0.0
 11
345.108733
 21
421.395017
 31
0.0
  0
LINE
  5
116
330
10D
100
AcDbEntity
  8
LC-003-005-----0
 62
     7
370
    25
100
AcDbLine
 10
343.619253
 20
420.05607
 30
0.0
 11
342.776127
 21
420.899196
 31
0.0
  0
LINE
  5
117
330
10D
100
AcDbEntity
  8
LC-003-005-----0
 62
     7
370
    25
100
AcDbLine
 10
341.286647
 20
419.560249
 30
0.0
 11
340.443522
 21
420.403375
 31
0.0
  0
LINE
  5
118
330
10D
100
AcDbEntity
  8
LC-003-005-----0
 62
     7
370
    25
100
AcDbLine
 10
338.954041
 20
419.064428
 30
0.0
 11
338.110916
 21
419.907554
 31
0.0
  0
LINE
  5
119
330
10D
100
AcDbEntity
  8
LC-003-005-----0
 62
     7
370
    25
100
AcDbLine
 10
336.621436
 20
418.568607
 30
0.0
 11
335.77831
 21
419.411733
 31
0.0
  0
LINE
  5
11A
330
10D
100
AcDbEntity
  8
LC-003-005-----0
 62
     7
370
    25
100
AcDbLine
 10
334.251886
 20
418.109729
 30
0.0
 11
331.789298
 21
420.572318
 31
0.0
  0
ENDBLK
  5
10F
330
10D
100
AcDbEntity
  8
0
100
AcDbBlockEnd
  0
BLOCK
  5
142
330
141
100
AcDbEntity
  8
0
100
AcDbBlockBegin
  2
*X77
 70
     1
 71
     0
 10
0.0
 20
0.0
 30
0.0
  3
*X77
  1

  4
*X7
  0
LINE
  5
144
330
141
100
AcDbEntity
  8
LC-003-005-----0
 62
     7
370
    25
100
AcDbLine
 10
153.540276
 20
414.973576
 30
0.0
 11
152.540274
 21
415.973578
 31
0.0
  0
LINE
  5
145
330
141
100
AcDbEntity
  8
LC-003-005-----0
 62
     7
370
    25
100
AcDbLine
 10
150.404474
 20
418.109378
 30
0.0
 11
149.404462
 21
419.10939
 31
0.0
  0
LINE
  5
146
330
141
100
AcDbEntity
  8
LC-003-005-----0
 62
     7
370
    25
100
AcDbLine
 10
153.540283
 20
412.145142
 30
0.0
 11
152.54028
 21
413.145144
 31
0.0
  0
LINE
  5
147
330
141
100
AcDbEntity
  8
LC-003-005-----0
 62
     7
370
    25
100
AcDbLine
 10
147.576058
 20
418.109367
 30
0.0
 11
146.576035
 21
419.10939
 31
0.0
  0
LINE
  5
148
330
141
100
AcDbEntity
  8
LC-003-005-----0
 62
     7
370
    25
100
AcDbLine
 10
153.540289
 20
409.316709
 30
0.0
 11
152.540287
 21
410.316711
 31
0.0
  0
LINE
  5
149
330
141
100
AcDbEntity
  8
LC-003-005-----0
 62
     7
370
    25
100
AcDbLine
 10
143.247649
 20
419.609349
 30
0.0
 11
142.247653
 21
420.609345
 31
0.0
  0
LINE
  5
14A
330
141
100
AcDbEntity
  8
LC-003-005-----0
 62
     7
370
    25
100
AcDbLine
 10
153.540296
 20
406.488275
 30
0.0
 11
152.540294
 21
407.488277
 31
0.0
  0
LINE
  5
14B
330
141
100
AcDbEntity
  8
LC-003-005-----0
 62
     7
370
    25
100
AcDbLine
 10
153.540302
 20
403.659841
 30
0.0
 11
152.5403
 21
404.659844
 31
0.0
  0
LINE
  5
14C
330
141
100
AcDbEntity
  8
LC-003-005-----0
 62
     7
370
    25
100
AcDbLine
 10
157.520314
 20
396.851402
 30
0.0
 11
156.281966
 21
398.08975
 31
0.0
  0
LINE
  5
14D
330
141
100
AcDbEntity
  8
LC-003-005-----0
 62
     7
370
    25
100
AcDbLine
 10
153.540309
 20
400.831408
 30
0.0
 11
152.540307
 21
401.83141
 31
0.0
  0
LINE
  5
14E
330
141
100
AcDbEntity
  8
LC-003-005-----0
 62
     7
370
    25
100
AcDbLine
 10
157.433887
 20
394.109402
 30
0.0
 11
156.539965
 21
395.003325
 31
0.0
  0
LINE
  5
14F
330
141
100
AcDbEntity
  8
LC-003-005-----0
 62
     7
370
    25
100
AcDbLine
 10
154.020355
 20
397.522934
 30
0.0
 11
152.953858
 21
398.589431
 31
0.0
  0
ENDBLK
  5
143
330
141
100
AcDbEntity
  8
0
100
AcDbBlockEnd
  0
BLOCK
  5
152
330
151
100
AcDbEntity
  8
0
100
AcDbBlockBegin
  2
*X88
 70
     1
 71
     0
 10
0.0
 20
0.0
 30
0.0
  3
*X88
  1

  4
*X8
  0
LINE
  5
154
330
151
100
AcDbEntity
  8
LC-003-005-----0
 62
     7
370
    25
100
AcDbLine
 10
134.762404
 20
419.609313
 30
0.0
 11
133.762408
 21
420.609308
 31
0.0
  0
LINE
  5
155
330
151
100
AcDbEntity
  8
LC-003-005-----0
 62
     7
370
    25
100
AcDbLine
 10
132.74782
 20
418.795469
 30
0.0
 11
132.008433
 21
419.534857
 31
0.0
  0
LINE
  5
156
330
151
100
AcDbEntity
  8
LC-003-005-----0
 62
     7
370
    25
100
AcDbLine
 10
130.6024
 20
418.112462
 30
0.0
 11
129.304096
 21
419.410766
 31
0.0
  0
LINE
  5
157
330
151
100
AcDbEntity
  8
LC-003-005-----0
 62
     7
370
    25
100
AcDbLine
 10
127.010488
 20
418.875947
 30
0.0
 11
125.712185
 21
420.17425
 31
0.0
  0
LINE
  5
158
330
151
100
AcDbEntity
  8
LC-003-005-----0
 62
     7
370
    25
100
AcDbLine
 10
123.418577
 20
419.639431
 30
0.0
 11
122.120273
 21
420.937735
 31
0.0
  0
LINE
  5
159
330
151
100
AcDbEntity
  8
LC-003-005-----0
 62
     7
370
    25
100
AcDbLine
 10
119.826665
 20
420.402916
 30
0.0
 11
118.528362
 21
421.701219
 31
0.0
  0
LINE
  5
15A
330
151
100
AcDbEntity
  8
LC-003-005-----0
 62
     7
370
    25
100
AcDbLine
 10
116.234754
 20
421.1664
 30
0.0
 11
114.93645
 21
422.464703
 31
0.0
  0
LINE
  5
15B
330
151
100
AcDbEntity
  8
LC-003-005-----0
 62
     7
370
    25
100
AcDbLine
 10
112.642842
 20
421.929884
 30
0.0
 11
111.344539
 21
423.228188
 31
0.0
  0
ENDBLK
  5
153
330
151
100
AcDbEntity
  8
0
100
AcDbBlockEnd
  0
BLOCK
  5
186
330
185
100
AcDbEntity
  8
0
100
AcDbBlockBegin
  2
*X99
 70
     1
 71
     0
 10
0.0
 20
0.0
 30
0.0
  3
*X99
  1

  4
*X9
  0
LINE
  5
188
330
185
100
AcDbEntity
  8
LC-003-005-----0
 62
     7
370
    25
100
AcDbLine
 10
132.89348
 20
393.108775
 30
0.0
 11
133.89348
 21
394.108775
 31
0.0
  0
LINE
  5
189
330
185
100
AcDbEntity
  8
LC-003-005-----0
 62
     7
370
    25
100
AcDbLine
 10
131.112221
 20
394.155944
 30
0.0
 11
132.042236
 21
395.085959
 31
0.0
  0
LINE
  5
18A
330
185
100
AcDbEntity
  8
LC-003-005-----0
 62
     7
370
    25
100
AcDbLine
 10
131.042236
 20
396.914386
 30
0.0
 11
132.042236
 21
397.914386
 31
0.0
  0
LINE
  5
18B
330
185
100
AcDbEntity
  8
LC-003-005-----0
 62
     7
370
    25
100
AcDbLine
 10
131.042236
 20
399.742813
 30
0.0
 11
132.042236
 21
400.742813
 31
0.0
  0
LINE
  5
18C
330
185
100
AcDbEntity
  8
LC-003-005-----0
 62
     7
370
    25
100
AcDbLine
 10
131.042236
 20
402.57124
 30
0.0
 11
132.042236
 21
403.57124
 31
0.0
  0
LINE
  5
18D
330
185
100
AcDbEntity
  8
LC-003-005-----0
 62
     7
370
    25
100
AcDbLine
 10
131.042236
 20
405.399667
 30
0.0
 11
132.042236
 21
406.399667
 31
0.0
  0
LINE
  5
18E
330
185
100
AcDbEntity
  8
LC-003-005-----0
 62
     7
370
    25
100
AcDbLine
 10
131.042236
 20
408.228094
 30
0.0
 11
131.947512
 21
409.13337
 31
0.0
  0
LINE
  5
18F
330
185
100
AcDbEntity
  8
LC-003-005-----0
 62
     7
370
    25
100
AcDbLine
 10
129.09449
 20
409.108775
 30
0.0
 11
130.09449
 21
410.108775
 31
0.0
  0
LINE
  5
190
330
185
100
AcDbEntity
  8
LC-003-005-----0
 62
     7
370
    25
100
AcDbLine
 10
126.595961
 20
409.438674
 30
0.0
 11
127.26627
 21
410.108983
 31
0.0
  0
LINE
  5
191
330
185
100
AcDbEntity
  8
LC-003-005-----0
 62
     7
370
    25
100
AcDbLine
 10
124.522289
 20
410.193429
 30
0.0
 11
125.192598
 21
410.863738
 31
0.0
  0
LINE
  5
192
330
185
100
AcDbEntity
  8
LC-003-005-----0
 62
     7
370
    25
100
AcDbLine
 10
122.448617
 20
410.948183
 30
0.0
 11
123.118926
 21
411.618493
 31
0.0
  0
LINE
  5
193
330
185
100
AcDbEntity
  8
LC-003-005-----0
 62
     7
370
    25
100
AcDbLine
 10
120.374945
 20
411.702938
 30
0.0
 11
121.045254
 21
412.373247
 31
0.0
  0
LINE
  5
194
330
185
100
AcDbEntity
  8
LC-003-005-----0
 62
     7
370
    25
100
AcDbLine
 10
118.301272
 20
412.457693
 30
0.0
 11
118.971581
 21
413.128002
 31
0.0
  0
LINE
  5
195
330
185
100
AcDbEntity
  8
LC-003-005-----0
 62
     7
370
    25
100
AcDbLine
 10
116.2276
 20
413.212448
 30
0.0
 11
116.897909
 21
413.882757
 31
0.0
  0
LINE
  5
196
330
185
100
AcDbEntity
  8
LC-003-005-----0
 62
     7
370
    25
100
AcDbLine
 10
114.153928
 20
413.967203
 30
0.0
 11
114.824237
 21
414.637512
 31
0.0
  0
LINE
  5
197
330
185
100
AcDbEntity
  8
LC-003-005-----0
 62
     7
370
    25
100
AcDbLine
 10
112.080256
 20
414.721958
 30
0.0
 11
112.750565
 21
415.392267
 31
0.0
  0
LINE
  5
198
330
185
100
AcDbEntity
  8
LC-003-005-----0
 62
     7
370
    25
100
AcDbLine
 10
110.006584
 20
415.476713
 30
0.0
 11
110.676893
 21
416.147022
 31
0.0
  0
LINE
  5
199
330
185
100
AcDbEntity
  8
LC-003-005-----0
 62
     7
370
    25
100
AcDbLine
 10
107.932912
 20
416.231468
 30
0.0
 11
108.603221
 21
416.901777
 31
0.0
  0
ENDBLK
  5
187
330
185
100
AcDbEntity
  8
0
100
AcDbBlockEnd
  0
BLOCK
  5
19C
330
19B
100
AcDbEntity
  8
0
100
AcDbBlockBegin
  2
*X1010
 70
     1
 71
     0
 10
0.0
 20
0.0
 30
0.0
  3
*X1010
  1

  4
*X10
  0
LINE
  5
19E
330
19B
100
AcDbEntity
  8
LC-003-005-----0
 62
     7
370
    25
100
AcDbLine
 10
144.207188
 20
393.108775
 30
0.0
 11
145.207188
 21
394.108775
 31
0.0
  0
LINE
  5
19F
330
19B
100
AcDbEntity
  8
LC-003-005-----0
 62
     7
370
    25
100
AcDbLine
 10
142.042236
 20
393.77225
 30
0.0
 11
142.378761
 21
394.108775
 31
0.0
  0
ENDBLK
  5
19D
330
19B
100
AcDbEntity
  8
0
100
AcDbBlockEnd
  0
BLOCK
  5
1C1
330
1C0
100
AcDbEntity
  8
0
100
AcDbBlockBegin
  2
*X1111
 70
     1
 71
     0
 10
0.0
 20
0.0
 30
0.0
  3
*X1111
  1

  4
*X11
  0
LINE
  5
1C3
330
1C0
100
AcDbEntity
  8
LC-003-005-----0
 62
     7
370
    25
100
AcDbLine
 10
356.649596
 20
416.046566
 30
0.0
 11
357.172596
 21
416.569566
 31
0.0
  0
LINE
  5
1C4
330
1C0
100
AcDbEntity
  8
LC-003-005-----0
 62
     7
370
    25
100
AcDbLine
 10
330.883648
 20
393.109045
 30
0.0
 11
331.883651
 21
394.109048
 31
0.0
  0
LINE
  5
1C5
330
1C0
100
AcDbEntity
  8
LC-003-005-----0
 62
     7
370
    25
100
AcDbLine
 10
333.049279
 20
395.274675
 30
0.0
 11
334.049276
 21
396.274673
 31
0.0
  0
LINE
  5
1C6
330
1C0
100
AcDbEntity
  8
LC-003-005-----0
 62
     7
370
    25
100
AcDbLine
 10
352.20257
 20
414.427967
 30
0.0
 11
353.640061
 21
415.865458
 31
0.0
  0
LINE
  5
1C7
330
1C0
100
AcDbEntity
  8
LC-003-005-----0
 62
     7
370
    25
100
AcDbLine
 10
333.049271
 20
398.103095
 30
0.0
 11
334.049268
 21
399.103092
 31
0.0
  0
LINE
  5
1C8
330
1C0
100
AcDbEntity
  8
LC-003-005-----0
 62
     7
370
    25
100
AcDbLine
 10
347.755544
 20
412.809368
 30
0.0
 11
349.193035
 21
414.246859
 31
0.0
  0
LINE
  5
1C9
330
1C0
100
AcDbEntity
  8
LC-003-005-----0
 62
     7
370
    25
100
AcDbLine
 10
333.049263
 20
400.931514
 30
0.0
 11
334.04926
 21
401.931511
 31
0.0
  0
LINE
  5
1CA
330
1C0
100
AcDbEntity
  8
LC-003-005-----0
 62
     7
370
    25
100
AcDbLine
 10
343.308518
 20
411.190769
 30
0.0
 11
344.746009
 21
412.62826
 31
0.0
  0
LINE
  5
1CB
330
1C0
100
AcDbEntity
  8
LC-003-005-----0
 62
     7
370
    25
100
AcDbLine
 10
333.049255
 20
403.759933
 30
0.0
 11
334.049252
 21
404.759931
 31
0.0
  0
LINE
  5
1CC
330
1C0
100
AcDbEntity
  8
LC-003-005-----0
 62
     7
370
    25
100
AcDbLine
 10
338.861492
 20
409.57217
 30
0.0
 11
340.298983
 21
411.009661
 31
0.0
  0
LINE
  5
1CD
330
1C0
100
AcDbEntity
  8
LC-003-005-----0
 62
     7
370
    25
100
AcDbLine
 10
333.049247
 20
406.588353
 30
0.0
 11
334.049245
 21
407.58835
 31
0.0
  0
LINE
  5
1CE
330
1C0
100
AcDbEntity
  8
LC-003-005-----0
 62
     7
370
    25
100
AcDbLine
 10
335.569953
 20
409.109058
 30
0.0
 11
336.569955
 21
410.109061
 31
0.0
  0
ENDBLK
  5
1C2
330
1C0
100
AcDbEntity
  8
0
100
AcDbBlockEnd
  0
BLOCK
  5
1D1
330
1D0
100
AcDbEntity
  8
0
100
AcDbBlockBegin
  2
*X1212
 70
     1
 71
     0
 10
0.0
 20
0.0
 30
0.0
  3
*X1212
  1

  4
*X12
  0
LINE
  5
1D3
330
1D0
100
AcDbEntity
  8
LC-003-005-----0
 62
     7
370
    25
100
AcDbLine
 10
322.398344
 20
393.109022
 30
0.0
 11
323.049283
 21
393.759961
 31
0.0
  0
LINE
  5
1D4
330
1D0
100
AcDbEntity
  8
LC-003-005-----0
 62
     7
370
    25
100
AcDbLine
 10
319.569909
 20
393.109014
 30
0.0
 11
320.569912
 21
394.109017
 31
0.0
  0
ENDBLK
  5
1D2
330
1D0
100
AcDbEntity
  8
0
100
AcDbBlockEnd
  0
BLOCK
  5
219
330
218
100
AcDbEntity
  8
0
100
AcDbBlockBegin
  2
*X1313
 70
     1
 71
     0
 10
0.0
 20
0.0
 30
0.0
  3
*X1313
  1

  4
*X13
  0
LINE
  5
21B
330
218
100
AcDbEntity
  8
LC-003-005-----0
 62
     7
370
    25
100
AcDbLine
 10
189.19017
 20
-37.084
 30
0.0
 11
190.543794
 21
-35.730376
 31
0.0
  0
LINE
  5
21C
330
218
100
AcDbEntity
  8
LC-003-005-----0
 62
     7
370
    25
100
AcDbLine
 10
188.244959
 20
-35.200783
 30
0.0
 11
190.543794
 21
-32.901949
 31
0.0
  0
LINE
  5
21D
330
218
100
AcDbEntity
  8
LC-003-005-----0
 62
     7
370
    25
100
AcDbLine
 10
187.647242
 20
-32.970073
 30
0.0
 11
190.543794
 21
-30.073521
 31
0.0
  0
LINE
  5
21E
330
218
100
AcDbEntity
  8
LC-003-005-----0
 62
     7
370
    25
100
AcDbLine
 10
187.543794
 20
-30.245094
 30
0.0
 11
190.543794
 21
-27.245094
 31
0.0
  0
LINE
  5
21F
330
218
100
AcDbEntity
  8
LC-003-005-----0
 62
     7
370
    25
100
AcDbLine
 10
187.543794
 20
-27.416667
 30
0.0
 11
190.543794
 21
-24.416667
 31
0.0
  0
LINE
  5
220
330
218
100
AcDbEntity
  8
LC-003-005-----0
 62
     7
370
    25
100
AcDbLine
 10
187.543794
 20
-24.58824
 30
0.0
 11
190.543794
 21
-21.58824
 31
0.0
  0
LINE
  5
221
330
218
100
AcDbEntity
  8
LC-003-005-----0
 62
     7
370
    25
100
AcDbLine
 10
187.543794
 20
-21.759813
 30
0.0
 11
190.543794
 21
-18.759813
 31
0.0
  0
LINE
  5
222
330
218
100
AcDbEntity
  8
LC-003-005-----0
 62
     7
370
    25
100
AcDbLine
 10
187.543794
 20
-18.931386
 30
0.0
 11
190.543794
 21
-15.931386
 31
0.0
  0
LINE
  5
223
330
218
100
AcDbEntity
  8
LC-003-005-----0
 62
     7
370
    25
100
AcDbLine
 10
187.543794
 20
-16.102959
 30
0.0
 11
190.543794
 21
-13.102959
 31
0.0
  0
LINE
  5
224
330
218
100
AcDbEntity
  8
LC-003-005-----0
 62
     7
370
    25
100
AcDbLine
 10
187.543794
 20
-13.274532
 30
0.0
 11
190.543794
 21
-10.274532
 31
0.0
  0
LINE
  5
225
330
218
100
AcDbEntity
  8
LC-003-005-----0
 62
     7
370
    25
100
AcDbLine
 10
187.543794
 20
-10.446104
 30
0.0
 11
190.543794
 21
-7.446104
 31
0.0
  0
LINE
  5
226
330
218
100
AcDbEntity
  8
LC-003-005-----0
 62
     7
370
    25
100
AcDbLine
 10
187.543794
 20
-7.617677
 30
0.0
 11
190.543794
 21
-4.617677
 31
0.0
  0
LINE
  5
227
330
218
100
AcDbEntity
  8
LC-003-005-----0
 62
     7
370
    25
100
AcDbLine
 10
187.543794
 20
-4.78925
 30
0.0
 11
190.543794
 21
-1.78925
 31
0.0
  0
LINE
  5
228
330
218
100
AcDbEntity
  8
LC-003-005-----0
 62
     7
370
    25
100
AcDbLine
 10
187.543794
 20
-1.960823
 30
0.0
 11
190.543794
 21
1.039177
 31
0.0
  0
LINE
  5
229
330
218
100
AcDbEntity
  8
LC-003-005-----0
 62
     7
370
    25
100
AcDbLine
 10
187.543794
 20
0.867604
 30
0.0
 11
190.543794
 21
3.867604
 31
0.0
  0
LINE
  5
22A
330
218
100
AcDbEntity
  8
LC-003-005-----0
 62
     7
370
    25
100
AcDbLine
 10
187.543794
 20
3.696031
 30
0.0
 11
190.543794
 21
6.696031
 31
0.0
  0
LINE
  5
22B
330
218
100
AcDbEntity
  8
LC-003-005-----0
 62
     7
370
    25
100
AcDbLine
 10
187.543794
 20
6.524458
 30
0.0
 11
190.543794
 21
9.524458
 31
0.0
  0
LINE
  5
22C
330
218
100
AcDbEntity
  8
LC-003-005-----0
 62
     7
370
    25
100
AcDbLine
 10
187.543794
 20
9.352885
 30
0.0
 11
190.543794
 21
12.352885
 31
0.0
  0
LINE
  5
22D
330
218
100
AcDbEntity
  8
LC-003-005-----0
 62
     7
370
    25
100
AcDbLine
 10
187.543794
 20
12.181313
 30
0.0
 11
190.543794
 21
15.181313
 31
0.0
  0
LINE
  5
22E
330
218
100
AcDbEntity
  8
LC-003-005-----0
 62
     7
370
    25
100
AcDbLine
 10
187.543794
 20
15.00974
 30
0.0
 11
190.543794
 21
18.00974
 31
0.0
  0
LINE
  5
22F
330
218
100
AcDbEntity
  8
LC-003-005-----0
 62
     7
370
    25
100
AcDbLine
 10
187.543794
 20
17.838167
 30
0.0
 11
190.543794
 21
20.838167
 31
0.0
  0
LINE
  5
230
330
218
100
AcDbEntity
  8
LC-003-005-----0
 62
     7
370
    25
100
AcDbLine
 10
187.543794
 20
20.666594
 30
0.0
 11
190.543794
 21
23.666594
 31
0.0
  0
LINE
  5
231
330
218
100
AcDbEntity
  8
LC-003-005-----0
 62
     7
370
    25
100
AcDbLine
 10
187.543794
 20
23.495021
 30
0.0
 11
190.543794
 21
26.495021
 31
0.0
  0
LINE
  5
232
330
218
100
AcDbEntity
  8
LC-003-005-----0
 62
     7
370
    25
100
AcDbLine
 10
187.543794
 20
26.323448
 30
0.0
 11
190.543794
 21
29.323448
 31
0.0
  0
LINE
  5
233
330
218
100
AcDbEntity
  8
LC-003-005-----0
 62
     7
370
    25
100
AcDbLine
 10
187.543794
 20
29.151875
 30
0.0
 11
190.543794
 21
32.151875
 31
0.0
  0
LINE
  5
234
330
218
100
AcDbEntity
  8
LC-003-005-----0
 62
     7
370
    25
100
AcDbLine
 10
187.543794
 20
31.980302
 30
0.0
 11
190.543794
 21
34.980302
 31
0.0
  0
LINE
  5
235
330
218
100
AcDbEntity
  8
LC-003-005-----0
 62
     7
370
    25
100
AcDbLine
 10
187.543794
 20
34.80873
 30
0.0
 11
190.543794
 21
37.80873
 31
0.0
  0
LINE
  5
236
330
218
100
AcDbEntity
  8
LC-003-005-----0
 62
     7
370
    25
100
AcDbLine
 10
187.543794
 20
37.637157
 30
0.0
 11
190.543794
 21
40.637157
 31
0.0
  0
LINE
  5
237
330
218
100
AcDbEntity
  8
LC-003-005-----0
 62
     7
370
    25
100
AcDbLine
 10
187.543794
 20
40.465584
 30
0.0
 11
190.543794
 21
43.465584
 31
0.0
  0
LINE
  5
238
330
218
100
AcDbEntity
  8
LC-003-005-----0
 62
     7
370
    25
100
AcDbLine
 10
187.543794
 20
43.294011
 30
0.0
 11
190.543794
 21
46.294011
 31
0.0
  0
LINE
  5
239
330
218
100
AcDbEntity
  8
LC-003-005-----0
 62
     7
370
    25
100
AcDbLine
 10
187.543794
 20
46.122438
 30
0.0
 11
190.543794
 21
49.122438
 31
0.0
  0
LINE
  5
23A
330
218
100
AcDbEntity
  8
LC-003-005-----0
 62
     7
370
    25
100
AcDbLine
 10
187.543794
 20
48.950865
 30
0.0
 11
190.543794
 21
51.950865
 31
0.0
  0
LINE
  5
23B
330
218
100
AcDbEntity
  8
LC-003-005-----0
 62
     7
370
    25
100
AcDbLine
 10
187.543794
 20
51.779292
 30
0.0
 11
190.543794
 21
54.779292
 31
0.0
  0
LINE
  5
23C
330
218
100
AcDbEntity
  8
LC-003-005-----0
 62
     7
370
    25
100
AcDbLine
 10
187.543794
 20
54.607719
 30
0.0
 11
190.543794
 21
57.607719
 31
0.0
  0
LINE
  5
23D
330
218
100
AcDbEntity
  8
LC-003-005-----0
 62
     7
370
    25
100
AcDbLine
 10
187.543794
 20
57.436147
 30
0.0
 11
190.543794
 21
60.436147
 31
0.0
  0
LINE
  5
23E
330
218
100
AcDbEntity
  8
LC-003-005-----0
 62
     7
370
    25
100
AcDbLine
 10
187.543794
 20
60.264574
 30
0.0
 11
190.543794
 21
63.264574
 31
0.0
  0
LINE
  5
23F
330
218
100
AcDbEntity
  8
LC-003-005-----0
 62
     7
370
    25
100
AcDbLine
 10
187.543794
 20
63.093001
 30
0.0
 11
190.543794
 21
66.093001
 31
0.0
  0
LINE
  5
240
330
218
100
AcDbEntity
  8
LC-003-005-----0
 62
     7
370
    25
100
AcDbLine
 10
187.543794
 20
65.921428
 30
0.0
 11
190.543794
 21
68.921428
 31
0.0
  0
LINE
  5
241
330
218
100
AcDbEntity
  8
LC-003-005-----0
 62
     7
370
    25
100
AcDbLine
 10
187.543794
 20
68.749855
 30
0.0
 11
190.543794
 21
71.749855
 31
0.0
  0
LINE
  5
242
330
218
100
AcDbEntity
  8
LC-003-005-----0
 62
     7
370
    25
100
AcDbLine
 10
187.543794
 20
71.578282
 30
0.0
 11
190.543794
 21
74.578282
 31
0.0
  0
LINE
  5
243
330
218
100
AcDbEntity
  8
LC-003-005-----0
 62
     7
370
    25
100
AcDbLine
 10
187.543794
 20
74.406709
 30
0.0
 11
190.543794
 21
77.406709
 31
0.0
  0
LINE
  5
244
330
218
100
AcDbEntity
  8
LC-003-005-----0
 62
     7
370
    25
100
AcDbLine
 10
187.543794
 20
77.235136
 30
0.0
 11
190.543794
 21
80.235136
 31
0.0
  0
LINE
  5
245
330
218
100
AcDbEntity
  8
LC-003-005-----0
 62
     7
370
    25
100
AcDbLine
 10
187.543794
 20
80.063564
 30
0.0
 11
190.543794
 21
83.063564
 31
0.0
  0
LINE
  5
246
330
218
100
AcDbEntity
  8
LC-003-005-----0
 62
     7
370
    25
100
AcDbLine
 10
187.543794
 20
82.891991
 30
0.0
 11
190.543794
 21
85.891991
 31
0.0
  0
LINE
  5
247
330
218
100
AcDbEntity
  8
LC-003-005-----0
 62
     7
370
    25
100
AcDbLine
 10
187.543794
 20
85.720418
 30
0.0
 11
190.543794
 21
88.720418
 31
0.0
  0
LINE
  5
248
330
218
100
AcDbEntity
  8
LC-003-005-----0
 62
     7
370
    25
100
AcDbLine
 10
187.543794
 20
88.548845
 30
0.0
 11
190.543794
 21
91.548845
 31
0.0
  0
LINE
  5
249
330
218
100
AcDbEntity
  8
LC-003-005-----0
 62
     7
370
    25
100
AcDbLine
 10
187.543794
 20
91.377272
 30
0.0
 11
190.543794
 21
94.377272
 31
0.0
  0
LINE
  5
24A
330
218
100
AcDbEntity
  8
LC-003-005-----0
 62
     7
370
    25
100
AcDbLine
 10
187.543794
 20
94.205699
 30
0.0
 11
190.543794
 21
97.205699
 31
0.0
  0
LINE
  5
24B
330
218
100
AcDbEntity
  8
LC-003-005-----0
 62
     7
370
    25
100
AcDbLine
 10
187.543794
 20
97.034126
 30
0.0
 11
190.543794
 21
100.034126
 31
0.0
  0
LINE
  5
24C
330
218
100
AcDbEntity
  8
LC-003-005-----0
 62
     7
370
    25
100
AcDbLine
 10
187.543794
 20
99.862553
 30
0.0
 11
190.543794
 21
102.862553
 31
0.0
  0
LINE
  5
24D
330
218
100
AcDbEntity
  8
LC-003-005-----0
 62
     7
370
    25
100
AcDbLine
 10
187.543794
 20
102.690981
 30
0.0
 11
190.543794
 21
105.690981
 31
0.0
  0
LINE
  5
24E
330
218
100
AcDbEntity
  8
LC-003-005-----0
 62
     7
370
    25
100
AcDbLine
 10
187.543794
 20
105.519408
 30
0.0
 11
190.543794
 21
108.519408
 31
0.0
  0
LINE
  5
24F
330
218
100
AcDbEntity
  8
LC-003-005-----0
 62
     7
370
    25
100
AcDbLine
 10
187.543794
 20
108.347835
 30
0.0
 11
190.543794
 21
111.347835
 31
0.0
  0
LINE
  5
250
330
218
100
AcDbEntity
  8
LC-003-005-----0
 62
     7
370
    25
100
AcDbLine
 10
187.543794
 20
111.176262
 30
0.0
 11
190.543794
 21
114.176262
 31
0.0
  0
LINE
  5
251
330
218
100
AcDbEntity
  8
LC-003-005-----0
 62
     7
370
    25
100
AcDbLine
 10
187.543794
 20
114.004689
 30
0.0
 11
190.543794
 21
117.004689
 31
0.0
  0
LINE
  5
252
330
218
100
AcDbEntity
  8
LC-003-005-----0
 62
     7
370
    25
100
AcDbLine
 10
187.543794
 20
116.833116
 30
0.0
 11
190.543794
 21
119.833116
 31
0.0
  0
LINE
  5
253
330
218
100
AcDbEntity
  8
LC-003-005-----0
 62
     7
370
    25
100
AcDbLine
 10
187.543794
 20
119.661543
 30
0.0
 11
190.543794
 21
122.661543
 31
0.0
  0
LINE
  5
254
330
218
100
AcDbEntity
  8
LC-003-005-----0
 62
     7
370
    25
100
AcDbLine
 10
187.543794
 20
122.48997
 30
0.0
 11
190.543794
 21
125.48997
 31
0.0
  0
LINE
  5
255
330
218
100
AcDbEntity
  8
LC-003-005-----0
 62
     7
370
    25
100
AcDbLine
 10
187.543794
 20
125.318398
 30
0.0
 11
190.543794
 21
128.318398
 31
0.0
  0
LINE
  5
256
330
218
100
AcDbEntity
  8
LC-003-005-----0
 62
     7
370
    25
100
AcDbLine
 10
187.543794
 20
128.146825
 30
0.0
 11
190.543794
 21
131.146825
 31
0.0
  0
LINE
  5
257
330
218
100
AcDbEntity
  8
LC-003-005-----0
 62
     7
370
    25
100
AcDbLine
 10
187.543794
 20
130.975252
 30
0.0
 11
190.543794
 21
133.975252
 31
0.0
  0
LINE
  5
258
330
218
100
AcDbEntity
  8
LC-003-005-----0
 62
     7
370
    25
100
AcDbLine
 10
187.543794
 20
133.803679
 30
0.0
 11
190.543794
 21
136.803679
 31
0.0
  0
LINE
  5
259
330
218
100
AcDbEntity
  8
LC-003-005-----0
 62
     7
370
    25
100
AcDbLine
 10
187.543794
 20
136.632106
 30
0.0
 11
190.543794
 21
139.632106
 31
0.0
  0
LINE
  5
25A
330
218
100
AcDbEntity
  8
LC-003-005-----0
 62
     7
370
    25
100
AcDbLine
 10
187.543794
 20
139.460533
 30
0.0
 11
190.543794
 21
142.460533
 31
0.0
  0
LINE
  5
25B
330
218
100
AcDbEntity
  8
LC-003-005-----0
 62
     7
370
    25
100
AcDbLine
 10
187.543794
 20
142.28896
 30
0.0
 11
190.543794
 21
145.28896
 31
0.0
  0
LINE
  5
25C
330
218
100
AcDbEntity
  8
LC-003-005-----0
 62
     7
370
    25
100
AcDbLine
 10
187.543794
 20
145.117387
 30
0.0
 11
190.543794
 21
148.117387
 31
0.0
  0
LINE
  5
25D
330
218
100
AcDbEntity
  8
LC-003-005-----0
 62
     7
370
    25
100
AcDbLine
 10
187.543794
 20
147.945815
 30
0.0
 11
190.543794
 21
150.945815
 31
0.0
  0
LINE
  5
25E
330
218
100
AcDbEntity
  8
LC-003-005-----0
 62
     7
370
    25
100
AcDbLine
 10
187.543794
 20
150.774242
 30
0.0
 11
190.543794
 21
153.774242
 31
0.0
  0
LINE
  5
25F
330
218
100
AcDbEntity
  8
LC-003-005-----0
 62
     7
370
    25
100
AcDbLine
 10
187.543794
 20
153.602669
 30
0.0
 11
190.543794
 21
156.602669
 31
0.0
  0
LINE
  5
260
330
218
100
AcDbEntity
  8
LC-003-005-----0
 62
     7
370
    25
100
AcDbLine
 10
187.543794
 20
156.431096
 30
0.0
 11
190.543794
 21
159.431096
 31
0.0
  0
LINE
  5
261
330
218
100
AcDbEntity
  8
LC-003-005-----0
 62
     7
370
    25
100
AcDbLine
 10
187.543794
 20
159.259523
 30
0.0
 11
190.543794
 21
162.259523
 31
0.0
  0
LINE
  5
262
330
218
100
AcDbEntity
  8
LC-003-005-----0
 62
     7
370
    25
100
AcDbLine
 10
187.543794
 20
162.08795
 30
0.0
 11
190.543794
 21
165.08795
 31
0.0
  0
LINE
  5
263
330
218
100
AcDbEntity
  8
LC-003-005-----0
 62
     7
370
    25
100
AcDbLine
 10
187.543794
 20
164.916377
 30
0.0
 11
190.543794
 21
167.916377
 31
0.0
  0
LINE
  5
264
330
218
100
AcDbEntity
  8
LC-003-005-----0
 62
     7
370
    25
100
AcDbLine
 10
187.543794
 20
167.744804
 30
0.0
 11
190.543794
 21
170.744804
 31
0.0
  0
LINE
  5
265
330
218
100
AcDbEntity
  8
LC-003-005-----0
 62
     7
370
    25
100
AcDbLine
 10
187.543794
 20
170.573232
 30
0.0
 11
190.543794
 21
173.573232
 31
0.0
  0
LINE
  5
266
330
218
100
AcDbEntity
  8
LC-003-005-----0
 62
     7
370
    25
100
AcDbLine
 10
187.543794
 20
173.401659
 30
0.0
 11
190.543794
 21
176.401659
 31
0.0
  0
LINE
  5
267
330
218
100
AcDbEntity
  8
LC-003-005-----0
 62
     7
370
    25
100
AcDbLine
 10
187.543794
 20
176.230086
 30
0.0
 11
190.543794
 21
179.230086
 31
0.0
  0
LINE
  5
268
330
218
100
AcDbEntity
  8
LC-003-005-----0
 62
     7
370
    25
100
AcDbLine
 10
187.543794
 20
179.058513
 30
0.0
 11
190.543794
 21
182.058513
 31
0.0
  0
LINE
  5
269
330
218
100
AcDbEntity
  8
LC-003-005-----0
 62
     7
370
    25
100
AcDbLine
 10
187.543794
 20
181.88694
 30
0.0
 11
190.543794
 21
184.88694
 31
0.0
  0
LINE
  5
26A
330
218
100
AcDbEntity
  8
LC-003-005-----0
 62
     7
370
    25
100
AcDbLine
 10
187.543794
 20
184.715367
 30
0.0
 11
190.543794
 21
187.715367
 31
0.0
  0
LINE
  5
26B
330
218
100
AcDbEntity
  8
LC-003-005-----0
 62
     7
370
    25
100
AcDbLine
 10
187.543794
 20
187.543794
 30
0.0
 11
190.543794
 21
190.543794
 31
0.0
  0
LINE
  5
26C
330
218
100
AcDbEntity
  8
LC-003-005-----0
 62
     7
370
    25
100
AcDbLine
 10
187.543794
 20
190.372221
 30
0.0
 11
190.543794
 21
193.372221
 31
0.0
  0
LINE
  5
26D
330
218
100
AcDbEntity
  8
LC-003-005-----0
 62
     7
370
    25
100
AcDbLine
 10
187.543794
 20
193.200649
 30
0.0
 11
190.543794
 21
196.200649
 31
0.0
  0
LINE
  5
26E
330
218
100
AcDbEntity
  8
LC-003-005-----0
 62
     7
370
    25
100
AcDbLine
 10
187.543794
 20
196.029076
 30
0.0
 11
190.543794
 21
199.029076
 31
0.0
  0
LINE
  5
26F
330
218
100
AcDbEntity
  8
LC-003-005-----0
 62
     7
370
    25
100
AcDbLine
 10
187.543794
 20
198.857503
 30
0.0
 11
190.543794
 21
201.857503
 31
0.0
  0
LINE
  5
270
330
218
100
AcDbEntity
  8
LC-003-005-----0
 62
     7
370
    25
100
AcDbLine
 10
187.543794
 20
201.68593
 30
0.0
 11
190.543794
 21
204.68593
 31
0.0
  0
LINE
  5
271
330
218
100
AcDbEntity
  8
LC-003-005-----0
 62
     7
370
    25
100
AcDbLine
 10
187.543794
 20
204.514357
 30
0.0
 11
190.543794
 21
207.514357
 31
0.0
  0
LINE
  5
272
330
218
100
AcDbEntity
  8
LC-003-005-----0
 62
     7
370
    25
100
AcDbLine
 10
187.543794
 20
207.342784
 30
0.0
 11
190.543794
 21
210.342784
 31
0.0
  0
LINE
  5
273
330
218
100
AcDbEntity
  8
LC-003-005-----0
 62
     7
370
    25
100
AcDbLine
 10
187.543794
 20
210.171211
 30
0.0
 11
190.543794
 21
213.171211
 31
0.0
  0
LINE
  5
274
330
218
100
AcDbEntity
  8
LC-003-005-----0
 62
     7
370
    25
100
AcDbLine
 10
187.543794
 20
212.999638
 30
0.0
 11
190.543794
 21
215.999638
 31
0.0
  0
LINE
  5
275
330
218
100
AcDbEntity
  8
LC-003-005-----0
 62
     7
370
    25
100
AcDbLine
 10
187.543794
 20
215.828066
 30
0.0
 11
190.543794
 21
218.828066
 31
0.0
  0
LINE
  5
276
330
218
100
AcDbEntity
  8
LC-003-005-----0
 62
     7
370
    25
100
AcDbLine
 10
187.543794
 20
218.656493
 30
0.0
 11
190.543794
 21
221.656493
 31
0.0
  0
LINE
  5
277
330
218
100
AcDbEntity
  8
LC-003-005-----0
 62
     7
370
    25
100
AcDbLine
 10
187.543794
 20
221.48492
 30
0.0
 11
190.543794
 21
224.48492
 31
0.0
  0
LINE
  5
278
330
218
100
AcDbEntity
  8
LC-003-005-----0
 62
     7
370
    25
100
AcDbLine
 10
187.543794
 20
224.313347
 30
0.0
 11
190.543794
 21
227.313347
 31
0.0
  0
LINE
  5
279
330
218
100
AcDbEntity
  8
LC-003-005-----0
 62
     7
370
    25
100
AcDbLine
 10
187.543794
 20
227.141774
 30
0.0
 11
190.543794
 21
230.141774
 31
0.0
  0
LINE
  5
27A
330
218
100
AcDbEntity
  8
LC-003-005-----0
 62
     7
370
    25
100
AcDbLine
 10
187.543794
 20
229.970201
 30
0.0
 11
190.543794
 21
232.970201
 31
0.0
  0
LINE
  5
27B
330
218
100
AcDbEntity
  8
LC-003-005-----0
 62
     7
370
    25
100
AcDbLine
 10
187.543794
 20
232.798628
 30
0.0
 11
190.543794
 21
235.798628
 31
0.0
  0
LINE
  5
27C
330
218
100
AcDbEntity
  8
LC-003-005-----0
 62
     7
370
    25
100
AcDbLine
 10
187.543794
 20
235.627055
 30
0.0
 11
190.543794
 21
238.627055
 31
0.0
  0
LINE
  5
27D
330
218
100
AcDbEntity
  8
LC-003-005-----0
 62
     7
370
    25
100
AcDbLine
 10
187.543794
 20
238.455483
 30
0.0
 11
190.543794
 21
241.455483
 31
0.0
  0
LINE
  5
27E
330
218
100
AcDbEntity
  8
LC-003-005-----0
 62
     7
370
    25
100
AcDbLine
 10
187.543794
 20
241.28391
 30
0.0
 11
190.543794
 21
244.28391
 31
0.0
  0
LINE
  5
27F
330
218
100
AcDbEntity
  8
LC-003-005-----0
 62
     7
370
    25
100
AcDbLine
 10
187.543794
 20
244.112337
 30
0.0
 11
190.543794
 21
247.112337
 31
0.0
  0
LINE
  5
280
330
218
100
AcDbEntity
  8
LC-003-005-----0
 62
     7
370
    25
100
AcDbLine
 10
187.543794
 20
246.940764
 30
0.0
 11
190.543794
 21
249.940764
 31
0.0
  0
LINE
  5
281
330
218
100
AcDbEntity
  8
LC-003-005-----0
 62
     7
370
    25
100
AcDbLine
 10
187.543794
 20
249.769191
 30
0.0
 11
190.543794
 21
252.769191
 31
0.0
  0
LINE
  5
282
330
218
100
AcDbEntity
  8
LC-003-005-----0
 62
     7
370
    25
100
AcDbLine
 10
187.543794
 20
252.597618
 30
0.0
 11
190.543794
 21
255.597618
 31
0.0
  0
LINE
  5
283
330
218
100
AcDbEntity
  8
LC-003-005-----0
 62
     7
370
    25
100
AcDbLine
 10
187.543794
 20
255.426045
 30
0.0
 11
190.543794
 21
258.426045
 31
0.0
  0
LINE
  5
284
330
218
100
AcDbEntity
  8
LC-003-005-----0
 62
     7
370
    25
100
AcDbLine
 10
187.543794
 20
258.254472
 30
0.0
 11
190.543794
 21
261.254472
 31
0.0
  0
LINE
  5
285
330
218
100
AcDbEntity
  8
LC-003-005-----0
 62
     7
370
    25
100
AcDbLine
 10
187.543794
 20
261.0829
 30
0.0
 11
190.543794
 21
264.0829
 31
0.0
  0
LINE
  5
286
330
218
100
AcDbEntity
  8
LC-003-005-----0
 62
     7
370
    25
100
AcDbLine
 10
187.543794
 20
263.911327
 30
0.0
 11
190.543794
 21
266.911327
 31
0.0
  0
LINE
  5
287
330
218
100
AcDbEntity
  8
LC-003-005-----0
 62
     7
370
    25
100
AcDbLine
 10
187.543794
 20
266.739754
 30
0.0
 11
190.543794
 21
269.739754
 31
0.0
  0
LINE
  5
288
330
218
100
AcDbEntity
  8
LC-003-005-----0
 62
     7
370
    25
100
AcDbLine
 10
187.543794
 20
269.568181
 30
0.0
 11
190.543794
 21
272.568181
 31
0.0
  0
LINE
  5
289
330
218
100
AcDbEntity
  8
LC-003-005-----0
 62
     7
370
    25
100
AcDbLine
 10
187.543794
 20
272.396608
 30
0.0
 11
190.543794
 21
275.396608
 31
0.0
  0
LINE
  5
28A
330
218
100
AcDbEntity
  8
LC-003-005-----0
 62
     7
370
    25
100
AcDbLine
 10
187.543794
 20
275.225035
 30
0.0
 11
190.543794
 21
278.225035
 31
0.0
  0
LINE
  5
28B
330
218
100
AcDbEntity
  8
LC-003-005-----0
 62
     7
370
    25
100
AcDbLine
 10
187.543794
 20
278.053462
 30
0.0
 11
190.543794
 21
281.053462
 31
0.0
  0
LINE
  5
28C
330
218
100
AcDbEntity
  8
LC-003-005-----0
 62
     7
370
    25
100
AcDbLine
 10
187.543794
 20
280.881889
 30
0.0
 11
190.543794
 21
283.881889
 31
0.0
  0
LINE
  5
28D
330
218
100
AcDbEntity
  8
LC-003-005-----0
 62
     7
370
    25
100
AcDbLine
 10
187.543794
 20
283.710317
 30
0.0
 11
190.543794
 21
286.710317
 31
0.0
  0
LINE
  5
28E
330
218
100
AcDbEntity
  8
LC-003-005-----0
 62
     7
370
    25
100
AcDbLine
 10
187.543794
 20
286.538744
 30
0.0
 11
190.543794
 21
289.538744
 31
0.0
  0
LINE
  5
28F
330
218
100
AcDbEntity
  8
LC-003-005-----0
 62
     7
370
    25
100
AcDbLine
 10
187.543794
 20
289.367171
 30
0.0
 11
190.543794
 21
292.367171
 31
0.0
  0
LINE
  5
290
330
218
100
AcDbEntity
  8
LC-003-005-----0
 62
     7
370
    25
100
AcDbLine
 10
187.543794
 20
292.195598
 30
0.0
 11
190.543794
 21
295.195598
 31
0.0
  0
LINE
  5
291
330
218
100
AcDbEntity
  8
LC-003-005-----0
 62
     7
370
    25
100
AcDbLine
 10
187.543794
 20
295.024025
 30
0.0
 11
190.543794
 21
298.024025
 31
0.0
  0
LINE
  5
292
330
218
100
AcDbEntity
  8
LC-003-005-----0
 62
     7
370
    25
100
AcDbLine
 10
187.543794
 20
297.852452
 30
0.0
 11
190.543794
 21
300.852452
 31
0.0
  0
LINE
  5
293
330
218
100
AcDbEntity
  8
LC-003-005-----0
 62
     7
370
    25
100
AcDbLine
 10
187.543794
 20
300.680879
 30
0.0
 11
190.543794
 21
303.680879
 31
0.0
  0
LINE
  5
294
330
218
100
AcDbEntity
  8
LC-003-005-----0
 62
     7
370
    25
100
AcDbLine
 10
187.543794
 20
303.509306
 30
0.0
 11
190.543794
 21
306.509306
 31
0.0
  0
LINE
  5
295
330
218
100
AcDbEntity
  8
LC-003-005-----0
 62
     7
370
    25
100
AcDbLine
 10
187.543794
 20
306.337734
 30
0.0
 11
190.543794
 21
309.337734
 31
0.0
  0
LINE
  5
296
330
218
100
AcDbEntity
  8
LC-003-005-----0
 62
     7
370
    25
100
AcDbLine
 10
187.543794
 20
309.166161
 30
0.0
 11
190.543794
 21
312.166161
 31
0.0
  0
LINE
  5
297
330
218
100
AcDbEntity
  8
LC-003-005-----0
 62
     7
370
    25
100
AcDbLine
 10
187.543794
 20
311.994588
 30
0.0
 11
190.543794
 21
314.994588
 31
0.0
  0
LINE
  5
298
330
218
100
AcDbEntity
  8
LC-003-005-----0
 62
     7
370
    25
100
AcDbLine
 10
187.543794
 20
314.823015
 30
0.0
 11
190.543794
 21
317.823015
 31
0.0
  0
LINE
  5
299
330
218
100
AcDbEntity
  8
LC-003-005-----0
 62
     7
370
    25
100
AcDbLine
 10
187.543794
 20
317.651442
 30
0.0
 11
190.543794
 21
320.651442
 31
0.0
  0
LINE
  5
29A
330
218
100
AcDbEntity
  8
LC-003-005-----0
 62
     7
370
    25
100
AcDbLine
 10
187.543794
 20
320.479869
 30
0.0
 11
190.543794
 21
323.479869
 31
0.0
  0
LINE
  5
29B
330
218
100
AcDbEntity
  8
LC-003-005-----0
 62
     7
370
    25
100
AcDbLine
 10
187.543794
 20
323.308296
 30
0.0
 11
190.543794
 21
326.308296
 31
0.0
  0
LINE
  5
29C
330
218
100
AcDbEntity
  8
LC-003-005-----0
 62
     7
370
    25
100
AcDbLine
 10
185.322725
 20
323.915654
 30
0.0
 11
188.322725
 21
326.915654
 31
0.0
  0
LINE
  5
29D
330
218
100
AcDbEntity
  8
LC-003-005-----0
 62
     7
370
    25
100
AcDbLine
 10
182.494298
 20
323.915654
 30
0.0
 11
185.494298
 21
326.915654
 31
0.0
  0
LINE
  5
29E
330
218
100
AcDbEntity
  8
LC-003-005-----0
 62
     7
370
    25
100
AcDbLine
 10
179.665871
 20
323.915654
 30
0.0
 11
182.665871
 21
326.915654
 31
0.0
  0
LINE
  5
29F
330
218
100
AcDbEntity
  8
LC-003-005-----0
 62
     7
370
    25
100
AcDbLine
 10
176.837444
 20
323.915654
 30
0.0
 11
179.837444
 21
326.915654
 31
0.0
  0
LINE
  5
2A0
330
218
100
AcDbEntity
  8
LC-003-005-----0
 62
     7
370
    25
100
AcDbLine
 10
174.009017
 20
323.915654
 30
0.0
 11
177.009017
 21
326.915654
 31
0.0
  0
LINE
  5
2A1
330
218
100
AcDbEntity
  8
LC-003-005-----0
 62
     7
370
    25
100
AcDbLine
 10
171.405094
 20
324.140159
 30
0.0
 11
174.18059
 21
326.915654
 31
0.0
  0
LINE
  5
2A2
330
218
100
AcDbEntity
  8
LC-003-005-----0
 62
     7
370
    25
100
AcDbLine
 10
169.912047
 20
325.475539
 30
0.0
 11
172.543789
 21
328.107281
 31
0.0
  0
LINE
  5
2A3
330
218
100
AcDbEntity
  8
LC-003-005-----0
 62
     7
370
    25
100
AcDbLine
 10
169.543789
 20
327.935708
 30
0.0
 11
172.543789
 21
330.935708
 31
0.0
  0
LINE
  5
2A4
330
218
100
AcDbEntity
  8
LC-003-005-----0
 62
     7
370
    25
100
AcDbLine
 10
169.543789
 20
330.764135
 30
0.0
 11
172.543789
 21
333.764135
 31
0.0
  0
LINE
  5
2A5
330
218
100
AcDbEntity
  8
LC-003-005-----0
 62
     7
370
    25
100
AcDbLine
 10
169.543789
 20
333.592562
 30
0.0
 11
172.543789
 21
336.592562
 31
0.0
  0
LINE
  5
2A6
330
218
100
AcDbEntity
  8
LC-003-005-----0
 62
     7
370
    25
100
AcDbLine
 10
169.543789
 20
336.42099
 30
0.0
 11
172.543789
 21
339.42099
 31
0.0
  0
LINE
  5
2A7
330
218
100
AcDbEntity
  8
LC-003-005-----0
 62
     7
370
    25
100
AcDbLine
 10
169.543789
 20
339.249417
 30
0.0
 11
172.543789
 21
342.249417
 31
0.0
  0
LINE
  5
2A8
330
218
100
AcDbEntity
  8
LC-003-005-----0
 62
     7
370
    25
100
AcDbLine
 10
169.543789
 20
342.077844
 30
0.0
 11
172.543789
 21
345.077844
 31
0.0
  0
LINE
  5
2A9
330
218
100
AcDbEntity
  8
LC-003-005-----0
 62
     7
370
    25
100
AcDbLine
 10
169.543789
 20
344.906271
 30
0.0
 11
172.543789
 21
347.906271
 31
0.0
  0
LINE
  5
2AA
330
218
100
AcDbEntity
  8
LC-003-005-----0
 62
     7
370
    25
100
AcDbLine
 10
169.543789
 20
347.734698
 30
0.0
 11
172.543789
 21
350.734698
 31
0.0
  0
LINE
  5
2AB
330
218
100
AcDbEntity
  8
LC-003-005-----0
 62
     7
370
    25
100
AcDbLine
 10
169.543789
 20
350.563125
 30
0.0
 11
172.543789
 21
353.563125
 31
0.0
  0
LINE
  5
2AC
330
218
100
AcDbEntity
  8
LC-003-005-----0
 62
     7
370
    25
100
AcDbLine
 10
169.543789
 20
353.391552
 30
0.0
 11
172.543789
 21
356.391552
 31
0.0
  0
LINE
  5
2AD
330
218
100
AcDbEntity
  8
LC-003-005-----0
 62
     7
370
    25
100
AcDbLine
 10
169.543789
 20
356.219979
 30
0.0
 11
172.543789
 21
359.219979
 31
0.0
  0
LINE
  5
2AE
330
218
100
AcDbEntity
  8
LC-003-005-----0
 62
     7
370
    25
100
AcDbLine
 10
169.543789
 20
359.048407
 30
0.0
 11
171.98923
 21
361.493847
 31
0.0
  0
LINE
  5
2AF
330
218
100
AcDbEntity
  8
LC-003-005-----0
 62
     7
370
    25
100
AcDbLine
 10
168.757802
 20
361.090846
 30
0.0
 11
170.953954
 21
363.286998
 31
0.0
  0
LINE
  5
2B0
330
218
100
AcDbEntity
  8
LC-003-005-----0
 62
     7
370
    25
100
AcDbLine
 10
167.722525
 20
362.883997
 30
0.0
 11
169.918678
 21
365.080149
 31
0.0
  0
LINE
  5
2B1
330
218
100
AcDbEntity
  8
LC-003-005-----0
 62
     7
370
    25
100
AcDbLine
 10
166.687249
 20
364.677148
 30
0.0
 11
168.883402
 21
366.8733
 31
0.0
  0
LINE
  5
2B2
330
218
100
AcDbEntity
  8
LC-003-005-----0
 62
     7
370
    25
100
AcDbLine
 10
165.651973
 20
366.470299
 30
0.0
 11
167.848125
 21
368.666451
 31
0.0
  0
LINE
  5
2B3
330
218
100
AcDbEntity
  8
LC-003-005-----0
 62
     7
370
    25
100
AcDbLine
 10
164.616697
 20
368.26345
 30
0.0
 11
166.812849
 21
370.459602
 31
0.0
  0
LINE
  5
2B4
330
218
100
AcDbEntity
  8
LC-003-005-----0
 62
     7
370
    25
100
AcDbLine
 10
163.581421
 20
370.056601
 30
0.0
 11
165.777573
 21
372.252753
 31
0.0
  0
LINE
  5
2B5
330
218
100
AcDbEntity
  8
LC-003-005-----0
 62
     7
370
    25
100
AcDbLine
 10
162.546144
 20
371.849752
 30
0.0
 11
164.742297
 21
374.045904
 31
0.0
  0
LINE
  5
2B6
330
218
100
AcDbEntity
  8
LC-003-005-----0
 62
     7
370
    25
100
AcDbLine
 10
161.510868
 20
373.642903
 30
0.0
 11
163.707021
 21
375.839055
 31
0.0
  0
LINE
  5
2B7
330
218
100
AcDbEntity
  8
LC-003-005-----0
 62
     7
370
    25
100
AcDbLine
 10
160.475592
 20
375.436054
 30
0.0
 11
162.671745
 21
377.632206
 31
0.0
  0
LINE
  5
2B8
330
218
100
AcDbEntity
  8
LC-003-005-----0
 62
     7
370
    25
100
AcDbLine
 10
159.440316
 20
377.229205
 30
0.0
 11
161.636468
 21
379.425357
 31
0.0
  0
LINE
  5
2B9
330
218
100
AcDbEntity
  8
LC-003-005-----0
 62
     7
370
    25
100
AcDbLine
 10
157.298684
 20
377.916
 30
0.0
 11
160.298684
 21
380.916
 31
0.0
  0
LINE
  5
2BA
330
218
100
AcDbEntity
  8
LC-003-005-----0
 62
     7
370
    25
100
AcDbLine
 10
154.48608
 20
377.931823
 30
0.0
 11
157.470257
 21
380.916
 31
0.0
  0
LINE
  5
2BB
330
218
100
AcDbEntity
  8
LC-003-005-----0
 62
     7
370
    25
100
AcDbLine
 10
152.597853
 20
378.872023
 30
0.0
 11
154.793794
 21
381.067964
 31
0.0
  0
LINE
  5
2BC
330
218
100
AcDbEntity
  8
LC-003-005-----0
 62
     7
370
    25
100
AcDbLine
 10
151.793858
 20
380.896455
 30
0.0
 11
154.793794
 21
383.896391
 31
0.0
  0
LINE
  5
2BD
330
218
100
AcDbEntity
  8
LC-003-005-----0
 62
     7
370
    25
100
AcDbLine
 10
151.793794
 20
383.724819
 30
0.0
 11
154.793794
 21
386.724819
 31
0.0
  0
LINE
  5
2BE
330
218
100
AcDbEntity
  8
LC-003-005-----0
 62
     7
370
    25
100
AcDbLine
 10
151.793794
 20
386.553246
 30
0.0
 11
154.793794
 21
389.553246
 31
0.0
  0
LINE
  5
2BF
330
218
100
AcDbEntity
  8
LC-003-005-----0
 62
     7
370
    25
100
AcDbLine
 10
151.793794
 20
389.381673
 30
0.0
 11
154.793794
 21
392.381673
 31
0.0
  0
LINE
  5
2C0
330
218
100
AcDbEntity
  8
LC-003-005-----0
 62
     7
370
    25
100
AcDbLine
 10
151.793794
 20
392.2101
 30
0.0
 11
154.793794
 21
395.2101
 31
0.0
  0
LINE
  5
2C1
330
218
100
AcDbEntity
  8
LC-003-005-----0
 62
     7
370
    25
100
AcDbLine
 10
150.982531
 20
394.227264
 30
0.0
 11
154.171267
 21
397.416
 31
0.0
  0
LINE
  5
2C2
330
218
100
AcDbEntity
  8
LC-003-005-----0
 62
     7
370
    25
100
AcDbLine
 10
148.34284
 20
394.416
 30
0.0
 11
151.34284
 21
397.416
 31
0.0
  0
LINE
  5
2C3
330
218
100
AcDbEntity
  8
LC-003-005-----0
 62
     7
370
    25
100
AcDbLine
 10
147.014707
 20
395.916294
 30
0.0
 11
150.043793
 21
398.94538
 31
0.0
  0
LINE
  5
2C4
330
218
100
AcDbEntity
  8
LC-003-005-----0
 62
     7
370
    25
100
AcDbLine
 10
144.186143
 20
395.916157
 30
0.0
 11
150.043793
 21
401.773807
 31
0.0
  0
LINE
  5
2C5
330
218
100
AcDbEntity
  8
LC-003-005-----0
 62
     7
370
    25
100
AcDbLine
 10
141.357579
 20
395.91602
 30
0.0
 11
150.043793
 21
404.602235
 31
0.0
  0
LINE
  5
2C6
330
218
100
AcDbEntity
  8
LC-003-005-----0
 62
     7
370
    25
100
AcDbLine
 10
141.290051
 20
398.67692
 30
0.0
 11
150.043793
 21
407.430662
 31
0.0
  0
LINE
  5
2C7
330
218
100
AcDbEntity
  8
LC-003-005-----0
 62
     7
370
    25
100
AcDbLine
 10
141.289781
 20
401.505076
 30
0.0
 11
150.043793
 21
410.259089
 31
0.0
  0
LINE
  5
2C8
330
218
100
AcDbEntity
  8
LC-003-005-----0
 62
     7
370
    25
100
AcDbLine
 10
141.28951
 20
404.333233
 30
0.0
 11
150.043793
 21
413.087516
 31
0.0
  0
LINE
  5
2C9
330
218
100
AcDbEntity
  8
LC-003-005-----0
 62
     7
370
    25
100
AcDbLine
 10
141.28924
 20
407.161389
 30
0.0
 11
148.28714
 21
414.15929
 31
0.0
  0
LINE
  5
2CA
330
218
100
AcDbEntity
  8
LC-003-005-----0
 62
     7
370
    25
100
AcDbLine
 10
141.288969
 20
409.989546
 30
0.0
 11
145.458439
 21
414.159015
 31
0.0
  0
LINE
  5
2CB
330
218
100
AcDbEntity
  8
LC-003-005-----0
 62
     7
370
    25
100
AcDbLine
 10
141.288698
 20
412.817702
 30
0.0
 11
142.629737
 21
414.158741
 31
0.0
  0
ENDBLK
  5
21A
330
218
100
AcDbEntity
  8
0
100
AcDbBlockEnd
  0
BLOCK
  5
2CE
330
2CD
100
AcDbEntity
  8
0
100
AcDbBlockBegin
  2
*X1414
 70
     1
 71
     0
 10
0.0
 20
0.0
 30
0.0
  3
*X1414
  1

  4
*X14
  0
LINE
  5
2D0
330
2CD
100
AcDbEntity
  8
LC-003-005-----0
 62
     7
370
    25
100
AcDbLine
 10
274.543794
 20
-36.583189
 30
0.0
 11
277.178066
 21
-33.948918
 31
0.0
  0
LINE
  5
2D1
330
2CD
100
AcDbEntity
  8
LC-003-005-----0
 62
     7
370
    25
100
AcDbLine
 10
274.543794
 20
-33.754762
 30
0.0
 11
277.543794
 21
-30.754762
 31
0.0
  0
LINE
  5
2D2
330
2CD
100
AcDbEntity
  8
LC-003-005-----0
 62
     7
370
    25
100
AcDbLine
 10
274.543794
 20
-30.926335
 30
0.0
 11
277.543794
 21
-27.926335
 31
0.0
  0
LINE
  5
2D3
330
2CD
100
AcDbEntity
  8
LC-003-005-----0
 62
     7
370
    25
100
AcDbLine
 10
274.543794
 20
-28.097908
 30
0.0
 11
277.543794
 21
-25.097908
 31
0.0
  0
LINE
  5
2D4
330
2CD
100
AcDbEntity
  8
LC-003-005-----0
 62
     7
370
    25
100
AcDbLine
 10
274.543794
 20
-25.269481
 30
0.0
 11
277.543794
 21
-22.269481
 31
0.0
  0
LINE
  5
2D5
330
2CD
100
AcDbEntity
  8
LC-003-005-----0
 62
     7
370
    25
100
AcDbLine
 10
274.543794
 20
-22.441054
 30
0.0
 11
277.543794
 21
-19.441054
 31
0.0
  0
LINE
  5
2D6
330
2CD
100
AcDbEntity
  8
LC-003-005-----0
 62
     7
370
    25
100
AcDbLine
 10
274.543794
 20
-19.612627
 30
0.0
 11
277.543794
 21
-16.612627
 31
0.0
  0
LINE
  5
2D7
330
2CD
100
AcDbEntity
  8
LC-003-005-----0
 62
     7
370
    25
100
AcDbLine
 10
274.543794
 20
-16.7842
 30
0.0
 11
277.543794
 21
-13.7842
 31
0.0
  0
LINE
  5
2D8
330
2CD
100
AcDbEntity
  8
LC-003-005-----0
 62
     7
370
    25
100
AcDbLine
 10
274.543794
 20
-13.955772
 30
0.0
 11
277.543794
 21
-10.955772
 31
0.0
  0
LINE
  5
2D9
330
2CD
100
AcDbEntity
  8
LC-003-005-----0
 62
     7
370
    25
100
AcDbLine
 10
274.543794
 20
-11.127345
 30
0.0
 11
277.543794
 21
-8.127345
 31
0.0
  0
LINE
  5
2DA
330
2CD
100
AcDbEntity
  8
LC-003-005-----0
 62
     7
370
    25
100
AcDbLine
 10
274.543794
 20
-8.298918
 30
0.0
 11
277.543794
 21
-5.298918
 31
0.0
  0
LINE
  5
2DB
330
2CD
100
AcDbEntity
  8
LC-003-005-----0
 62
     7
370
    25
100
AcDbLine
 10
274.543794
 20
-5.470491
 30
0.0
 11
277.543794
 21
-2.470491
 31
0.0
  0
LINE
  5
2DC
330
2CD
100
AcDbEntity
  8
LC-003-005-----0
 62
     7
370
    25
100
AcDbLine
 10
274.543794
 20
-2.642064
 30
0.0
 11
277.543794
 21
0.357936
 31
0.0
  0
LINE
  5
2DD
330
2CD
100
AcDbEntity
  8
LC-003-005-----0
 62
     7
370
    25
100
AcDbLine
 10
274.543794
 20
0.186363
 30
0.0
 11
277.543794
 21
3.186363
 31
0.0
  0
LINE
  5
2DE
330
2CD
100
AcDbEntity
  8
LC-003-005-----0
 62
     7
370
    25
100
AcDbLine
 10
274.543794
 20
3.01479
 30
0.0
 11
277.543794
 21
6.01479
 31
0.0
  0
LINE
  5
2DF
330
2CD
100
AcDbEntity
  8
LC-003-005-----0
 62
     7
370
    25
100
AcDbLine
 10
274.543794
 20
5.843217
 30
0.0
 11
277.543794
 21
8.843217
 31
0.0
  0
LINE
  5
2E0
330
2CD
100
AcDbEntity
  8
LC-003-005-----0
 62
     7
370
    25
100
AcDbLine
 10
274.543794
 20
8.671645
 30
0.0
 11
277.543794
 21
11.671645
 31
0.0
  0
LINE
  5
2E1
330
2CD
100
AcDbEntity
  8
LC-003-005-----0
 62
     7
370
    25
100
AcDbLine
 10
274.543794
 20
11.500072
 30
0.0
 11
277.543794
 21
14.500072
 31
0.0
  0
LINE
  5
2E2
330
2CD
100
AcDbEntity
  8
LC-003-005-----0
 62
     7
370
    25
100
AcDbLine
 10
274.543794
 20
14.328499
 30
0.0
 11
277.543794
 21
17.328499
 31
0.0
  0
LINE
  5
2E3
330
2CD
100
AcDbEntity
  8
LC-003-005-----0
 62
     7
370
    25
100
AcDbLine
 10
274.543794
 20
17.156926
 30
0.0
 11
277.543794
 21
20.156926
 31
0.0
  0
LINE
  5
2E4
330
2CD
100
AcDbEntity
  8
LC-003-005-----0
 62
     7
370
    25
100
AcDbLine
 10
274.543794
 20
19.985353
 30
0.0
 11
277.543794
 21
22.985353
 31
0.0
  0
LINE
  5
2E5
330
2CD
100
AcDbEntity
  8
LC-003-005-----0
 62
     7
370
    25
100
AcDbLine
 10
274.543794
 20
22.81378
 30
0.0
 11
277.543794
 21
25.81378
 31
0.0
  0
LINE
  5
2E6
330
2CD
100
AcDbEntity
  8
LC-003-005-----0
 62
     7
370
    25
100
AcDbLine
 10
274.543794
 20
25.642207
 30
0.0
 11
277.543794
 21
28.642207
 31
0.0
  0
LINE
  5
2E7
330
2CD
100
AcDbEntity
  8
LC-003-005-----0
 62
     7
370
    25
100
AcDbLine
 10
274.543794
 20
28.470634
 30
0.0
 11
277.543794
 21
31.470634
 31
0.0
  0
LINE
  5
2E8
330
2CD
100
AcDbEntity
  8
LC-003-005-----0
 62
     7
370
    25
100
AcDbLine
 10
274.543794
 20
31.299062
 30
0.0
 11
277.543794
 21
34.299062
 31
0.0
  0
LINE
  5
2E9
330
2CD
100
AcDbEntity
  8
LC-003-005-----0
 62
     7
370
    25
100
AcDbLine
 10
274.543794
 20
34.127489
 30
0.0
 11
277.543794
 21
37.127489
 31
0.0
  0
LINE
  5
2EA
330
2CD
100
AcDbEntity
  8
LC-003-005-----0
 62
     7
370
    25
100
AcDbLine
 10
274.543794
 20
36.955916
 30
0.0
 11
277.543794
 21
39.955916
 31
0.0
  0
LINE
  5
2EB
330
2CD
100
AcDbEntity
  8
LC-003-005-----0
 62
     7
370
    25
100
AcDbLine
 10
274.543794
 20
39.784343
 30
0.0
 11
277.543794
 21
42.784343
 31
0.0
  0
LINE
  5
2EC
330
2CD
100
AcDbEntity
  8
LC-003-005-----0
 62
     7
370
    25
100
AcDbLine
 10
274.543794
 20
42.61277
 30
0.0
 11
277.543794
 21
45.61277
 31
0.0
  0
LINE
  5
2ED
330
2CD
100
AcDbEntity
  8
LC-003-005-----0
 62
     7
370
    25
100
AcDbLine
 10
274.543794
 20
45.441197
 30
0.0
 11
277.543794
 21
48.441197
 31
0.0
  0
LINE
  5
2EE
330
2CD
100
AcDbEntity
  8
LC-003-005-----0
 62
     7
370
    25
100
AcDbLine
 10
274.543794
 20
48.269624
 30
0.0
 11
277.543794
 21
51.269624
 31
0.0
  0
LINE
  5
2EF
330
2CD
100
AcDbEntity
  8
LC-003-005-----0
 62
     7
370
    25
100
AcDbLine
 10
274.543794
 20
51.098051
 30
0.0
 11
277.543794
 21
54.098051
 31
0.0
  0
LINE
  5
2F0
330
2CD
100
AcDbEntity
  8
LC-003-005-----0
 62
     7
370
    25
100
AcDbLine
 10
274.543794
 20
53.926479
 30
0.0
 11
277.543794
 21
56.926479
 31
0.0
  0
LINE
  5
2F1
330
2CD
100
AcDbEntity
  8
LC-003-005-----0
 62
     7
370
    25
100
AcDbLine
 10
274.543794
 20
56.754906
 30
0.0
 11
277.543794
 21
59.754906
 31
0.0
  0
LINE
  5
2F2
330
2CD
100
AcDbEntity
  8
LC-003-005-----0
 62
     7
370
    25
100
AcDbLine
 10
274.543794
 20
59.583333
 30
0.0
 11
277.543794
 21
62.583333
 31
0.0
  0
LINE
  5
2F3
330
2CD
100
AcDbEntity
  8
LC-003-005-----0
 62
     7
370
    25
100
AcDbLine
 10
274.543794
 20
62.41176
 30
0.0
 11
277.543794
 21
65.41176
 31
0.0
  0
LINE
  5
2F4
330
2CD
100
AcDbEntity
  8
LC-003-005-----0
 62
     7
370
    25
100
AcDbLine
 10
274.543794
 20
65.240187
 30
0.0
 11
277.543794
 21
68.240187
 31
0.0
  0
LINE
  5
2F5
330
2CD
100
AcDbEntity
  8
LC-003-005-----0
 62
     7
370
    25
100
AcDbLine
 10
274.543794
 20
68.068614
 30
0.0
 11
277.543794
 21
71.068614
 31
0.0
  0
LINE
  5
2F6
330
2CD
100
AcDbEntity
  8
LC-003-005-----0
 62
     7
370
    25
100
AcDbLine
 10
274.543794
 20
70.897041
 30
0.0
 11
277.543794
 21
73.897041
 31
0.0
  0
LINE
  5
2F7
330
2CD
100
AcDbEntity
  8
LC-003-005-----0
 62
     7
370
    25
100
AcDbLine
 10
274.543794
 20
73.725468
 30
0.0
 11
277.543794
 21
76.725468
 31
0.0
  0
LINE
  5
2F8
330
2CD
100
AcDbEntity
  8
LC-003-005-----0
 62
     7
370
    25
100
AcDbLine
 10
274.543794
 20
76.553896
 30
0.0
 11
277.543794
 21
79.553896
 31
0.0
  0
LINE
  5
2F9
330
2CD
100
AcDbEntity
  8
LC-003-005-----0
 62
     7
370
    25
100
AcDbLine
 10
274.543794
 20
79.382323
 30
0.0
 11
277.543794
 21
82.382323
 31
0.0
  0
LINE
  5
2FA
330
2CD
100
AcDbEntity
  8
LC-003-005-----0
 62
     7
370
    25
100
AcDbLine
 10
274.543794
 20
82.21075
 30
0.0
 11
277.543794
 21
85.21075
 31
0.0
  0
LINE
  5
2FB
330
2CD
100
AcDbEntity
  8
LC-003-005-----0
 62
     7
370
    25
100
AcDbLine
 10
274.543794
 20
85.039177
 30
0.0
 11
277.543794
 21
88.039177
 31
0.0
  0
LINE
  5
2FC
330
2CD
100
AcDbEntity
  8
LC-003-005-----0
 62
     7
370
    25
100
AcDbLine
 10
274.543794
 20
87.867604
 30
0.0
 11
277.543794
 21
90.867604
 31
0.0
  0
LINE
  5
2FD
330
2CD
100
AcDbEntity
  8
LC-003-005-----0
 62
     7
370
    25
100
AcDbLine
 10
274.543794
 20
90.696031
 30
0.0
 11
277.543794
 21
93.696031
 31
0.0
  0
LINE
  5
2FE
330
2CD
100
AcDbEntity
  8
LC-003-005-----0
 62
     7
370
    25
100
AcDbLine
 10
274.543794
 20
93.524458
 30
0.0
 11
277.543794
 21
96.524458
 31
0.0
  0
LINE
  5
2FF
330
2CD
100
AcDbEntity
  8
LC-003-005-----0
 62
     7
370
    25
100
AcDbLine
 10
274.543794
 20
96.352885
 30
0.0
 11
277.543794
 21
99.352885
 31
0.0
  0
LINE
  5
300
330
2CD
100
AcDbEntity
  8
LC-003-005-----0
 62
     7
370
    25
100
AcDbLine
 10
274.543794
 20
99.181313
 30
0.0
 11
277.543794
 21
102.181313
 31
0.0
  0
LINE
  5
301
330
2CD
100
AcDbEntity
  8
LC-003-005-----0
 62
     7
370
    25
100
AcDbLine
 10
274.543794
 20
102.00974
 30
0.0
 11
277.543794
 21
105.00974
 31
0.0
  0
LINE
  5
302
330
2CD
100
AcDbEntity
  8
LC-003-005-----0
 62
     7
370
    25
100
AcDbLine
 10
274.543794
 20
104.838167
 30
0.0
 11
277.543794
 21
107.838167
 31
0.0
  0
LINE
  5
303
330
2CD
100
AcDbEntity
  8
LC-003-005-----0
 62
     7
370
    25
100
AcDbLine
 10
274.543794
 20
107.666594
 30
0.0
 11
277.543794
 21
110.666594
 31
0.0
  0
LINE
  5
304
330
2CD
100
AcDbEntity
  8
LC-003-005-----0
 62
     7
370
    25
100
AcDbLine
 10
274.543794
 20
110.495021
 30
0.0
 11
277.543794
 21
113.495021
 31
0.0
  0
LINE
  5
305
330
2CD
100
AcDbEntity
  8
LC-003-005-----0
 62
     7
370
    25
100
AcDbLine
 10
274.543794
 20
113.323448
 30
0.0
 11
277.543794
 21
116.323448
 31
0.0
  0
LINE
  5
306
330
2CD
100
AcDbEntity
  8
LC-003-005-----0
 62
     7
370
    25
100
AcDbLine
 10
274.543794
 20
116.151875
 30
0.0
 11
277.543794
 21
119.151875
 31
0.0
  0
LINE
  5
307
330
2CD
100
AcDbEntity
  8
LC-003-005-----0
 62
     7
370
    25
100
AcDbLine
 10
274.543794
 20
118.980302
 30
0.0
 11
277.543794
 21
121.980302
 31
0.0
  0
LINE
  5
308
330
2CD
100
AcDbEntity
  8
LC-003-005-----0
 62
     7
370
    25
100
AcDbLine
 10
274.543794
 20
121.80873
 30
0.0
 11
277.543794
 21
124.80873
 31
0.0
  0
LINE
  5
309
330
2CD
100
AcDbEntity
  8
LC-003-005-----0
 62
     7
370
    25
100
AcDbLine
 10
274.543794
 20
124.637157
 30
0.0
 11
277.543794
 21
127.637157
 31
0.0
  0
LINE
  5
30A
330
2CD
100
AcDbEntity
  8
LC-003-005-----0
 62
     7
370
    25
100
AcDbLine
 10
274.543794
 20
127.465584
 30
0.0
 11
277.543794
 21
130.465584
 31
0.0
  0
LINE
  5
30B
330
2CD
100
AcDbEntity
  8
LC-003-005-----0
 62
     7
370
    25
100
AcDbLine
 10
274.543794
 20
130.294011
 30
0.0
 11
277.543794
 21
133.294011
 31
0.0
  0
LINE
  5
30C
330
2CD
100
AcDbEntity
  8
LC-003-005-----0
 62
     7
370
    25
100
AcDbLine
 10
274.543794
 20
133.122438
 30
0.0
 11
277.543794
 21
136.122438
 31
0.0
  0
LINE
  5
30D
330
2CD
100
AcDbEntity
  8
LC-003-005-----0
 62
     7
370
    25
100
AcDbLine
 10
274.543794
 20
135.950865
 30
0.0
 11
277.543794
 21
138.950865
 31
0.0
  0
LINE
  5
30E
330
2CD
100
AcDbEntity
  8
LC-003-005-----0
 62
     7
370
    25
100
AcDbLine
 10
274.543794
 20
138.779292
 30
0.0
 11
277.543794
 21
141.779292
 31
0.0
  0
LINE
  5
30F
330
2CD
100
AcDbEntity
  8
LC-003-005-----0
 62
     7
370
    25
100
AcDbLine
 10
274.543794
 20
141.607719
 30
0.0
 11
277.543794
 21
144.607719
 31
0.0
  0
LINE
  5
310
330
2CD
100
AcDbEntity
  8
LC-003-005-----0
 62
     7
370
    25
100
AcDbLine
 10
274.543794
 20
144.436147
 30
0.0
 11
277.543794
 21
147.436147
 31
0.0
  0
LINE
  5
311
330
2CD
100
AcDbEntity
  8
LC-003-005-----0
 62
     7
370
    25
100
AcDbLine
 10
274.543794
 20
147.264574
 30
0.0
 11
277.543794
 21
150.264574
 31
0.0
  0
LINE
  5
312
330
2CD
100
AcDbEntity
  8
LC-003-005-----0
 62
     7
370
    25
100
AcDbLine
 10
274.543794
 20
150.093001
 30
0.0
 11
277.543794
 21
153.093001
 31
0.0
  0
LINE
  5
313
330
2CD
100
AcDbEntity
  8
LC-003-005-----0
 62
     7
370
    25
100
AcDbLine
 10
274.543794
 20
152.921428
 30
0.0
 11
277.543794
 21
155.921428
 31
0.0
  0
LINE
  5
314
330
2CD
100
AcDbEntity
  8
LC-003-005-----0
 62
     7
370
    25
100
AcDbLine
 10
274.543794
 20
155.749855
 30
0.0
 11
277.543794
 21
158.749855
 31
0.0
  0
LINE
  5
315
330
2CD
100
AcDbEntity
  8
LC-003-005-----0
 62
     7
370
    25
100
AcDbLine
 10
274.543794
 20
158.578282
 30
0.0
 11
277.543794
 21
161.578282
 31
0.0
  0
LINE
  5
316
330
2CD
100
AcDbEntity
  8
LC-003-005-----0
 62
     7
370
    25
100
AcDbLine
 10
274.543794
 20
161.406709
 30
0.0
 11
277.543794
 21
164.406709
 31
0.0
  0
LINE
  5
317
330
2CD
100
AcDbEntity
  8
LC-003-005-----0
 62
     7
370
    25
100
AcDbLine
 10
274.543794
 20
164.235136
 30
0.0
 11
277.543794
 21
167.235136
 31
0.0
  0
LINE
  5
318
330
2CD
100
AcDbEntity
  8
LC-003-005-----0
 62
     7
370
    25
100
AcDbLine
 10
274.543794
 20
167.063564
 30
0.0
 11
277.543794
 21
170.063564
 31
0.0
  0
LINE
  5
319
330
2CD
100
AcDbEntity
  8
LC-003-005-----0
 62
     7
370
    25
100
AcDbLine
 10
274.543794
 20
169.891991
 30
0.0
 11
277.543794
 21
172.891991
 31
0.0
  0
LINE
  5
31A
330
2CD
100
AcDbEntity
  8
LC-003-005-----0
 62
     7
370
    25
100
AcDbLine
 10
274.543794
 20
172.720418
 30
0.0
 11
277.543794
 21
175.720418
 31
0.0
  0
LINE
  5
31B
330
2CD
100
AcDbEntity
  8
LC-003-005-----0
 62
     7
370
    25
100
AcDbLine
 10
274.543794
 20
175.548845
 30
0.0
 11
277.543794
 21
178.548845
 31
0.0
  0
LINE
  5
31C
330
2CD
100
AcDbEntity
  8
LC-003-005-----0
 62
     7
370
    25
100
AcDbLine
 10
274.543794
 20
178.377272
 30
0.0
 11
277.543794
 21
181.377272
 31
0.0
  0
LINE
  5
31D
330
2CD
100
AcDbEntity
  8
LC-003-005-----0
 62
     7
370
    25
100
AcDbLine
 10
274.543794
 20
181.205699
 30
0.0
 11
277.543794
 21
184.205699
 31
0.0
  0
LINE
  5
31E
330
2CD
100
AcDbEntity
  8
LC-003-005-----0
 62
     7
370
    25
100
AcDbLine
 10
274.543794
 20
184.034126
 30
0.0
 11
277.543794
 21
187.034126
 31
0.0
  0
LINE
  5
31F
330
2CD
100
AcDbEntity
  8
LC-003-005-----0
 62
     7
370
    25
100
AcDbLine
 10
274.543794
 20
186.862553
 30
0.0
 11
277.543794
 21
189.862553
 31
0.0
  0
LINE
  5
320
330
2CD
100
AcDbEntity
  8
LC-003-005-----0
 62
     7
370
    25
100
AcDbLine
 10
274.543794
 20
189.690981
 30
0.0
 11
277.543794
 21
192.690981
 31
0.0
  0
LINE
  5
321
330
2CD
100
AcDbEntity
  8
LC-003-005-----0
 62
     7
370
    25
100
AcDbLine
 10
274.543794
 20
192.519408
 30
0.0
 11
277.543794
 21
195.519408
 31
0.0
  0
LINE
  5
322
330
2CD
100
AcDbEntity
  8
LC-003-005-----0
 62
     7
370
    25
100
AcDbLine
 10
274.543794
 20
195.347835
 30
0.0
 11
277.543794
 21
198.347835
 31
0.0
  0
LINE
  5
323
330
2CD
100
AcDbEntity
  8
LC-003-005-----0
 62
     7
370
    25
100
AcDbLine
 10
274.543794
 20
198.176262
 30
0.0
 11
277.543794
 21
201.176262
 31
0.0
  0
LINE
  5
324
330
2CD
100
AcDbEntity
  8
LC-003-005-----0
 62
     7
370
    25
100
AcDbLine
 10
274.543794
 20
201.004689
 30
0.0
 11
277.543794
 21
204.004689
 31
0.0
  0
LINE
  5
325
330
2CD
100
AcDbEntity
  8
LC-003-005-----0
 62
     7
370
    25
100
AcDbLine
 10
274.543794
 20
203.833116
 30
0.0
 11
277.543794
 21
206.833116
 31
0.0
  0
LINE
  5
326
330
2CD
100
AcDbEntity
  8
LC-003-005-----0
 62
     7
370
    25
100
AcDbLine
 10
274.543794
 20
206.661543
 30
0.0
 11
277.543794
 21
209.661543
 31
0.0
  0
LINE
  5
327
330
2CD
100
AcDbEntity
  8
LC-003-005-----0
 62
     7
370
    25
100
AcDbLine
 10
274.543794
 20
209.48997
 30
0.0
 11
277.543794
 21
212.48997
 31
0.0
  0
LINE
  5
328
330
2CD
100
AcDbEntity
  8
LC-003-005-----0
 62
     7
370
    25
100
AcDbLine
 10
274.543794
 20
212.318398
 30
0.0
 11
277.543794
 21
215.318398
 31
0.0
  0
LINE
  5
329
330
2CD
100
AcDbEntity
  8
LC-003-005-----0
 62
     7
370
    25
100
AcDbLine
 10
274.543794
 20
215.146825
 30
0.0
 11
277.543794
 21
218.146825
 31
0.0
  0
LINE
  5
32A
330
2CD
100
AcDbEntity
  8
LC-003-005-----0
 62
     7
370
    25
100
AcDbLine
 10
274.543794
 20
217.975252
 30
0.0
 11
277.543794
 21
220.975252
 31
0.0
  0
LINE
  5
32B
330
2CD
100
AcDbEntity
  8
LC-003-005-----0
 62
     7
370
    25
100
AcDbLine
 10
274.543794
 20
220.803679
 30
0.0
 11
277.543794
 21
223.803679
 31
0.0
  0
LINE
  5
32C
330
2CD
100
AcDbEntity
  8
LC-003-005-----0
 62
     7
370
    25
100
AcDbLine
 10
274.543794
 20
223.632106
 30
0.0
 11
277.543794
 21
226.632106
 31
0.0
  0
LINE
  5
32D
330
2CD
100
AcDbEntity
  8
LC-003-005-----0
 62
     7
370
    25
100
AcDbLine
 10
274.543794
 20
226.460533
 30
0.0
 11
277.543794
 21
229.460533
 31
0.0
  0
LINE
  5
32E
330
2CD
100
AcDbEntity
  8
LC-003-005-----0
 62
     7
370
    25
100
AcDbLine
 10
274.543794
 20
229.28896
 30
0.0
 11
277.543794
 21
232.28896
 31
0.0
  0
LINE
  5
32F
330
2CD
100
AcDbEntity
  8
LC-003-005-----0
 62
     7
370
    25
100
AcDbLine
 10
274.543794
 20
232.117387
 30
0.0
 11
277.543794
 21
235.117387
 31
0.0
  0
LINE
  5
330
330
2CD
100
AcDbEntity
  8
LC-003-005-----0
 62
     7
370
    25
100
AcDbLine
 10
274.543794
 20
234.945815
 30
0.0
 11
277.543794
 21
237.945815
 31
0.0
  0
LINE
  5
331
330
2CD
100
AcDbEntity
  8
LC-003-005-----0
 62
     7
370
    25
100
AcDbLine
 10
274.543794
 20
237.774242
 30
0.0
 11
277.543794
 21
240.774242
 31
0.0
  0
LINE
  5
332
330
2CD
100
AcDbEntity
  8
LC-003-005-----0
 62
     7
370
    25
100
AcDbLine
 10
274.543794
 20
240.602669
 30
0.0
 11
277.543794
 21
243.602669
 31
0.0
  0
LINE
  5
333
330
2CD
100
AcDbEntity
  8
LC-003-005-----0
 62
     7
370
    25
100
AcDbLine
 10
274.543794
 20
243.431096
 30
0.0
 11
277.543794
 21
246.431096
 31
0.0
  0
LINE
  5
334
330
2CD
100
AcDbEntity
  8
LC-003-005-----0
 62
     7
370
    25
100
AcDbLine
 10
274.543794
 20
246.259523
 30
0.0
 11
277.543794
 21
249.259523
 31
0.0
  0
LINE
  5
335
330
2CD
100
AcDbEntity
  8
LC-003-005-----0
 62
     7
370
    25
100
AcDbLine
 10
274.543794
 20
249.08795
 30
0.0
 11
277.543794
 21
252.08795
 31
0.0
  0
LINE
  5
336
330
2CD
100
AcDbEntity
  8
LC-003-005-----0
 62
     7
370
    25
100
AcDbLine
 10
274.543794
 20
251.916377
 30
0.0
 11
277.543794
 21
254.916377
 31
0.0
  0
LINE
  5
337
330
2CD
100
AcDbEntity
  8
LC-003-005-----0
 62
     7
370
    25
100
AcDbLine
 10
274.543794
 20
254.744804
 30
0.0
 11
277.543794
 21
257.744804
 31
0.0
  0
LINE
  5
338
330
2CD
100
AcDbEntity
  8
LC-003-005-----0
 62
     7
370
    25
100
AcDbLine
 10
274.543794
 20
257.573232
 30
0.0
 11
277.543794
 21
260.573232
 31
0.0
  0
LINE
  5
339
330
2CD
100
AcDbEntity
  8
LC-003-005-----0
 62
     7
370
    25
100
AcDbLine
 10
274.543794
 20
260.401659
 30
0.0
 11
277.543794
 21
263.401659
 31
0.0
  0
LINE
  5
33A
330
2CD
100
AcDbEntity
  8
LC-003-005-----0
 62
     7
370
    25
100
AcDbLine
 10
274.543794
 20
263.230086
 30
0.0
 11
277.543794
 21
266.230086
 31
0.0
  0
LINE
  5
33B
330
2CD
100
AcDbEntity
  8
LC-003-005-----0
 62
     7
370
    25
100
AcDbLine
 10
274.543794
 20
266.058513
 30
0.0
 11
277.543794
 21
269.058513
 31
0.0
  0
LINE
  5
33C
330
2CD
100
AcDbEntity
  8
LC-003-005-----0
 62
     7
370
    25
100
AcDbLine
 10
274.543794
 20
268.88694
 30
0.0
 11
277.543794
 21
271.88694
 31
0.0
  0
LINE
  5
33D
330
2CD
100
AcDbEntity
  8
LC-003-005-----0
 62
     7
370
    25
100
AcDbLine
 10
274.543794
 20
271.715367
 30
0.0
 11
277.543794
 21
274.715367
 31
0.0
  0
LINE
  5
33E
330
2CD
100
AcDbEntity
  8
LC-003-005-----0
 62
     7
370
    25
100
AcDbLine
 10
274.543794
 20
274.543794
 30
0.0
 11
277.543794
 21
277.543794
 31
0.0
  0
LINE
  5
33F
330
2CD
100
AcDbEntity
  8
LC-003-005-----0
 62
     7
370
    25
100
AcDbLine
 10
274.543794
 20
277.372221
 30
0.0
 11
277.543794
 21
280.372221
 31
0.0
  0
LINE
  5
340
330
2CD
100
AcDbEntity
  8
LC-003-005-----0
 62
     7
370
    25
100
AcDbLine
 10
274.543794
 20
280.200649
 30
0.0
 11
277.543794
 21
283.200649
 31
0.0
  0
LINE
  5
341
330
2CD
100
AcDbEntity
  8
LC-003-005-----0
 62
     7
370
    25
100
AcDbLine
 10
274.543794
 20
283.029076
 30
0.0
 11
277.543794
 21
286.029076
 31
0.0
  0
LINE
  5
342
330
2CD
100
AcDbEntity
  8
LC-003-005-----0
 62
     7
370
    25
100
AcDbLine
 10
274.543794
 20
285.857503
 30
0.0
 11
277.543794
 21
288.857503
 31
0.0
  0
LINE
  5
343
330
2CD
100
AcDbEntity
  8
LC-003-005-----0
 62
     7
370
    25
100
AcDbLine
 10
274.543794
 20
288.68593
 30
0.0
 11
277.543794
 21
291.68593
 31
0.0
  0
LINE
  5
344
330
2CD
100
AcDbEntity
  8
LC-003-005-----0
 62
     7
370
    25
100
AcDbLine
 10
274.543794
 20
291.514357
 30
0.0
 11
277.543794
 21
294.514357
 31
0.0
  0
LINE
  5
345
330
2CD
100
AcDbEntity
  8
LC-003-005-----0
 62
     7
370
    25
100
AcDbLine
 10
274.543794
 20
294.342784
 30
0.0
 11
277.543794
 21
297.342784
 31
0.0
  0
LINE
  5
346
330
2CD
100
AcDbEntity
  8
LC-003-005-----0
 62
     7
370
    25
100
AcDbLine
 10
274.543794
 20
297.171211
 30
0.0
 11
277.543794
 21
300.171211
 31
0.0
  0
LINE
  5
347
330
2CD
100
AcDbEntity
  8
LC-003-005-----0
 62
     7
370
    25
100
AcDbLine
 10
274.543794
 20
299.999638
 30
0.0
 11
277.543794
 21
302.999638
 31
0.0
  0
LINE
  5
348
330
2CD
100
AcDbEntity
  8
LC-003-005-----0
 62
     7
370
    25
100
AcDbLine
 10
274.543794
 20
302.828066
 30
0.0
 11
277.543794
 21
305.828066
 31
0.0
  0
LINE
  5
349
330
2CD
100
AcDbEntity
  8
LC-003-005-----0
 62
     7
370
    25
100
AcDbLine
 10
274.543794
 20
305.656493
 30
0.0
 11
277.543794
 21
308.656493
 31
0.0
  0
LINE
  5
34A
330
2CD
100
AcDbEntity
  8
LC-003-005-----0
 62
     7
370
    25
100
AcDbLine
 10
292.815263
 20
323.927962
 30
0.0
 11
295.531492
 21
326.64419
 31
0.0
  0
LINE
  5
34B
330
2CD
100
AcDbEntity
  8
LC-003-005-----0
 62
     7
370
    25
100
AcDbLine
 10
274.543794
 20
308.48492
 30
0.0
 11
277.543794
 21
311.48492
 31
0.0
  0
LINE
  5
34C
330
2CD
100
AcDbEntity
  8
LC-003-005-----0
 62
     7
370
    25
100
AcDbLine
 10
289.974529
 20
323.915654
 30
0.0
 11
295.543799
 21
329.484925
 31
0.0
  0
LINE
  5
34D
330
2CD
100
AcDbEntity
  8
LC-003-005-----0
 62
     7
370
    25
100
AcDbLine
 10
274.543794
 20
311.313347
 30
0.0
 11
277.543794
 21
314.313347
 31
0.0
  0
LINE
  5
34E
330
2CD
100
AcDbEntity
  8
LC-003-005-----0
 62
     7
370
    25
100
AcDbLine
 10
287.146102
 20
323.915654
 30
0.0
 11
290.146102
 21
326.915654
 31
0.0
  0
LINE
  5
34F
330
2CD
100
AcDbEntity
  8
LC-003-005-----0
 62
     7
370
    25
100
AcDbLine
 10
292.543799
 20
329.313352
 30
0.0
 11
295.543799
 21
332.313352
 31
0.0
  0
LINE
  5
350
330
2CD
100
AcDbEntity
  8
LC-003-005-----0
 62
     7
370
    25
100
AcDbLine
 10
274.543794
 20
314.141774
 30
0.0
 11
277.543794
 21
317.141774
 31
0.0
  0
LINE
  5
351
330
2CD
100
AcDbEntity
  8
LC-003-005-----0
 62
     7
370
    25
100
AcDbLine
 10
284.317675
 20
323.915654
 30
0.0
 11
287.317675
 21
326.915654
 31
0.0
  0
LINE
  5
352
330
2CD
100
AcDbEntity
  8
LC-003-005-----0
 62
     7
370
    25
100
AcDbLine
 10
292.543799
 20
332.141779
 30
0.0
 11
295.543799
 21
335.141779
 31
0.0
  0
LINE
  5
353
330
2CD
100
AcDbEntity
  8
LC-003-005-----0
 62
     7
370
    25
100
AcDbLine
 10
274.543794
 20
316.970201
 30
0.0
 11
277.543794
 21
319.970201
 31
0.0
  0
LINE
  5
354
330
2CD
100
AcDbEntity
  8
LC-003-005-----0
 62
     7
370
    25
100
AcDbLine
 10
281.489247
 20
323.915654
 30
0.0
 11
284.489247
 21
326.915654
 31
0.0
  0
LINE
  5
355
330
2CD
100
AcDbEntity
  8
LC-003-005-----0
 62
     7
370
    25
100
AcDbLine
 10
292.543799
 20
334.970206
 30
0.0
 11
295.543799
 21
337.970206
 31
0.0
  0
LINE
  5
356
330
2CD
100
AcDbEntity
  8
LC-003-005-----0
 62
     7
370
    25
100
AcDbLine
 10
274.543794
 20
319.798628
 30
0.0
 11
277.543794
 21
322.798628
 31
0.0
  0
LINE
  5
357
330
2CD
100
AcDbEntity
  8
LC-003-005-----0
 62
     7
370
    25
100
AcDbLine
 10
278.66082
 20
323.915654
 30
0.0
 11
281.66082
 21
326.915654
 31
0.0
  0
LINE
  5
358
330
2CD
100
AcDbEntity
  8
LC-003-005-----0
 62
     7
370
    25
100
AcDbLine
 10
292.543799
 20
337.798633
 30
0.0
 11
295.543799
 21
340.798633
 31
0.0
  0
LINE
  5
359
330
2CD
100
AcDbEntity
  8
LC-003-005-----0
 62
     7
370
    25
100
AcDbLine
 10
274.543794
 20
322.627055
 30
0.0
 11
278.832393
 21
326.915654
 31
0.0
  0
LINE
  5
35A
330
2CD
100
AcDbEntity
  8
LC-003-005-----0
 62
     7
370
    25
100
AcDbLine
 10
292.543799
 20
340.627061
 30
0.0
 11
295.543799
 21
343.627061
 31
0.0
  0
LINE
  5
35B
330
2CD
100
AcDbEntity
  8
LC-003-005-----0
 62
     7
370
    25
100
AcDbLine
 10
274.543794
 20
325.455483
 30
0.0
 11
276.003966
 21
326.915654
 31
0.0
  0
LINE
  5
35C
330
2CD
100
AcDbEntity
  8
LC-003-005-----0
 62
     7
370
    25
100
AcDbLine
 10
292.543799
 20
343.455488
 30
0.0
 11
295.543799
 21
346.455488
 31
0.0
  0
LINE
  5
35D
330
2CD
100
AcDbEntity
  8
LC-003-005-----0
 62
     7
370
    25
100
AcDbLine
 10
292.543799
 20
346.283915
 30
0.0
 11
295.543799
 21
349.283915
 31
0.0
  0
LINE
  5
35E
330
2CD
100
AcDbEntity
  8
LC-003-005-----0
 62
     7
370
    25
100
AcDbLine
 10
292.543799
 20
349.112342
 30
0.0
 11
295.543799
 21
352.112342
 31
0.0
  0
LINE
  5
35F
330
2CD
100
AcDbEntity
  8
LC-003-005-----0
 62
     7
370
    25
100
AcDbLine
 10
292.543799
 20
351.940769
 30
0.0
 11
295.543799
 21
354.940769
 31
0.0
  0
LINE
  5
360
330
2CD
100
AcDbEntity
  8
LC-003-005-----0
 62
     7
370
    25
100
AcDbLine
 10
292.543799
 20
354.769196
 30
0.0
 11
295.543799
 21
357.769196
 31
0.0
  0
LINE
  5
361
330
2CD
100
AcDbEntity
  8
LC-003-005-----0
 62
     7
370
    25
100
AcDbLine
 10
292.543799
 20
357.597623
 30
0.0
 11
296.729712
 21
361.783535
 31
0.0
  0
LINE
  5
362
330
2CD
100
AcDbEntity
  8
LC-003-005-----0
 62
     7
370
    25
100
AcDbLine
 10
292.543799
 20
360.42605
 30
0.0
 11
300.593415
 21
368.475666
 31
0.0
  0
LINE
  5
363
330
2CD
100
AcDbEntity
  8
LC-003-005-----0
 62
     7
370
    25
100
AcDbLine
 10
310.033749
 20
377.916
 30
0.0
 11
313.293794
 21
381.176045
 31
0.0
  0
LINE
  5
364
330
2CD
100
AcDbEntity
  8
LC-003-005-----0
 62
     7
370
    25
100
AcDbLine
 10
296.260966
 20
366.971644
 30
0.0
 11
304.457118
 21
375.167796
 31
0.0
  0
LINE
  5
365
330
2CD
100
AcDbEntity
  8
LC-003-005-----0
 62
     7
370
    25
100
AcDbLine
 10
307.205322
 20
377.916
 30
0.0
 11
310.205322
 21
380.916
 31
0.0
  0
LINE
  5
366
330
2CD
100
AcDbEntity
  8
LC-003-005-----0
 62
     7
370
    25
100
AcDbLine
 10
310.293794
 20
381.004472
 30
0.0
 11
313.293794
 21
384.004472
 31
0.0
  0
LINE
  5
367
330
2CD
100
AcDbEntity
  8
LC-003-005-----0
 62
     7
370
    25
100
AcDbLine
 10
300.124669
 20
373.663774
 30
0.0
 11
307.376895
 21
380.916
 31
0.0
  0
LINE
  5
368
330
2CD
100
AcDbEntity
  8
LC-003-005-----0
 62
     7
370
    25
100
AcDbLine
 10
310.293794
 20
383.8329
 30
0.0
 11
313.293794
 21
386.8329
 31
0.0
  0
LINE
  5
369
330
2CD
100
AcDbEntity
  8
LC-003-005-----0
 62
     7
370
    25
100
AcDbLine
 10
322.37698
 20
395.916086
 30
0.0
 11
323.797409
 21
397.336514
 31
0.0
  0
LINE
  5
36A
330
2CD
100
AcDbEntity
  8
LC-003-005-----0
 62
     7
370
    25
100
AcDbLine
 10
303.988372
 20
380.355905
 30
0.0
 11
304.548468
 21
380.916
 31
0.0
  0
LINE
  5
36B
330
2CD
100
AcDbEntity
  8
LC-003-005-----0
 62
     7
370
    25
100
AcDbLine
 10
310.293794
 20
386.661327
 30
0.0
 11
313.293794
 21
389.661327
 31
0.0
  0
LINE
  5
36C
330
2CD
100
AcDbEntity
  8
LC-003-005-----0
 62
     7
370
    25
100
AcDbLine
 10
319.54869
 20
395.916223
 30
0.0
 11
323.79768
 21
400.165212
 31
0.0
  0
LINE
  5
36D
330
2CD
100
AcDbEntity
  8
LC-003-005-----0
 62
     7
370
    25
100
AcDbLine
 10
310.293794
 20
389.489754
 30
0.0
 11
313.293794
 21
392.489754
 31
0.0
  0
LINE
  5
36E
330
2CD
100
AcDbEntity
  8
LC-003-005-----0
 62
     7
370
    25
100
AcDbLine
 10
315.220041
 20
394.416
 30
0.0
 11
323.79795
 21
402.99391
 31
0.0
  0
LINE
  5
36F
330
2CD
100
AcDbEntity
  8
LC-003-005-----0
 62
     7
370
    25
100
AcDbLine
 10
310.293794
 20
392.318181
 30
0.0
 11
323.798221
 21
405.822608
 31
0.0
  0
LINE
  5
370
330
2CD
100
AcDbEntity
  8
LC-003-005-----0
 62
     7
370
    25
100
AcDbLine
 10
310.293794
 20
395.146608
 30
0.0
 11
312.563186
 21
397.416
 31
0.0
  0
LINE
  5
371
330
2CD
100
AcDbEntity
  8
LC-003-005-----0
 62
     7
370
    25
100
AcDbLine
 10
315.043795
 20
399.896609
 30
0.0
 11
323.798492
 21
408.651305
 31
0.0
  0
LINE
  5
372
330
2CD
100
AcDbEntity
  8
LC-003-005-----0
 62
     7
370
    25
100
AcDbLine
 10
315.043795
 20
402.725036
 30
0.0
 11
323.798762
 21
411.480003
 31
0.0
  0
LINE
  5
373
330
2CD
100
AcDbEntity
  8
LC-003-005-----0
 62
     7
370
    25
100
AcDbLine
 10
315.043795
 20
405.553463
 30
0.0
 11
323.648957
 21
414.158625
 31
0.0
  0
LINE
  5
374
330
2CD
100
AcDbEntity
  8
LC-003-005-----0
 62
     7
370
    25
100
AcDbLine
 10
315.043795
 20
408.38189
 30
0.0
 11
320.820805
 21
414.1589
 31
0.0
  0
LINE
  5
375
330
2CD
100
AcDbEntity
  8
LC-003-005-----0
 62
     7
370
    25
100
AcDbLine
 10
315.043795
 20
411.210318
 30
0.0
 11
317.992652
 21
414.159174
 31
0.0
  0
LINE
  5
376
330
2CD
100
AcDbEntity
  8
LC-003-005-----0
 62
     7
370
    25
100
AcDbLine
 10
315.043795
 20
414.038745
 30
0.0
 11
315.164499
 21
414.159449
 31
0.0
  0
ENDBLK
  5
2CF
330
2CD
100
AcDbEntity
  8
0
100
AcDbBlockEnd
  0
BLOCK
  5
382
330
381
100
AcDbEntity
  8
0
100
AcDbBlockBegin
  2
*X1515
 70
     1
 71
     0
 10
0.0
 20
0.0
 30
0.0
  3
*X1515
  1

  4
*X15
  0
LINE
  5
384
330
381
100
AcDbEntity
  8
LC-003-005-----0
 62
     7
370
    25
100
AcDbLine
 10
135.700697
 20
395.915993
 30
0.0
 11
135.790307
 21
396.005602
 31
0.0
  0
LINE
  5
385
330
381
100
AcDbEntity
  8
LC-003-005-----0
 62
     7
370
    25
100
AcDbLine
 10
132.89373
 20
395.937453
 30
0.0
 11
135.790036
 21
398.833759
 31
0.0
  0
LINE
  5
386
330
381
100
AcDbEntity
  8
LC-003-005-----0
 62
     7
370
    25
100
AcDbLine
 10
132.538684
 20
398.410834
 30
0.0
 11
135.789766
 21
401.661915
 31
0.0
  0
LINE
  5
387
330
381
100
AcDbEntity
  8
LC-003-005-----0
 62
     7
370
    25
100
AcDbLine
 10
132.538668
 20
401.239244
 30
0.0
 11
135.789495
 21
404.490072
 31
0.0
  0
LINE
  5
388
330
381
100
AcDbEntity
  8
LC-003-005-----0
 62
     7
370
    25
100
AcDbLine
 10
132.538651
 20
404.067655
 30
0.0
 11
135.789225
 21
407.318229
 31
0.0
  0
LINE
  5
389
330
381
100
AcDbEntity
  8
LC-003-005-----0
 62
     7
370
    25
100
AcDbLine
 10
132.538634
 20
406.896065
 30
0.0
 11
135.788954
 21
410.146385
 31
0.0
  0
LINE
  5
38A
330
381
100
AcDbEntity
  8
LC-003-005-----0
 62
     7
370
    25
100
AcDbLine
 10
132.538617
 20
409.724475
 30
0.0
 11
135.788683
 21
412.974542
 31
0.0
  0
LINE
  5
38B
330
381
100
AcDbEntity
  8
LC-003-005-----0
 62
     7
370
    25
100
AcDbLine
 10
131.145247
 20
411.159532
 30
0.0
 11
134.144307
 21
414.158592
 31
0.0
  0
LINE
  5
38C
330
381
100
AcDbEntity
  8
LC-003-005-----0
 62
     7
370
    25
100
AcDbLine
 10
128.320785
 20
411.163497
 30
0.0
 11
131.316766
 21
414.159478
 31
0.0
  0
LINE
  5
38D
330
381
100
AcDbEntity
  8
LC-003-005-----0
 62
     7
370
    25
100
AcDbLine
 10
126.247105
 20
411.918245
 30
0.0
 11
128.587728
 21
414.258867
 31
0.0
  0
LINE
  5
38E
330
381
100
AcDbEntity
  8
LC-003-005-----0
 62
     7
370
    25
100
AcDbLine
 10
124.173425
 20
412.672992
 30
0.0
 11
126.514048
 21
415.013615
 31
0.0
  0
LINE
  5
38F
330
381
100
AcDbEntity
  8
LC-003-005-----0
 62
     7
370
    25
100
AcDbLine
 10
122.099746
 20
413.42774
 30
0.0
 11
124.440369
 21
415.768362
 31
0.0
  0
LINE
  5
390
330
381
100
AcDbEntity
  8
LC-003-005-----0
 62
     7
370
    25
100
AcDbLine
 10
120.026066
 20
414.182487
 30
0.0
 11
122.366689
 21
416.52311
 31
0.0
  0
LINE
  5
391
330
381
100
AcDbEntity
  8
LC-003-005-----0
 62
     7
370
    25
100
AcDbLine
 10
117.952387
 20
414.937235
 30
0.0
 11
120.293009
 21
417.277857
 31
0.0
  0
LINE
  5
392
330
381
100
AcDbEntity
  8
LC-003-005-----0
 62
     7
370
    25
100
AcDbLine
 10
115.878707
 20
415.691982
 30
0.0
 11
118.21933
 21
418.032605
 31
0.0
  0
LINE
  5
393
330
381
100
AcDbEntity
  8
LC-003-005-----0
 62
     7
370
    25
100
AcDbLine
 10
113.805027
 20
416.44673
 30
0.0
 11
116.14565
 21
418.787352
 31
0.0
  0
LINE
  5
394
330
381
100
AcDbEntity
  8
LC-003-005-----0
 62
     7
370
    25
100
AcDbLine
 10
111.731348
 20
417.201477
 30
0.0
 11
114.07197
 21
419.5421
 31
0.0
  0
LINE
  5
395
330
381
100
AcDbEntity
  8
LC-003-005-----0
 62
     7
370
    25
100
AcDbLine
 10
109.657668
 20
417.956225
 30
0.0
 11
111.998291
 21
420.296847
 31
0.0
  0
LINE
  5
396
330
381
100
AcDbEntity
  8
LC-003-005-----0
 62
     7
370
    25
100
AcDbLine
 10
107.583988
 20
418.710972
 30
0.0
 11
109.924611
 21
421.051595
 31
0.0
  0
LINE
  5
397
330
381
100
AcDbEntity
  8
LC-003-005-----0
 62
     7
370
    25
100
AcDbLine
 10
105.510309
 20
419.46572
 30
0.0
 11
107.850932
 21
421.806342
 31
0.0
  0
LINE
  5
398
330
381
100
AcDbEntity
  8
LC-003-005-----0
 62
     7
370
    25
100
AcDbLine
 10
103.132162
 20
419.916
 30
0.0
 11
105.777252
 21
422.56109
 31
0.0
  0
LINE
  5
399
330
381
100
AcDbEntity
  8
LC-003-005-----0
 62
     7
370
    25
100
AcDbLine
 10
100.303735
 20
419.916
 30
0.0
 11
103.303735
 21
422.916
 31
0.0
  0
LINE
  5
39A
330
381
100
AcDbEntity
  8
LC-003-005-----0
 62
     7
370
    25
100
AcDbLine
 10
97.475308
 20
419.916
 30
0.0
 11
100.475308
 21
422.916
 31
0.0
  0
LINE
  5
39B
330
381
100
AcDbEntity
  8
LC-003-005-----0
 62
     7
370
    25
100
AcDbLine
 10
94.646881
 20
419.916
 30
0.0
 11
97.646881
 21
422.916
 31
0.0
  0
LINE
  5
39C
330
381
100
AcDbEntity
  8
LC-003-005-----0
 62
     7
370
    25
100
AcDbLine
 10
91.818454
 20
419.916
 30
0.0
 11
94.818454
 21
422.916
 31
0.0
  0
LINE
  5
39D
330
381
100
AcDbEntity
  8
LC-003-005-----0
 62
     7
370
    25
100
AcDbLine
 10
88.990026
 20
419.916
 30
0.0
 11
91.990026
 21
422.916
 31
0.0
  0
LINE
  5
39E
330
381
100
AcDbEntity
  8
LC-003-005-----0
 62
     7
370
    25
100
AcDbLine
 10
86.161599
 20
419.916
 30
0.0
 11
89.161599
 21
422.916
 31
0.0
  0
LINE
  5
39F
330
381
100
AcDbEntity
  8
LC-003-005-----0
 62
     7
370
    25
100
AcDbLine
 10
83.333172
 20
419.916
 30
0.0
 11
86.333172
 21
422.916
 31
0.0
  0
LINE
  5
3A0
330
381
100
AcDbEntity
  8
LC-003-005-----0
 62
     7
370
    25
100
AcDbLine
 10
80.504745
 20
419.916
 30
0.0
 11
83.504745
 21
422.916
 31
0.0
  0
LINE
  5
3A1
330
381
100
AcDbEntity
  8
LC-003-005-----0
 62
     7
370
    25
100
AcDbLine
 10
77.676318
 20
419.916
 30
0.0
 11
80.676318
 21
422.916
 31
0.0
  0
LINE
  5
3A2
330
381
100
AcDbEntity
  8
LC-003-005-----0
 62
     7
370
    25
100
AcDbLine
 10
74.847891
 20
419.916
 30
0.0
 11
77.847891
 21
422.916
 31
0.0
  0
LINE
  5
3A3
330
381
100
AcDbEntity
  8
LC-003-005-----0
 62
     7
370
    25
100
AcDbLine
 10
72.019464
 20
419.916
 30
0.0
 11
75.019464
 21
422.916
 31
0.0
  0
LINE
  5
3A4
330
381
100
AcDbEntity
  8
LC-003-005-----0
 62
     7
370
    25
100
AcDbLine
 10
69.191037
 20
419.916
 30
0.0
 11
72.191037
 21
422.916
 31
0.0
  0
LINE
  5
3A5
330
381
100
AcDbEntity
  8
LC-003-005-----0
 62
     7
370
    25
100
AcDbLine
 10
66.362609
 20
419.916
 30
0.0
 11
69.362609
 21
422.916
 31
0.0
  0
LINE
  5
3A6
330
381
100
AcDbEntity
  8
LC-003-005-----0
 62
     7
370
    25
100
AcDbLine
 10
63.534182
 20
419.916
 30
0.0
 11
66.534182
 21
422.916
 31
0.0
  0
LINE
  5
3A7
330
381
100
AcDbEntity
  8
LC-003-005-----0
 62
     7
370
    25
100
AcDbLine
 10
60.705755
 20
419.916
 30
0.0
 11
63.705755
 21
422.916
 31
0.0
  0
LINE
  5
3A8
330
381
100
AcDbEntity
  8
LC-003-005-----0
 62
     7
370
    25
100
AcDbLine
 10
57.877328
 20
419.916
 30
0.0
 11
60.877328
 21
422.916
 31
0.0
  0
LINE
  5
3A9
330
381
100
AcDbEntity
  8
LC-003-005-----0
 62
     7
370
    25
100
AcDbLine
 10
55.543794
 20
420.410893
 30
0.0
 11
58.048901
 21
422.916
 31
0.0
  0
ENDBLK
  5
383
330
381
100
AcDbEntity
  8
0
100
AcDbBlockEnd
  0
BLOCK
  5
3AC
330
3AB
100
AcDbEntity
  8
0
100
AcDbBlockBegin
  2
*X1616
 70
     1
 71
     0
 10
0.0
 20
0.0
 30
0.0
  3
*X1616
  1

  4
*X16
  0
LINE
  5
3AE
330
3AB
100
AcDbEntity
  8
LC-003-005-----0
 62
     7
370
    25
100
AcDbLine
 10
408.602292
 20
419.916
 30
0.0
 11
409.543794
 21
420.857503
 31
0.0
  0
LINE
  5
3AF
330
3AB
100
AcDbEntity
  8
LC-003-005-----0
 62
     7
370
    25
100
AcDbLine
 10
405.773864
 20
419.916
 30
0.0
 11
408.519639
 21
422.661774
 31
0.0
  0
LINE
  5
3B0
330
3AB
100
AcDbEntity
  8
LC-003-005-----0
 62
     7
370
    25
100
AcDbLine
 10
402.945437
 20
419.916
 30
0.0
 11
405.945437
 21
422.916
 31
0.0
  0
LINE
  5
3B1
330
3AB
100
AcDbEntity
  8
LC-003-005-----0
 62
     7
370
    25
100
AcDbLine
 10
400.11701
 20
419.916
 30
0.0
 11
403.11701
 21
422.916
 31
0.0
  0
LINE
  5
3B2
330
3AB
100
AcDbEntity
  8
LC-003-005-----0
 62
     7
370
    25
100
AcDbLine
 10
397.288583
 20
419.916
 30
0.0
 11
400.288583
 21
422.916
 31
0.0
  0
LINE
  5
3B3
330
3AB
100
AcDbEntity
  8
LC-003-005-----0
 62
     7
370
    25
100
AcDbLine
 10
394.460156
 20
419.916
 30
0.0
 11
397.460156
 21
422.916
 31
0.0
  0
LINE
  5
3B4
330
3AB
100
AcDbEntity
  8
LC-003-005-----0
 62
     7
370
    25
100
AcDbLine
 10
391.631729
 20
419.916
 30
0.0
 11
394.631729
 21
422.916
 31
0.0
  0
LINE
  5
3B5
330
3AB
100
AcDbEntity
  8
LC-003-005-----0
 62
     7
370
    25
100
AcDbLine
 10
388.803302
 20
419.916
 30
0.0
 11
391.803302
 21
422.916
 31
0.0
  0
LINE
  5
3B6
330
3AB
100
AcDbEntity
  8
LC-003-005-----0
 62
     7
370
    25
100
AcDbLine
 10
385.974875
 20
419.916
 30
0.0
 11
388.974875
 21
422.916
 31
0.0
  0
LINE
  5
3B7
330
3AB
100
AcDbEntity
  8
LC-003-005-----0
 62
     7
370
    25
100
AcDbLine
 10
383.146447
 20
419.916
 30
0.0
 11
386.146447
 21
422.916
 31
0.0
  0
LINE
  5
3B8
330
3AB
100
AcDbEntity
  8
LC-003-005-----0
 62
     7
370
    25
100
AcDbLine
 10
380.31802
 20
419.916
 30
0.0
 11
383.31802
 21
422.916
 31
0.0
  0
LINE
  5
3B9
330
3AB
100
AcDbEntity
  8
LC-003-005-----0
 62
     7
370
    25
100
AcDbLine
 10
377.489593
 20
419.916
 30
0.0
 11
380.489593
 21
422.916
 31
0.0
  0
LINE
  5
3BA
330
3AB
100
AcDbEntity
  8
LC-003-005-----0
 62
     7
370
    25
100
AcDbLine
 10
374.661166
 20
419.916
 30
0.0
 11
377.661166
 21
422.916
 31
0.0
  0
LINE
  5
3BB
330
3AB
100
AcDbEntity
  8
LC-003-005-----0
 62
     7
370
    25
100
AcDbLine
 10
371.832739
 20
419.916
 30
0.0
 11
374.832739
 21
422.916
 31
0.0
  0
LINE
  5
3BC
330
3AB
100
AcDbEntity
  8
LC-003-005-----0
 62
     7
370
    25
100
AcDbLine
 10
369.004312
 20
419.916
 30
0.0
 11
372.004312
 21
422.916
 31
0.0
  0
LINE
  5
3BD
330
3AB
100
AcDbEntity
  8
LC-003-005-----0
 62
     7
370
    25
100
AcDbLine
 10
366.175885
 20
419.916
 30
0.0
 11
369.175885
 21
422.916
 31
0.0
  0
LINE
  5
3BE
330
3AB
100
AcDbEntity
  8
LC-003-005-----0
 62
     7
370
    25
100
AcDbLine
 10
363.347458
 20
419.916
 30
0.0
 11
366.347458
 21
422.916
 31
0.0
  0
LINE
  5
3BF
330
3AB
100
AcDbEntity
  8
LC-003-005-----0
 62
     7
370
    25
100
AcDbLine
 10
360.34999
 20
419.746959
 30
0.0
 11
363.51903
 21
422.916
 31
0.0
  0
LINE
  5
3C0
330
3AB
100
AcDbEntity
  8
LC-003-005-----0
 62
     7
370
    25
100
AcDbLine
 10
355.90302
 20
418.128416
 30
0.0
 11
360.690603
 21
422.916
 31
0.0
  0
LINE
  5
3C1
330
3AB
100
AcDbEntity
  8
LC-003-005-----0
 62
     7
370
    25
100
AcDbLine
 10
330.862178
 20
395.916002
 30
0.0
 11
332.548991
 21
397.602815
 31
0.0
  0
LINE
  5
3C2
330
3AB
100
AcDbEntity
  8
LC-003-005-----0
 62
     7
370
    25
100
AcDbLine
 10
351.456049
 20
416.509873
 30
0.0
 11
356.479218
 21
421.533042
 31
0.0
  0
LINE
  5
3C3
330
3AB
100
AcDbEntity
  8
LC-003-005-----0
 62
     7
370
    25
100
AcDbLine
 10
329.297558
 20
397.179809
 30
0.0
 11
332.548989
 21
400.43124
 31
0.0
  0
LINE
  5
3C4
330
3AB
100
AcDbEntity
  8
LC-003-005-----0
 62
     7
370
    25
100
AcDbLine
 10
347.009079
 20
414.89133
 30
0.0
 11
352.032976
 21
419.915227
 31
0.0
  0
LINE
  5
3C5
330
3AB
100
AcDbEntity
  8
LC-003-005-----0
 62
     7
370
    25
100
AcDbLine
 10
329.297811
 20
400.008489
 30
0.0
 11
332.548986
 21
403.259664
 31
0.0
  0
LINE
  5
3C6
330
3AB
100
AcDbEntity
  8
LC-003-005-----0
 62
     7
370
    25
100
AcDbLine
 10
342.562109
 20
413.272787
 30
0.0
 11
347.586733
 21
418.297411
 31
0.0
  0
LINE
  5
3C7
330
3AB
100
AcDbEntity
  8
LC-003-005-----0
 62
     7
370
    25
100
AcDbLine
 10
329.298063
 20
402.837169
 30
0.0
 11
332.548984
 21
406.088089
 31
0.0
  0
LINE
  5
3C8
330
3AB
100
AcDbEntity
  8
LC-003-005-----0
 62
     7
370
    25
100
AcDbLine
 10
338.115139
 20
411.654244
 30
0.0
 11
343.140491
 21
416.679596
 31
0.0
  0
LINE
  5
3C9
330
3AB
100
AcDbEntity
  8
LC-003-005-----0
 62
     7
370
    25
100
AcDbLine
 10
329.298316
 20
405.665848
 30
0.0
 11
332.548982
 21
408.916514
 31
0.0
  0
LINE
  5
3CA
330
3AB
100
AcDbEntity
  8
LC-003-005-----0
 62
     7
370
    25
100
AcDbLine
 10
334.792266
 20
411.159798
 30
0.0
 11
338.694248
 21
415.061781
 31
0.0
  0
LINE
  5
3CB
330
3AB
100
AcDbEntity
  8
LC-003-005-----0
 62
     7
370
    25
100
AcDbLine
 10
329.298569
 20
408.494528
 30
0.0
 11
334.962536
 21
414.158495
 31
0.0
  0
LINE
  5
3CC
330
3AB
100
AcDbEntity
  8
LC-003-005-----0
 62
     7
370
    25
100
AcDbLine
 10
329.298821
 20
411.323208
 30
0.0
 11
332.134109
 21
414.158495
 31
0.0
  0
LINE
  5
3CD
330
3AB
100
AcDbEntity
  8
LC-003-005-----0
 62
     7
370
    25
100
AcDbLine
 10
329.299074
 20
414.151887
 30
0.0
 11
329.305681
 21
414.158495
 31
0.0
  0
ENDBLK
  5
3AD
330
3AB
100
AcDbEntity
  8
0
100
AcDbBlockEnd
  0
BLOCK
  5
422
330
418
100
AcDbEntity
  8
0
100
AcDbBlockBegin
  2
*D17
 70
     1
 71
     0
 10
0.0
 20
0.0
 30
0.0
  3
*D17
  1

  0
LINE
  5
419
330
418
100
AcDbEntity
  8
LC-006-003-----0
 62
     2
370
    -2
100
AcDbLine
 10
407.543794
 20
422.916
 30
0.0
 11
470.775243
 21
422.916
 31
0.0
  0
LINE
  5
41A
330
418
100
AcDbEntity
  8
LC-006-003-----0
 62
     2
370
    -2
100
AcDbLine
 10
233.440909
 20
-37.084
 30
0.0
 11
470.775243
 21
-37.084
 31
0.0
  0
LINE
  5
41B
330
418
100
AcDbEntity
  8
LC-006-003-----0
 62
     2
370
    -2
100
AcDbLine
 10
467.175243
 20
394.916
 30
0.0
 11
467.175243
 21
-9.084
 31
0.0
  0
SOLID
  5
41C
330
418
100
AcDbEntity
  8
LC-006-003-----0
 62
     2
100
AcDbTrace
 10
471.84191
 20
394.916
 30
0.0
 11
462.508577
 21
394.916
 31
0.0
 12
467.175243
 22
422.916
 32
0.0
 13
467.175243
 23
422.916
 33
0.0
  0
SOLID
  5
41D
330
418
100
AcDbEntity
  8
LC-006-003-----0
 62
     2
100
AcDbTrace
 10
462.508577
 20
-9.084
 30
0.0
 11
471.84191
 21
-9.084
 31
0.0
 12
467.175243
 22
-37.084
 32
0.0
 13
467.175243
 23
-37.084
 33
0.0
  0
MTEXT
  5
41E
330
418
100
AcDbEntity
  8
LC-006-003-----0
 62
     2
100
AcDbMText
 10
436.375243
 20
192.916
 30
0.0
 40
28.0
 41
0.0
 71
     5
 72
     1
  1
\A1;460
  7
LCTX15-400-0-0pDIN-Schrift
 11
6.123031769111886E-17
 21
1.0
 31
0.0
 73
     1
 44
1.0
  0
POINT
  5
41F
330
418
100
AcDbEntity
  8
Defpoints
 62
     0
100
AcDbPoint
 10
407.543794
 20
422.916
 30
0.0
  0
POINT
  5
420
330
418
100
AcDbEntity
  8
Defpoints
 62
     0
100
AcDbPoint
 10
233.440909
 20
-37.084
 30
0.0
  0
POINT
  5
421
330
418
100
AcDbEntity
  8
Defpoints
 62
     0
100
AcDbPoint
 10
467.175243
 20
-37.084
 30
0.0
  0
ENDBLK
  5
423
330
418
100
AcDbEntity
  8
0
100
AcDbBlockEnd
  0
BLOCK
  5
42F
330
425
100
AcDbEntity
  8
0
100
AcDbBlockBegin
  2
*D18
 70
     1
 71
     0
 10
0.0
 20
0.0
 30
0.0
  3
*D18
  1

  0
LINE
  5
426
330
425
100
AcDbEntity
  8
LC-006-003-----0
 62
     2
370
    -2
100
AcDbLine
 10
310.293794
 20
377.916
 30
0.0
 11
410.432526
 21
377.916
 31
0.0
  0
LINE
  5
427
330
425
100
AcDbEntity
  8
LC-006-003-----0
 62
     2
370
    -2
100
AcDbLine
 10
233.440909
 20
-37.084
 30
0.0
 11
410.432526
 21
-37.084
 31
0.0
  0
LINE
  5
428
330
425
100
AcDbEntity
  8
LC-006-003-----0
 62
     2
370
    -2
100
AcDbLine
 10
406.832526
 20
349.916
 30
0.0
 11
406.832526
 21
-9.084
 31
0.0
  0
SOLID
  5
429
330
425
100
AcDbEntity
  8
LC-006-003-----0
 62
     2
100
AcDbTrace
 10
411.499193
 20
349.916
 30
0.0
 11
402.16586
 21
349.916
 31
0.0
 12
406.832526
 22
377.916
 32
0.0
 13
406.832526
 23
377.916
 33
0.0
  0
SOLID
  5
42A
330
425
100
AcDbEntity
  8
LC-006-003-----0
 62
     2
100
AcDbTrace
 10
402.16586
 20
-9.084
 30
0.0
 11
411.499193
 21
-9.084
 31
0.0
 12
406.832526
 22
-37.084
 32
0.0
 13
406.832526
 23
-37.084
 33
0.0
  0
MTEXT
  5
42B
330
425
100
AcDbEntity
  8
LC-006-003-----0
 62
     2
100
AcDbMText
 10
376.032526
 20
170.416
 30
0.0
 40
28.0
 41
0.0
 71
     5
 72
     1
  1
\A1;415
  7
LCTX15-400-0-0pDIN-Schrift
 11
6.123031769111886E-17
 21
1.0
 31
0.0
 73
     1
 44
1.0
  0
POINT
  5
42C
330
425
100
AcDbEntity
  8
Defpoints
 62
     0
100
AcDbPoint
 10
310.293794
 20
377.916
 30
0.0
  0
POINT
  5
42D
330
425
100
AcDbEntity
  8
Defpoints
 62
     0
100
AcDbPoint
 10
233.440909
 20
-37.084
 30
0.0
  0
POINT
  5
42E
330
425
100
AcDbEntity
  8
Defpoints
 62
     0
100
AcDbPoint
 10
406.832526
 20
-37.084
 30
0.0
  0
ENDBLK
  5
430
330
425
100
AcDbEntity
  8
0
100
AcDbBlockEnd
  0
BLOCK
  5
43D
330
433
100
AcDbEntity
  8
0
100
AcDbBlockBegin
  2
*D19
 70
     1
 71
     0
 10
0.0
 20
0.0
 30
0.0
  3
*D19
  1

  0
LINE
  5
434
330
433
100
AcDbEntity
  8
LC-006-003-----0
 62
     2
370
    -2
100
AcDbLine
 10
55.543794
 20
419.916
 30
0.0
 11
55.543794
 21
518.87
 31
0.0
  0
LINE
  5
435
330
433
100
AcDbEntity
  8
LC-006-003-----0
 62
     2
370
    -2
100
AcDbLine
 10
409.543794
 20
419.916
 30
0.0
 11
409.543794
 21
518.87
 31
0.0
  0
LINE
  5
436
330
433
100
AcDbEntity
  8
LC-006-003-----0
 62
     2
370
    -2
100
AcDbLine
 10
83.543794
 20
515.27
 30
0.0
 11
381.543794
 21
515.27
 31
0.0
  0
SOLID
  5
437
330
433
100
AcDbEntity
  8
LC-006-003-----0
 62
     2
100
AcDbTrace
 10
83.543794
 20
519.936667
 30
0.0
 11
83.543794
 21
510.603333
 31
0.0
 12
55.543794
 22
515.27
 32
0.0
 13
55.543794
 23
515.27
 33
0.0
  0
SOLID
  5
438
330
433
100
AcDbEntity
  8
LC-006-003-----0
 62
     2
100
AcDbTrace
 10
381.543794
 20
510.603333
 30
0.0
 11
381.543794
 21
519.936667
 31
0.0
 12
409.543794
 22
515.27
 32
0.0
 13
409.543794
 23
515.27
 33
0.0
  0
MTEXT
  5
439
330
433
100
AcDbEntity
  8
LC-006-003-----0
 62
     2
100
AcDbMText
 10
232.543794
 20
546.07
 30
0.0
 40
28.0
 41
0.0
 71
     5
 72
     1
  1
%%c\A1;354
  7
LCTX15-400-0-0pDIN-Schrift
 73
     1
 44
1.0
  0
POINT
  5
43A
330
433
100
AcDbEntity
  8
Defpoints
 62
     0
100
AcDbPoint
 10
55.543794
 20
419.916
 30
0.0
  0
POINT
  5
43B
330
433
100
AcDbEntity
  8
Defpoints
 62
     0
100
AcDbPoint
 10
409.543794
 20
419.916
 30
0.0
  0
POINT
  5
43C
330
433
100
AcDbEntity
  8
Defpoints
 62
     0
100
AcDbPoint
 10
409.543794
 20
515.27
 30
0.0
  0
ENDBLK
  5
43E
330
433
100
AcDbEntity
  8
0
100
AcDbBlockEnd
  0
BLOCK
  5
44A
330
440
100
AcDbEntity
  8
0
100
AcDbBlockBegin
  2
*D20
 70
     1
 71
     0
 10
0.0
 20
0.0
 30
0.0
  3
*D20
  1

  0
LINE
  5
441
330
440
100
AcDbEntity
  8
LC-006-003-----0
 62
     2
370
    -2
100
AcDbLine
 10
159.043794
 20
377.916
 30
0.0
 11
159.043794
 21
329.67
 31
0.0
  0
LINE
  5
442
330
440
100
AcDbEntity
  8
LC-006-003-----0
 62
     2
370
    -2
100
AcDbLine
 10
306.043794
 20
377.916
 30
0.0
 11
306.043794
 21
329.67
 31
0.0
  0
LINE
  5
443
330
440
100
AcDbEntity
  8
LC-006-003-----0
 62
     2
370
    -2
100
AcDbLine
 10
187.043794
 20
333.27
 30
0.0
 11
278.043794
 21
333.27
 31
0.0
  0
SOLID
  5
444
330
440
100
AcDbEntity
  8
LC-006-003-----0
 62
     2
100
AcDbTrace
 10
187.043794
 20
337.936667
 30
0.0
 11
187.043794
 21
328.603333
 31
0.0
 12
159.043794
 22
333.27
 32
0.0
 13
159.043794
 23
333.27
 33
0.0
  0
SOLID
  5
445
330
440
100
AcDbEntity
  8
LC-006-003-----0
 62
     2
100
AcDbTrace
 10
278.043794
 20
328.603333
 30
0.0
 11
278.043794
 21
337.936667
 31
0.0
 12
306.043794
 22
333.27
 32
0.0
 13
306.043794
 23
333.27
 33
0.0
  0
MTEXT
  5
446
330
440
100
AcDbEntity
  8
LC-006-003-----0
 62
     2
100
AcDbMText
 10
232.543794
 20
364.07
 30
0.0
 40
28.0
 41
0.0
 71
     5
 72
     1
  1
%%c\A1;147
  7
LCTX15-400-0-0pDIN-Schrift
 73
     1
 44
1.0
  0
POINT
  5
447
330
440
100
AcDbEntity
  8
Defpoints
 62
     0
100
AcDbPoint
 10
159.043794
 20
377.916
 30
0.0
  0
POINT
  5
448
330
440
100
AcDbEntity
  8
Defpoints
 62
     0
100
AcDbPoint
 10
306.043794
 20
377.916
 30
0.0
  0
POINT
  5
449
330
440
100
AcDbEntity
  8
Defpoints
 62
     0
100
AcDbPoint
 10
306.043794
 20
333.27
 30
0.0
  0
ENDBLK
  5
44B
330
440
100
AcDbEntity
  8
0
100
AcDbBlockEnd
  0
BLOCK
  5
470
330
46F
100
AcDbEntity
  8
0
100
AcDbBlockBegin
  2
*X1721
 70
     1
 71
     0
 10
0.0
 20
0.0
 30
0.0
  3
*X1721
  1

  4
*X17
  0
LINE
  5
472
330
46F
100
AcDbEntity
  8
LC-003-005-----0
 62
     7
370
    25
100
AcDbLine
 10
144.070659
 20
422.321873
 30
0.0
 11
143.816184
 21
422.576347
 31
0.0
  0
LINE
  5
473
330
46F
100
AcDbEntity
  8
LC-003-005-----0
 62
     7
370
    25
100
AcDbLine
 10
143.811522
 20
421.873903
 30
0.0
 11
143.352255
 21
422.33317
 31
0.0
  0
LINE
  5
474
330
46F
100
AcDbEntity
  8
LC-003-005-----0
 62
     7
370
    25
100
AcDbLine
 10
143.347592
 20
421.630726
 30
0.0
 11
142.888326
 21
422.089993
 31
0.0
  0
LINE
  5
475
330
46F
100
AcDbEntity
  8
LC-003-005-----0
 62
     7
370
    25
100
AcDbLine
 10
142.883663
 20
421.387549
 30
0.0
 11
142.261476
 21
422.009735
 31
0.0
  0
LINE
  5
476
330
46F
100
AcDbEntity
  8
LC-003-005-----0
 62
     7
370
    25
100
AcDbLine
 10
142.254369
 20
421.309735
 30
0.0
 11
141.790285
 21
421.77382
 31
0.0
  0
LINE
  5
477
330
46F
100
AcDbEntity
  8
LC-003-005-----0
 62
     7
370
    25
100
AcDbLine
 10
135.390285
 20
421.809858
 30
0.0
 11
135.190408
 21
422.009735
 31
0.0
  0
LINE
  5
478
330
46F
100
AcDbEntity
  8
LC-003-005-----0
 62
     7
370
    25
100
AcDbLine
 10
135.183302
 20
421.309735
 30
0.0
 11
134.483302
 21
422.009735
 31
0.0
  0
LINE
  5
479
330
46F
100
AcDbEntity
  8
LC-003-005-----0
 62
     7
370
    25
100
AcDbLine
 10
134.476195
 20
421.309735
 30
0.0
 11
134.006323
 21
421.779607
 31
0.0
  0
LINE
  5
47A
330
46F
100
AcDbEntity
  8
LC-003-005-----0
 62
     7
370
    25
100
AcDbLine
 10
134.00166
 20
421.077163
 30
0.0
 11
133.542394
 21
421.536429
 31
0.0
  0
LINE
  5
47B
330
46F
100
AcDbEntity
  8
LC-003-005-----0
 62
     7
370
    25
100
AcDbLine
 10
133.537731
 20
420.833985
 30
0.0
 11
133.109911
 21
421.261805
 31
0.0
  0
ENDBLK
  5
471
330
46F
100
AcDbEntity
  8
0
100
AcDbBlockEnd
  0
BLOCK
  5
494
330
493
100
AcDbEntity
  8
0
100
AcDbBlockBegin
  2
*X1822
 70
     1
 71
     0
 10
0.0
 20
0.0
 30
0.0
  3
*X1822
  1

  4
*X18
  0
LINE
  5
496
330
493
100
AcDbEntity
  8
LC-003-005-----0
 62
     7
370
    25
100
AcDbLine
 10
331.977677
 20
421.091044
 30
0.0
 11
331.51808
 21
421.550642
 31
0.0
  0
LINE
  5
497
330
493
100
AcDbEntity
  8
LC-003-005-----0
 62
     7
370
    25
100
AcDbLine
 10
331.503144
 20
420.858471
 30
0.0
 11
330.35188
 21
422.009735
 31
0.0
  0
LINE
  5
498
330
493
100
AcDbEntity
  8
LC-003-005-----0
 62
     7
370
    25
100
AcDbLine
 10
330.344773
 20
421.309735
 30
0.0
 11
329.697304
 21
421.957205
 31
0.0
  0
LINE
  5
499
330
493
100
AcDbEntity
  8
LC-003-005-----0
 62
     7
370
    25
100
AcDbLine
 10
323.297304
 20
421.993244
 30
0.0
 11
323.280812
 21
422.009735
 31
0.0
  0
LINE
  5
49A
330
493
100
AcDbEntity
  8
LC-003-005-----0
 62
     7
370
    25
100
AcDbLine
 10
323.273705
 20
421.309735
 30
0.0
 11
322.573705
 21
422.009735
 31
0.0
  0
LINE
  5
49B
330
493
100
AcDbEntity
  8
LC-003-005-----0
 62
     7
370
    25
100
AcDbLine
 10
322.566599
 20
421.309735
 30
0.0
 11
321.331472
 21
422.544862
 31
0.0
  0
LINE
  5
49C
330
493
100
AcDbEntity
  8
LC-003-005-----0
 62
     7
370
    25
100
AcDbLine
 10
321.316536
 20
421.852691
 30
0.0
 11
321.01693
 21
422.152297
 31
0.0
  0
ENDBLK
  5
495
330
493
100
AcDbEntity
  8
0
100
AcDbBlockEnd
  0
BLOCK
  5
4BE
330
4B4
100
AcDbEntity
  8
0
100
AcDbBlockBegin
  2
*D23
 70
     1
 71
     0
 10
0.0
 20
0.0
 30
0.0
  3
*D23
  1

  0
LINE
  5
4B5
330
4B4
100
AcDbEntity
  8
LC-006-003-----0
 62
     2
370
    -2
100
AcDbLine
 10
187.543794
 20
-32.584
 30
0.0
 11
187.543794
 21
-96.66
 31
0.0
  0
LINE
  5
4B6
330
4B4
100
AcDbEntity
  8
LC-006-003-----0
 62
     2
370
    -2
100
AcDbLine
 10
277.543794
 20
-32.584
 30
0.0
 11
277.543794
 21
-96.66
 31
0.0
  0
LINE
  5
4B7
330
4B4
100
AcDbEntity
  8
LC-006-003-----0
 62
     2
370
    -2
100
AcDbLine
 10
215.543794
 20
-93.06
 30
0.0
 11
249.543794
 21
-93.06
 31
0.0
  0
SOLID
  5
4B8
330
4B4
100
AcDbEntity
  8
LC-006-003-----0
 62
     2
100
AcDbTrace
 10
215.543794
 20
-88.393333
 30
0.0
 11
215.543794
 21
-97.726667
 31
0.0
 12
187.543794
 22
-93.06
 32
0.0
 13
187.543794
 23
-93.06
 33
0.0
  0
SOLID
  5
4B9
330
4B4
100
AcDbEntity
  8
LC-006-003-----0
 62
     2
100
AcDbTrace
 10
249.543794
 20
-97.726667
 30
0.0
 11
249.543794
 21
-88.393333
 31
0.0
 12
277.543794
 22
-93.06
 32
0.0
 13
277.543794
 23
-93.06
 33
0.0
  0
MTEXT
  5
4BA
330
4B4
100
AcDbEntity
  8
LC-006-003-----0
 62
     2
100
AcDbMText
 10
232.543794
 20
-62.26
 30
0.0
 40
28.0
 41
0.0
 71
     5
 72
     1
  1
%%c\A1;90
  7
LCTX15-400-0-0pDIN-Schrift
 73
     1
 44
1.0
  0
POINT
  5
4BB
330
4B4
100
AcDbEntity
  8
Defpoints
 62
     0
100
AcDbPoint
 10
187.543794
 20
-32.584
 30
0.0
  0
POINT
  5
4BC
330
4B4
100
AcDbEntity
  8
Defpoints
 62
     0
100
AcDbPoint
 10
277.543794
 20
-32.584
 30
0.0
  0
POINT
  5
4BD
330
4B4
100
AcDbEntity
  8
Defpoints
 62
     0
100
AcDbPoint
 10
277.543794
 20
-93.06
 30
0.0
  0
ENDBLK
  5
4BF
330
4B4
100
AcDbEntity
  8
0
100
AcDbBlockEnd
  0
BLOCK
  5
5F1
330
5F0
100
AcDbEntity
  8
0
100
AcDbBlockBegin
  2
*X1924
 70
     1
 71
     0
 10
0.0
 20
0.0
 30
0.0
  3
*X1924
  1

  4
*X19
  0
LINE
  5
5F3
330
5F0
100
AcDbEntity
  8
LC-003-005-----0
  6
DASHED
 62
     7
370
    25
100
AcDbLine
 10
280.616056
 20
270.927233
 30
0.0
 11
278.646148
 21
272.897142
 31
0.0
  0
LINE
  5
5F4
330
5F0
100
AcDbEntity
  8
LC-003-005-----0
  6
DASHED
 62
     7
370
    25
100
AcDbLine
 10
278.572403
 20
268.728245
 30
0.0
 11
277.568428
 21
269.732221
 31
0.0
  0
LINE
  5
5F5
330
5F0
100
AcDbEntity
  8
LC-003-005-----0
 62
     7
370
    25
100
AcDbLine
 10
280.277922
 20
258.537445
 30
0.0
 11
277.568428
 21
261.24694
 31
0.0
  0
LINE
  5
5F6
330
5F0
100
AcDbEntity
  8
LC-003-005-----0
 62
     7
370
    25
100
AcDbLine
 10
278.572403
 20
256.000323
 30
0.0
 11
277.568428
 21
257.004299
 31
0.0
  0
LINE
  5
5F7
330
5F0
100
AcDbEntity
  8
LC-003-005-----0
  6
DASHED
 62
     7
370
    25
100
AcDbLine
 10
279.939788
 20
246.147657
 30
0.0
 11
277.568428
 21
248.519018
 31
0.0
  0
LINE
  5
5F8
330
5F0
100
AcDbEntity
  8
LC-003-005-----0
  6
DASHED
 62
     7
370
    25
100
AcDbLine
 10
286.558292
 20
235.286513
 30
0.0
 11
285.93816
 21
235.906645
 31
0.0
  0
LINE
  5
5F9
330
5F0
100
AcDbEntity
  8
LC-003-005-----0
  6
DASHED
 62
     7
370
    25
100
AcDbLine
 10
278.572403
 20
243.272401
 30
0.0
 11
277.568428
 21
244.276377
 31
0.0
  0
LINE
  5
5FA
330
5F0
100
AcDbEntity
  8
LC-003-005-----0
 62
     7
370
    25
100
AcDbLine
 10
279.601654
 20
233.757869
 30
0.0
 11
277.568428
 21
235.791096
 31
0.0
  0
LINE
  5
5FB
330
5F0
100
AcDbEntity
  8
LC-003-005-----0
 62
     7
370
    25
100
AcDbLine
 10
286.40985
 20
222.707033
 30
0.0
 11
285.540404
 21
223.576479
 31
0.0
  0
LINE
  5
5FC
330
5F0
100
AcDbEntity
  8
LC-003-005-----0
 62
     7
370
    25
100
AcDbLine
 10
278.572403
 20
230.544479
 30
0.0
 11
277.568428
 21
231.548455
 31
0.0
  0
LINE
  5
5FD
330
5F0
100
AcDbEntity
  8
LC-003-005-----0
  6
DASHED
 62
     7
370
    25
100
AcDbLine
 10
279.270989
 20
221.360613
 30
0.0
 11
277.568428
 21
223.063174
 31
0.0
  0
LINE
  5
5FE
330
5F0
100
AcDbEntity
  8
LC-003-005-----0
  6
DASHED
 62
     7
370
    25
100
AcDbLine
 10
286.138755
 20
210.250205
 30
0.0
 11
285.142647
 21
211.246313
 31
0.0
  0
LINE
  5
5FF
330
5F0
100
AcDbEntity
  8
LC-003-005-----0
  6
DASHED
 62
     7
370
    25
100
AcDbLine
 10
278.572403
 20
217.816557
 30
0.0
 11
277.568428
 21
218.820533
 31
0.0
  0
LINE
  5
600
330
5F0
100
AcDbEntity
  8
LC-003-005-----0
 62
     7
370
    25
100
AcDbLine
 10
279.003985
 20
208.899694
 30
0.0
 11
277.568428
 21
210.335251
 31
0.0
  0
LINE
  5
601
330
5F0
100
AcDbEntity
  8
LC-003-005-----0
 62
     7
370
    25
100
AcDbLine
 10
285.800621
 20
197.860417
 30
0.0
 11
284.744891
 21
198.916148
 31
0.0
  0
LINE
  5
602
330
5F0
100
AcDbEntity
  8
LC-003-005-----0
 62
     7
370
    25
100
AcDbLine
 10
278.572403
 20
205.088635
 30
0.0
 11
277.568428
 21
206.092611
 31
0.0
  0
LINE
  5
603
330
5F0
100
AcDbEntity
  8
LC-003-005-----0
  6
DASHED
 62
     7
370
    25
100
AcDbLine
 10
278.797226
 20
196.378531
 30
0.0
 11
277.568428
 21
197.607329
 31
0.0
  0
LINE
  5
604
330
5F0
100
AcDbEntity
  8
LC-003-005-----0
  6
DASHED
 62
     7
370
    25
100
AcDbLine
 10
285.462487
 20
185.47063
 30
0.0
 11
284.347134
 21
186.585982
 31
0.0
  0
LINE
  5
605
330
5F0
100
AcDbEntity
  8
LC-003-005-----0
  6
DASHED
 62
     7
370
    25
100
AcDbLine
 10
278.572403
 20
192.360713
 30
0.0
 11
277.568428
 21
193.364689
 31
0.0
  0
LINE
  5
606
330
5F0
100
AcDbEntity
  8
LC-003-005-----0
 62
     7
370
    25
100
AcDbLine
 10
278.648525
 20
183.79931
 30
0.0
 11
277.568428
 21
184.879407
 31
0.0
  0
LINE
  5
607
330
5F0
100
AcDbEntity
  8
LC-003-005-----0
 62
     7
370
    25
100
AcDbLine
 10
285.124352
 20
173.080842
 30
0.0
 11
283.949378
 21
174.255816
 31
0.0
  0
LINE
  5
608
330
5F0
100
AcDbEntity
  8
LC-003-005-----0
 62
     7
370
    25
100
AcDbLine
 10
278.572403
 20
179.632791
 30
0.0
 11
277.568428
 21
180.636767
 31
0.0
  0
LINE
  5
609
330
5F0
100
AcDbEntity
  8
LC-003-005-----0
 62
     7
370
    25
100
AcDbLine
 10
187.568428
 20
270.636767
 30
0.0
 11
185.308053
 21
272.897142
 31
0.0
  0
LINE
  5
60A
330
5F0
100
AcDbEntity
  8
LC-003-005-----0
  6
DASHED
 62
     7
370
    25
100
AcDbLine
 10
278.574163
 20
171.14575
 30
0.0
 11
277.568428
 21
172.151485
 31
0.0
  0
LINE
  5
60B
330
5F0
100
AcDbEntity
  8
LC-003-005-----0
  6
DASHED
 62
     7
370
    25
100
AcDbLine
 10
187.568428
 20
262.151485
 30
0.0
 11
186.564452
 21
263.155461
 31
0.0
  0
LINE
  5
60C
330
5F0
100
AcDbEntity
  8
LC-003-005-----0
  6
DASHED
 62
     7
370
    25
100
AcDbLine
 10
284.786218
 20
160.691054
 30
0.0
 11
283.551622
 21
161.925651
 31
0.0
  0
LINE
  5
60D
330
5F0
100
AcDbEntity
  8
LC-003-005-----0
  6
DASHED
 62
     7
370
    25
100
AcDbLine
 10
278.572403
 20
166.904869
 30
0.0
 11
277.568428
 21
167.908845
 31
0.0
  0
LINE
  5
60E
330
5F0
100
AcDbEntity
  8
LC-003-005-----0
  6
DASHED
 62
     7
370
    25
100
AcDbLine
 10
187.568428
 20
257.908845
 30
0.0
 11
184.910296
 21
260.566976
 31
0.0
  0
LINE
  5
60F
330
5F0
100
AcDbEntity
  8
LC-003-005-----0
 62
     7
370
    25
100
AcDbLine
 10
278.572403
 20
158.419588
 30
0.0
 11
277.568428
 21
159.423563
 31
0.0
  0
LINE
  5
610
330
5F0
100
AcDbEntity
  8
LC-003-005-----0
 62
     7
370
    25
100
AcDbLine
 10
187.568428
 20
249.423563
 30
0.0
 11
186.564452
 21
250.427539
 31
0.0
  0
LINE
  5
611
330
5F0
100
AcDbEntity
  8
LC-003-005-----0
 62
     7
370
    25
100
AcDbLine
 10
284.448084
 20
148.301266
 30
0.0
 11
283.153865
 21
149.595485
 31
0.0
  0
LINE
  5
612
330
5F0
100
AcDbEntity
  8
LC-003-005-----0
 62
     7
370
    25
100
AcDbLine
 10
278.572403
 20
154.176947
 30
0.0
 11
277.568428
 21
155.180923
 31
0.0
  0
LINE
  5
613
330
5F0
100
AcDbEntity
  8
LC-003-005-----0
 62
     7
370
    25
100
AcDbLine
 10
187.568428
 20
245.180923
 30
0.0
 11
184.51254
 21
248.23681
 31
0.0
  0
LINE
  5
614
330
5F0
100
AcDbEntity
  8
LC-003-005-----0
  6
DASHED
 62
     7
370
    25
100
AcDbLine
 10
278.572403
 20
145.691666
 30
0.0
 11
277.568428
 21
146.695641
 31
0.0
  0
LINE
  5
615
330
5F0
100
AcDbEntity
  8
LC-003-005-----0
  6
DASHED
 62
     7
370
    25
100
AcDbLine
 10
187.568428
 20
236.695641
 30
0.0
 11
186.564452
 21
237.699617
 31
0.0
  0
LINE
  5
616
330
5F0
100
AcDbEntity
  8
LC-003-005-----0
  6
DASHED
 62
     7
370
    25
100
AcDbLine
 10
284.10995
 20
135.911478
 30
0.0
 11
282.756109
 21
137.265319
 31
0.0
  0
LINE
  5
617
330
5F0
100
AcDbEntity
  8
LC-003-005-----0
  6
DASHED
 62
     7
370
    25
100
AcDbLine
 10
278.572403
 20
141.449025
 30
0.0
 11
277.568428
 21
142.453
 31
0.0
  0
LINE
  5
618
330
5F0
100
AcDbEntity
  8
LC-003-005-----0
  6
DASHED
 62
     7
370
    25
100
AcDbLine
 10
187.568428
 20
232.453
 30
0.0
 11
184.114783
 21
235.906645
 31
0.0
  0
LINE
  5
619
330
5F0
100
AcDbEntity
  8
LC-003-005-----0
 62
     7
370
    25
100
AcDbLine
 10
278.572403
 20
132.963743
 30
0.0
 11
277.568428
 21
133.967719
 31
0.0
  0
LINE
  5
61A
330
5F0
100
AcDbEntity
  8
LC-003-005-----0
 62
     7
370
    25
100
AcDbLine
 10
187.568428
 20
223.967719
 30
0.0
 11
186.564452
 21
224.971695
 31
0.0
  0
LINE
  5
61B
330
5F0
100
AcDbEntity
  8
LC-003-005-----0
 62
     7
370
    25
100
AcDbLine
 10
283.771816
 20
123.52169
 30
0.0
 11
282.358352
 21
124.935154
 31
0.0
  0
LINE
  5
61C
330
5F0
100
AcDbEntity
  8
LC-003-005-----0
 62
     7
370
    25
100
AcDbLine
 10
278.572403
 20
128.721103
 30
0.0
 11
277.568428
 21
129.725078
 31
0.0
  0
LINE
  5
61D
330
5F0
100
AcDbEntity
  8
LC-003-005-----0
 62
     7
370
    25
100
AcDbLine
 10
187.568428
 20
219.725078
 30
0.0
 11
186.476661
 21
220.816845
 31
0.0
  0
LINE
  5
61E
330
5F0
100
AcDbEntity
  8
LC-003-005-----0
 62
     7
370
    25
100
AcDbLine
 10
185.974178
 20
221.319328
 30
0.0
 11
183.717027
 21
223.576479
 31
0.0
  0
LINE
  5
61F
330
5F0
100
AcDbEntity
  8
LC-003-005-----0
  6
DASHED
 62
     7
370
    25
100
AcDbLine
 10
286.548339
 20
112.259885
 30
0.0
 11
286.227835
 21
112.58039
 31
0.0
  0
LINE
  5
620
330
5F0
100
AcDbEntity
  8
LC-003-005-----0
  6
DASHED
 62
     7
370
    25
100
AcDbLine
 10
278.572403
 20
120.235821
 30
0.0
 11
277.568428
 21
121.239797
 31
0.0
  0
LINE
  5
621
330
5F0
100
AcDbEntity
  8
LC-003-005-----0
  6
DASHED
 62
     7
370
    25
100
AcDbLine
 10
187.568428
 20
211.239797
 30
0.0
 11
186.564452
 21
212.243773
 31
0.0
  0
LINE
  5
622
330
5F0
100
AcDbEntity
  8
LC-003-005-----0
  6
DASHED
 62
     7
370
    25
100
AcDbLine
 10
283.433681
 20
111.131903
 30
0.0
 11
281.960596
 21
112.604988
 31
0.0
  0
LINE
  5
623
330
5F0
100
AcDbEntity
  8
LC-003-005-----0
  6
DASHED
 62
     7
370
    25
100
AcDbLine
 10
278.572403
 20
115.993181
 30
0.0
 11
277.568428
 21
116.997156
 31
0.0
  0
LINE
  5
624
330
5F0
100
AcDbEntity
  8
LC-003-005-----0
  6
DASHED
 62
     7
370
    25
100
AcDbLine
 10
187.568428
 20
206.997156
 30
0.0
 11
186.564452
 21
208.001132
 31
0.0
  0
LINE
  5
625
330
5F0
100
AcDbEntity
  8
LC-003-005-----0
  6
DASHED
 62
     7
370
    25
100
AcDbLine
 10
185.45367
 20
209.111914
 30
0.0
 11
183.319271
 21
211.246313
 31
0.0
  0
LINE
  5
626
330
5F0
100
AcDbEntity
  8
LC-003-005-----0
 62
     7
370
    25
100
AcDbLine
 10
286.523097
 20
99.557206
 30
0.0
 11
285.80548
 21
100.274822
 31
0.0
  0
LINE
  5
627
330
5F0
100
AcDbEntity
  8
LC-003-005-----0
 62
     7
370
    25
100
AcDbLine
 10
278.572403
 20
107.507899
 30
0.0
 11
277.568428
 21
108.511875
 31
0.0
  0
LINE
  5
628
330
5F0
100
AcDbEntity
  8
LC-003-005-----0
 62
     7
370
    25
100
AcDbLine
 10
187.568428
 20
198.511875
 30
0.0
 11
186.564452
 21
199.515851
 31
0.0
  0
LINE
  5
629
330
5F0
100
AcDbEntity
  8
LC-003-005-----0
 62
     7
370
    25
100
AcDbLine
 10
283.095547
 20
98.742115
 30
0.0
 11
281.56284
 21
100.274822
 31
0.0
  0
LINE
  5
62A
330
5F0
100
AcDbEntity
  8
LC-003-005-----0
 62
     7
370
    25
100
AcDbLine
 10
278.572403
 20
103.265259
 30
0.0
 11
277.568428
 21
104.269234
 31
0.0
  0
LINE
  5
62B
330
5F0
100
AcDbEntity
  8
LC-003-005-----0
 62
     7
370
    25
100
AcDbLine
 10
187.568428
 20
194.269234
 30
0.0
 11
186.564452
 21
195.27321
 31
0.0
  0
LINE
  5
62C
330
5F0
100
AcDbEntity
  8
LC-003-005-----0
 62
     7
370
    25
100
AcDbLine
 10
184.970764
 20
196.866898
 30
0.0
 11
182.921514
 21
198.916148
 31
0.0
  0
LINE
  5
62D
330
5F0
100
AcDbEntity
  8
LC-003-005-----0
  6
DASHED
 62
     7
370
    25
100
AcDbLine
 10
286.334098
 20
87.018282
 30
0.0
 11
285.407724
 21
87.944657
 31
0.0
  0
LINE
  5
62E
330
5F0
100
AcDbEntity
  8
LC-003-005-----0
  6
DASHED
 62
     7
370
    25
100
AcDbLine
 10
278.572403
 20
94.779977
 30
0.0
 11
277.568428
 21
95.783953
 31
0.0
  0
LINE
  5
62F
330
5F0
100
AcDbEntity
  8
LC-003-005-----0
  6
DASHED
 62
     7
370
    25
100
AcDbLine
 10
187.568428
 20
185.783953
 30
0.0
 11
186.504253
 21
186.848127
 31
0.0
  0
LINE
  5
630
330
5F0
100
AcDbEntity
  8
LC-003-005-----0
  6
DASHED
 62
     7
370
    25
100
AcDbLine
 10
282.757413
 20
86.352327
 30
0.0
 11
281.165083
 21
87.944657
 31
0.0
  0
LINE
  5
631
330
5F0
100
AcDbEntity
  8
LC-003-005-----0
  6
DASHED
 62
     7
370
    25
100
AcDbLine
 10
278.572403
 20
90.537337
 30
0.0
 11
277.568428
 21
91.541312
 31
0.0
  0
LINE
  5
632
330
5F0
100
AcDbEntity
  8
LC-003-005-----0
  6
DASHED
 62
     7
370
    25
100
AcDbLine
 10
187.568428
 20
181.541312
 30
0.0
 11
186.564452
 21
182.545288
 31
0.0
  0
LINE
  5
633
330
5F0
100
AcDbEntity
  8
LC-003-005-----0
  6
DASHED
 62
     7
370
    25
100
AcDbLine
 10
184.487858
 20
184.621881
 30
0.0
 11
182.523758
 21
186.585982
 31
0.0
  0
LINE
  5
634
330
5F0
100
AcDbEntity
  8
LC-003-005-----0
 62
     7
370
    25
100
AcDbLine
 10
286.025964
 20
74.598495
 30
0.0
 11
285.009967
 21
75.614491
 31
0.0
  0
LINE
  5
635
330
5F0
100
AcDbEntity
  8
LC-003-005-----0
 62
     7
370
    25
100
AcDbLine
 10
278.572403
 20
82.052055
 30
0.0
 11
277.568428
 21
83.056031
 31
0.0
  0
LINE
  5
636
330
5F0
100
AcDbEntity
  8
LC-003-005-----0
 62
     7
370
    25
100
AcDbLine
 10
187.568428
 20
173.056031
 30
0.0
 11
186.306274
 21
174.318184
 31
0.0
  0
LINE
  5
637
330
5F0
100
AcDbEntity
  8
LC-003-005-----0
 62
     7
370
    25
100
AcDbLine
 10
282.419279
 20
73.962539
 30
0.0
 11
280.767327
 21
75.614491
 31
0.0
  0
LINE
  5
638
330
5F0
100
AcDbEntity
  8
LC-003-005-----0
 62
     7
370
    25
100
AcDbLine
 10
278.572403
 20
77.809415
 30
0.0
 11
277.568428
 21
78.81339
 31
0.0
  0
LINE
  5
639
330
5F0
100
AcDbEntity
  8
LC-003-005-----0
 62
     7
370
    25
100
AcDbLine
 10
187.568428
 20
168.81339
 30
0.0
 11
186.564452
 21
169.817366
 31
0.0
  0
LINE
  5
63A
330
5F0
100
AcDbEntity
  8
LC-003-005-----0
 62
     7
370
    25
100
AcDbLine
 10
184.004953
 20
172.376865
 30
0.0
 11
182.126001
 21
174.255816
 31
0.0
  0
LINE
  5
63B
330
5F0
100
AcDbEntity
  8
LC-003-005-----0
  6
DASHED
 62
     7
370
    25
100
AcDbLine
 10
285.687829
 20
62.208707
 30
0.0
 11
284.612211
 21
63.284325
 31
0.0
  0
LINE
  5
63C
330
5F0
100
AcDbEntity
  8
LC-003-005-----0
  6
DASHED
 62
     7
370
    25
100
AcDbLine
 10
278.572403
 20
69.324133
 30
0.0
 11
277.568428
 21
70.328109
 31
0.0
  0
LINE
  5
63D
330
5F0
100
AcDbEntity
  8
LC-003-005-----0
  6
DASHED
 62
     7
370
    25
100
AcDbLine
 10
187.568428
 20
160.328109
 30
0.0
 11
185.970886
 21
161.925651
 31
0.0
  0
LINE
  5
63E
330
5F0
100
AcDbEntity
  8
LC-003-005-----0
  6
DASHED
 62
     7
370
    25
100
AcDbLine
 10
282.081145
 20
61.572751
 30
0.0
 11
280.36957
 21
63.284325
 31
0.0
  0
LINE
  5
63F
330
5F0
100
AcDbEntity
  8
LC-003-005-----0
  6
DASHED
 62
     7
370
    25
100
AcDbLine
 10
278.572403
 20
65.081492
 30
0.0
 11
277.568428
 21
66.085468
 31
0.0
  0
LINE
  5
640
330
5F0
100
AcDbEntity
  8
LC-003-005-----0
  6
DASHED
 62
     7
370
    25
100
AcDbLine
 10
187.568428
 20
156.085468
 30
0.0
 11
186.564452
 21
157.089444
 31
0.0
  0
LINE
  5
641
330
5F0
100
AcDbEntity
  8
LC-003-005-----0
  6
DASHED
 62
     7
370
    25
100
AcDbLine
 10
183.522047
 20
160.131849
 30
0.0
 11
181.728245
 21
161.925651
 31
0.0
  0
LINE
  5
642
330
5F0
100
AcDbEntity
  8
LC-003-005-----0
 62
     7
370
    25
100
AcDbLine
 10
285.349695
 20
49.818919
 30
0.0
 11
284.214455
 21
50.95416
 31
0.0
  0
LINE
  5
643
330
5F0
100
AcDbEntity
  8
LC-003-005-----0
 62
     7
370
    25
100
AcDbLine
 10
278.572403
 20
56.596211
 30
0.0
 11
277.568428
 21
57.600187
 31
0.0
  0
LINE
  5
644
330
5F0
100
AcDbEntity
  8
LC-003-005-----0
 62
     7
370
    25
100
AcDbLine
 10
187.568428
 20
147.600187
 30
0.0
 11
185.573129
 21
149.595485
 31
0.0
  0
LINE
  5
645
330
5F0
100
AcDbEntity
  8
LC-003-005-----0
 62
     7
370
    25
100
AcDbLine
 10
281.74301
 20
49.182963
 30
0.0
 11
279.971814
 21
50.95416
 31
0.0
  0
LINE
  5
646
330
5F0
100
AcDbEntity
  8
LC-003-005-----0
 62
     7
370
    25
100
AcDbLine
 10
278.572403
 20
52.35357
 30
0.0
 11
277.568428
 21
53.357546
 31
0.0
  0
LINE
  5
647
330
5F0
100
AcDbEntity
  8
LC-003-005-----0
 62
     7
370
    25
100
AcDbLine
 10
187.568428
 20
143.357546
 30
0.0
 11
186.564452
 21
144.361522
 31
0.0
  0
LINE
  5
648
330
5F0
100
AcDbEntity
  8
LC-003-005-----0
 62
     7
370
    25
100
AcDbLine
 10
183.039141
 20
147.886832
 30
0.0
 11
181.330489
 21
149.595485
 31
0.0
  0
LINE
  5
649
330
5F0
100
AcDbEntity
  8
LC-003-005-----0
  6
DASHED
 62
     7
370
    25
100
AcDbLine
 10
285.011561
 20
37.429131
 30
0.0
 11
283.816698
 21
38.623994
 31
0.0
  0
LINE
  5
64A
330
5F0
100
AcDbEntity
  8
LC-003-005-----0
  6
DASHED
 62
     7
370
    25
100
AcDbLine
 10
278.572403
 20
43.868289
 30
0.0
 11
277.568428
 21
44.872265
 31
0.0
  0
LINE
  5
64B
330
5F0
100
AcDbEntity
  8
LC-003-005-----0
  6
DASHED
 62
     7
370
    25
100
AcDbLine
 10
187.568428
 20
134.872265
 30
0.0
 11
185.175373
 21
137.265319
 31
0.0
  0
LINE
  5
64C
330
5F0
100
AcDbEntity
  8
LC-003-005-----0
  6
DASHED
 62
     7
370
    25
100
AcDbLine
 10
281.404876
 20
36.793175
 30
0.0
 11
279.574058
 21
38.623994
 31
0.0
  0
LINE
  5
64D
330
5F0
100
AcDbEntity
  8
LC-003-005-----0
  6
DASHED
 62
     7
370
    25
100
AcDbLine
 10
278.572403
 20
39.625648
 30
0.0
 11
277.568428
 21
40.629624
 31
0.0
  0
LINE
  5
64E
330
5F0
100
AcDbEntity
  8
LC-003-005-----0
  6
DASHED
 62
     7
370
    25
100
AcDbLine
 10
187.568428
 20
130.629624
 30
0.0
 11
186.564452
 21
131.6336
 31
0.0
  0
LINE
  5
64F
330
5F0
100
AcDbEntity
  8
LC-003-005-----0
  6
DASHED
 62
     7
370
    25
100
AcDbLine
 10
182.556235
 20
135.641816
 30
0.0
 11
180.932732
 21
137.265319
 31
0.0
  0
LINE
  5
650
330
5F0
100
AcDbEntity
  8
LC-003-005-----0
 62
     7
370
    25
100
AcDbLine
 10
284.673427
 20
25.039343
 30
0.0
 11
283.418942
 21
26.293828
 31
0.0
  0
LINE
  5
651
330
5F0
100
AcDbEntity
  8
LC-003-005-----0
 62
     7
370
    25
100
AcDbLine
 10
278.572403
 20
31.140367
 30
0.0
 11
277.568428
 21
32.144343
 31
0.0
  0
LINE
  5
652
330
5F0
100
AcDbEntity
  8
LC-003-005-----0
 62
     7
370
    25
100
AcDbLine
 10
187.568428
 20
122.144343
 30
0.0
 11
184.777617
 21
124.935154
 31
0.0
  0
LINE
  5
653
330
5F0
100
AcDbEntity
  8
LC-003-005-----0
 62
     7
370
    25
100
AcDbLine
 10
281.066742
 20
24.403388
 30
0.0
 11
279.176301
 21
26.293828
 31
0.0
  0
LINE
  5
654
330
5F0
100
AcDbEntity
  8
LC-003-005-----0
 62
     7
370
    25
100
AcDbLine
 10
278.572403
 20
26.897726
 30
0.0
 11
277.568428
 21
27.901702
 31
0.0
  0
LINE
  5
655
330
5F0
100
AcDbEntity
  8
LC-003-005-----0
 62
     7
370
    25
100
AcDbLine
 10
187.568428
 20
117.901702
 30
0.0
 11
186.564452
 21
118.905678
 31
0.0
  0
LINE
  5
656
330
5F0
100
AcDbEntity
  8
LC-003-005-----0
 62
     7
370
    25
100
AcDbLine
 10
182.07333
 20
123.3968
 30
0.0
 11
180.534976
 21
124.935154
 31
0.0
  0
LINE
  5
657
330
5F0
100
AcDbEntity
  8
LC-003-005-----0
  6
DASHED
 62
     7
370
    25
100
AcDbLine
 10
284.335292
 20
12.649556
 30
0.0
 11
283.021185
 21
13.963663
 31
0.0
  0
LINE
  5
658
330
5F0
100
AcDbEntity
  8
LC-003-005-----0
  6
DASHED
 62
     7
370
    25
100
AcDbLine
 10
278.572403
 20
18.412445
 30
0.0
 11
277.568428
 21
19.416421
 31
0.0
  0
LINE
  5
659
330
5F0
100
AcDbEntity
  8
LC-003-005-----0
  6
DASHED
 62
     7
370
    25
100
AcDbLine
 10
187.568428
 20
109.416421
 30
0.0
 11
184.37986
 21
112.604988
 31
0.0
  0
LINE
  5
65A
330
5F0
100
AcDbEntity
  8
LC-003-005-----0
  6
DASHED
 62
     7
370
    25
100
AcDbLine
 10
280.728608
 20
12.0136
 30
0.0
 11
277.568428
 21
15.17378
 31
0.0
  0
LINE
  5
65B
330
5F0
100
AcDbEntity
  8
LC-003-005-----0
  6
DASHED
 62
     7
370
    25
100
AcDbLine
 10
187.568428
 20
105.17378
 30
0.0
 11
186.564452
 21
106.177755
 31
0.0
  0
LINE
  5
65C
330
5F0
100
AcDbEntity
  8
LC-003-005-----0
  6
DASHED
 62
     7
370
    25
100
AcDbLine
 10
181.590424
 20
111.151783
 30
0.0
 11
180.137219
 21
112.604988
 31
0.0
  0
LINE
  5
65D
330
5F0
100
AcDbEntity
  8
LC-003-005-----0
 62
     7
370
    25
100
AcDbLine
 10
283.997158
 20
0.259768
 30
0.0
 11
282.623429
 21
1.633497
 31
0.0
  0
LINE
  5
65E
330
5F0
100
AcDbEntity
  8
LC-003-005-----0
 62
     7
370
    25
100
AcDbLine
 10
278.572403
 20
5.684523
 30
0.0
 11
277.568428
 21
6.688498
 31
0.0
  0
LINE
  5
65F
330
5F0
100
AcDbEntity
  8
LC-003-005-----0
 62
     7
370
    25
100
AcDbLine
 10
187.568428
 20
96.688498
 30
0.0
 11
183.982104
 21
100.274822
 31
0.0
  0
LINE
  5
660
330
5F0
100
AcDbEntity
  8
LC-003-005-----0
 62
     7
370
    25
100
AcDbLine
 10
280.390473
 20
-0.376188
 30
0.0
 11
277.568428
 21
2.445858
 31
0.0
  0
LINE
  5
661
330
5F0
100
AcDbEntity
  8
LC-003-005-----0
 62
     7
370
    25
100
AcDbLine
 10
187.568428
 20
92.445858
 30
0.0
 11
186.564452
 21
93.449833
 31
0.0
  0
LINE
  5
662
330
5F0
100
AcDbEntity
  8
LC-003-005-----0
 62
     7
370
    25
100
AcDbLine
 10
181.107518
 20
98.906767
 30
0.0
 11
179.739463
 21
100.274822
 31
0.0
  0
LINE
  5
663
330
5F0
100
AcDbEntity
  8
LC-003-005-----0
  6
DASHED
 62
     7
370
    25
100
AcDbLine
 10
283.659024
 20
-12.13002
 30
0.0
 11
282.225673
 21
-10.696669
 31
0.0
  0
LINE
  5
664
330
5F0
100
AcDbEntity
  8
LC-003-005-----0
  6
DASHED
 62
     7
370
    25
100
AcDbLine
 10
278.572403
 20
-7.043399
 30
0.0
 11
277.568428
 21
-6.039424
 31
0.0
  0
LINE
  5
665
330
5F0
100
AcDbEntity
  8
LC-003-005-----0
  6
DASHED
 62
     7
370
    25
100
AcDbLine
 10
187.568428
 20
83.960576
 30
0.0
 11
186.541726
 21
84.987278
 31
0.0
  0
LINE
  5
666
330
5F0
100
AcDbEntity
  8
LC-003-005-----0
  6
DASHED
 62
     7
370
    25
100
AcDbLine
 10
185.776433
 20
85.752571
 30
0.0
 11
183.584347
 21
87.944657
 31
0.0
  0
LINE
  5
667
330
5F0
100
AcDbEntity
  8
LC-003-005-----0
  6
DASHED
 62
     7
370
    25
100
AcDbLine
 10
280.052339
 20
-12.765976
 30
0.0
 11
277.568428
 21
-10.282064
 31
0.0
  0
LINE
  5
668
330
5F0
100
AcDbEntity
  8
LC-003-005-----0
  6
DASHED
 62
     7
370
    25
100
AcDbLine
 10
187.568428
 20
79.717936
 30
0.0
 11
186.564452
 21
80.721911
 31
0.0
  0
LINE
  5
669
330
5F0
100
AcDbEntity
  8
LC-003-005-----0
  6
DASHED
 62
     7
370
    25
100
AcDbLine
 10
180.624613
 20
86.661751
 30
0.0
 11
179.341707
 21
87.944657
 31
0.0
  0
LINE
  5
66A
330
5F0
100
AcDbEntity
  8
LC-003-005-----0
 62
     7
370
    25
100
AcDbLine
 10
283.32089
 20
-24.519808
 30
0.0
 11
281.827916
 21
-23.026834
 31
0.0
  0
LINE
  5
66B
330
5F0
100
AcDbEntity
  8
LC-003-005-----0
 62
     7
370
    25
100
AcDbLine
 10
278.572403
 20
-19.771321
 30
0.0
 11
277.568428
 21
-18.767346
 31
0.0
  0
LINE
  5
66C
330
5F0
100
AcDbEntity
  8
LC-003-005-----0
 62
     7
370
    25
100
AcDbLine
 10
187.568428
 20
71.232654
 30
0.0
 11
186.564452
 21
72.23663
 31
0.0
  0
LINE
  5
66D
330
5F0
100
AcDbEntity
  8
LC-003-005-----0
 62
     7
370
    25
100
AcDbLine
 10
185.292587
 20
73.508495
 30
0.0
 11
183.186591
 21
75.614491
 31
0.0
  0
LINE
  5
66E
330
5F0
100
AcDbEntity
  8
LC-003-005-----0
 62
     7
370
    25
100
AcDbLine
 10
279.714205
 20
-25.155764
 30
0.0
 11
277.568428
 21
-23.009986
 31
0.0
  0
LINE
  5
66F
330
5F0
100
AcDbEntity
  8
LC-003-005-----0
 62
     7
370
    25
100
AcDbLine
 10
187.568428
 20
66.990014
 30
0.0
 11
186.564452
 21
67.993989
 31
0.0
  0
LINE
  5
670
330
5F0
100
AcDbEntity
  8
LC-003-005-----0
 62
     7
370
    25
100
AcDbLine
 10
180.141707
 20
74.416734
 30
0.0
 11
178.955783
 21
75.602658
 31
0.0
  0
LINE
  5
671
330
5F0
100
AcDbEntity
  8
LC-003-005-----0
  6
DASHED
 62
     7
370
    25
100
AcDbLine
 10
187.568428
 20
58.504732
 30
0.0
 11
186.564452
 21
59.508708
 31
0.0
  0
LINE
  5
672
330
5F0
100
AcDbEntity
  8
LC-003-005-----0
  6
DASHED
 62
     7
370
    25
100
AcDbLine
 10
184.809681
 20
61.263479
 30
0.0
 11
182.788835
 21
63.284325
 31
0.0
  0
LINE
  5
673
330
5F0
100
AcDbEntity
  8
LC-003-005-----0
  6
DASHED
 62
     7
370
    25
100
AcDbLine
 10
187.568428
 20
54.262092
 30
0.0
 11
186.564452
 21
55.266067
 31
0.0
  0
LINE
  5
674
330
5F0
100
AcDbEntity
  8
LC-003-005-----0
  6
DASHED
 62
     7
370
    25
100
AcDbLine
 10
179.658801
 20
62.171718
 30
0.0
 11
178.701613
 21
63.128906
 31
0.0
  0
LINE
  5
675
330
5F0
100
AcDbEntity
  8
LC-003-005-----0
 62
     7
370
    25
100
AcDbLine
 10
187.568428
 20
45.77681
 30
0.0
 11
186.564452
 21
46.780786
 31
0.0
  0
LINE
  5
676
330
5F0
100
AcDbEntity
  8
LC-003-005-----0
 62
     7
370
    25
100
AcDbLine
 10
184.326775
 20
49.018462
 30
0.0
 11
182.391078
 21
50.95416
 31
0.0
  0
LINE
  5
677
330
5F0
100
AcDbEntity
  8
LC-003-005-----0
 62
     7
370
    25
100
AcDbLine
 10
187.568428
 20
41.53417
 30
0.0
 11
186.564452
 21
42.538145
 31
0.0
  0
LINE
  5
678
330
5F0
100
AcDbEntity
  8
LC-003-005-----0
 62
     7
370
    25
100
AcDbLine
 10
179.175896
 20
49.926702
 30
0.0
 11
178.570093
 21
50.532504
 31
0.0
  0
LINE
  5
679
330
5F0
100
AcDbEntity
  8
LC-003-005-----0
  6
DASHED
 62
     7
370
    25
100
AcDbLine
 10
187.568428
 20
33.048888
 30
0.0
 11
186.564452
 21
34.052864
 31
0.0
  0
LINE
  5
67A
330
5F0
100
AcDbEntity
  8
LC-003-005-----0
  6
DASHED
 62
     7
370
    25
100
AcDbLine
 10
183.84387
 20
36.773446
 30
0.0
 11
181.993322
 21
38.623994
 31
0.0
  0
LINE
  5
67B
330
5F0
100
AcDbEntity
  8
LC-003-005-----0
  6
DASHED
 62
     7
370
    25
100
AcDbLine
 10
187.568428
 20
28.806247
 30
0.0
 11
186.564452
 21
29.810223
 31
0.0
  0
LINE
  5
67C
330
5F0
100
AcDbEntity
  8
LC-003-005-----0
 62
     7
370
    25
100
AcDbLine
 10
187.568428
 20
20.320966
 30
0.0
 11
186.564452
 21
21.324942
 31
0.0
  0
LINE
  5
67D
330
5F0
100
AcDbEntity
  8
LC-003-005-----0
 62
     7
370
    25
100
AcDbLine
 10
183.360964
 20
24.52843
 30
0.0
 11
181.595565
 21
26.293828
 31
0.0
  0
LINE
  5
67E
330
5F0
100
AcDbEntity
  8
LC-003-005-----0
 62
     7
370
    25
100
AcDbLine
 10
187.568428
 20
16.078325
 30
0.0
 11
186.564452
 21
17.082301
 31
0.0
  0
LINE
  5
67F
330
5F0
100
AcDbEntity
  8
LC-003-005-----0
  6
DASHED
 62
     7
370
    25
100
AcDbLine
 10
187.568428
 20
7.593044
 30
0.0
 11
186.564452
 21
8.59702
 31
0.0
  0
LINE
  5
680
330
5F0
100
AcDbEntity
  8
LC-003-005-----0
  6
DASHED
 62
     7
370
    25
100
AcDbLine
 10
182.878058
 20
12.283413
 30
0.0
 11
181.197809
 21
13.963663
 31
0.0
  0
LINE
  5
681
330
5F0
100
AcDbEntity
  8
LC-003-005-----0
  6
DASHED
 62
     7
370
    25
100
AcDbLine
 10
187.568428
 20
3.350403
 30
0.0
 11
186.564452
 21
4.354379
 31
0.0
  0
LINE
  5
682
330
5F0
100
AcDbEntity
  8
LC-003-005-----0
 62
     7
370
    25
100
AcDbLine
 10
187.568428
 20
-5.134878
 30
0.0
 11
186.564452
 21
-4.130902
 31
0.0
  0
LINE
  5
683
330
5F0
100
AcDbEntity
  8
LC-003-005-----0
 62
     7
370
    25
100
AcDbLine
 10
182.395152
 20
0.038397
 30
0.0
 11
180.800053
 21
1.633497
 31
0.0
  0
LINE
  5
684
330
5F0
100
AcDbEntity
  8
LC-003-005-----0
 62
     7
370
    25
100
AcDbLine
 10
187.568428
 20
-9.377519
 30
0.0
 11
186.564452
 21
-8.373543
 31
0.0
  0
LINE
  5
685
330
5F0
100
AcDbEntity
  8
LC-003-005-----0
  6
DASHED
 62
     7
370
    25
100
AcDbLine
 10
187.568428
 20
-17.8628
 30
0.0
 11
186.564452
 21
-16.858824
 31
0.0
  0
LINE
  5
686
330
5F0
100
AcDbEntity
  8
LC-003-005-----0
  6
DASHED
 62
     7
370
    25
100
AcDbLine
 10
181.912247
 20
-12.206619
 30
0.0
 11
180.402296
 21
-10.696669
 31
0.0
  0
LINE
  5
687
330
5F0
100
AcDbEntity
  8
LC-003-005-----0
  6
DASHED
 62
     7
370
    25
100
AcDbLine
 10
187.568428
 20
-22.105441
 30
0.0
 11
186.564452
 21
-21.101465
 31
0.0
  0
LINE
  5
688
330
5F0
100
AcDbEntity
  8
LC-003-005-----0
 62
     7
370
    25
100
AcDbLine
 10
181.429341
 20
-24.451636
 30
0.0
 11
180.00454
 21
-23.026834
 31
0.0
  0
ENDBLK
  5
5F2
330
5F0
100
AcDbEntity
  8
0
100
AcDbBlockEnd
  0
BLOCK
  5
696
330
68C
100
AcDbEntity
  8
0
100
AcDbBlockBegin
  2
*D25
 70
     1
 71
     0
 10
0.0
 20
0.0
 30
0.0
  3
*D25
  1

  0
LINE
  5
68D
330
68C
100
AcDbEntity
  8
LC-006-003-----0
 62
     2
370
    -2
100
AcDbLine
 10
276.31339
 20
-37.084
 30
0.0
 11
346.228715
 21
-37.084
 31
0.0
  0
LINE
  5
68E
330
68C
100
AcDbEntity
  8
LC-006-003-----0
 62
     2
370
    -2
100
AcDbLine
 10
285.976272
 20
272.89597
 30
0.0
 11
346.228715
 21
272.89597
 31
0.0
  0
LINE
  5
68F
330
68C
100
AcDbEntity
  8
LC-006-003-----0
 62
     2
370
    -2
100
AcDbLine
 10
342.628715
 20
-9.084
 30
0.0
 11
342.628715
 21
244.89597
 31
0.0
  0
SOLID
  5
690
330
68C
100
AcDbEntity
  8
LC-006-003-----0
 62
     2
100
AcDbTrace
 10
337.962048
 20
-9.084
 30
0.0
 11
347.295381
 21
-9.084
 31
0.0
 12
342.628715
 22
-37.084
 32
0.0
 13
342.628715
 23
-37.084
 33
0.0
  0
SOLID
  5
691
330
68C
100
AcDbEntity
  8
LC-006-003-----0
 62
     2
100
AcDbTrace
 10
347.295381
 20
244.89597
 30
0.0
 11
337.962048
 21
244.89597
 31
0.0
 12
342.628715
 22
272.89597
 32
0.0
 13
342.628715
 23
272.89597
 33
0.0
  0
MTEXT
  5
692
330
68C
100
AcDbEntity
  8
LC-006-003-----0
 62
     2
100
AcDbMText
 10
311.828715
 20
117.905985
 30
0.0
 40
28.0
 41
0.0
 71
     5
 72
     1
  1
\A1;310
  7
LCTX15-400-0-0pDIN-Schrift
 11
6.123031769111886E-17
 21
1.0
 31
0.0
 73
     1
 44
1.0
  0
POINT
  5
693
330
68C
100
AcDbEntity
  8
Defpoints
 62
     0
100
AcDbPoint
 10
276.31339
 20
-37.084
 30
0.0
  0
POINT
  5
694
330
68C
100
AcDbEntity
  8
Defpoints
 62
     0
100
AcDbPoint
 10
285.976272
 20
272.89597
 30
0.0
  0
POINT
  5
695
330
68C
100
AcDbEntity
  8
Defpoints
 62
     0
100
AcDbPoint
 10
342.628715
 20
272.89597
 30
0.0
  0
ENDBLK
  5
697
330
68C
100
AcDbEntity
  8
0
100
AcDbBlockEnd
  0
BLOCK
  5
6A3
330
699
100
AcDbEntity
  8
0
100
AcDbBlockBegin
  2
*D26
 70
     1
 71
     0
 10
0.0
 20
0.0
 30
0.0
  3
*D26
  1

  0
LINE
  5
69A
330
699
100
AcDbEntity
  8
LC-006-003-----0
 62
     2
370
    -2
100
AcDbLine
 10
178.563917
 20
-23.526834
 30
0.0
 11
178.563917
 21
-153.036984
 31
0.0
  0
LINE
  5
69B
330
699
100
AcDbEntity
  8
LC-006-003-----0
 62
     2
370
    -2
100
AcDbLine
 10
286.572938
 20
-23.526834
 30
0.0
 11
286.572938
 21
-153.036984
 31
0.0
  0
LINE
  5
69C
330
699
100
AcDbEntity
  8
LC-006-003-----0
 62
     2
370
    -2
100
AcDbLine
 10
206.563917
 20
-149.436984
 30
0.0
 11
258.572938
 21
-149.436984
 31
0.0
  0
SOLID
  5
69D
330
699
100
AcDbEntity
  8
LC-006-003-----0
 62
     2
100
AcDbTrace
 10
206.563917
 20
-144.770317
 30
0.0
 11
206.563917
 21
-154.103651
 31
0.0
 12
178.563917
 22
-149.436984
 32
0.0
 13
178.563917
 23
-149.436984
 33
0.0
  0
SOLID
  5
69E
330
699
100
AcDbEntity
  8
LC-006-003-----0
 62
     2
100
AcDbTrace
 10
258.572938
 20
-154.103651
 30
0.0
 11
258.572938
 21
-144.770317
 31
0.0
 12
286.572938
 22
-149.436984
 32
0.0
 13
286.572938
 23
-149.436984
 33
0.0
  0
MTEXT
  5
69F
330
699
100
AcDbEntity
  8
LC-006-003-----0
 62
     2
100
AcDbMText
 10
229.010157
 20
-118.636984
 30
0.0
 40
28.0
 41
0.0
 71
     5
 72
     1
  1
%%c\A1;108
  7
LCTX15-400-0-0pDIN-Schrift
 73
     1
 44
1.0
  0
POINT
  5
6A0
330
699
100
AcDbEntity
  8
Defpoints
 62
     0
100
AcDbPoint
 10
178.563917
 20
-23.526834
 30
0.0
  0
POINT
  5
6A1
330
699
100
AcDbEntity
  8
Defpoints
 62
     0
100
AcDbPoint
 10
286.572938
 20
-23.526834
 30
0.0
  0
POINT
  5
6A2
330
699
100
AcDbEntity
  8
Defpoints
 62
     0
100
AcDbPoint
 10
286.572938
 20
-149.436984
 30
0.0
  0
ENDBLK
  5
6A4
330
699
100
AcDbEntity
  8
0
100
AcDbBlockEnd
  0
ENDSEC
  0
SECTION
  2
ENTITIES
  0
ELLIPSE
  5
32
330
1F
100
AcDbEntity
  8
LC-001-002-----0
 62
     7
370
    50
100
AcDbEllipse
 10
161.460545
 20
399.023988
 30
0.0
 11
2.886751345810494
 21
0.0
 31
0.0
210
0.0
220
0.0
230
1.0
 40
0.231793
 41
1.570796326794926
 42
1.570799569415536
  0
ELLIPSE
  5
33
330
1F
100
AcDbEntity
  8
LC-001-002-----0
 62
     7
370
    50
100
AcDbEllipse
 10
161.460545
 20
395.162246
 30
0.0
 11
2.886751345741669
 21
0.0
 31
0.0
210
0.0
220
0.0
230
0.9999999999999999
 40
0.231793
 41
4.712388770645577
 42
4.712388770645577
  0
ELLIPSE
  5
34
330
1F
100
AcDbEntity
  8
LC-001-002-----0
 62
     7
370
    50
100
AcDbEllipse
 10
349.467621
 20
399.024246
 30
0.0
 11
2.886751346006107
 21
7.919336045331847E-6
 31
0.0
210
0.0
220
0.0
230
1.0
 40
0.231793
 41
1.570793084174326
 42
1.570796326794936
  0
ELLIPSE
  5
35
330
1F
100
AcDbEntity
  8
LC-001-002-----0
 62
     7
370
    50
100
AcDbEllipse
 10
349.467632
 20
395.162504
 30
0.0
 11
2.88675134566198
 21
7.919336044387790E-6
 31
0.0
210
0.0
220
0.0
230
1.0
 40
0.231793
 41
4.7123891901239
 42
4.7123891901239
  0
LINE
  5
36
330
1F
100
AcDbEntity
  8
LC-001-002-----0
 62
     7
370
    50
100
AcDbLine
 10
229.240308
 20
479.281114
 30
0.0
 11
229.240308
 21
494.081114
 31
0.0
  0
LINE
  5
37
330
1F
100
AcDbEntity
  8
LC-001-002-----0
 62
     7
370
    50
100
AcDbLine
 10
174.653073
 20
453.718735
 30
0.0
 11
232.545677
 21
453.718735
 31
0.0
  0
LINE
  5
38
330
1F
100
AcDbEntity
  8
LC-001-002-----0
 62
     7
370
    50
100
AcDbLine
 10
220.745737
 20
410.381054
 30
0.0
 11
220.745764
 21
390.081053
 31
0.0
  0
LINE
  5
39
330
1F
100
AcDbEntity
  8
LC-001-002-----0
 62
     7
370
    50
100
AcDbLine
 10
164.159633
 20
419.081053
 30
0.0
 11
178.423707
 21
453.718735
 31
0.0
  0
ARC
  5
3B
330
1F
100
AcDbEntity
  8
LC-002-002-RND-0
 62
     7
370
    50
100
AcDbCircle
 10
184.097037
 20
479.081052
 30
0.0
 40
15.00000000000001
100
AcDbArc
 50
90.000079
 51
160.0
  0
LINE
  5
3C
330
1F
100
AcDbEntity
  8
LC-001-002-----0
 62
     7
370
    50
100
AcDbLine
 10
220.745764
 20
390.081053
 30
0.0
 11
232.510022
 21
390.081053
 31
0.0
  0
LINE
  5
3D
330
1F
100
AcDbEntity
  8
LC-001-002-----0
 62
     7
370
    50
100
AcDbLine
 10
206.674083
 20
458.381053
 30
0.0
 11
211.129289
 21
479.281089
 31
0.0
  0
LINE
  5
3E
330
1F
100
AcDbEntity
  8
LC-001-002-----0
 62
     7
370
    50
100
AcDbLine
 10
146.960156
 20
420.905377
 30
0.0
 11
149.883939
 21
428.938402
 31
0.0
  0
LINE
  5
3F
330
1F
100
AcDbEntity
  8
LC-001-002-----0
 62
     7
370
    50
100
AcDbLine
 10
162.045998
 20
411.381053
 30
0.0
 11
219.896653
 21
411.381053
 31
0.0
  0
LINE
  5
40
330
1F
100
AcDbEntity
  8
LC-001-002-----0
 62
     7
370
    50
100
AcDbLine
 10
218.745737
 20
410.381052
 30
0.0
 11
218.745748
 21
402.381053
 31
0.0
  0
ARC
  5
41
330
1F
100
AcDbEntity
  8
LC-002-002-RND-0
 62
     7
370
    50
100
AcDbCircle
 10
219.745737
 20
410.381053
 30
0.0
 40
1.000000000000031
100
AcDbArc
 50
0.000079
 51
90.0
  0
LINE
  5
42
330
1F
100
AcDbEntity
  8
LC-001-002-----0
 62
     7
370
    50
100
AcDbLine
 10
162.045988
 20
419.081053
 30
0.0
 11
189.343758
 21
494.081059
 31
0.0
  0
LINE
  5
43
330
1F
100
AcDbEntity
  8
LC-001-002-----0
 62
     7
370
    50
100
AcDbLine
 10
190.058754
 20
489.995926
 30
0.0
 11
191.545622
 21
494.081062
 31
0.0
  0
LINE
  5
44
330
1F
100
AcDbEntity
  8
LC-001-002-----0
 62
     7
370
    50
100
AcDbLine
 10
187.705889
 20
489.581053
 30
0.0
 11
190.058754
 21
489.995926
 31
0.0
  0
LINE
  5
45
330
1F
100
AcDbEntity
  8
LC-001-002-----0
 62
     7
370
    50
100
AcDbLine
 10
153.100264
 20
437.775184
 30
0.0
 11
170.001648
 21
484.211354
 31
0.0
  0
LINE
  5
46
330
1F
100
AcDbEntity
  8
LC-001-002-----0
 62
     7
370
    50
100
AcDbLine
 10
164.754917
 20
419.081053
 30
0.0
 11
179.018991
 21
453.718735
 31
0.0
  0
LINE
  5
47
330
1F
100
AcDbEntity
  8
LC-001-002-----0
 62
     7
370
    50
100
AcDbLine
 10
186.584542
 20
458.381053
 30
0.0
 11
194.301179
 21
479.281066
 31
0.0
  0
INSERT
  5
58
330
1F
100
AcDbEntity
  8
LC-003-005-----0
 62
     7
370
    25
100
AcDbBlockReference
  2
*X11
 10
0.0
 20
0.0
 30
0.0
  0
LINE
  5
59
330
1F
100
AcDbEntity
  8
LC-001-002-----0
 62
     7
370
    50
100
AcDbLine
 10
185.434542
 20
458.381053
 30
0.0
 11
193.151179
 21
479.281064
 31
0.0
  0
LINE
  5
5A
330
1F
100
AcDbEntity
  8
LC-001-002-----0
 62
     7
370
    50
100
AcDbLine
 10
217.527357
 20
458.381053
 30
0.0
 11
219.833542
 21
479.281101
 31
0.0
  0
LINE
  5
5B
330
1F
100
AcDbEntity
  8
LC-001-002-----0
 62
     7
370
    50
100
AcDbLine
 10
181.888417
 20
419.081053
 30
0.0
 11
192.330442
 21
453.718735
 31
0.0
  0
LINE
  5
5C
330
1F
100
AcDbEntity
  8
LC-001-002-----0
 62
     7
370
    50
100
AcDbLine
 10
183.514763
 20
419.081053
 30
0.0
 11
193.975013
 21
453.718735
 31
0.0
  0
LINE
  5
5D
330
1F
100
AcDbEntity
  8
LC-001-002-----0
 62
     7
370
    50
100
AcDbLine
 10
180.343687
 20
458.381053
 30
0.0
 11
188.950476
 21
479.281058
 31
0.0
  0
LINE
  5
5E
330
1F
100
AcDbEntity
  8
LC-001-002-----0
 62
     7
370
    50
100
AcDbLine
 10
150.152723
 20
419.081053
 30
0.0
 11
146.960156
 21
420.905377
 31
0.0
  0
LINE
  5
5F
330
1F
100
AcDbEntity
  8
LC-001-002-----0
 62
     7
370
    50
100
AcDbLine
 10
170.924318
 20
419.081053
 30
0.0
 11
183.713136
 21
453.718735
 31
0.0
  0
LINE
  5
60
330
1F
100
AcDbEntity
  8
LC-001-002-----0
 62
     7
370
    50
100
AcDbLine
 10
215.412485
 20
419.081053
 30
0.0
 11
219.234529
 21
453.718735
 31
0.0
  0
LINE
  5
61
330
1F
100
AcDbEntity
  8
LC-001-002-----0
 62
     7
370
    50
100
AcDbLine
 10
213.190856
 20
419.081053
 30
0.0
 11
217.0129
 21
453.718735
 31
0.0
  0
LINE
  5
62
330
1F
100
AcDbEntity
  8
LC-001-002-----0
 62
     7
370
    50
100
AcDbLine
 10
196.304746
 20
419.081053
 30
0.0
 11
203.688371
 21
453.718735
 31
0.0
  0
LINE
  5
63
330
1F
100
AcDbEntity
  8
LC-001-002-----0
 62
     7
370
    50
100
AcDbLine
 10
198.296605
 20
419.081053
 30
0.0
 11
205.680229
 21
453.718735
 31
0.0
  0
LINE
  5
64
330
1F
100
AcDbEntity
  8
LC-001-002-----0
 62
     7
370
    50
100
AcDbLine
 10
172.074318
 20
419.081053
 30
0.0
 11
184.863135
 21
453.718735
 31
0.0
  0
LINE
  5
65
330
1F
100
AcDbEntity
  8
LC-001-002-----0
 62
     7
370
    50
100
AcDbLine
 10
180.938971
 20
458.381053
 30
0.0
 11
189.54576
 21
479.281059
 31
0.0
  0
LINE
  5
66
330
1F
100
AcDbEntity
  8
LC-001-002-----0
 62
     7
370
    50
100
AcDbLine
 10
158.645988
 20
419.081053
 30
0.0
 11
158.646024
 21
392.581054
 31
0.0
  0
LINE
  5
67
330
1F
100
AcDbEntity
  8
LC-001-002-----0
 62
     7
370
    50
100
AcDbLine
 10
162.045988
 20
419.081053
 30
0.0
 11
162.045998
 21
411.381053
 31
0.0
  0
LINE
  5
68
330
1F
100
AcDbEntity
  8
LC-001-002-----0
 62
     7
370
    50
100
AcDbLine
 10
219.007834
 20
411.381053
 30
0.0
 11
232.545753
 21
411.381053
 31
0.0
  0
LINE
  5
69
330
1F
100
AcDbEntity
  8
LC-001-002-----0
 62
     7
370
    50
100
AcDbLine
 10
161.545998
 20
411.381053
 30
0.0
 11
162.045998
 21
411.381053
 31
0.0
  0
ARC
  5
6A
330
1F
100
AcDbEntity
  8
LC-002-002-RND-0
 62
     7
370
    50
100
AcDbCircle
 10
219.745737
 20
410.381053
 30
0.0
 40
1.0
100
AcDbArc
 50
90.0
 51
180.000079
  0
LINE
  5
6B
330
1F
100
AcDbEntity
  8
LC-001-002-----0
 62
     7
370
    50
100
AcDbLine
 10
231.395985
 20
479.281117
 30
0.0
 11
231.395985
 21
458.381053
 31
0.0
  0
ARC
  5
6C
330
1F
100
AcDbEntity
  8
LC-002-002-RND-0
 62
     7
370
    50
100
AcDbCircle
 10
158.146026
 20
391.081053
 30
0.0
 40
1.0
100
AcDbArc
 50
90.0
 51
180.000079
  0
LINE
  5
6D
330
1F
100
AcDbEntity
  8
LC-001-002-----0
 62
     7
370
    50
100
AcDbLine
 10
176.350018
 20
458.381053
 30
0.0
 11
176.350018
 21
454.017952
 31
0.0
  0
ARC
  5
6E
330
1F
100
AcDbEntity
  8
LC-002-002-RND-0
 62
     7
370
    50
100
AcDbCircle
 10
158.146026
 20
391.081053
 30
0.0
 40
1.000000000000031
100
AcDbArc
 50
180.000079
 51
270.0
  0
LINE
  5
6F
330
1F
100
AcDbEntity
  8
LC-001-002-----0
 62
     7
370
    50
100
AcDbLine
 10
158.046026
 20
390.081053
 30
0.0
 11
159.546028
 21
390.081053
 31
0.0
  0
LINE
  5
70
330
1F
100
AcDbEntity
  8
LC-001-002-----0
 62
     7
370
    50
100
AcDbLine
 10
154.646011
 20
402.381053
 30
0.0
 11
158.646011
 21
402.381053
 31
0.0
  0
ARC
  5
71
330
1F
100
AcDbEntity
  8
LC-002-002-RND-0
 62
     7
370
    50
100
AcDbCircle
 10
158.146024
 20
392.581053
 30
0.0
 40
0.5
100
AcDbArc
 50
270.0
 51
0.000079
  0
LINE
  5
72
330
1F
100
AcDbEntity
  8
LC-001-002-----0
 62
     7
370
    50
100
AcDbLine
 10
158.146026
 20
390.081053
 30
0.0
 11
161.546028
 21
390.081053
 31
0.0
  0
LINE
  5
73
330
1F
100
AcDbEntity
  8
LC-001-002-----0
 62
     7
370
    50
100
AcDbLine
 10
195.382989
 20
458.381053
 30
0.0
 11
201.694597
 21
479.281076
 31
0.0
  0
LINE
  5
74
330
1F
100
AcDbEntity
  8
LC-001-002-----0
 62
     7
370
    50
100
AcDbLine
 10
174.653073
 20
453.718735
 30
0.0
 11
176.350018
 21
454.017952
 31
0.0
  0
ARC
  5
75
330
1F
100
AcDbEntity
  8
LC-002-002-RND-0
 62
     7
370
    50
100
AcDbCircle
 10
154.646011
 20
402.881053
 30
0.0
 40
0.5000000000000155
100
AcDbArc
 50
180.000079
 51
270.0
  0
LINE
  5
76
330
1F
100
AcDbEntity
  8
LC-001-002-----0
 62
     7
370
    50
100
AcDbLine
 10
193.735964
 20
458.381053
 30
0.0
 11
200.036574
 21
479.281074
 31
0.0
  0
LINE
  5
77
330
1F
100
AcDbEntity
  8
LC-001-002-----0
 62
     7
370
    50
100
AcDbLine
 10
161.545998
 20
411.381053
 30
0.0
 11
161.546028
 21
390.081053
 31
0.0
  0
LINE
  5
78
330
1F
100
AcDbEntity
  8
LC-001-002-----0
 62
     7
370
    50
100
AcDbLine
 10
161.546011
 20
402.381053
 30
0.0
 11
218.745748
 21
402.381053
 31
0.0
  0
LINE
  5
79
330
1F
100
AcDbEntity
  8
LC-001-002-----0
 62
     7
370
    50
100
AcDbLine
 10
154.145988
 20
419.081053
 30
0.0
 11
154.146011
 21
402.881052
 31
0.0
  0
LINE
  5
7A
330
1F
100
AcDbEntity
  8
LC-001-002-----0
 62
     7
370
    50
100
AcDbLine
 10
184.097016
 20
494.081052
 30
0.0
 11
232.545622
 21
494.081118
 31
0.0
  0
INSERT
  5
80
330
1F
100
AcDbEntity
  8
LC-003-005-----0
 62
     7
370
    25
100
AcDbBlockReference
  2
*X22
 10
0.0
 20
0.0
 30
0.0
  0
LINE
  5
81
330
1F
100
AcDbEntity
  8
LC-001-002-----0
 62
     7
370
    50
100
AcDbLine
 10
204.682225
 20
458.381053
 30
0.0
 11
209.137431
 21
479.281086
 31
0.0
  0
LINE
  5
82
330
1F
100
AcDbEntity
  8
LC-001-002-----0
 62
     7
370
    50
100
AcDbLine
 10
183.956995
 20
479.281052
 30
0.0
 11
232.545642
 21
479.281118
 31
0.0
  0
LINE
  5
83
330
1F
100
AcDbEntity
  8
LC-001-002-----0
 62
     7
370
    50
100
AcDbLine
 10
176.350018
 20
458.381053
 30
0.0
 11
232.545671
 21
458.381053
 31
0.0
  0
LINE
  5
84
330
1F
100
AcDbEntity
  8
LC-001-002-----0
 62
     7
370
    50
100
AcDbLine
 10
231.395985
 20
453.718735
 30
0.0
 11
231.395985
 21
419.081053
 31
0.0
  0
LINE
  5
85
330
1F
100
AcDbEntity
  8
LC-001-002-----0
 62
     7
370
    50
100
AcDbLine
 10
219.748986
 20
458.381053
 30
0.0
 11
222.055171
 21
479.281104
 31
0.0
  0
LINE
  5
86
330
1F
100
AcDbEntity
  8
LC-001-002-----0
 62
     7
370
    50
100
AcDbLine
 10
235.850976
 20
479.281123
 30
0.0
 11
235.850935
 21
494.081123
 31
0.0
  0
LINE
  5
87
330
1F
100
AcDbEntity
  8
LC-001-002-----0
 62
     7
370
    50
100
AcDbLine
 10
290.438281
 20
453.718894
 30
0.0
 11
232.545677
 21
453.718735
 31
0.0
  0
LINE
  5
88
330
1F
100
AcDbEntity
  8
LC-001-002-----0
 62
     7
370
    50
100
AcDbLine
 10
244.345737
 20
410.381087
 30
0.0
 11
244.345764
 21
390.081085
 31
0.0
  0
LINE
  5
89
330
1F
100
AcDbEntity
  8
LC-001-002-----0
 62
     7
370
    50
100
AcDbLine
 10
300.931816
 20
419.081241
 30
0.0
 11
286.667647
 21
453.718884
 31
0.0
  0
ARC
  5
8A
330
1F
100
AcDbEntity
  8
LC-002-002-RND-0
 62
     7
370
    50
100
AcDbCircle
 10
280.994248
 20
479.081185
 30
0.0
 40
14.99999999999987
100
AcDbArc
 50
20.000157
 51
90.000079
  0
LINE
  5
8B
330
1F
100
AcDbEntity
  8
LC-001-002-----0
 62
     7
370
    50
100
AcDbLine
 10
244.345764
 20
390.081085
 30
0.0
 11
232.581507
 21
390.081053
 31
0.0
  0
LINE
  5
8C
330
1F
100
AcDbEntity
  8
LC-001-002-----0
 62
     7
370
    50
100
AcDbLine
 10
258.417259
 20
458.381124
 30
0.0
 11
253.961995
 21
479.281148
 31
0.0
  0
LINE
  5
8D
330
1F
100
AcDbEntity
  8
LC-001-002-----0
 62
     7
370
    50
100
AcDbLine
 10
318.131288
 20
420.905612
 30
0.0
 11
315.212633
 21
428.924483
 31
0.0
  0
LINE
  5
8E
330
1F
100
AcDbEntity
  8
LC-001-002-----0
 62
     7
370
    50
100
AcDbLine
 10
303.045472
 20
411.381246
 30
0.0
 11
245.194818
 21
411.381088
 31
0.0
  0
LINE
  5
8F
330
1F
100
AcDbEntity
  8
LC-001-002-----0
 62
     7
370
    50
100
AcDbLine
 10
246.345737
 20
410.381089
 30
0.0
 11
246.345748
 21
402.381091
 31
0.0
  0
ARC
  5
90
330
1F
100
AcDbEntity
  8
LC-002-002-RND-0
 62
     7
370
    50
100
AcDbCircle
 10
245.345737
 20
410.381088
 30
0.0
 40
1.000000000000011
100
AcDbArc
 50
90.000157
 51
180.000079
  0
LINE
  5
91
330
1F
100
AcDbEntity
  8
LC-001-002-----0
 62
     7
370
    50
100
AcDbLine
 10
303.045462
 20
419.081246
 30
0.0
 11
275.747486
 21
494.081177
 31
0.0
  0
LINE
  5
92
330
1F
100
AcDbEntity
  8
LC-001-002-----0
 62
     7
370
    50
100
AcDbLine
 10
275.032501
 20
489.996043
 30
0.0
 11
273.545622
 21
494.081174
 31
0.0
  0
LINE
  5
93
330
1F
100
AcDbEntity
  8
LC-001-002-----0
 62
     7
370
    50
100
AcDbLine
 10
277.385367
 20
489.581176
 30
0.0
 11
275.032501
 21
489.996043
 31
0.0
  0
LINE
  5
94
330
1F
100
AcDbEntity
  8
LC-001-002-----0
 62
     7
370
    50
100
AcDbLine
 10
311.98494
 20
437.792421
 30
0.0
 11
295.089623
 21
484.211525
 31
0.0
  0
LINE
  5
95
330
1F
100
AcDbEntity
  8
LC-001-002-----0
 62
     7
370
    50
100
AcDbLine
 10
300.336532
 20
419.081239
 30
0.0
 11
286.072363
 21
453.718882
 31
0.0
  0
LINE
  5
96
330
1F
100
AcDbEntity
  8
LC-001-002-----0
 62
     7
370
    50
100
AcDbLine
 10
278.5068
 20
458.381179
 30
0.0
 11
270.790105
 21
479.281171
 31
0.0
  0
INSERT
  5
A6
330
1F
100
AcDbEntity
  8
LC-003-005-----0
 62
     7
370
    25
100
AcDbBlockReference
  2
*X33
 10
0.0
 20
0.0
 30
0.0
  0
LINE
  5
A7
330
1F
100
AcDbEntity
  8
LC-001-002-----0
 62
     7
370
    50
100
AcDbLine
 10
279.6568
 20
458.381182
 30
0.0
 11
271.940105
 21
479.281172
 31
0.0
  0
LINE
  5
A9
330
1F
100
AcDbEntity
  8
LC-004-002-___-0
 62
     7
370
    25
100
AcDbLine
 10
301.527673
 20
402.381242
 30
0.0
 11
303.545485
 21
402.381248
 31
0.0
  0
LINE
  5
AA
330
1F
100
AcDbEntity
  8
LC-001-002-----0
 62
     7
370
    50
100
AcDbLine
 10
283.203032
 20
419.081192
 30
0.0
 11
272.760913
 21
453.718846
 31
0.0
  0
LINE
  5
AB
330
1F
100
AcDbEntity
  8
LC-001-002-----0
 62
     7
370
    50
100
AcDbLine
 10
281.576687
 20
419.081187
 30
0.0
 11
271.116341
 21
453.718841
 31
0.0
  0
LINE
  5
AC
330
1F
100
AcDbEntity
  8
LC-001-002-----0
 62
     7
370
    50
100
AcDbLine
 10
284.747655
 20
458.381196
 30
0.0
 11
276.140808
 21
479.281178
 31
0.0
  0
LINE
  5
AD
330
1F
100
AcDbEntity
  8
LC-001-002-----0
 62
     7
370
    50
100
AcDbLine
 10
247.563985
 20
458.381094
 30
0.0
 11
245.257742
 21
479.281136
 31
0.0
  0
LINE
  5
AE
330
1F
100
AcDbEntity
  8
LC-001-002-----0
 62
     7
370
    50
100
AcDbLine
 10
294.167132
 20
419.081222
 30
0.0
 11
281.378219
 21
453.718869
 31
0.0
  0
LINE
  5
AF
330
1F
100
AcDbEntity
  8
LC-001-002-----0
 62
     7
370
    50
100
AcDbLine
 10
249.678964
 20
419.0811
 30
0.0
 11
245.856825
 21
453.718772
 31
0.0
  0
LINE
  5
B0
330
1F
100
AcDbEntity
  8
LC-001-002-----0
 62
     7
370
    50
100
AcDbLine
 10
251.900594
 20
419.081106
 30
0.0
 11
248.078454
 21
453.718778
 31
0.0
  0
LINE
  5
B1
330
1F
100
AcDbEntity
  8
LC-001-002-----0
 62
     7
370
    50
100
AcDbLine
 10
268.786703
 20
419.081152
 30
0.0
 11
261.402983
 21
453.718814
 31
0.0
  0
LINE
  5
B2
330
1F
100
AcDbEntity
  8
LC-001-002-----0
 62
     7
370
    50
100
AcDbLine
 10
266.794845
 20
419.081147
 30
0.0
 11
259.411125
 21
453.718809
 31
0.0
  0
LINE
  5
B3
330
1F
100
AcDbEntity
  8
LC-001-002-----0
 62
     7
370
    50
100
AcDbLine
 10
293.017132
 20
419.081219
 30
0.0
 11
280.228219
 21
453.718866
 31
0.0
  0
LINE
  5
B4
330
1F
100
AcDbEntity
  8
LC-001-002-----0
 62
     7
370
    50
100
AcDbLine
 10
284.152371
 20
458.381195
 30
0.0
 11
275.545524
 21
479.281177
 31
0.0
  0
LINE
  5
B5
330
1F
100
AcDbEntity
  8
LC-001-002-----0
 62
     7
370
    50
100
AcDbLine
 10
306.445462
 20
419.081256
 30
0.0
 11
306.445498
 21
392.581256
 31
0.0
  0
LINE
  5
B6
330
1F
100
AcDbEntity
  8
LC-001-002-----0
 62
     7
370
    50
100
AcDbLine
 10
303.045462
 20
419.081246
 30
0.0
 11
303.045472
 21
411.381246
 31
0.0
  0
LINE
  5
B7
330
1F
100
AcDbEntity
  8
LC-001-002-----0
 62
     7
370
    50
100
AcDbLine
 10
246.083636
 20
411.38109
 30
0.0
 11
232.545718
 21
411.381053
 31
0.0
  0
LINE
  5
B8
330
1F
100
AcDbEntity
  8
LC-001-002-----0
 62
     7
370
    50
100
AcDbLine
 10
303.545472
 20
411.381248
 30
0.0
 11
303.045472
 21
411.381246
 31
0.0
  0
ARC
  5
B9
330
1F
100
AcDbEntity
  8
LC-002-002-RND-0
 62
     7
370
    50
100
AcDbCircle
 10
245.345737
 20
410.381088
 30
0.0
 40
1.000000000000031
100
AcDbArc
 50
0.000079
 51
90.000157
  0
LINE
  5
BA
330
1F
100
AcDbEntity
  8
LC-001-002-----0
 62
     7
370
    50
100
AcDbLine
 10
233.695299
 20
479.28112
 30
0.0
 11
233.695356
 21
458.381056
 31
0.0
  0
ARC
  5
BB
330
1F
100
AcDbEntity
  8
LC-002-002-RND-0
 62
     7
370
    50
100
AcDbCircle
 10
306.9455
 20
391.081257
 30
0.0
 40
1.000000000000031
100
AcDbArc
 50
0.000079
 51
90.000157
  0
LINE
  5
BC
330
1F
100
AcDbEntity
  8
LC-001-002-----0
 62
     7
370
    50
100
AcDbLine
 10
288.741324
 20
458.381207
 30
0.0
 11
288.741336
 21
454.018107
 31
0.0
  0
ARC
  5
BD
330
1F
100
AcDbEntity
  8
LC-002-002-RND-0
 62
     7
370
    50
100
AcDbCircle
 10
306.9455
 20
391.081257
 30
0.0
 40
0.9999999999998975
100
AcDbArc
 50
270.000157
 51
0.000079
  0
LINE
  5
BE
330
1F
100
AcDbEntity
  8
LC-001-002-----0
 62
     7
370
    50
100
AcDbLine
 10
307.045503
 20
390.081257
 30
0.0
 11
305.545501
 21
390.081253
 31
0.0
  0
LINE
  5
BF
330
1F
100
AcDbEntity
  8
LC-001-002-----0
 62
     7
370
    50
100
AcDbLine
 10
310.445485
 20
402.381267
 30
0.0
 11
306.445485
 21
402.381256
 31
0.0
  0
ARC
  5
C0
330
1F
100
AcDbEntity
  8
LC-002-002-RND-0
 62
     7
370
    50
100
AcDbCircle
 10
306.945498
 20
392.581257
 30
0.0
 40
0.5000000000000155
100
AcDbArc
 50
180.000079
 51
270.000157
  0
LINE
  5
C1
330
1F
100
AcDbEntity
  8
LC-001-002-----0
 62
     7
370
    50
100
AcDbLine
 10
306.945503
 20
390.081257
 30
0.0
 11
303.545501
 21
390.081248
 31
0.0
  0
LINE
  5
C2
330
1F
100
AcDbEntity
  8
LC-001-002-----0
 62
     7
370
    50
100
AcDbLine
 10
269.708353
 20
458.381155
 30
0.0
 11
263.396687
 21
479.28116
 31
0.0
  0
LINE
  5
C3
330
1F
100
AcDbEntity
  8
LC-001-002-----0
 62
     7
370
    50
100
AcDbLine
 10
290.438281
 20
453.718894
 30
0.0
 11
288.741336
 21
454.018107
 31
0.0
  0
ARC
  5
C4
330
1F
100
AcDbEntity
  8
LC-002-002-RND-0
 62
     7
370
    50
100
AcDbCircle
 10
310.445483
 20
402.881267
 30
0.0
 40
0.5000000000000625
100
AcDbArc
 50
270.000157
 51
0.000079
  0
LINE
  5
C5
330
1F
100
AcDbEntity
  8
LC-001-002-----0
 62
     7
370
    50
100
AcDbLine
 10
271.355378
 20
458.381159
 30
0.0
 11
265.05471
 21
479.281163
 31
0.0
  0
LINE
  5
C6
330
1F
100
AcDbEntity
  8
LC-001-002-----0
 62
     7
370
    50
100
AcDbLine
 10
303.545472
 20
411.381248
 30
0.0
 11
303.545501
 21
390.081248
 31
0.0
  0
LINE
  5
C7
330
1F
100
AcDbEntity
  8
LC-001-002-----0
 62
     7
370
    50
100
AcDbLine
 10
303.545485
 20
402.381248
 30
0.0
 11
246.345748
 21
402.381091
 31
0.0
  0
LINE
  5
C8
330
1F
100
AcDbEntity
  8
LC-001-002-----0
 62
     7
370
    50
100
AcDbLine
 10
310.945461
 20
419.081268
 30
0.0
 11
310.945483
 21
402.881267
 31
0.0
  0
LINE
  5
C9
330
1F
100
AcDbEntity
  8
LC-001-002-----0
 62
     7
370
    50
100
AcDbLine
 10
280.994227
 20
494.081185
 30
0.0
 11
232.545622
 21
494.081118
 31
0.0
  0
INSERT
  5
D1
330
1F
100
AcDbEntity
  8
LC-003-005-----0
 62
     7
370
    25
100
AcDbBlockReference
  2
*X44
 10
0.0
 20
0.0
 30
0.0
  0
LINE
  5
D2
330
1F
100
AcDbEntity
  8
LC-001-002-----0
 62
     7
370
    50
100
AcDbLine
 10
260.409117
 20
458.381129
 30
0.0
 11
255.953853
 21
479.28115
 31
0.0
  0
LINE
  5
D3
330
1F
100
AcDbEntity
  8
LC-001-002-----0
 62
     7
370
    50
100
AcDbLine
 10
281.134289
 20
479.281185
 30
0.0
 11
232.545642
 21
479.281118
 31
0.0
  0
LINE
  5
D4
330
1F
100
AcDbEntity
  8
LC-001-002-----0
 62
     7
370
    50
100
AcDbLine
 10
288.741324
 20
458.381207
 30
0.0
 11
232.545671
 21
458.381053
 31
0.0
  0
LINE
  5
D5
330
1F
100
AcDbEntity
  8
LC-001-002-----0
 62
     7
370
    50
100
AcDbLine
 10
233.695369
 20
453.718738
 30
0.0
 11
233.695464
 21
419.081056
 31
0.0
  0
LINE
  5
D6
330
1F
100
AcDbEntity
  8
LC-001-002-----0
 62
     7
370
    50
100
AcDbLine
 10
245.342356
 20
458.381088
 30
0.0
 11
243.036113
 21
479.281133
 31
0.0
  0
LINE
  5
D7
330
1F
100
AcDbEntity
  8
LC-001-002-----0
 62
     7
370
    50
100
AcDbLine
 10
314.988545
 20
419.109747
 30
0.0
 11
318.131288
 21
420.905612
 31
0.0
  0
LINE
  5
D8
330
1F
100
AcDbEntity
  8
LC-001-002-----0
 62
     7
370
    50
100
AcDbLine
 10
144.542223
 20
422.709735
 30
0.0
 11
144.070659
 21
422.709735
 31
0.0
  0
LINE
  5
D9
330
1F
100
AcDbEntity
  8
LC-001-002-----0
 62
     7
370
    50
100
AcDbLine
 10
135.542223
 20
420.609735
 30
0.0
 11
135.542223
 21
420.609735
 31
0.0
  0
LINE
  5
DA
330
1F
100
AcDbEntity
  8
LC-001-002-----0
 62
     7
370
    50
100
AcDbLine
 10
143.542223
 20
431.709735
 30
0.0
 11
141.543858
 21
431.709735
 31
0.0
  0
LINE
  5
DB
330
1F
100
AcDbEntity
  8
LC-001-002-----0
 62
     7
370
    50
100
AcDbLine
 10
131.854323
 20
437.397561
 30
0.0
 11
133.542223
 21
431.709735
 31
0.0
  0
LINE
  5
DC
330
1F
100
AcDbEntity
  8
LC-001-002-----0
 62
     7
370
    50
100
AcDbLine
 10
144.542223
 20
422.709735
 30
0.0
 11
143.542223
 21
431.709735
 31
0.0
  0
LINE
  5
DD
330
1F
100
AcDbEntity
  8
LC-001-002-----0
 62
     7
370
    50
100
AcDbLine
 10
133.542223
 20
431.709735
 30
0.0
 11
132.542223
 21
422.709735
 31
0.0
  0
ARC
  5
DE
330
1F
100
AcDbEntity
  8
LC-002-002-RND-0
 62
     7
370
    50
100
AcDbCircle
 10
128.238756
 20
435.784745
 30
0.0
 40
3.924999999999993
100
AcDbArc
 50
24.105895
 51
90.12741
  0
ARC
  5
DF
330
1F
100
AcDbEntity
  8
LC-001-002-----0
 62
     7
370
    50
100
AcDbCircle
 10
128.229932
 20
434.176977
 30
0.0
 40
5.576109255812885
100
AcDbArc
 50
89.908616
 51
139.911749
  0
ARC
  5
E0
330
1F
100
AcDbEntity
  8
LC-002-002-RND-0
 62
     7
370
    50
100
AcDbCircle
 10
126.966745
 20
435.240237
 30
0.0
 40
3.924999999999973
100
AcDbArc
 50
139.911749
 51
224.495814
  0
LINE
  5
E1
330
1F
100
AcDbEntity
  8
LC-001-002-----0
 62
     7
370
    50
100
AcDbLine
 10
145.230122
 20
437.397561
 30
0.0
 11
143.542223
 21
431.709735
 31
0.0
  0
ARC
  5
E2
330
1F
100
AcDbEntity
  8
LC-002-002-RND-0
 62
     7
370
    50
100
AcDbCircle
 10
150.1177
 20
435.240237
 30
0.0
 40
3.925000000000325
100
AcDbArc
 50
315.504186
 51
40.088251
  0
LINE
  5
E3
330
1F
100
AcDbEntity
  8
LC-001-002-----0
 62
     7
370
    50
100
AcDbLine
 10
153.097107
 20
432.685093
 30
0.0
 11
144.542223
 21
422.709735
 31
0.0
  0
LINE
  5
E4
330
1F
100
AcDbEntity
  8
LC-001-002-----0
 62
     7
370
    50
100
AcDbLine
 10
123.987338
 20
432.685093
 30
0.0
 11
132.542223
 21
422.709735
 31
0.0
  0
ARC
  5
E5
330
1F
100
AcDbEntity
  8
LC-002-002-RND-0
 62
     7
370
    50
100
AcDbCircle
 10
148.845689
 20
435.784745
 30
0.0
 40
3.925000000000125
100
AcDbArc
 50
89.87259
 51
155.894105
  0
ARC
  5
E6
330
1F
100
AcDbEntity
  8
LC-001-002-----0
 62
     7
370
    50
100
AcDbCircle
 10
148.854513
 20
434.176977
 30
0.0
 40
5.576109255812547
100
AcDbArc
 50
40.088251
 51
90.091384
  0
LINE
  5
E7
330
1F
100
AcDbEntity
  8
LC-001-002-----0
 62
     7
370
    50
100
AcDbLine
 10
332.542411
 20
422.709735
 30
0.0
 11
329.54392
 21
422.709735
 31
0.0
  0
LINE
  5
E8
330
1F
100
AcDbEntity
  8
LC-001-002-----0
 62
     7
370
    50
100
AcDbLine
 10
323.542223
 20
420.609735
 30
0.0
 11
323.542223
 21
420.609735
 31
0.0
  0
LINE
  5
E9
330
1F
100
AcDbEntity
  8
LC-001-002-----0
 62
     7
370
    50
100
AcDbLine
 10
331.542411
 20
431.709735
 30
0.0
 11
329.54392
 21
431.709735
 31
0.0
  0
LINE
  5
EA
330
1F
100
AcDbEntity
  8
LC-001-002-----0
 62
     7
370
    50
100
AcDbLine
 10
319.854512
 20
437.397561
 30
0.0
 11
321.542411
 21
431.709735
 31
0.0
  0
LINE
  5
EB
330
1F
100
AcDbEntity
  8
LC-001-002-----0
 62
     7
370
    50
100
AcDbLine
 10
332.542411
 20
422.709735
 30
0.0
 11
331.542411
 21
431.709735
 31
0.0
  0
LINE
  5
EC
330
1F
100
AcDbEntity
  8
LC-001-002-----0
 62
     7
370
    50
100
AcDbLine
 10
321.542411
 20
431.709735
 30
0.0
 11
320.542411
 21
422.709735
 31
0.0
  0
ARC
  5
ED
330
1F
100
AcDbEntity
  8
LC-002-002-RND-0
 62
     7
370
    50
100
AcDbCircle
 10
316.238945
 20
435.784745
 30
0.0
 40
3.924999999999993
100
AcDbArc
 50
24.105895
 51
90.12741
  0
ARC
  5
EE
330
1F
100
AcDbEntity
  8
LC-001-002-----0
 62
     7
370
    50
100
AcDbCircle
 10
316.230121
 20
434.176977
 30
0.0
 40
5.576109255812885
100
AcDbArc
 50
89.908616
 51
139.911749
  0
ARC
  5
EF
330
1F
100
AcDbEntity
  8
LC-002-002-RND-0
 62
     7
370
    50
100
AcDbCircle
 10
314.966934
 20
435.240237
 30
0.0
 40
3.924999999999973
100
AcDbArc
 50
139.911749
 51
224.495814
  0
LINE
  5
F0
330
1F
100
AcDbEntity
  8
LC-001-002-----0
 62
     7
370
    50
100
AcDbLine
 10
333.230311
 20
437.397561
 30
0.0
 11
331.542411
 21
431.709735
 31
0.0
  0
ARC
  5
F1
330
1F
100
AcDbEntity
  8
LC-002-002-RND-0
 62
     7
370
    50
100
AcDbCircle
 10
338.117889
 20
435.240237
 30
0.0
 40
3.925000000000325
100
AcDbArc
 50
315.504186
 51
40.088251
  0
LINE
  5
F2
330
1F
100
AcDbEntity
  8
LC-001-002-----0
 62
     7
370
    50
100
AcDbLine
 10
341.097295
 20
432.685093
 30
0.0
 11
332.542411
 21
422.709735
 31
0.0
  0
LINE
  5
F3
330
1F
100
AcDbEntity
  8
LC-001-002-----0
 62
     7
370
    50
100
AcDbLine
 10
311.987527
 20
432.685093
 30
0.0
 11
320.542411
 21
422.709735
 31
0.0
  0
ARC
  5
F4
330
1F
100
AcDbEntity
  8
LC-002-002-RND-0
 62
     7
370
    50
100
AcDbCircle
 10
336.845878
 20
435.784745
 30
0.0
 40
3.925000000000125
100
AcDbArc
 50
89.87259
 51
155.894105
  0
ARC
  5
F5
330
1F
100
AcDbEntity
  8
LC-001-002-----0
 62
     7
370
    50
100
AcDbCircle
 10
336.854702
 20
434.176977
 30
0.0
 40
5.576109255812547
100
AcDbArc
 50
40.088251
 51
90.091384
  0
ARC
  5
F6
330
1F
100
AcDbEntity
  8
LC-002-002-RND-0
 62
     7
370
    50
100
AcDbCircle
 10
331.518308
 20
419.609735
 30
0.0
 40
0.9999999999998473
100
AcDbArc
 50
45.0
 51
90.0
  0
INSERT
  5
108
330
1F
100
AcDbEntity
  8
LC-003-005-----0
 62
     7
370
    25
100
AcDbBlockReference
  2
*X55
 10
0.0
 20
0.0
 30
0.0
  0
LINE
  5
109
330
1F
100
AcDbEntity
  8
LC-001-002-----0
 62
     7
370
    50
100
AcDbLine
 10
319.646735
 20
419.109735
 30
0.0
 11
320.853842
 21
420.316842
 31
0.0
  0
LINE
  5
10A
330
1F
100
AcDbEntity
  8
LC-001-002-----0
 62
     7
370
    50
100
AcDbLine
 10
309.539734
 20
398.109731
 30
0.0
 11
309.040094
 21
398.109731
 31
0.0
  0
ARC
  5
10B
330
1F
100
AcDbEntity
  8
LC-001-002-----0
 62
     7
370
    50
100
AcDbCircle
 10
354.230576
 20
425.378649
 30
0.0
 40
2.000000000000171
100
AcDbArc
 50
282.000248
 51
327.70757
  0
ARC
  5
10C
330
1F
100
AcDbEntity
  8
LC-002-002-RND-0
 62
     7
370
    50
100
AcDbCircle
 10
309.040094
 20
396.609731
 30
0.0
 40
1.49999999999998
100
AcDbArc
 50
90.00002
 51
180.000248
  0
INSERT
  5
11B
330
1F
100
AcDbEntity
  8
LC-003-005-----0
 62
     7
370
    25
100
AcDbBlockReference
  2
*X66
 10
0.0
 20
0.0
 30
0.0
  0
ARC
  5
11C
330
1F
100
AcDbEntity
  8
LC-002-002-RND-0
 62
     7
370
    50
100
AcDbCircle
 10
155.540311
 20
400.109386
 30
0.0
 40
2.999999999999863
100
AcDbArc
 50
180.000136
 51
270.0
  0
LINE
  5
11D
330
1F
100
AcDbEntity
  8
LC-001-002-----0
 62
     7
370
    50
100
AcDbLine
 10
152.540274
 20
416.109387
 30
0.0
 11
152.540311
 21
400.109379
 31
0.0
  0
ARC
  5
11E
330
1F
100
AcDbEntity
  8
LC-002-002-RND-0
 62
     7
370
    50
100
AcDbCircle
 10
150.540274
 20
416.109379
 30
0.0
 40
2.000000000000055
100
AcDbArc
 50
0.000248
 51
90.000248
  0
LINE
  5
11F
330
1F
100
AcDbEntity
  8
LC-001-002-----0
 62
     7
370
    50
100
AcDbLine
 10
145.433231
 20
418.109358
 30
0.0
 11
150.540265
 21
418.109379
 31
0.0
  0
LINE
  5
120
330
1F
100
AcDbEntity
  8
LC-001-002-----0
 62
     7
370
    50
100
AcDbLine
 10
141.540332
 20
419.609342
 30
0.0
 11
143.519012
 21
419.60935
 31
0.0
  0
LINE
  5
121
330
1F
100
AcDbEntity
  8
LC-001-002-----0
 62
     7
370
    50
100
AcDbLine
 10
130.617346
 20
418.109286
 30
0.0
 11
131.647457
 21
418.109301
 31
0.0
  0
LINE
  5
122
330
1F
100
AcDbEntity
  8
LC-001-002-----0
 62
     7
370
    50
100
AcDbLine
 10
130.617346
 20
418.109286
 30
0.0
 11
110.225623
 21
422.44368
 31
0.0
  0
LINE
  5
123
330
1F
100
AcDbEntity
  8
LC-001-002-----0
 62
     7
370
    50
100
AcDbLine
 10
135.040328
 20
420.609314
 30
0.0
 11
135.040332
 21
419.609314
 31
0.0
  0
LINE
  5
124
330
1F
100
AcDbEntity
  8
LC-001-002-----0
 62
     7
370
    50
100
AcDbLine
 10
142.040328
 20
420.609344
 30
0.0
 11
142.040332
 21
419.609344
 31
0.0
  0
ARC
  5
125
330
1F
100
AcDbEntity
  8
LC-002-002-RND-0
 62
     7
370
    50
100
AcDbCircle
 10
145.433227
 20
419.109358
 30
0.0
 40
1.000000000000033
100
AcDbArc
 50
225.000248
 51
270.000228
  0
ARC
  5
126
330
1F
100
AcDbEntity
  8
LC-002-002-RND-0
 62
     7
370
    50
100
AcDbCircle
 10
131.647443
 20
419.109301
 30
0.0
 40
1.000000000000006
100
AcDbArc
 50
270.000823
 51
315.000248
  0
ARC
  5
127
330
1F
100
AcDbEntity
  8
LC-002-002-RND-0
 62
     7
370
    50
100
AcDbCircle
 10
128.530416
 20
417.523313
 30
0.0
 40
0.9999999999999538
100
AcDbArc
 50
71.979964
 51
78.771454
  0
LINE
  5
128
330
1F
100
AcDbEntity
  8
LC-001-002-----0
 62
     7
370
    50
100
AcDbLine
 10
133.561652
 20
419.609308
 30
0.0
 11
135.540332
 21
419.609316
 31
0.0
  0
LINE
  5
129
330
1F
100
AcDbEntity
  8
LC-001-002-----0
 62
     7
370
    50
100
AcDbLine
 10
144.726123
 20
418.402248
 30
0.0
 11
143.519012
 21
419.60935
 31
0.0
  0
LINE
  5
12A
330
1F
100
AcDbEntity
  8
LC-001-002-----0
 62
     7
370
    50
100
AcDbLine
 10
133.561652
 20
419.609308
 30
0.0
 11
132.354553
 21
418.402198
 31
0.0
  0
LINE
  5
12B
330
1F
100
AcDbEntity
  8
LC-001-002-----0
 62
     7
370
    50
100
AcDbLine
 10
334.357519
 20
419.109728
 30
0.0
 11
333.432519
 21
419.109738
 31
0.0
  0
LINE
  5
12C
330
1F
100
AcDbEntity
  8
LC-001-002-----0
 62
     7
370
    50
100
AcDbLine
 10
108.040393
 20
424.324692
 30
0.0
 11
109.158698
 21
424.309634
 31
0.0
  0
LINE
  5
12D
330
1F
100
AcDbEntity
  8
LC-001-002-----0
 62
     7
370
    50
100
AcDbLine
 10
155.540311
 20
397.109386
 30
0.0
 11
156.039965
 21
397.109386
 31
0.0
  0
LINE
  5
12E
330
1F
100
AcDbEntity
  8
LC-001-002-----0
 62
     7
370
    50
100
AcDbLine
 10
150.540274
 20
419.10939
 30
0.0
 11
145.433195
 21
419.10939
 31
0.0
  0
LINE
  5
12F
330
1F
100
AcDbEntity
  8
LC-001-002-----0
 62
     7
370
    50
100
AcDbLine
 10
157.539965
 20
396.6094
 30
0.0
 11
157.539965
 21
394.109402
 31
0.0
  0
ARC
  5
130
330
1F
100
AcDbEntity
  8
LC-002-002-RND-0
 62
     7
370
    50
100
AcDbCircle
 10
155.540311
 20
400.109398
 30
0.0
 40
1.999999999999984
100
AcDbArc
 50
180.000136
 51
270.000228
  0
ARC
  5
131
330
1F
100
AcDbEntity
  8
LC-002-002-RND-0
 62
     7
370
    50
100
AcDbCircle
 10
150.540274
 20
416.10939
 30
0.0
 40
3.00000000000009
100
AcDbArc
 50
0.000136
 51
90.0
  0
ARC
  5
132
330
1F
100
AcDbEntity
  8
LC-001-002-----0
 62
     7
370
    50
100
AcDbCircle
 10
110.849358
 20
425.378123
 30
0.0
 40
2.99999999999504
100
AcDbArc
 50
200.557271
 51
258.0
  0
ARC
  5
133
330
1F
100
AcDbEntity
  8
LC-001-002-----0
 62
     7
370
    50
100
AcDbCircle
 10
110.849358
 20
425.378123
 30
0.0
 40
2.000000000000068
100
AcDbArc
 50
212.292677
 51
258.0
  0
ARC
  5
134
330
1F
100
AcDbEntity
  8
LC-002-002-RND-0
 62
     7
370
    50
100
AcDbCircle
 10
156.039965
 20
396.609386
 30
0.0
 40
0.5
100
AcDbArc
 50
0.0
 51
90.0
  0
ARC
  5
135
330
1F
100
AcDbEntity
  8
LC-002-002-RND-0
 62
     7
370
    50
100
AcDbCircle
 10
156.039965
 20
396.6094
 30
0.0
 40
1.5
100
AcDbArc
 50
0.0
 51
90.000228
  0
LINE
  5
136
330
1F
100
AcDbEntity
  8
LC-001-002-----0
 62
     7
370
    50
100
AcDbLine
 10
156.539965
 20
396.609386
 30
0.0
 11
156.539965
 21
394.109402
 31
0.0
  0
LINE
  5
137
330
1F
100
AcDbEntity
  8
LC-001-002-----0
 62
     7
370
    50
100
AcDbLine
 10
156.539965
 20
394.109402
 30
0.0
 11
157.539965
 21
394.109402
 31
0.0
  0
LINE
  5
138
330
1F
100
AcDbEntity
  8
LC-001-002-----0
 62
     7
370
    50
100
AcDbLine
 10
155.540318
 20
398.109398
 30
0.0
 11
156.039959
 21
398.1094
 31
0.0
  0
LINE
  5
139
330
1F
100
AcDbEntity
  8
LC-001-002-----0
 62
     7
370
    50
100
AcDbLine
 10
153.540274
 20
416.109398
 30
0.0
 11
153.540311
 21
400.109394
 31
0.0
  0
LINE
  5
13A
330
1F
100
AcDbEntity
  8
LC-001-002-----0
 62
     7
370
    50
100
AcDbLine
 10
143.519007
 20
420.60935
 30
0.0
 11
141.543858
 21
420.609342
 31
0.0
  0
LINE
  5
13B
330
1F
100
AcDbEntity
  8
LC-001-002-----0
 62
     7
370
    50
100
AcDbLine
 10
145.433227
 20
419.109358
 30
0.0
 11
144.226115
 21
420.31646
 31
0.0
  0
LINE
  5
13C
330
1F
100
AcDbEntity
  8
LC-001-002-----0
 62
     7
370
    50
100
AcDbLine
 10
130.722443
 20
419.109287
 30
0.0
 11
131.647443
 21
419.109301
 31
0.0
  0
LINE
  5
13D
330
1F
100
AcDbEntity
  8
LC-001-002-----0
 62
     7
370
    50
100
AcDbLine
 10
132.854542
 20
420.316411
 30
0.0
 11
131.647443
 21
419.109301
 31
0.0
  0
LINE
  5
13E
330
1F
100
AcDbEntity
  8
LC-001-002-----0
 62
     7
370
    50
100
AcDbLine
 10
130.722443
 20
419.109287
 30
0.0
 11
110.433535
 21
423.421828
 31
0.0
  0
ARC
  5
13F
330
1F
100
AcDbEntity
  8
LC-002-002-RND-0
 62
     7
370
    50
100
AcDbCircle
 10
143.519011
 20
419.60935
 30
0.0
 40
0.9999999999998721
100
AcDbArc
 50
45.000248
 51
90.000248
  0
ARC
  5
140
330
1F
100
AcDbEntity
  8
LC-002-002-RND-0
 62
     7
370
    50
100
AcDbCircle
 10
133.561652
 20
419.609307
 30
0.0
 40
1.000000000000028
100
AcDbArc
 50
90.000248
 51
135.000248
  0
INSERT
  5
150
330
1F
100
AcDbEntity
  8
LC-003-005-----0
 62
     7
370
    25
100
AcDbBlockReference
  2
*X77
 10
0.0
 20
0.0
 30
0.0
  0
INSERT
  5
15C
330
1F
100
AcDbEntity
  8
LC-003-005-----0
 62
     7
370
    25
100
AcDbBlockReference
  2
*X88
 10
0.0
 20
0.0
 30
0.0
  0
LINE
  5
15D
330
1F
100
AcDbEntity
  8
LC-001-002-----0
 62
     7
370
    50
100
AcDbLine
 10
135.542223
 20
419.609316
 30
0.0
 11
135.540332
 21
419.609316
 31
0.0
  0
LINE
  5
15E
330
1F
100
AcDbEntity
  8
LC-001-002-----0
 62
     7
370
    50
100
AcDbLine
 10
311.539701
 20
416.109739
 30
0.0
 11
311.539734
 21
400.109735
 31
0.0
  0
LINE
  5
15F
330
1F
100
AcDbEntity
  8
LC-001-002-----0
 62
     7
370
    50
100
AcDbLine
 10
308.540105
 20
394.109731
 30
0.0
 11
307.540105
 21
394.109727
 31
0.0
  0
ARC
  5
160
330
1F
100
AcDbEntity
  8
LC-002-002-RND-0
 62
     7
370
    50
100
AcDbCircle
 10
309.040094
 20
396.609717
 30
0.0
 40
0.4999999999999001
100
AcDbArc
 50
90.000248
 51
180.000248
  0
ARC
  5
161
330
1F
100
AcDbEntity
  8
LC-002-002-RND-0
 62
     7
370
    50
100
AcDbCircle
 10
321.560949
 20
419.609735
 30
0.0
 40
1.0
100
AcDbArc
 50
90.0
 51
135.0
  0
LINE
  5
162
330
1F
100
AcDbEntity
  8
LC-001-002-----0
 62
     7
370
    50
100
AcDbLine
 10
323.539628
 20
419.609735
 30
0.0
 11
323.542223
 21
419.609735
 31
0.0
  0
ARC
  5
163
330
1F
100
AcDbEntity
  8
LC-002-002-RND-0
 62
     7
370
    50
100
AcDbCircle
 10
309.539734
 20
400.109719
 30
0.0
 40
2.999999999999969
100
AcDbArc
 50
270.000248
 51
0.000111
  0
LINE
  5
164
330
1F
100
AcDbEntity
  8
LC-001-002-----0
 62
     7
370
    50
100
AcDbLine
 10
312.539701
 20
416.109733
 30
0.0
 11
312.539734
 21
400.109725
 31
0.0
  0
ARC
  5
165
330
1F
100
AcDbEntity
  8
LC-002-002-RND-0
 62
     7
370
    50
100
AcDbCircle
 10
314.539701
 20
416.109733
 30
0.0
 40
2.0
100
AcDbArc
 50
90.0
 51
180.0
  0
LINE
  5
166
330
1F
100
AcDbEntity
  8
LC-001-002-----0
 62
     7
370
    50
100
AcDbLine
 10
319.646735
 20
418.109735
 30
0.0
 11
314.539701
 21
418.109733
 31
0.0
  0
LINE
  5
167
330
1F
100
AcDbEntity
  8
LC-001-002-----0
 62
     7
370
    50
100
AcDbLine
 10
323.539628
 20
419.609735
 30
0.0
 11
321.560948
 21
419.609735
 31
0.0
  0
LINE
  5
168
330
1F
100
AcDbEntity
  8
LC-001-002-----0
 62
     7
370
    50
100
AcDbLine
 10
334.46262
 20
418.109727
 30
0.0
 11
333.432509
 21
418.109738
 31
0.0
  0
LINE
  5
169
330
1F
100
AcDbEntity
  8
LC-001-002-----0
 62
     7
370
    50
100
AcDbLine
 10
334.46262
 20
418.109727
 30
0.0
 11
354.854324
 21
422.444209
 31
0.0
  0
LINE
  5
16A
330
1F
100
AcDbEntity
  8
LC-001-002-----0
 62
     7
370
    50
100
AcDbLine
 10
308.540094
 20
396.609715
 30
0.0
 11
308.540105
 21
394.109731
 31
0.0
  0
LINE
  5
16B
330
1F
100
AcDbEntity
  8
LC-001-002-----0
 62
     7
370
    50
100
AcDbLine
 10
330.039628
 20
420.609735
 30
0.0
 11
330.039628
 21
419.609735
 31
0.0
  0
LINE
  5
16C
330
1F
100
AcDbEntity
  8
LC-001-002-----0
 62
     7
370
    50
100
AcDbLine
 10
323.039628
 20
420.609735
 30
0.0
 11
323.039628
 21
419.609735
 31
0.0
  0
ARC
  5
16D
330
1F
100
AcDbEntity
  8
LC-002-002-RND-0
 62
     7
370
    50
100
AcDbCircle
 10
319.646735
 20
419.109735
 30
0.0
 40
0.9999999999999486
100
AcDbArc
 50
270.00002
 51
315.0
  0
ARC
  5
16E
330
1F
100
AcDbEntity
  8
LC-002-002-RND-0
 62
     7
370
    50
100
AcDbCircle
 10
333.432519
 20
419.109738
 30
0.0
 40
0.9999999999998473
100
AcDbArc
 50
225.0
 51
269.999425
  0
ARC
  5
16F
330
1F
100
AcDbEntity
  8
LC-002-002-RND-0
 62
     7
370
    50
100
AcDbCircle
 10
336.549553
 20
417.523763
 30
0.0
 40
0.9999999999999352
100
AcDbArc
 50
101.228794
 51
108.020284
  0
LINE
  5
170
330
1F
100
AcDbEntity
  8
LC-001-002-----0
 62
     7
370
    50
100
AcDbLine
 10
331.518308
 20
419.609736
 30
0.0
 11
329.539628
 21
419.609735
 31
0.0
  0
LINE
  5
171
330
1F
100
AcDbEntity
  8
LC-001-002-----0
 62
     7
370
    50
100
AcDbLine
 10
320.353842
 20
418.402628
 30
0.0
 11
321.560948
 21
419.609735
 31
0.0
  0
LINE
  5
172
330
1F
100
AcDbEntity
  8
LC-001-002-----0
 62
     7
370
    50
100
AcDbLine
 10
331.518308
 20
419.609736
 30
0.0
 11
332.725412
 21
418.402631
 31
0.0
  0
LINE
  5
173
330
1F
100
AcDbEntity
  8
LC-001-002-----0
 62
     7
370
    50
100
AcDbLine
 10
332.225415
 20
420.316842
 30
0.0
 11
333.432519
 21
419.109738
 31
0.0
  0
LINE
  5
174
330
1F
100
AcDbEntity
  8
LC-001-002-----0
 62
     7
370
    50
100
AcDbLine
 10
334.357519
 20
419.109728
 30
0.0
 11
354.646408
 21
423.422356
 31
0.0
  0
LINE
  5
175
330
1F
100
AcDbEntity
  8
LC-001-002-----0
 62
     7
370
    50
100
AcDbLine
 10
357.039546
 20
424.325231
 30
0.0
 11
355.921241
 21
424.310168
 31
0.0
  0
LINE
  5
176
330
1F
100
AcDbEntity
  8
LC-001-002-----0
 62
     7
370
    50
100
AcDbLine
 10
309.539747
 20
397.109719
 30
0.0
 11
309.040092
 21
397.109717
 31
0.0
  0
LINE
  5
177
330
1F
100
AcDbEntity
  8
LC-001-002-----0
 62
     7
370
    50
100
AcDbLine
 10
314.539688
 20
419.109745
 30
0.0
 11
319.646767
 21
419.109767
 31
0.0
  0
LINE
  5
178
330
1F
100
AcDbEntity
  8
LC-001-002-----0
 62
     7
370
    50
100
AcDbLine
 10
307.540094
 20
396.609725
 30
0.0
 11
307.540105
 21
394.109727
 31
0.0
  0
ARC
  5
179
330
1F
100
AcDbEntity
  8
LC-002-002-RND-0
 62
     7
370
    50
100
AcDbCircle
 10
309.539734
 20
400.109731
 30
0.0
 40
1.999999999999897
100
AcDbArc
 50
270.00002
 51
0.000111
  0
ARC
  5
17A
330
1F
100
AcDbEntity
  8
LC-002-002-RND-0
 62
     7
370
    50
100
AcDbCircle
 10
314.539701
 20
416.109745
 30
0.0
 40
2.999999999999969
100
AcDbArc
 50
90.000248
 51
180.000111
  0
ARC
  5
17B
330
1F
100
AcDbEntity
  8
LC-001-002-----0
 62
     7
370
    50
100
AcDbCircle
 10
354.230576
 20
425.378649
 30
0.0
 40
2.999999999994985
100
AcDbArc
 50
282.000248
 51
339.442977
  0
LINE
  5
17C
330
1F
100
AcDbEntity
  8
LC-001-002-----0
 62
     7
370
    50
100
AcDbLine
 10
314.545421
 20
419.109615
 30
0.0
 11
232.545738
 21
419.109568
 31
0.0
  0
LINE
  5
17D
330
1F
100
AcDbEntity
  8
LC-001-002-----0
 62
     7
370
    50
100
AcDbLine
 10
150.546029
 20
419.10939
 30
0.0
 11
232.545712
 21
419.109568
 31
0.0
  0
LINE
  5
17E
330
1F
100
AcDbEntity
  8
LC-001-002-----0
 62
     7
370
    50
100
AcDbLine
 10
135.542223
 20
433.408775
 30
0.0
 11
135.543858
 21
433.41041
 31
0.0
  0
LINE
  5
17F
330
1F
100
AcDbEntity
  8
LC-001-002-----0
 62
     7
370
    50
100
AcDbLine
 10
135.542223
 20
433.408775
 30
0.0
 11
135.543858
 21
433.408775
 31
0.0
  0
LINE
  5
180
330
1F
100
AcDbEntity
  8
LC-001-002-----0
 62
     7
370
    50
100
AcDbLine
 10
132.542236
 20
394.108775
 30
0.0
 11
135.042236
 21
394.108775
 31
0.0
  0
LINE
  5
181
330
1F
100
AcDbEntity
  8
LC-001-002-----0
 62
     7
370
    50
100
AcDbLine
 10
135.542223
 20
429.609735
 30
0.0
 11
135.542223
 21
433.408775
 31
0.0
  0
LINE
  5
182
330
1F
100
AcDbEntity
  8
LC-001-002-----0
 62
     7
370
    50
100
AcDbLine
 10
135.542223
 20
393.108775
 30
0.0
 11
135.542223
 21
420.609316
 31
0.0
  0
LINE
  5
183
330
1F
100
AcDbEntity
  8
LC-001-002-----0
 62
     7
370
    50
100
AcDbLine
 10
145.592842
 20
394.108775
 30
0.0
 11
145.592842
 21
393.108775
 31
0.0
  0
LINE
  5
184
330
1F
100
AcDbEntity
  8
LC-001-002-----0
 62
     7
370
    50
100
AcDbLine
 10
142.042236
 20
394.108775
 30
0.0
 11
145.592842
 21
394.108775
 31
0.0
  0
INSERT
  5
19A
330
1F
100
AcDbEntity
  8
LC-003-005-----0
 62
     7
370
    25
100
AcDbBlockReference
  2
*X99
 10
0.0
 20
0.0
 30
0.0
  0
INSERT
  5
1A0
330
1F
100
AcDbEntity
  8
LC-003-005-----0
 62
     7
370
    25
100
AcDbBlockReference
  2
*X1010
 10
0.0
 20
0.0
 30
0.0
  0
LINE
  5
1A1
330
1F
100
AcDbEntity
  8
LC-001-002-----0
 62
     7
370
    50
100
AcDbLine
 10
357.279506
 20
416.275836
 30
0.0
 11
356.985659
 21
417.083166
 31
0.0
  0
LINE
  5
1A2
330
1F
100
AcDbEntity
  8
LC-001-002-----0
 62
     7
370
    50
100
AcDbLine
 10
356.985659
 20
417.083166
 30
0.0
 11
337.824634
 21
410.109064
 31
0.0
  0
LINE
  5
1A3
330
1F
100
AcDbEntity
  8
LC-001-002-----0
 62
     7
370
    50
100
AcDbLine
 10
357.279506
 20
416.275836
 30
0.0
 11
337.589127
 21
409.109063
 31
0.0
  0
LINE
  5
1A4
330
1F
100
AcDbEntity
  8
LC-001-002-----0
 62
     7
370
    50
100
AcDbLine
 10
334.549238
 20
410.109055
 30
0.0
 11
337.824634
 21
410.109064
 31
0.0
  0
LINE
  5
1A5
330
1F
100
AcDbEntity
  8
LC-001-002-----0
 62
     7
370
    50
100
AcDbLine
 10
334.549241
 20
409.109055
 30
0.0
 11
337.589127
 21
409.109063
 31
0.0
  0
ARC
  5
1A6
330
1F
100
AcDbEntity
  8
LC-002-002-RND-0
 62
     7
370
    50
100
AcDbCircle
 10
334.549242
 20
408.609055
 30
0.0
 40
1.500000000000074
100
AcDbArc
 50
90.000157
 51
180.000157
  0
ARC
  5
1A7
330
1F
100
AcDbEntity
  8
LC-002-002-RND-0
 62
     7
370
    50
100
AcDbCircle
 10
334.549242
 20
408.609055
 30
0.0
 40
0.5000000000000625
100
AcDbArc
 50
90.000157
 51
180.000157
  0
LINE
  5
1A8
330
1F
100
AcDbEntity
  8
LC-001-002-----0
 62
     7
370
    50
100
AcDbLine
 10
334.04928
 20
394.609054
 30
0.0
 11
334.049242
 21
408.609054
 31
0.0
  0
LINE
  5
1A9
330
1F
100
AcDbEntity
  8
LC-001-002-----0
 62
     7
370
    50
100
AcDbLine
 10
333.04928
 20
394.609051
 30
0.0
 11
333.049242
 21
408.609051
 31
0.0
  0
ARC
  5
1AA
330
1F
100
AcDbEntity
  8
LC-002-002-RND-0
 62
     7
370
    50
100
AcDbCircle
 10
332.54928
 20
394.60905
 30
0.0
 40
1.49999999999996
100
AcDbArc
 50
270.000157
 51
0.000157
  0
ARC
  5
1AB
330
1F
100
AcDbEntity
  8
LC-002-002-RND-0
 62
     7
370
    50
100
AcDbCircle
 10
332.54928
 20
394.60905
 30
0.0
 40
0.4999999999999488
100
AcDbArc
 50
270.000157
 51
0.000157
  0
LINE
  5
1AC
330
1F
100
AcDbEntity
  8
LC-001-002-----0
 62
     7
370
    50
100
AcDbLine
 10
332.549282
 20
394.10905
 30
0.0
 11
330.049282
 21
394.109043
 31
0.0
  0
LINE
  5
1AD
330
1F
100
AcDbEntity
  8
LC-001-002-----0
 62
     7
370
    50
100
AcDbLine
 10
330.049282
 20
394.109043
 30
0.0
 11
330.049284
 21
393.109043
 31
0.0
  0
LINE
  5
1AE
330
1F
100
AcDbEntity
  8
LC-001-002-----0
 62
     7
370
    50
100
AcDbLine
 10
131.042236
 20
394.608775
 30
0.0
 11
131.042236
 21
408.608775
 31
0.0
  0
LINE
  5
1AF
330
1F
100
AcDbEntity
  8
LC-001-002-----0
 62
     7
370
    50
100
AcDbLine
 10
132.042236
 20
394.608775
 30
0.0
 11
132.042236
 21
408.608775
 31
0.0
  0
LINE
  5
1B0
330
1F
100
AcDbEntity
  8
LC-001-002-----0
 62
     7
370
    50
100
AcDbLine
 10
142.042236
 20
394.108775
 30
0.0
 11
142.042236
 21
393.108775
 31
0.0
  0
LINE
  5
1B1
330
1F
100
AcDbEntity
  8
LC-001-002-----0
 62
     7
370
    50
100
AcDbLine
 10
132.542236
 20
393.108775
 30
0.0
 11
135.543858
 21
393.108775
 31
0.0
  0
ARC
  5
1B2
330
1F
100
AcDbEntity
  8
LC-002-002-RND-0
 62
     7
370
    50
100
AcDbCircle
 10
130.542236
 20
408.608775
 30
0.0
 40
1.5
100
AcDbArc
 50
0.0
 51
90.0
  0
ARC
  5
1B3
330
1F
100
AcDbEntity
  8
LC-002-002-RND-0
 62
     7
370
    50
100
AcDbCircle
 10
132.542236
 20
394.608775
 30
0.0
 40
1.5
100
AcDbArc
 50
180.0
 51
270.0
  0
ARC
  5
1B4
330
1F
100
AcDbEntity
  8
LC-002-002-RND-0
 62
     7
370
    50
100
AcDbCircle
 10
130.542236
 20
408.608775
 30
0.0
 40
0.5
100
AcDbArc
 50
0.0
 51
90.0
  0
LINE
  5
1B5
330
1F
100
AcDbEntity
  8
LC-001-002-----0
 62
     7
370
    50
100
AcDbLine
 10
130.542236
 20
410.108775
 30
0.0
 11
127.26684
 21
410.108775
 31
0.0
  0
LINE
  5
1B6
330
1F
100
AcDbEntity
  8
LC-001-002-----0
 62
     7
370
    50
100
AcDbLine
 10
107.811952
 20
416.275494
 30
0.0
 11
127.502349
 21
409.108775
 31
0.0
  0
LINE
  5
1B7
330
1F
100
AcDbEntity
  8
LC-001-002-----0
 62
     7
370
    50
100
AcDbLine
 10
130.542236
 20
409.108775
 30
0.0
 11
127.502349
 21
409.108775
 31
0.0
  0
ARC
  5
1B8
330
1F
100
AcDbEntity
  8
LC-002-002-RND-0
 62
     7
370
    50
100
AcDbCircle
 10
132.542236
 20
394.608775
 30
0.0
 40
0.5
100
AcDbArc
 50
180.0
 51
270.0
  0
LINE
  5
1B9
330
1F
100
AcDbEntity
  8
LC-001-002-----0
 62
     7
370
    50
100
AcDbLine
 10
107.811952
 20
416.275494
 30
0.0
 11
108.105796
 21
417.082825
 31
0.0
  0
LINE
  5
1BA
330
1F
100
AcDbEntity
  8
LC-001-002-----0
 62
     7
370
    50
100
AcDbLine
 10
135.042236
 20
394.108775
 30
0.0
 11
135.042236
 21
393.108775
 31
0.0
  0
LINE
  5
1BB
330
1F
100
AcDbEntity
  8
LC-001-002-----0
 62
     7
370
    50
100
AcDbLine
 10
108.105796
 20
417.082825
 30
0.0
 11
127.26684
 21
410.108775
 31
0.0
  0
LINE
  5
1BC
330
1F
100
AcDbEntity
  8
LC-001-002-----0
 62
     7
370
    50
100
AcDbLine
 10
323.049282
 20
394.109024
 30
0.0
 11
319.498676
 21
394.109014
 31
0.0
  0
LINE
  5
1BD
330
1F
100
AcDbEntity
  8
LC-001-002-----0
 62
     7
370
    50
100
AcDbLine
 10
323.049282
 20
394.109024
 30
0.0
 11
323.049284
 21
393.109024
 31
0.0
  0
LINE
  5
1BE
330
1F
100
AcDbEntity
  8
LC-001-002-----0
 62
     7
370
    50
100
AcDbLine
 10
319.498676
 20
394.109014
 30
0.0
 11
319.498679
 21
393.109014
 31
0.0
  0
LINE
  5
1BF
330
1F
100
AcDbEntity
  8
LC-001-002-----0
 62
     7
370
    50
100
AcDbLine
 10
332.549284
 20
393.10905
 30
0.0
 11
329.543731
 21
393.109041
 31
0.0
  0
INSERT
  5
1CF
330
1F
100
AcDbEntity
  8
LC-003-005-----0
 62
     7
370
    25
100
AcDbBlockReference
  2
*X1111
 10
0.0
 20
0.0
 30
0.0
  0
INSERT
  5
1D5
330
1F
100
AcDbEntity
  8
LC-003-005-----0
 62
     7
370
    25
100
AcDbBlockReference
  2
*X1212
 10
0.0
 20
0.0
 30
0.0
  0
LINE
  5
1D6
330
1F
100
AcDbEntity
  8
LC-001-002-----0
 62
     7
370
    50
100
AcDbLine
 10
329.549298
 20
393.109041
 30
0.0
 11
329.549222
 21
420.609582
 31
0.0
  0
LINE
  5
1D7
330
1F
100
AcDbEntity
  8
LC-001-002-----0
 62
     7
370
    50
100
AcDbLine
 10
329.549198
 20
429.610001
 30
0.0
 11
329.549187
 21
433.409041
 31
0.0
  0
ARC
  5
1D8
330
1F
100
AcDbEntity
  8
LC-002-002-RND-0
 62
     7
370
    50
100
AcDbCircle
 10
292.543799
 20
326.915654
 30
0.0
 40
3.0
100
AcDbArc
 50
270.0
 51
0.0
  0
LINE
  5
1D9
330
1F
100
AcDbEntity
  8
LC-001-002-----0
 62
     7
370
    50
100
AcDbLine
 10
306.043794
 20
377.916
 30
0.0
 11
310.293794
 21
377.916
 31
0.0
  0
LINE
  5
1DA
330
1F
100
AcDbEntity
  8
LC-001-002-----0
 62
     7
370
    50
100
AcDbLine
 10
232.543794
 20
-37.084
 30
0.0
 11
274.543794
 21
-37.084
 31
0.0
  0
ARC
  5
1DB
330
1F
100
AcDbEntity
  8
LC-002-002-RND-0
 62
     7
370
    50
100
AcDbCircle
 10
133.038696
 20
396.415976
 30
0.0
 40
0.5000000000000742
100
AcDbArc
 50
180.000334
 51
270.000248
  0
LINE
  5
1DC
330
1F
100
AcDbEntity
  8
LC-001-002-----0
 62
     7
370
    50
100
AcDbLine
 10
147.043793
 20
394.416
 30
0.0
 11
150.793794
 21
394.416
 31
0.0
  0
LINE
  5
1DD
330
1F
100
AcDbEntity
  8
LC-001-002-----0
 62
     7
370
    50
100
AcDbLine
 10
151.793794
 20
393.416
 30
0.0
 11
151.793794
 21
380.916
 31
0.0
  0
LINE
  5
1DE
330
1F
100
AcDbEntity
  8
LC-001-002-----0
 62
     7
370
    50
100
AcDbLine
 10
147.043793
 20
394.416
 30
0.0
 11
147.043793
 21
395.916296
 31
0.0
  0
LINE
  5
1DF
330
1F
100
AcDbEntity
  8
LC-001-002-----0
 62
     7
370
    50
100
AcDbLine
 10
150.043793
 20
397.416
 30
0.0
 11
150.043793
 21
414.159817
 31
0.0
  0
LINE
  5
1E0
330
1F
100
AcDbEntity
  8
LC-001-002-----0
 62
     7
370
    50
100
AcDbLine
 10
315.043793
 20
414.159817
 30
0.0
 11
315.043793
 21
397.416
 31
0.0
  0
LINE
  5
1E1
330
1F
100
AcDbEntity
  8
LC-001-002-----0
 62
     7
370
    50
100
AcDbLine
 10
315.043793
 20
397.416
 30
0.0
 11
310.293794
 21
397.416
 31
0.0
  0
LINE
  5
1E2
330
1F
100
AcDbEntity
  8
LC-001-002-----0
 62
     7
370
    50
100
AcDbLine
 10
150.793794
 20
394.416
 30
0.0
 11
151.793794
 21
393.416
 31
0.0
  0
LINE
  5
1E3
330
1F
100
AcDbEntity
  8
LC-001-002-----0
 62
     7
370
    50
100
AcDbLine
 10
187.543794
 20
323.915654
 30
0.0
 11
187.543794
 21
-32.584
 31
0.0
  0
LINE
  5
1E6
330
1F
100
AcDbEntity
  8
LC-005-006-MLN-0
 62
     7
370
    25
100
AcDbLine
 10
232.543794
 20
504.081118
 30
0.0
 11
232.543794
 21
358.238
 31
0.0
  0
LINE
  5
1E7
330
1F
100
AcDbEntity
  8
LC-001-002-----0
 62
     7
370
    50
100
AcDbLine
 10
318.043795
 20
394.416
 30
0.0
 11
318.043795
 21
395.916259
 31
0.0
  0
LINE
  5
1E8
330
1F
100
AcDbEntity
  8
LC-001-002-----0
 62
     7
370
    50
100
AcDbLine
 10
318.043795
 20
394.416
 30
0.0
 11
314.293794
 21
394.416
 31
0.0
  0
LINE
  5
1E9
330
1F
100
AcDbEntity
  8
LC-001-002-----0
 62
     7
370
    50
100
AcDbLine
 10
314.293794
 20
394.416
 30
0.0
 11
313.293794
 21
393.416
 31
0.0
  0
LINE
  5
1EA
330
1F
100
AcDbEntity
  8
LC-001-002-----0
 62
     7
370
    50
100
AcDbLine
 10
313.293794
 20
393.416
 30
0.0
 11
313.293794
 21
380.916
 31
0.0
  0
LINE
  5
1EB
330
1F
100
AcDbEntity
  8
LC-001-002-----0
 62
     7
370
    50
100
AcDbLine
 10
104.802131
 20
422.916
 30
0.0
 11
128.858684
 21
414.160249
 31
0.0
  0
LINE
  5
1EC
330
1F
100
AcDbEntity
  8
LC-001-002-----0
 62
     7
370
    50
100
AcDbLine
 10
135.542223
 20
414.158154
 30
0.0
 11
128.858684
 21
414.160249
 31
0.0
  0
LINE
  5
1ED
330
1F
100
AcDbEntity
  8
LC-001-002-----0
 62
     7
370
    50
100
AcDbLine
 10
150.043793
 20
397.416
 30
0.0
 11
154.793794
 21
397.416
 31
0.0
  0
LINE
  5
1EE
330
1F
100
AcDbEntity
  8
LC-001-002-----0
 62
     7
370
    50
100
AcDbLine
 10
132.538696
 20
396.415974
 30
0.0
 11
132.538615
 21
410.159095
 31
0.0
  0
LINE
  5
1EF
330
1F
100
AcDbEntity
  8
LC-001-002-----0
 62
     7
370
    50
100
AcDbLine
 10
133.038698
 20
395.915976
 30
0.0
 11
135.543858
 21
395.915992
 31
0.0
  0
LINE
  5
1F0
330
1F
100
AcDbEntity
  8
LC-001-002-----0
 62
     7
370
    50
100
AcDbLine
 10
150.036874
 20
414.15946
 30
0.0
 11
141.543858
 21
414.158635
 31
0.0
  0
LINE
  5
1F1
330
1F
100
AcDbEntity
  8
LC-001-002-----0
 62
     7
370
    50
100
AcDbLine
 10
141.543858
 20
395.916029
 30
0.0
 11
147.043793
 21
395.916296
 31
0.0
  0
LINE
  5
1F2
330
1F
100
AcDbEntity
  8
LC-001-002-----0
 62
     7
370
    50
100
AcDbLine
 10
360.280002
 20
422.916
 30
0.0
 11
336.211748
 21
414.158495
 31
0.0
  0
LINE
  5
1F3
330
1F
100
AcDbEntity
  8
LC-005-006-MLN-0
 62
     7
370
    25
100
AcDbLine
 10
326.552121
 20
448.416043
 30
0.0
 11
326.546247
 21
383.109033
 31
0.0
  0
LINE
  5
1F4
330
1F
100
AcDbEntity
  8
LC-001-002-----0
 62
     7
370
    50
100
AcDbLine
 10
329.543731
 20
414.158495
 30
0.0
 11
336.211748
 21
414.158495
 31
0.0
  0
LINE
  5
1F5
330
1F
100
AcDbEntity
  8
LC-001-002-----0
 62
     7
370
    50
100
AcDbLine
 10
332.548992
 20
396.416
 30
0.0
 11
332.548981
 21
410.159095
 31
0.0
  0
LINE
  5
1F6
330
1F
100
AcDbEntity
  8
LC-001-002-----0
 62
     7
370
    50
100
AcDbLine
 10
332.048992
 20
395.916
 30
0.0
 11
329.543731
 21
395.916005
 31
0.0
  0
LINE
  5
1F7
330
1F
100
AcDbEntity
  8
LC-001-002-----0
 62
     7
370
    50
100
AcDbLine
 10
323.543731
 20
395.916135
 30
0.0
 11
318.043795
 21
395.916259
 31
0.0
  0
LINE
  5
1F8
330
1F
100
AcDbEntity
  8
LC-001-002-----0
 62
     7
370
    50
100
AcDbLine
 10
154.793794
 20
380.916
 30
0.0
 11
154.793794
 21
397.416
 31
0.0
  0
LINE
  5
1F9
330
1F
100
AcDbEntity
  8
LC-001-002-----0
 62
     7
370
    50
100
AcDbLine
 10
310.293794
 20
380.916
 30
0.0
 11
310.293794
 21
397.416
 31
0.0
  0
LINE
  5
1FA
330
1F
100
AcDbEntity
  8
LC-001-002-----0
 62
     7
370
    50
100
AcDbLine
 10
190.543794
 20
326.915654
 30
0.0
 11
190.543794
 21
-37.084
 31
0.0
  0
LINE
  5
1FB
330
1F
100
AcDbEntity
  8
LC-001-002-----0
 62
     7
370
    50
100
AcDbLine
 10
315.05077
 20
414.159817
 30
0.0
 11
323.543731
 21
414.159029
 31
0.0
  0
LINE
  5
1FC
330
1F
100
AcDbEntity
  8
LC-001-002-----0
 62
     7
370
    50
100
AcDbLine
 10
277.543799
 20
323.915654
 30
0.0
 11
277.543794
 21
-32.584
 31
0.0
  0
LINE
  5
1FD
330
1F
100
AcDbEntity
  8
LC-001-002-----0
 62
     7
370
    50
100
AcDbLine
 10
276.338023
 20
-37.084
 30
0.0
 11
277.543794
 21
-32.584
 31
0.0
  0
LINE
  5
1FE
330
1F
100
AcDbEntity
  8
LC-001-002-----0
 62
     7
370
    50
100
AcDbLine
 10
188.749566
 20
-37.084
 30
0.0
 11
187.543794
 21
-32.584
 31
0.0
  0
LINE
  5
1FF
330
1F
100
AcDbEntity
  8
LC-001-002-----0
 62
     7
370
    50
100
AcDbLine
 10
276.338023
 20
-37.084
 30
0.0
 11
232.543794
 21
-37.084
 31
0.0
  0
LINE
  5
200
330
1F
100
AcDbEntity
  8
LC-001-002-----0
 62
     7
370
    50
100
AcDbLine
 10
190.543794
 20
-37.084
 30
0.0
 11
188.749566
 21
-37.084
 31
0.0
  0
LINE
  5
201
330
1F
100
AcDbEntity
  8
LC-001-002-----0
 62
     7
370
    50
100
AcDbLine
 10
274.543794
 20
-37.084
 30
0.0
 11
276.338023
 21
-37.084
 31
0.0
  0
LINE
  5
202
330
1F
100
AcDbEntity
  8
LC-001-002-----0
 62
     7
370
    50
100
AcDbLine
 10
274.543799
 20
326.915654
 30
0.0
 11
274.543794
 21
-37.084
 31
0.0
  0
ARC
  5
203
330
1F
100
AcDbEntity
  8
LC-002-002-RND-0
 62
     7
370
    50
100
AcDbCircle
 10
332.048992
 20
396.416
 30
0.0
 40
0.5
100
AcDbArc
 50
270.0
 51
0.000045
  0
LINE
  5
204
330
1F
100
AcDbEntity
  8
LC-001-002-----0
 62
     7
370
    50
100
AcDbLine
 10
154.793794
 20
380.916
 30
0.0
 11
160.775845
 21
380.916
 31
0.0
  0
ARC
  5
205
330
1F
100
AcDbEntity
  8
LC-002-002-RND-0
 62
     7
370
    50
100
AcDbCircle
 10
310.293794
 20
380.916
 30
0.0
 40
3.0
100
AcDbArc
 50
270.0
 51
360.0
  0
LINE
  5
206
330
1F
100
AcDbEntity
  8
LC-001-002-----0
 62
     7
370
    50
100
AcDbLine
 10
295.543799
 20
359.729475
 30
0.0
 11
306.043794
 21
377.916
 31
0.0
  0
LINE
  5
207
330
1F
100
AcDbEntity
  8
LC-001-002-----0
 62
     7
370
    50
100
AcDbLine
 10
295.543799
 20
326.915654
 30
0.0
 11
295.543799
 21
359.729475
 31
0.0
  0
LINE
  5
208
330
1F
100
AcDbEntity
  8
LC-001-002-----0
 62
     7
370
    50
100
AcDbLine
 10
292.543799
 20
326.915654
 30
0.0
 11
292.543799
 21
360.533323
 31
0.0
  0
LINE
  5
209
330
1F
100
AcDbEntity
  8
LC-001-002-----0
 62
     7
370
    50
100
AcDbLine
 10
277.543799
 20
323.915654
 30
0.0
 11
292.543799
 21
323.915654
 31
0.0
  0
LINE
  5
20A
330
1F
100
AcDbEntity
  8
LC-001-002-----0
 62
     7
370
    50
100
AcDbLine
 10
190.543794
 20
326.915654
 30
0.0
 11
292.543799
 21
326.915654
 31
0.0
  0
LINE
  5
20B
330
1F
100
AcDbEntity
  8
LC-001-002-----0
 62
     7
370
    50
100
AcDbLine
 10
292.543799
 20
360.533323
 30
0.0
 11
304.311744
 21
380.916
 31
0.0
  0
LINE
  5
20C
330
1F
100
AcDbEntity
  8
LC-001-002-----0
 62
     7
370
    50
100
AcDbLine
 10
292.543799
 20
360.533323
 30
0.0
 11
272.721594
 21
360.533323
 31
0.0
  0
LINE
  5
20D
330
1F
100
AcDbEntity
  8
LC-001-002-----0
 62
     7
370
    50
100
AcDbLine
 10
190.543794
 20
326.915654
 30
0.0
 11
172.543789
 21
326.915654
 31
0.0
  0
LINE
  5
20E
330
1F
100
AcDbEntity
  8
LC-001-002-----0
 62
     7
370
    50
100
AcDbLine
 10
187.543789
 20
323.915654
 30
0.0
 11
172.543789
 21
323.915654
 31
0.0
  0
ARC
  5
20F
330
1F
100
AcDbEntity
  8
LC-002-002-RND-0
 62
     7
370
    50
100
AcDbCircle
 10
172.543789
 20
326.915654
 30
0.0
 40
3.0
100
AcDbArc
 50
180.0
 51
270.0
  0
LINE
  5
210
330
1F
100
AcDbEntity
  8
LC-001-002-----0
 62
     7
370
    50
100
AcDbLine
 10
172.543789
 20
326.915654
 30
0.0
 11
172.543789
 21
360.533323
 31
0.0
  0
LINE
  5
211
330
1F
100
AcDbEntity
  8
LC-001-002-----0
 62
     7
370
    50
100
AcDbLine
 10
169.543789
 20
326.915654
 30
0.0
 11
169.543789
 21
359.729475
 31
0.0
  0
LINE
  5
212
330
1F
100
AcDbEntity
  8
LC-001-002-----0
 62
     7
370
    50
100
AcDbLine
 10
172.543789
 20
360.533323
 30
0.0
 11
199.337314
 21
360.533323
 31
0.0
  0
LINE
  5
213
330
1F
100
AcDbEntity
  8
LC-001-002-----0
 62
     7
370
    50
100
AcDbLine
 10
172.543789
 20
360.533323
 30
0.0
 11
160.775845
 21
380.916
 31
0.0
  0
LINE
  5
214
330
1F
100
AcDbEntity
  8
LC-001-002-----0
 62
     7
370
    50
100
AcDbLine
 10
169.543789
 20
359.729475
 30
0.0
 11
159.043794
 21
377.916
 31
0.0
  0
LINE
  5
215
330
1F
100
AcDbEntity
  8
LC-001-002-----0
 62
     7
370
    50
100
AcDbLine
 10
159.043794
 20
377.916
 30
0.0
 11
154.793794
 21
377.916
 31
0.0
  0
ARC
  5
216
330
1F
100
AcDbEntity
  8
LC-002-002-RND-0
 62
     7
370
    50
100
AcDbCircle
 10
154.793794
 20
380.916
 30
0.0
 40
3.0
100
AcDbArc
 50
180.0
 51
270.0
  0
LINE
  5
217
330
1F
100
AcDbEntity
  8
LC-001-002-----0
 62
     7
370
    50
100
AcDbLine
 10
160.775845
 20
380.916
 30
0.0
 11
310.293794
 21
380.916
 31
0.0
  0
INSERT
  5
2CC
330
1F
100
AcDbEntity
  8
LC-003-005-----0
 62
     7
370
    25
100
AcDbBlockReference
  2
*X1313
 10
0.0
 20
0.0
 30
0.0
  0
INSERT
  5
377
330
1F
100
AcDbEntity
  8
LC-003-005-----0
 62
     7
370
    25
100
AcDbBlockReference
  2
*X1414
 10
0.0
 20
0.0
 30
0.0
  0
LINE
  5
378
330
1F
100
AcDbEntity
  8
LC-001-002-----0
 62
     7
370
    50
100
AcDbLine
 10
409.543794
 20
419.916
 30
0.0
 11
409.543794
 21
420.916
 31
0.0
  0
LINE
  5
379
330
1F
100
AcDbEntity
  8
LC-001-002-----0
 62
     7
370
    50
100
AcDbLine
 10
55.543794
 20
419.916
 30
0.0
 11
55.543794
 21
420.916
 31
0.0
  0
LINE
  5
37A
330
1F
100
AcDbEntity
  8
LC-001-002-----0
 62
     7
370
    50
100
AcDbLine
 10
57.543794
 20
422.916
 30
0.0
 11
104.802131
 21
422.916
 31
0.0
  0
LINE
  5
37B
330
1F
100
AcDbEntity
  8
LC-001-002-----0
 62
     7
370
    50
100
AcDbLine
 10
55.543794
 20
419.916
 30
0.0
 11
104.273157
 21
419.916
 31
0.0
  0
LINE
  5
37C
330
1F
100
AcDbEntity
  8
LC-001-002-----0
 62
     7
370
    50
100
AcDbLine
 10
409.543794
 20
419.916
 30
0.0
 11
360.814431
 21
419.916
 31
0.0
  0
LINE
  5
37D
330
1F
100
AcDbEntity
  8
LC-001-002-----0
 62
     7
370
    50
100
AcDbLine
 10
104.273157
 20
419.916
 30
0.0
 11
128.329254
 21
411.160415
 31
0.0
  0
LINE
  5
37E
330
1F
100
AcDbEntity
  8
LC-001-002-----0
 62
     7
370
    50
100
AcDbLine
 10
131.538289
 20
411.159409
 30
0.0
 11
128.329254
 21
411.160415
 31
0.0
  0
LINE
  5
37F
330
1F
100
AcDbEntity
  8
LC-001-002-----0
 62
     7
370
    50
100
AcDbLine
 10
360.814431
 20
419.916
 30
0.0
 11
336.758335
 21
411.160415
 31
0.0
  0
LINE
  5
380
330
1F
100
AcDbEntity
  8
LC-001-002-----0
 62
     7
370
    50
100
AcDbLine
 10
333.549293
 20
411.159409
 30
0.0
 11
336.758335
 21
411.160415
 31
0.0
  0
INSERT
  5
3AA
330
1F
100
AcDbEntity
  8
LC-003-005-----0
 62
     7
370
    25
100
AcDbBlockReference
  2
*X1515
 10
0.0
 20
0.0
 30
0.0
  0
INSERT
  5
3CE
330
1F
100
AcDbEntity
  8
LC-003-005-----0
 62
     7
370
    25
100
AcDbBlockReference
  2
*X1616
 10
0.0
 20
0.0
 30
0.0
  0
ARC
  5
3CF
330
1F
100
AcDbEntity
  8
LC-002-002-RND-0
 62
     7
370
    50
100
AcDbCircle
 10
407.543794
 20
420.916
 30
0.0
 40
2.0
100
AcDbArc
 50
0.0
 51
90.0
  0
LINE
  5
3D0
330
1F
100
AcDbEntity
  8
LC-001-002-----0
 62
     7
370
    50
100
AcDbLine
 10
332.548981
 20
410.159095
 30
0.0
 11
333.549293
 21
411.159409
 31
0.0
  0
LINE
  5
3D1
330
1F
100
AcDbEntity
  8
LC-001-002-----0
 62
     7
370
    50
100
AcDbLine
 10
132.538615
 20
410.159095
 30
0.0
 11
131.538289
 21
411.159409
 31
0.0
  0
LINE
  5
3D2
330
1F
100
AcDbEntity
  8
LC-001-002-----0
 62
     7
370
    50
100
AcDbLine
 10
141.543858
 20
386.916043
 30
0.0
 11
141.543858
 21
400.416043
 31
0.0
  0
LINE
  5
3D3
330
1F
100
AcDbEntity
  8
LC-001-002-----0
 62
     7
370
    50
100
AcDbLine
 10
136.043858
 20
386.416043
 30
0.0
 11
141.043858
 21
386.416043
 31
0.0
  0
LINE
  5
3D4
330
1F
100
AcDbEntity
  8
LC-001-002-----0
 62
     7
370
    50
100
AcDbLine
 10
135.543858
 20
386.916043
 30
0.0
 11
135.543858
 21
400.416043
 31
0.0
  0
LINE
  5
3D5
330
1F
100
AcDbEntity
  8
LC-001-002-----0
 62
     7
370
    50
100
AcDbLine
 10
141.043858
 20
438.416043
 30
0.0
 11
136.043858
 21
438.416043
 31
0.0
  0
LINE
  5
3D6
330
1F
100
AcDbEntity
  8
LC-001-002-----0
 62
     7
370
    50
100
AcDbLine
 10
141.043858
 20
438.416043
 30
0.0
 11
141.543858
 21
437.916043
 31
0.0
  0
LINE
  5
3D7
330
1F
100
AcDbEntity
  8
LC-001-002-----0
 62
     7
370
    50
100
AcDbLine
 10
136.043858
 20
438.416043
 30
0.0
 11
135.543858
 21
437.916043
 31
0.0
  0
LINE
  5
3D8
330
1F
100
AcDbEntity
  8
LC-001-002-----0
 62
     7
370
    50
100
AcDbLine
 10
141.543858
 20
437.916043
 30
0.0
 11
135.543858
 21
437.916043
 31
0.0
  0
LINE
  5
3D9
330
1F
100
AcDbEntity
  8
LC-001-002-----0
 62
     7
370
    50
100
AcDbLine
 10
136.043858
 20
386.416043
 30
0.0
 11
135.543858
 21
386.916043
 31
0.0
  0
LINE
  5
3DA
330
1F
100
AcDbEntity
  8
LC-001-002-----0
 62
     7
370
    50
100
AcDbLine
 10
141.043858
 20
386.416043
 30
0.0
 11
141.543858
 21
386.916043
 31
0.0
  0
LINE
  5
3DB
330
1F
100
AcDbEntity
  8
LC-001-002-----0
 62
     7
370
    50
100
AcDbLine
 10
135.543858
 20
386.916043
 30
0.0
 11
141.543858
 21
386.916043
 31
0.0
  0
LINE
  5
3DD
330
1F
100
AcDbEntity
  8
LC-006-003-----0
 62
     7
370
    25
100
AcDbLine
 10
141.043858
 20
386.916043
 30
0.0
 11
141.043858
 21
400.416043
 31
0.0
  0
LINE
  5
3DE
330
1F
100
AcDbEntity
  8
LC-006-003-----0
 62
     7
370
    25
100
AcDbLine
 10
136.043858
 20
386.916043
 30
0.0
 11
136.043858
 21
400.416043
 31
0.0
  0
LINE
  5
3DF
330
1F
100
AcDbEntity
  8
LC-005-006-MLN-0
 62
     7
370
    25
100
AcDbLine
 10
138.543858
 20
448.416043
 30
0.0
 11
138.543858
 21
378.416043
 31
0.0
  0
LINE
  5
3E0
330
1F
100
AcDbEntity
  8
LC-001-002-----0
 62
     7
370
    50
100
AcDbLine
 10
135.543858
 20
400.416043
 30
0.0
 11
137.543858
 21
400.416043
 31
0.0
  0
LINE
  5
3E1
330
1F
100
AcDbEntity
  8
LC-001-002-----0
 62
     7
370
    50
100
AcDbLine
 10
133.543858
 20
406.416043
 30
0.0
 11
133.543858
 21
402.416043
 31
0.0
  0
LINE
  5
3E2
330
1F
100
AcDbEntity
  8
LC-001-002-----0
 62
     7
370
    50
100
AcDbLine
 10
143.543858
 20
406.416043
 30
0.0
 11
143.543858
 21
402.416043
 31
0.0
  0
LINE
  5
3E3
330
1F
100
AcDbEntity
  8
LC-001-002-----0
 62
     7
370
    50
100
AcDbLine
 10
135.543858
 20
408.416043
 30
0.0
 11
137.543858
 21
408.416043
 31
0.0
  0
LINE
  5
3E4
330
1F
100
AcDbEntity
  8
LC-001-002-----0
 62
     7
370
    50
100
AcDbLine
 10
139.543858
 20
408.416043
 30
0.0
 11
141.543858
 21
408.416043
 31
0.0
  0
LINE
  5
3E5
330
1F
100
AcDbEntity
  8
LC-001-002-----0
 62
     7
370
    50
100
AcDbLine
 10
139.543858
 20
400.416043
 30
0.0
 11
141.543858
 21
400.416043
 31
0.0
  0
LINE
  5
3E6
330
1F
100
AcDbEntity
  8
LC-001-002-----0
 62
     7
370
    50
100
AcDbLine
 10
141.543858
 20
400.416043
 30
0.0
 11
141.543858
 21
420.609735
 31
0.0
  0
LINE
  5
3E7
330
1F
100
AcDbEntity
  8
LC-001-002-----0
 62
     7
370
    50
100
AcDbLine
 10
141.543858
 20
422.709735
 30
0.0
 11
141.543858
 21
437.916043
 31
0.0
  0
LINE
  5
3E8
330
1F
100
AcDbEntity
  8
LC-001-002-----0
 62
     7
370
    50
100
AcDbLine
 10
135.543858
 20
408.416043
 30
0.0
 11
135.543858
 21
420.609735
 31
0.0
  0
LINE
  5
3E9
330
1F
100
AcDbEntity
  8
LC-001-002-----0
 62
     7
370
    50
100
AcDbLine
 10
135.543858
 20
422.709735
 30
0.0
 11
135.543858
 21
437.916043
 31
0.0
  0
LINE
  5
3EA
330
1F
100
AcDbEntity
  8
LC-006-003-----0
 62
     7
370
    25
100
AcDbLine
 10
136.043858
 20
408.416043
 30
0.0
 11
136.043858
 21
420.609735
 31
0.0
  0
LINE
  5
3EB
330
1F
100
AcDbEntity
  8
LC-006-003-----0
 62
     7
370
    25
100
AcDbLine
 10
136.043858
 20
422.709735
 30
0.0
 11
136.043858
 21
438.416043
 31
0.0
  0
LINE
  5
3EC
330
1F
100
AcDbEntity
  8
LC-006-003-----0
 62
     7
370
    25
100
AcDbLine
 10
141.043858
 20
408.416043
 30
0.0
 11
141.043858
 21
420.609735
 31
0.0
  0
LINE
  5
3ED
330
1F
100
AcDbEntity
  8
LC-006-003-----0
 62
     7
370
    25
100
AcDbLine
 10
141.043858
 20
422.709735
 30
0.0
 11
141.043858
 21
438.416043
 31
0.0
  0
LINE
  5
3EE
330
1F
100
AcDbEntity
  8
LC-001-002-----0
 62
     7
370
    50
100
AcDbLine
 10
139.543858
 20
408.416043
 30
0.0
 11
139.543858
 21
400.416043
 31
0.0
  0
LINE
  5
3EF
330
1F
100
AcDbEntity
  8
LC-001-002-----0
 62
     7
370
    50
100
AcDbLine
 10
137.543858
 20
408.416043
 30
0.0
 11
137.543858
 21
400.416043
 31
0.0
  0
ARC
  5
3F0
330
1F
100
AcDbEntity
  8
LC-002-002-RND-0
 62
     7
370
    50
100
AcDbCircle
 10
141.543858
 20
406.416043
 30
0.0
 40
2.0
100
AcDbArc
 50
360.0
 51
90.0
  0
ARC
  5
3F1
330
1F
100
AcDbEntity
  8
LC-002-002-RND-0
 62
     7
370
    50
100
AcDbCircle
 10
141.543858
 20
402.416043
 30
0.0
 40
2.0
100
AcDbArc
 50
270.0
 51
360.0
  0
ARC
  5
3F2
330
1F
100
AcDbEntity
  8
LC-002-002-RND-0
 62
     7
370
    50
100
AcDbCircle
 10
135.543858
 20
402.416043
 30
0.0
 40
2.0
100
AcDbArc
 50
180.0
 51
270.0
  0
ARC
  5
3F3
330
1F
100
AcDbEntity
  8
LC-002-002-RND-0
 62
     7
370
    50
100
AcDbCircle
 10
135.543858
 20
406.416043
 30
0.0
 40
2.0
100
AcDbArc
 50
90.0
 51
180.0
  0
LINE
  5
3F4
330
1F
100
AcDbEntity
  8
LC-001-002-----0
 62
     7
370
    50
100
AcDbLine
 10
323.543731
 20
386.916043
 30
0.0
 11
323.543731
 21
400.416043
 31
0.0
  0
LINE
  5
3F5
330
1F
100
AcDbEntity
  8
LC-001-002-----0
 62
     7
370
    50
100
AcDbLine
 10
329.043736
 20
386.416043
 30
0.0
 11
324.043736
 21
386.416043
 31
0.0
  0
LINE
  5
3F6
330
1F
100
AcDbEntity
  8
LC-001-002-----0
 62
     7
370
    50
100
AcDbLine
 10
329.543731
 20
386.916043
 30
0.0
 11
329.543731
 21
400.416043
 31
0.0
  0
LINE
  5
3F7
330
1F
100
AcDbEntity
  8
LC-001-002-----0
 62
     7
370
    50
100
AcDbLine
 10
324.043731
 20
438.416043
 30
0.0
 11
329.043731
 21
438.416043
 31
0.0
  0
LINE
  5
3F8
330
1F
100
AcDbEntity
  8
LC-001-002-----0
 62
     7
370
    50
100
AcDbLine
 10
324.043731
 20
438.416043
 30
0.0
 11
323.543731
 21
437.916043
 31
0.0
  0
LINE
  5
3F9
330
1F
100
AcDbEntity
  8
LC-001-002-----0
 62
     7
370
    50
100
AcDbLine
 10
329.043731
 20
438.416043
 30
0.0
 11
329.543731
 21
437.916043
 31
0.0
  0
LINE
  5
3FA
330
1F
100
AcDbEntity
  8
LC-001-002-----0
 62
     7
370
    50
100
AcDbLine
 10
323.543731
 20
437.916043
 30
0.0
 11
329.543731
 21
437.916043
 31
0.0
  0
LINE
  5
3FB
330
1F
100
AcDbEntity
  8
LC-001-002-----0
 62
     7
370
    50
100
AcDbLine
 10
329.043736
 20
386.416043
 30
0.0
 11
329.543736
 21
386.916043
 31
0.0
  0
LINE
  5
3FC
330
1F
100
AcDbEntity
  8
LC-001-002-----0
 62
     7
370
    50
100
AcDbLine
 10
324.043736
 20
386.416043
 30
0.0
 11
323.543736
 21
386.916043
 31
0.0
  0
LINE
  5
3FD
330
1F
100
AcDbEntity
  8
LC-001-002-----0
 62
     7
370
    50
100
AcDbLine
 10
329.543736
 20
386.916043
 30
0.0
 11
323.543736
 21
386.916043
 31
0.0
  0
LINE
  5
3FE
330
1F
100
AcDbEntity
  8
LC-006-003-----0
 62
     7
370
    25
100
AcDbLine
 10
324.043731
 20
386.916043
 30
0.0
 11
324.043731
 21
400.416043
 31
0.0
  0
LINE
  5
3FF
330
1F
100
AcDbEntity
  8
LC-006-003-----0
 62
     7
370
    25
100
AcDbLine
 10
329.043731
 20
386.916043
 30
0.0
 11
329.043731
 21
400.416043
 31
0.0
  0
LINE
  5
400
330
1F
100
AcDbEntity
  8
LC-001-002-----0
 62
     7
370
    50
100
AcDbLine
 10
329.543731
 20
400.416043
 30
0.0
 11
327.543731
 21
400.416043
 31
0.0
  0
LINE
  5
401
330
1F
100
AcDbEntity
  8
LC-001-002-----0
 62
     7
370
    50
100
AcDbLine
 10
331.543731
 20
406.416043
 30
0.0
 11
331.543731
 21
402.416043
 31
0.0
  0
LINE
  5
402
330
1F
100
AcDbEntity
  8
LC-001-002-----0
 62
     7
370
    50
100
AcDbLine
 10
321.543731
 20
406.416043
 30
0.0
 11
321.543731
 21
402.416043
 31
0.0
  0
LINE
  5
403
330
1F
100
AcDbEntity
  8
LC-001-002-----0
 62
     7
370
    50
100
AcDbLine
 10
329.543731
 20
408.416043
 30
0.0
 11
327.543731
 21
408.416043
 31
0.0
  0
LINE
  5
404
330
1F
100
AcDbEntity
  8
LC-001-002-----0
 62
     7
370
    50
100
AcDbLine
 10
325.543731
 20
408.416043
 30
0.0
 11
323.543731
 21
408.416043
 31
0.0
  0
LINE
  5
405
330
1F
100
AcDbEntity
  8
LC-001-002-----0
 62
     7
370
    50
100
AcDbLine
 10
325.543731
 20
400.416043
 30
0.0
 11
323.543731
 21
400.416043
 31
0.0
  0
LINE
  5
406
330
1F
100
AcDbEntity
  8
LC-001-002-----0
 62
     7
370
    50
100
AcDbLine
 10
323.543731
 20
408.416043
 30
0.0
 11
323.543731
 21
420.609735
 31
0.0
  0
LINE
  5
407
330
1F
100
AcDbEntity
  8
LC-001-002-----0
 62
     7
370
    50
100
AcDbLine
 10
323.543731
 20
422.709735
 30
0.0
 11
323.543731
 21
437.916043
 31
0.0
  0
LINE
  5
408
330
1F
100
AcDbEntity
  8
LC-001-002-----0
 62
     7
370
    50
100
AcDbLine
 10
329.543731
 20
408.416043
 30
0.0
 11
329.543731
 21
420.609735
 31
0.0
  0
LINE
  5
409
330
1F
100
AcDbEntity
  8
LC-001-002-----0
 62
     7
370
    50
100
AcDbLine
 10
329.543731
 20
422.709735
 30
0.0
 11
329.543731
 21
437.916043
 31
0.0
  0
LINE
  5
40A
330
1F
100
AcDbEntity
  8
LC-006-003-----0
 62
     7
370
    25
100
AcDbLine
 10
329.043731
 20
408.416043
 30
0.0
 11
329.043731
 21
420.609735
 31
0.0
  0
LINE
  5
40B
330
1F
100
AcDbEntity
  8
LC-006-003-----0
 62
     7
370
    25
100
AcDbLine
 10
329.043731
 20
422.709735
 30
0.0
 11
329.043731
 21
438.416043
 31
0.0
  0
LINE
  5
40C
330
1F
100
AcDbEntity
  8
LC-006-003-----0
 62
     7
370
    25
100
AcDbLine
 10
324.043731
 20
408.416043
 30
0.0
 11
324.043731
 21
420.609735
 31
0.0
  0
LINE
  5
40D
330
1F
100
AcDbEntity
  8
LC-006-003-----0
 62
     7
370
    25
100
AcDbLine
 10
324.043731
 20
422.709735
 30
0.0
 11
324.043731
 21
438.416043
 31
0.0
  0
LINE
  5
40E
330
1F
100
AcDbEntity
  8
LC-001-002-----0
 62
     7
370
    50
100
AcDbLine
 10
325.543731
 20
408.416043
 30
0.0
 11
325.543731
 21
400.416043
 31
0.0
  0
LINE
  5
40F
330
1F
100
AcDbEntity
  8
LC-001-002-----0
 62
     7
370
    50
100
AcDbLine
 10
327.543731
 20
408.416043
 30
0.0
 11
327.543731
 21
400.416043
 31
0.0
  0
ARC
  5
410
330
1F
100
AcDbEntity
  8
LC-002-002-RND-0
 62
     7
370
    50
100
AcDbCircle
 10
323.543731
 20
406.416043
 30
0.0
 40
2.0
100
AcDbArc
 50
90.0
 51
180.0
  0
ARC
  5
411
330
1F
100
AcDbEntity
  8
LC-002-002-RND-0
 62
     7
370
    50
100
AcDbCircle
 10
323.543731
 20
402.416043
 30
0.0
 40
2.0
100
AcDbArc
 50
180.0
 51
270.0
  0
ARC
  5
412
330
1F
100
AcDbEntity
  8
LC-002-002-RND-0
 62
     7
370
    50
100
AcDbCircle
 10
329.543731
 20
402.416043
 30
0.0
 40
2.0
100
AcDbArc
 50
270.0
 51
0.0
  0
ARC
  5
413
330
1F
100
AcDbEntity
  8
LC-002-002-RND-0
 62
     7
370
    50
100
AcDbCircle
 10
329.543731
 20
406.416043
 30
0.0
 40
2.0
100
AcDbArc
 50
0.0
 51
90.0
  0
DIMENSION
  5
416
330
1F
100
AcDbEntity
  8
LC-006-003-----0
 62
     7
370
    25
100
AcDbDimension
  2
*D17
 10
467.175243
 20
-37.084
 30
0.0
 11
436.375243
 21
192.916
 31
0.0
 70
   160
 71
     5
 42
460.0
 53
90.0
  3
LC-DIM-L-0140-02-02
100
AcDbAlignedDimension
 13
407.543794
 23
422.916
 33
0.0
 14
233.440909
 24
-37.084
 34
0.0
 50
90.0
100
AcDbRotatedDimension
  0
DIMENSION
  5
424
330
1F
100
AcDbEntity
  8
LC-006-003-----0
 62
     7
370
    25
100
AcDbDimension
  2
*D18
 10
406.832526
 20
-37.084
 30
0.0
 11
376.032526
 21
170.416
 31
0.0
 70
   160
 71
     5
 42
415.0
 53
90.0
  3
LC-DIM-L-0140-02-02
100
AcDbAlignedDimension
 13
310.293794
 23
377.916
 33
0.0
 14
233.440909
 24
-37.084
 34
0.0
 50
90.0
100
AcDbRotatedDimension
  0
LINE
  5
431
330
1F
100
AcDbEntity
  8
LC-001-002-----0
 62
     7
370
    50
100
AcDbLine
 10
360.280002
 20
422.916
 30
0.0
 11
407.543794
 21
422.916
 31
0.0
  0
DIMENSION
  5
432
330
1F
100
AcDbEntity
  8
LC-006-003-----0
 62
     7
370
    25
100
AcDbDimension
  2
*D19
 10
409.543794
 20
515.27
 30
0.0
 11
232.543794
 21
546.07
 31
0.0
 70
   160
  1
%%c<>
 71
     5
 42
354.0
  3
LC-DIM-L-0140-02-02
100
AcDbAlignedDimension
 13
55.543794
 23
419.916
 33
0.0
 14
409.543794
 24
419.916
 34
0.0
100
AcDbRotatedDimension
  0
DIMENSION
  5
43F
330
1F
100
AcDbEntity
  8
LC-006-003-----0
 62
     7
370
    25
100
AcDbDimension
  2
*D20
 10
306.043794
 20
333.27
 30
0.0
 11
232.543794
 21
364.07
 31
0.0
 70
   160
  1
%%c<>
 71
     5
 42
147.0
  3
LC-DIM-L-0140-02-02
100
AcDbAlignedDimension
 13
159.043794
 23
377.916
 33
0.0
 14
306.043794
 24
377.916
 34
0.0
100
AcDbRotatedDimension
  0
LINE
  5
44C
330
1F
100
AcDbEntity
  8
LC-005-006-MLN-0
 62
     7
370
    25
100
AcDbLine
 10
232.543794
 20
324.34
 30
0.0
 11
232.543794
 21
-47.084
 31
0.0
  0
LINE
  5
44D
330
1F
100
AcDbEntity
  8
LC-001-002-----0
 62
     7
370
    50
100
AcDbLine
 10
135.543858
 20
431.709735
 30
0.0
 11
133.542223
 21
431.709735
 31
0.0
  0
LINE
  5
44E
330
1F
100
AcDbEntity
  8
LC-001-002-----0
 62
     7
370
    50
100
AcDbLine
 10
135.543858
 20
420.609316
 30
0.0
 11
133.561647
 21
420.609307
 31
0.0
  0
LINE
  5
44F
330
1F
100
AcDbEntity
  8
LC-001-002-----0
 62
     7
370
    50
100
AcDbLine
 10
133.109911
 20
422.709735
 30
0.0
 11
132.542223
 21
422.709735
 31
0.0
  0
LINE
  5
450
330
1F
100
AcDbEntity
  8
LC-001-002-----0
 62
     7
370
    50
100
AcDbLine
 10
141.543858
 20
393.108775
 30
0.0
 11
145.592842
 21
393.108775
 31
0.0
  0
LINE
  5
451
330
1F
100
AcDbEntity
  8
LC-001-002-----0
 62
     7
370
    50
100
AcDbLine
 10
323.54392
 20
431.709735
 30
0.0
 11
321.542411
 21
431.709735
 31
0.0
  0
LINE
  5
452
330
1F
100
AcDbEntity
  8
LC-001-002-----0
 62
     7
370
    50
100
AcDbLine
 10
323.54392
 20
422.709735
 30
0.0
 11
320.542411
 21
422.709735
 31
0.0
  0
LINE
  5
453
330
1F
100
AcDbEntity
  8
LC-001-002-----0
 62
     7
370
    50
100
AcDbLine
 10
323.543731
 20
393.109025
 30
0.0
 11
319.498679
 21
393.109014
 31
0.0
  0
ELLIPSE
  5
454
330
1F
100
AcDbEntity
  8
LC-001-002-----0
 62
     7
370
    50
100
AcDbEllipse
 10
330.877126
 20
392.440376
 30
0.0
 11
1.443375672865382
 21
3.959668022288245E-6
 31
0.0
210
0.0
220
0.0
230
1.0
 40
0.463586
 41
1.64798524658567
 42
2.748692389366309
  0
LINE
  5
455
330
1F
100
AcDbEntity
  8
LC-001-002-----0
 62
     7
370
    50
100
AcDbLine
 10
332.320501
 20
392.440381
 30
0.0
 11
332.320512
 21
388.578638
 31
0.0
  0
LINE
  5
456
330
1F
100
AcDbEntity
  8
LC-001-002-----0
 62
     7
370
    50
100
AcDbLine
 10
330.877139
 20
387.909505
 30
0.0
 11
329.543637
 21
387.909502
 31
0.0
  0
ELLIPSE
  5
457
330
1F
100
AcDbEntity
  8
LC-001-002-----0
 62
     7
370
    50
100
AcDbEllipse
 10
322.216882
 20
388.578611
 30
0.0
 11
1.443375673278317
 21
3.959668023421065E-6
 31
0.0
210
0.0
220
0.0
230
1.0
 40
0.463586
 41
4.752819604156677
 42
5.878603797774514
  0
LINE
  5
458
330
1F
100
AcDbEntity
  8
LC-001-002-----0
 62
     7
370
    50
100
AcDbLine
 10
320.773496
 20
392.440349
 30
0.0
 11
320.773507
 21
388.578607
 31
0.0
  0
ELLIPSE
  5
459
330
1F
100
AcDbEntity
  8
LC-001-002-----0
 62
     7
370
    50
100
AcDbEllipse
 10
322.216872
 20
392.440353
 30
0.0
 11
1.443375672658877
 21
3.959668021721730E-6
 31
0.0
210
0.0
220
0.0
230
1.0
 40
0.463586
 41
1.57079516776176
 42
3.141590908631133
  0
ELLIPSE
  5
45A
330
1F
100
AcDbEntity
  8
LC-001-002-----0
 62
     7
370
    50
100
AcDbEllipse
 10
330.877136
 20
388.578634
 30
0.0
 11
1.443375672865394
 21
3.959668022288276E-6
 31
0.0
210
0.0
220
0.0
230
1.0
 40
0.463586
 41
3.534471203187838
 42
4.651422213007362
  0
ELLIPSE
  5
45B
330
1F
100
AcDbEntity
  8
LC-001-002-----0
 62
     7
370
    50
100
AcDbEllipse
 10
322.216882
 20
388.578611
 30
0.0
 11
1.443375673278317
 21
3.959668023421065E-6
 31
0.0
210
0.0
220
0.0
230
1.0
 40
0.463586
 41
3.141592653590087
 42
4.712388980384651
  0
ELLIPSE
  5
45C
330
1F
100
AcDbEntity
  8
LC-001-002-----0
 62
     7
370
    50
100
AcDbEllipse
 10
330.876595
 20
388.577832
 30
0.0
 11
1.443375648900806
 21
-0.0002636160465135558
 31
0.0
210
0.0
220
0.0
230
1.0
 40
0.463586
 41
4.712388980384739
 42
6.283185307179464
  0
ELLIPSE
  5
45D
330
1F
100
AcDbEntity
  8
LC-001-002-----0
 62
     7
370
    50
100
AcDbEllipse
 10
330.8773
 20
392.439574
 30
0.0
 11
1.443375648453429
 21
-0.0002636160464318476
 31
0.0
210
0.0
220
0.0
230
1.0
 40
0.463586
 41
0.0000017449588531
 42
1.570797485828004
  0
ELLIPSE
  5
45E
330
1F
100
AcDbEntity
  8
LC-001-002-----0
 62
     7
370
    50
100
AcDbEllipse
 10
322.217046
 20
392.441155
 30
0.0
 11
1.443375648866412
 21
-0.0002636160465072742
 31
0.0
210
0.0
220
0.0
230
1.0
 40
0.463586
 41
0.4049531758798591
 42
1.493607407004043
  0
LINE
  5
45F
330
1F
100
AcDbEntity
  8
LC-001-002-----0
 62
     7
370
    50
100
AcDbLine
 10
323.543637
 20
387.909485
 30
0.0
 11
322.216884
 21
387.909482
 31
0.0
  0
ELLIPSE
  5
460
330
1F
100
AcDbEntity
  8
LC-001-002-----0
 62
     7
370
    50
100
AcDbEllipse
 10
134.210463
 20
392.440376
 30
0.0
 11
1.443375672899796
 21
-3.959668241777154E-6
 31
0.0
210
0.0
220
0.0
230
1.0
 40
0.463586
 41
0.3929002642234531
 42
1.49360740700423
  0
ELLIPSE
  5
461
330
1F
100
AcDbEntity
  8
LC-001-002-----0
 62
     7
370
    50
100
AcDbEllipse
 10
134.210289
 20
392.439574
 30
0.0
 11
1.443375648694319
 21
0.0002636160462564488
 31
0.0
210
0.0
220
0.0
230
1.0
 40
0.463586
 41
1.570795167761675
 42
3.141590908631231
  0
LINE
  5
462
330
1F
100
AcDbEntity
  8
LC-001-002-----0
 62
     7
370
    50
100
AcDbLine
 10
132.767087
 20
392.440381
 30
0.0
 11
132.767077
 21
388.578638
 31
0.0
  0
ELLIPSE
  5
463
330
1F
100
AcDbEntity
  8
LC-001-002-----0
 62
     7
370
    50
100
AcDbEllipse
 10
134.210994
 20
388.577832
 30
0.0
 11
1.443375648763155
 21
0.0002636160462690209
 31
0.0
210
0.0
220
0.0
230
0.9999999999999999
 40
0.463586
 41
3.141592653590026
 42
4.712388980384522
  0
ELLIPSE
  5
464
330
1F
100
AcDbEntity
  8
LC-001-002-----0
 62
     7
370
    50
100
AcDbEllipse
 10
134.210452
 20
388.578634
 30
0.0
 11
1.443375673106283
 21
-3.959668242343620E-6
 31
0.0
210
0.0
220
0.0
230
1.0
 40
0.463586
 41
4.773355747761951
 42
5.890306757581258
  0
LINE
  5
465
330
1F
100
AcDbEntity
  8
LC-001-002-----0
 62
     7
370
    50
100
AcDbLine
 10
134.21045
 20
387.909505
 30
0.0
 11
135.543952
 21
387.909502
 31
0.0
  0
LINE
  5
466
330
1F
100
AcDbEntity
  8
LC-001-002-----0
 62
     7
370
    50
100
AcDbLine
 10
141.543952
 20
387.909485
 30
0.0
 11
142.870704
 21
387.909482
 31
0.0
  0
ELLIPSE
  5
467
330
1F
100
AcDbEntity
  8
LC-001-002-----0
 62
     7
370
    50
100
AcDbEllipse
 10
142.870706
 20
388.578611
 30
0.0
 11
1.443375673037428
 21
-3.959668242154725E-6
 31
0.0
210
0.0
220
0.0
230
1.0
 40
0.463586
 41
3.546174162994686
 42
4.671958356612625
  0
ELLIPSE
  5
468
330
1F
100
AcDbEntity
  8
LC-001-002-----0
 62
     7
370
    50
100
AcDbEllipse
 10
142.870706
 20
388.578611
 30
0.0
 11
1.443375673037428
 21
-3.959668242154725E-6
 31
0.0
210
0.0
220
0.0
230
1.0
 40
0.463586
 41
4.71238898038476
 42
6.283185307179535
  0
LINE
  5
469
330
1F
100
AcDbEntity
  8
LC-001-002-----0
 62
     7
370
    50
100
AcDbLine
 10
144.314093
 20
392.440349
 30
0.0
 11
144.314082
 21
388.578607
 31
0.0
  0
ELLIPSE
  5
46A
330
1F
100
AcDbEntity
  8
LC-001-002-----0
 62
     7
370
    50
100
AcDbEllipse
 10
142.870717
 20
392.440353
 30
0.0
 11
1.443375672727702
 21
-3.959668241305043E-6
 31
0.0
210
0.0
220
0.0
230
1.0
 40
0.463586
 41
0.0000017449588181
 42
1.570797485828104
  0
ELLIPSE
  5
46B
330
1F
100
AcDbEntity
  8
LC-001-002-----0
 62
     7
370
    50
100
AcDbEllipse
 10
142.870543
 20
392.441155
 30
0.0
 11
1.443375648832
 21
0.0002636160462815945
 31
0.0
210
0.0
220
0.0
230
0.9999999999999999
 40
0.463586
 41
1.64798524658573
 42
2.736639477710198
  0
ARC
  5
46C
330
1F
100
AcDbEntity
  8
LC-002-002-RND-0
 62
     7
370
    50
100
AcDbCircle
 10
57.543794
 20
420.916
 30
0.0
 40
2.0
100
AcDbArc
 50
90.0
 51
180.0
  0
LINE
  5
46D
102
{ACAD_REACTORS
330
6A5
102
}
330
1F
100
AcDbEntity
  8
LC-001-002-----0
 62
     7
370
    50
100
AcDbLine
 10
141.790285
 20
422.009735
 30
0.0
 11
142.735212
 21
422.009735
 31
0.0
  0
LINE
  5
46E
102
{ACAD_REACTORS
330
6A5
102
}
330
1F
100
AcDbEntity
  8
LC-001-002-----0
 62
     7
370
    50
100
AcDbLine
 10
141.790285
 20
421.309735
 30
0.0
 11
142.735212
 21
421.309735
 31
0.0
  0
INSERT
  5
47C
102
{ACAD_REACTORS
330
6A5
102
}
330
1F
100
AcDbEntity
  8
LC-003-005-----0
 62
     7
370
    25
100
AcDbBlockReference
  2
*X1721
 10
0.0
 20
0.0
 30
0.0
  0
LINE
  5
47D
102
{ACAD_REACTORS
330
6A5
102
}
330
1F
100
AcDbEntity
  8
LC-001-002-----0
 62
     7
370
    50
100
AcDbLine
 10
133.109911
 20
420.609735
 30
0.0
 11
144.070659
 21
420.609735
 31
0.0
  0
LINE
  5
47E
102
{ACAD_REACTORS
330
6A5
102
}
330
1F
100
AcDbEntity
  8
LC-001-002-----0
 62
     7
370
    50
100
AcDbLine
 10
133.109911
 20
422.709735
 30
0.0
 11
144.070659
 21
422.709735
 31
0.0
  0
LINE
  5
47F
102
{ACAD_REACTORS
330
6A5
102
}
330
1F
100
AcDbEntity
  8
LC-001-002-----0
 62
     7
370
    50
100
AcDbLine
 10
135.390285
 20
422.009735
 30
0.0
 11
135.390285
 21
421.309735
 31
0.0
  0
LINE
  5
480
102
{ACAD_REACTORS
330
6A5
102
}
330
1F
100
AcDbEntity
  8
LC-001-002-----0
 62
     7
370
    50
100
AcDbLine
 10
135.390285
 20
421.309735
 30
0.0
 11
141.790285
 21
421.309735
 31
0.0
  0
LINE
  5
481
102
{ACAD_REACTORS
330
6A5
102
}
330
1F
100
AcDbEntity
  8
LC-001-002-----0
 62
     7
370
    50
100
AcDbLine
 10
141.790285
 20
421.309735
 30
0.0
 11
141.790285
 21
422.009735
 31
0.0
  0
LINE
  5
482
102
{ACAD_REACTORS
330
6A5
102
}
330
1F
100
AcDbEntity
  8
LC-001-002-----0
 62
     7
370
    50
100
AcDbLine
 10
141.790285
 20
422.009735
 30
0.0
 11
135.390285
 21
422.009735
 31
0.0
  0
LINE
  5
483
102
{ACAD_REACTORS
330
6A5
102
}
330
1F
100
AcDbEntity
  8
LC-001-002-----0
 62
     7
370
    50
100
AcDbLine
 10
133.109911
 20
420.609735
 30
0.0
 11
134.445358
 21
421.309735
 31
0.0
  0
LINE
  5
484
102
{ACAD_REACTORS
330
6A5
102
}
330
1F
100
AcDbEntity
  8
LC-001-002-----0
 62
     7
370
    50
100
AcDbLine
 10
133.109911
 20
422.009735
 30
0.0
 11
133.777635
 21
421.659735
 31
0.0
  0
LINE
  5
485
102
{ACAD_REACTORS
330
6A5
102
}
330
1F
100
AcDbEntity
  8
LC-001-002-----0
 62
     7
370
    50
100
AcDbLine
 10
133.109911
 20
422.009735
 30
0.0
 11
133.109911
 21
422.709735
 31
0.0
  0
LINE
  5
486
102
{ACAD_REACTORS
330
6A5
102
}
330
1F
100
AcDbEntity
  8
LC-001-002-----0
 62
     7
370
    50
100
AcDbLine
 10
133.109911
 20
422.709735
 30
0.0
 11
134.445358
 21
422.009735
 31
0.0
  0
LINE
  5
487
102
{ACAD_REACTORS
330
6A5
102
}
330
1F
100
AcDbEntity
  8
LC-001-002-----0
 62
     7
370
    50
100
AcDbLine
 10
144.070659
 20
422.709735
 30
0.0
 11
142.735212
 21
422.009735
 31
0.0
  0
LINE
  5
488
102
{ACAD_REACTORS
330
6A5
102
}
330
1F
100
AcDbEntity
  8
LC-001-002-----0
 62
     7
370
    50
100
AcDbLine
 10
144.070659
 20
422.009735
 30
0.0
 11
142.735212
 21
421.309735
 31
0.0
  0
LINE
  5
489
102
{ACAD_REACTORS
330
6A5
102
}
330
1F
100
AcDbEntity
  8
LC-001-002-----0
 62
     7
370
    50
100
AcDbLine
 10
144.070659
 20
421.309735
 30
0.0
 11
143.402936
 21
421.659735
 31
0.0
  0
LINE
  5
48A
102
{ACAD_REACTORS
330
6A5
102
}
330
1F
100
AcDbEntity
  8
LC-001-002-----0
 62
     7
370
    50
100
AcDbLine
 10
144.070659
 20
420.609735
 30
0.0
 11
142.735212
 21
421.309735
 31
0.0
  0
LINE
  5
48B
102
{ACAD_REACTORS
330
6A5
102
}
330
1F
100
AcDbEntity
  8
LC-001-002-----0
 62
     7
370
    50
100
AcDbLine
 10
134.445358
 20
422.009735
 30
0.0
 11
135.390285
 21
422.009735
 31
0.0
  0
LINE
  5
48C
102
{ACAD_REACTORS
330
6A5
102
}
330
1F
100
AcDbEntity
  8
LC-001-002-----0
 62
     7
370
    50
100
AcDbLine
 10
134.445358
 20
421.309735
 30
0.0
 11
135.390285
 21
421.309735
 31
0.0
  0
LINE
  5
48D
102
{ACAD_REACTORS
330
6A5
102
}
330
1F
100
AcDbEntity
  8
LC-001-002-----0
 62
     7
370
    50
100
AcDbLine
 10
133.109911
 20
421.309735
 30
0.0
 11
134.445358
 21
422.009735
 31
0.0
  0
LINE
  5
48E
102
{ACAD_REACTORS
330
6A5
102
}
330
1F
100
AcDbEntity
  8
LC-001-002-----0
 62
     7
370
    50
100
AcDbLine
 10
133.109911
 20
421.309735
 30
0.0
 11
133.109911
 21
420.609735
 31
0.0
  0
LINE
  5
48F
102
{ACAD_REACTORS
330
6A5
102
}
330
1F
100
AcDbEntity
  8
LC-001-002-----0
 62
     7
370
    50
100
AcDbLine
 10
144.070659
 20
421.309735
 30
0.0
 11
144.070659
 21
420.609735
 31
0.0
  0
LINE
  5
490
102
{ACAD_REACTORS
330
6A5
102
}
330
1F
100
AcDbEntity
  8
LC-001-002-----0
 62
     7
370
    50
100
AcDbLine
 10
144.070659
 20
422.009735
 30
0.0
 11
144.070659
 21
422.709735
 31
0.0
  0
LINE
  5
491
102
{ACAD_REACTORS
330
6A6
102
}
330
1F
100
AcDbEntity
  8
LC-001-002-----0
 62
     7
370
    50
100
AcDbLine
 10
323.297304
 20
422.009735
 30
0.0
 11
322.352376
 21
422.009735
 31
0.0
  0
LINE
  5
492
102
{ACAD_REACTORS
330
6A6
102
}
330
1F
100
AcDbEntity
  8
LC-001-002-----0
 62
     7
370
    50
100
AcDbLine
 10
323.297304
 20
421.309735
 30
0.0
 11
322.352376
 21
421.309735
 31
0.0
  0
INSERT
  5
49D
102
{ACAD_REACTORS
330
6A6
102
}
330
1F
100
AcDbEntity
  8
LC-003-005-----0
 62
     7
370
    25
100
AcDbBlockReference
  2
*X1822
 10
0.0
 20
0.0
 30
0.0
  0
LINE
  5
49E
102
{ACAD_REACTORS
330
6A6
102
}
330
1F
100
AcDbEntity
  8
LC-001-002-----0
 62
     7
370
    50
100
AcDbLine
 10
331.977677
 20
420.609735
 30
0.0
 11
321.01693
 21
420.609735
 31
0.0
  0
LINE
  5
49F
102
{ACAD_REACTORS
330
6A6
102
}
330
1F
100
AcDbEntity
  8
LC-001-002-----0
 62
     7
370
    50
100
AcDbLine
 10
331.977677
 20
422.709735
 30
0.0
 11
321.01693
 21
422.709735
 31
0.0
  0
LINE
  5
4A0
102
{ACAD_REACTORS
330
6A6
102
}
330
1F
100
AcDbEntity
  8
LC-001-002-----0
 62
     7
370
    50
100
AcDbLine
 10
329.697304
 20
422.009735
 30
0.0
 11
329.697304
 21
421.309735
 31
0.0
  0
LINE
  5
4A1
102
{ACAD_REACTORS
330
6A6
102
}
330
1F
100
AcDbEntity
  8
LC-001-002-----0
 62
     7
370
    50
100
AcDbLine
 10
329.697304
 20
421.309735
 30
0.0
 11
323.297304
 21
421.309735
 31
0.0
  0
LINE
  5
4A2
102
{ACAD_REACTORS
330
6A6
102
}
330
1F
100
AcDbEntity
  8
LC-001-002-----0
 62
     7
370
    50
100
AcDbLine
 10
323.297304
 20
421.309735
 30
0.0
 11
323.297304
 21
422.009735
 31
0.0
  0
LINE
  5
4A3
102
{ACAD_REACTORS
330
6A6
102
}
330
1F
100
AcDbEntity
  8
LC-001-002-----0
 62
     7
370
    50
100
AcDbLine
 10
323.297304
 20
422.009735
 30
0.0
 11
329.697304
 21
422.009735
 31
0.0
  0
LINE
  5
4A4
102
{ACAD_REACTORS
330
6A6
102
}
330
1F
100
AcDbEntity
  8
LC-001-002-----0
 62
     7
370
    50
100
AcDbLine
 10
331.977677
 20
420.609735
 30
0.0
 11
330.642231
 21
421.309735
 31
0.0
  0
LINE
  5
4A5
102
{ACAD_REACTORS
330
6A6
102
}
330
1F
100
AcDbEntity
  8
LC-001-002-----0
 62
     7
370
    50
100
AcDbLine
 10
331.977677
 20
422.009735
 30
0.0
 11
331.309954
 21
421.659735
 31
0.0
  0
LINE
  5
4A6
102
{ACAD_REACTORS
330
6A6
102
}
330
1F
100
AcDbEntity
  8
LC-001-002-----0
 62
     7
370
    50
100
AcDbLine
 10
331.977677
 20
422.009735
 30
0.0
 11
331.977677
 21
422.709735
 31
0.0
  0
LINE
  5
4A7
102
{ACAD_REACTORS
330
6A6
102
}
330
1F
100
AcDbEntity
  8
LC-001-002-----0
 62
     7
370
    50
100
AcDbLine
 10
331.977677
 20
422.709735
 30
0.0
 11
330.642231
 21
422.009735
 31
0.0
  0
LINE
  5
4A8
102
{ACAD_REACTORS
330
6A6
102
}
330
1F
100
AcDbEntity
  8
LC-001-002-----0
 62
     7
370
    50
100
AcDbLine
 10
321.01693
 20
422.709735
 30
0.0
 11
322.352376
 21
422.009735
 31
0.0
  0
LINE
  5
4A9
102
{ACAD_REACTORS
330
6A6
102
}
330
1F
100
AcDbEntity
  8
LC-001-002-----0
 62
     7
370
    50
100
AcDbLine
 10
321.01693
 20
422.009735
 30
0.0
 11
322.352376
 21
421.309735
 31
0.0
  0
LINE
  5
4AA
102
{ACAD_REACTORS
330
6A6
102
}
330
1F
100
AcDbEntity
  8
LC-001-002-----0
 62
     7
370
    50
100
AcDbLine
 10
321.01693
 20
421.309735
 30
0.0
 11
321.684653
 21
421.659735
 31
0.0
  0
LINE
  5
4AB
102
{ACAD_REACTORS
330
6A6
102
}
330
1F
100
AcDbEntity
  8
LC-001-002-----0
 62
     7
370
    50
100
AcDbLine
 10
321.01693
 20
420.609735
 30
0.0
 11
322.352376
 21
421.309735
 31
0.0
  0
LINE
  5
4AC
102
{ACAD_REACTORS
330
6A6
102
}
330
1F
100
AcDbEntity
  8
LC-001-002-----0
 62
     7
370
    50
100
AcDbLine
 10
330.642231
 20
422.009735
 30
0.0
 11
329.697304
 21
422.009735
 31
0.0
  0
LINE
  5
4AD
102
{ACAD_REACTORS
330
6A6
102
}
330
1F
100
AcDbEntity
  8
LC-001-002-----0
 62
     7
370
    50
100
AcDbLine
 10
330.642231
 20
421.309735
 30
0.0
 11
329.697304
 21
421.309735
 31
0.0
  0
LINE
  5
4AE
102
{ACAD_REACTORS
330
6A6
102
}
330
1F
100
AcDbEntity
  8
LC-001-002-----0
 62
     7
370
    50
100
AcDbLine
 10
331.977677
 20
421.309735
 30
0.0
 11
330.642231
 21
422.009735
 31
0.0
  0
LINE
  5
4AF
102
{ACAD_REACTORS
330
6A6
102
}
330
1F
100
AcDbEntity
  8
LC-001-002-----0
 62
     7
370
    50
100
AcDbLine
 10
331.977677
 20
421.309735
 30
0.0
 11
331.977677
 21
420.609735
 31
0.0
  0
LINE
  5
4B0
102
{ACAD_REACTORS
330
6A6
102
}
330
1F
100
AcDbEntity
  8
LC-001-002-----0
 62
     7
370
    50
100
AcDbLine
 10
321.01693
 20
421.309735
 30
0.0
 11
321.01693
 21
420.609735
 31
0.0
  0
LINE
  5
4B1
102
{ACAD_REACTORS
330
6A6
102
}
330
1F
100
AcDbEntity
  8
LC-001-002-----0
 62
     7
370
    50
100
AcDbLine
 10
321.01693
 20
422.009735
 30
0.0
 11
321.01693
 21
422.709735
 31
0.0
  0
LINE
  5
4B2
330
1F
100
AcDbEntity
  8
LC-001-002-----0
 62
     7
370
    50
100
AcDbLine
 10
232.543794
 20
-37.084
 30
0.0
 11
190.543794
 21
-37.084
 31
0.0
  0
DIMENSION
  5
4B3
330
1F
100
AcDbEntity
  8
LC-006-003-----0
 62
     7
370
    25
100
AcDbDimension
  2
*D23
 10
277.543794
 20
-93.06
 30
0.0
 11
232.543794
 21
-62.26
 31
0.0
 70
   160
  1
%%c<>
 71
     5
 42
90.0
  3
LC-DIM-L-0140-02-02
100
AcDbAlignedDimension
 13
187.543794
 23
-32.584
 33
0.0
 14
277.543794
 24
-32.584
 34
0.0
100
AcDbRotatedDimension
  0
ARC
  5
4C0
102
{ACAD_REACTORS
330
6A7
102
}
330
1F
100
AcDbEntity
  8
LC-002-002-RND-0
 62
     7
370
    50
100
AcDbCircle
 10
286.072938
 20
-23.526834
 30
0.0
 40
0.5000000000000426
100
AcDbArc
 50
280.0
 51
90.0
  0
ARC
  5
4C1
102
{ACAD_REACTORS
330
6A7
102
}
330
1F
100
AcDbEntity
  8
LC-002-002-RND-0
 62
     7
370
    50
100
AcDbCircle
 10
286.072938
 20
-11.196669
 30
0.0
 40
0.5000000000000426
100
AcDbArc
 50
280.0
 51
90.0
  0
LINE
  5
4C2
102
{ACAD_REACTORS
330
6A7
102
}
330
1F
100
AcDbEntity
  8
LC-001-002-----0
 62
     7
370
    50
100
AcDbLine
 10
277.568428
 20
272.897142
 30
0.0
 11
277.568428
 21
-27.084
 31
0.0
  0
ARC
  5
4C3
102
{ACAD_REACTORS
330
6A7
102
}
330
1F
100
AcDbEntity
  8
LC-002-002-RND-0
 62
     7
370
    50
100
AcDbCircle
 10
286.072938
 20
1.133497
 30
0.0
 40
0.4999999999999307
100
AcDbArc
 50
280.0
 51
90.0
  0
ARC
  5
4C4
102
{ACAD_REACTORS
330
6A7
102
}
330
1F
100
AcDbEntity
  8
LC-002-002-RND-0
 62
     7
370
    50
100
AcDbCircle
 10
286.072938
 20
13.463663
 30
0.0
 40
0.4999999999999307
100
AcDbArc
 50
280.0
 51
90.0
  0
ARC
  5
4C5
102
{ACAD_REACTORS
330
6A7
102
}
330
1F
100
AcDbEntity
  8
LC-002-002-RND-0
 62
     7
370
    50
100
AcDbCircle
 10
286.072938
 20
25.793828
 30
0.0
 40
0.4999999999999307
100
AcDbArc
 50
280.0
 51
90.0
  0
ARC
  5
4C6
102
{ACAD_REACTORS
330
6A7
102
}
330
1F
100
AcDbEntity
  8
LC-002-002-RND-0
 62
     7
370
    50
100
AcDbCircle
 10
286.072938
 20
38.123994
 30
0.0
 40
0.4999999999999307
100
AcDbArc
 50
280.0
 51
90.0
  0
ARC
  5
4C7
102
{ACAD_REACTORS
330
6A7
102
}
330
1F
100
AcDbEntity
  8
LC-002-002-RND-0
 62
     7
370
    50
100
AcDbCircle
 10
286.072938
 20
50.45416
 30
0.0
 40
0.4999999999999307
100
AcDbArc
 50
280.0
 51
90.0
  0
ARC
  5
4C8
102
{ACAD_REACTORS
330
6A7
102
}
330
1F
100
AcDbEntity
  8
LC-002-002-RND-0
 62
     7
370
    50
100
AcDbCircle
 10
286.072938
 20
62.784325
 30
0.0
 40
0.5000000000000426
100
AcDbArc
 50
280.0
 51
90.0
  0
ARC
  5
4C9
102
{ACAD_REACTORS
330
6A7
102
}
330
1F
100
AcDbEntity
  8
LC-002-002-RND-0
 62
     7
370
    50
100
AcDbCircle
 10
286.072938
 20
75.114491
 30
0.0
 40
0.4999999999999307
100
AcDbArc
 50
280.0
 51
90.0
  0
ARC
  5
4CA
102
{ACAD_REACTORS
330
6A7
102
}
330
1F
100
AcDbEntity
  8
LC-002-002-RND-0
 62
     7
370
    50
100
AcDbCircle
 10
279.572403
 20
269.727782
 30
0.0
 40
0.9999999999999931
100
AcDbArc
 50
100.0
 51
180.0
  0
ARC
  5
4CB
102
{ACAD_REACTORS
330
6A7
102
}
330
1F
100
AcDbEntity
  8
LC-002-002-RND-0
 62
     7
370
    50
100
AcDbCircle
 10
286.072938
 20
87.444657
 30
0.0
 40
0.5000000000000426
100
AcDbArc
 50
280.0
 51
90.0
  0
ARC
  5
4CC
102
{ACAD_REACTORS
330
6A7
102
}
330
1F
100
AcDbEntity
  8
LC-002-002-RND-0
 62
     7
370
    50
100
AcDbCircle
 10
286.072938
 20
99.774822
 30
0.0
 40
0.4999999999999307
100
AcDbArc
 50
280.0
 51
90.0
  0
ARC
  5
4CD
102
{ACAD_REACTORS
330
6A7
102
}
330
1F
100
AcDbEntity
  8
LC-002-002-RND-0
 62
     7
370
    50
100
AcDbCircle
 10
286.072938
 20
112.104988
 30
0.0
 40
0.5000000000000426
100
AcDbArc
 50
280.0
 51
90.0
  0
ARC
  5
4CE
102
{ACAD_REACTORS
330
6A7
102
}
330
1F
100
AcDbEntity
  8
LC-002-002-RND-0
 62
     7
370
    50
100
AcDbCircle
 10
286.072938
 20
124.435154
 30
0.0
 40
0.4999999999999307
100
AcDbArc
 50
280.0
 51
90.0
  0
ARC
  5
4CF
102
{ACAD_REACTORS
330
6A7
102
}
330
1F
100
AcDbEntity
  8
LC-002-002-RND-0
 62
     7
370
    50
100
AcDbCircle
 10
286.072938
 20
136.765319
 30
0.0
 40
0.5000000000000426
100
AcDbArc
 50
280.0
 51
90.0
  0
ARC
  5
4D0
102
{ACAD_REACTORS
330
6A7
102
}
330
1F
100
AcDbEntity
  8
LC-002-002-RND-0
 62
     7
370
    50
100
AcDbCircle
 10
286.072938
 20
149.095485
 30
0.0
 40
0.4999999999999307
100
AcDbArc
 50
280.0
 51
90.0
  0
ARC
  5
4D1
102
{ACAD_REACTORS
330
6A7
102
}
330
1F
100
AcDbEntity
  8
LC-002-002-RND-0
 62
     7
370
    50
100
AcDbCircle
 10
286.072938
 20
161.425651
 30
0.0
 40
0.5000000000000426
100
AcDbArc
 50
280.0
 51
90.0
  0
ARC
  5
4D2
102
{ACAD_REACTORS
330
6A7
102
}
330
1F
100
AcDbEntity
  8
LC-002-002-RND-0
 62
     7
370
    50
100
AcDbCircle
 10
286.072938
 20
173.755816
 30
0.0
 40
0.5000000000000426
100
AcDbArc
 50
280.0
 51
90.0
  0
ARC
  5
4D3
102
{ACAD_REACTORS
330
6A7
102
}
330
1F
100
AcDbEntity
  8
LC-002-002-RND-0
 62
     7
370
    50
100
AcDbCircle
 10
286.072938
 20
186.085982
 30
0.0
 40
0.4999999999999307
100
AcDbArc
 50
280.0
 51
90.0
  0
ARC
  5
4D4
102
{ACAD_REACTORS
330
6A7
102
}
330
1F
100
AcDbEntity
  8
LC-002-002-RND-0
 62
     7
370
    50
100
AcDbCircle
 10
286.072938
 20
198.416148
 30
0.0
 40
0.4999999999999307
100
AcDbArc
 50
280.0
 51
90.0
  0
ARC
  5
4D5
102
{ACAD_REACTORS
330
6A7
102
}
330
1F
100
AcDbEntity
  8
LC-002-002-RND-0
 62
     7
370
    50
100
AcDbCircle
 10
286.072938
 20
210.746313
 30
0.0
 40
0.4999999999999307
100
AcDbArc
 50
280.0
 51
90.0
  0
ARC
  5
4D6
102
{ACAD_REACTORS
330
6A7
102
}
330
1F
100
AcDbEntity
  8
LC-002-002-RND-0
 62
     7
370
    50
100
AcDbCircle
 10
286.072938
 20
223.076479
 30
0.0
 40
0.4999999999999307
100
AcDbArc
 50
280.0
 51
90.0
  0
ARC
  5
4D7
102
{ACAD_REACTORS
330
6A7
102
}
330
1F
100
AcDbEntity
  8
LC-002-002-RND-0
 62
     7
370
    50
100
AcDbCircle
 10
286.072938
 20
235.406645
 30
0.0
 40
0.4999999999999307
100
AcDbArc
 50
280.0
 51
90.0
  0
ARC
  5
4D8
102
{ACAD_REACTORS
330
6A7
102
}
330
1F
100
AcDbEntity
  8
LC-002-002-RND-0
 62
     7
370
    50
100
AcDbCircle
 10
286.072938
 20
247.73681
 30
0.0
 40
0.4999999999999307
100
AcDbArc
 50
280.0
 51
90.0
  0
ARC
  5
4D9
102
{ACAD_REACTORS
330
6A7
102
}
330
1F
100
AcDbEntity
  8
LC-002-002-RND-0
 62
     7
370
    50
100
AcDbCircle
 10
286.072938
 20
260.066976
 30
0.0
 40
0.4999999999999307
100
AcDbArc
 50
280.0
 51
90.0
  0
ARC
  5
4DA
102
{ACAD_REACTORS
330
6A7
102
}
330
1F
100
AcDbEntity
  8
LC-002-002-RND-0
 62
     7
370
    50
100
AcDbCircle
 10
286.072938
 20
272.397142
 30
0.0
 40
0.4999999999999307
100
AcDbArc
 50
280.0
 51
90.0
  0
ARC
  5
4DB
102
{ACAD_REACTORS
330
6A7
102
}
330
1F
100
AcDbEntity
  8
LC-002-002-RND-0
 62
     7
370
    50
100
AcDbCircle
 10
279.572403
 20
257.397616
 30
0.0
 40
0.9999999999999931
100
AcDbArc
 50
100.0
 51
180.0
  0
ARC
  5
4DC
102
{ACAD_REACTORS
330
6A7
102
}
330
1F
100
AcDbEntity
  8
LC-002-002-RND-0
 62
     7
370
    50
100
AcDbCircle
 10
279.572403
 20
245.067451
 30
0.0
 40
0.9999999999999931
100
AcDbArc
 50
100.0
 51
180.0
  0
ARC
  5
4DD
102
{ACAD_REACTORS
330
6A7
102
}
330
1F
100
AcDbEntity
  8
LC-002-002-RND-0
 62
     7
370
    50
100
AcDbCircle
 10
279.572403
 20
232.737285
 30
0.0
 40
0.9999999999999931
100
AcDbArc
 50
100.0
 51
180.0
  0
ARC
  5
4DE
102
{ACAD_REACTORS
330
6A7
102
}
330
1F
100
AcDbEntity
  8
LC-002-002-RND-0
 62
     7
370
    50
100
AcDbCircle
 10
279.572403
 20
220.407119
 30
0.0
 40
0.9999999999999931
100
AcDbArc
 50
100.0
 51
180.0
  0
ARC
  5
4DF
102
{ACAD_REACTORS
330
6A7
102
}
330
1F
100
AcDbEntity
  8
LC-002-002-RND-0
 62
     7
370
    50
100
AcDbCircle
 10
279.572403
 20
208.076954
 30
0.0
 40
0.9999999999999931
100
AcDbArc
 50
100.0
 51
180.0
  0
ARC
  5
4E0
102
{ACAD_REACTORS
330
6A7
102
}
330
1F
100
AcDbEntity
  8
LC-002-002-RND-0
 62
     7
370
    50
100
AcDbCircle
 10
279.572403
 20
195.746788
 30
0.0
 40
0.9999999999999931
100
AcDbArc
 50
100.0
 51
180.0
  0
ARC
  5
4E1
102
{ACAD_REACTORS
330
6A7
102
}
330
1F
100
AcDbEntity
  8
LC-002-002-RND-0
 62
     7
370
    50
100
AcDbCircle
 10
279.572403
 20
183.416622
 30
0.0
 40
0.9999999999999931
100
AcDbArc
 50
100.0
 51
180.0
  0
ARC
  5
4E2
102
{ACAD_REACTORS
330
6A7
102
}
330
1F
100
AcDbEntity
  8
LC-002-002-RND-0
 62
     7
370
    50
100
AcDbCircle
 10
279.572403
 20
171.086457
 30
0.0
 40
0.9999999999999734
100
AcDbArc
 50
100.0
 51
180.0
  0
ARC
  5
4E3
102
{ACAD_REACTORS
330
6A7
102
}
330
1F
100
AcDbEntity
  8
LC-002-002-RND-0
 62
     7
370
    50
100
AcDbCircle
 10
279.572403
 20
158.756291
 30
0.0
 40
0.9999999999999931
100
AcDbArc
 50
100.0
 51
180.0
  0
ARC
  5
4E4
102
{ACAD_REACTORS
330
6A7
102
}
330
1F
100
AcDbEntity
  8
LC-002-002-RND-0
 62
     7
370
    50
100
AcDbCircle
 10
279.572403
 20
146.426125
 30
0.0
 40
0.9999999999999931
100
AcDbArc
 50
100.0
 51
180.0
  0
ARC
  5
4E5
102
{ACAD_REACTORS
330
6A7
102
}
330
1F
100
AcDbEntity
  8
LC-002-002-RND-0
 62
     7
370
    50
100
AcDbCircle
 10
279.572403
 20
134.09596
 30
0.0
 40
0.9999999999999931
100
AcDbArc
 50
100.0
 51
180.0
  0
ARC
  5
4E6
102
{ACAD_REACTORS
330
6A7
102
}
330
1F
100
AcDbEntity
  8
LC-002-002-RND-0
 62
     7
370
    50
100
AcDbCircle
 10
279.572403
 20
121.765794
 30
0.0
 40
0.9999999999999931
100
AcDbArc
 50
100.0
 51
180.0
  0
ARC
  5
4E7
102
{ACAD_REACTORS
330
6A7
102
}
330
1F
100
AcDbEntity
  8
LC-002-002-RND-0
 62
     7
370
    50
100
AcDbCircle
 10
279.572403
 20
109.435628
 30
0.0
 40
0.9999999999999734
100
AcDbArc
 50
100.0
 51
180.0
  0
ARC
  5
4E8
102
{ACAD_REACTORS
330
6A7
102
}
330
1F
100
AcDbEntity
  8
LC-002-002-RND-0
 62
     7
370
    50
100
AcDbCircle
 10
279.572403
 20
97.105463
 30
0.0
 40
0.9999999999999931
100
AcDbArc
 50
100.0
 51
180.0
  0
ARC
  5
4E9
102
{ACAD_REACTORS
330
6A7
102
}
330
1F
100
AcDbEntity
  8
LC-002-002-RND-0
 62
     7
370
    50
100
AcDbCircle
 10
279.572403
 20
84.775297
 30
0.0
 40
0.9999999999999734
100
AcDbArc
 50
100.0
 51
180.0
  0
ARC
  5
4EA
102
{ACAD_REACTORS
330
6A7
102
}
330
1F
100
AcDbEntity
  8
LC-002-002-RND-0
 62
     7
370
    50
100
AcDbCircle
 10
279.572403
 20
72.445131
 30
0.0
 40
0.9999999999999734
100
AcDbArc
 50
100.0
 51
180.0
  0
ARC
  5
4EB
102
{ACAD_REACTORS
330
6A7
102
}
330
1F
100
AcDbEntity
  8
LC-002-002-RND-0
 62
     7
370
    50
100
AcDbCircle
 10
279.572403
 20
60.114966
 30
0.0
 40
0.9999999999999734
100
AcDbArc
 50
100.0
 51
180.0
  0
ARC
  5
4EC
102
{ACAD_REACTORS
330
6A7
102
}
330
1F
100
AcDbEntity
  8
LC-002-002-RND-0
 62
     7
370
    50
100
AcDbCircle
 10
279.572403
 20
47.7848
 30
0.0
 40
0.9999999999999931
100
AcDbArc
 50
100.0
 51
180.0
  0
ARC
  5
4ED
102
{ACAD_REACTORS
330
6A7
102
}
330
1F
100
AcDbEntity
  8
LC-002-002-RND-0
 62
     7
370
    50
100
AcDbCircle
 10
279.572403
 20
35.454634
 30
0.0
 40
0.9999999999999931
100
AcDbArc
 50
100.0
 51
180.0
  0
LINE
  5
4EE
102
{ACAD_REACTORS
330
6A7
102
}
330
1F
100
AcDbEntity
  8
LC-001-002-----0
 62
     7
370
    50
100
AcDbLine
 10
286.159762
 20
185.593578
 30
0.0
 11
279.398755
 21
184.40143
 31
0.0
  0
LINE
  5
4EF
102
{ACAD_REACTORS
330
6A7
102
}
330
1F
100
AcDbEntity
  8
LC-001-002-----0
 62
     7
370
    50
100
AcDbLine
 10
286.159762
 20
173.263412
 30
0.0
 11
279.398755
 21
172.071264
 31
0.0
  0
LINE
  5
4F0
102
{ACAD_REACTORS
330
6A7
102
}
330
1F
100
AcDbEntity
  8
LC-001-002-----0
 62
     7
370
    50
100
AcDbLine
 10
286.072938
 20
161.925651
 30
0.0
 11
279.072403
 21
161.925651
 31
0.0
  0
LINE
  5
4F1
102
{ACAD_REACTORS
330
6A7
102
}
330
1F
100
AcDbEntity
  8
LC-001-002-----0
 62
     7
370
    50
100
AcDbLine
 10
286.072938
 20
174.255816
 30
0.0
 11
279.072403
 21
174.255816
 31
0.0
  0
LINE
  5
4F2
102
{ACAD_REACTORS
330
6A7
102
}
330
1F
100
AcDbEntity
  8
LC-001-002-----0
 62
     7
370
    50
100
AcDbLine
 10
286.072938
 20
186.585982
 30
0.0
 11
279.072403
 21
186.585982
 31
0.0
  0
LINE
  5
4F3
102
{ACAD_REACTORS
330
6A7
102
}
330
1F
100
AcDbEntity
  8
LC-001-002-----0
 62
     7
370
    50
100
AcDbLine
 10
286.072938
 20
198.916148
 30
0.0
 11
279.072403
 21
198.916148
 31
0.0
  0
LINE
  5
4F4
102
{ACAD_REACTORS
330
6A7
102
}
330
1F
100
AcDbEntity
  8
LC-001-002-----0
 62
     7
370
    50
100
AcDbLine
 10
286.159762
 20
160.933247
 30
0.0
 11
279.398755
 21
159.741099
 31
0.0
  0
LINE
  5
4F5
102
{ACAD_REACTORS
330
6A7
102
}
330
1F
100
AcDbEntity
  8
LC-001-002-----0
 62
     7
370
    50
100
AcDbLine
 10
286.159762
 20
148.603081
 30
0.0
 11
279.398755
 21
147.410933
 31
0.0
  0
LINE
  5
4F6
102
{ACAD_REACTORS
330
6A7
102
}
330
1F
100
AcDbEntity
  8
LC-001-002-----0
 62
     7
370
    50
100
AcDbLine
 10
286.159762
 20
136.272915
 30
0.0
 11
279.398755
 21
135.080767
 31
0.0
  0
ARC
  5
4F7
102
{ACAD_REACTORS
330
6A7
102
}
330
1F
100
AcDbEntity
  8
LC-002-002-RND-0
 62
     7
370
    50
100
AcDbCircle
 10
279.572403
 20
23.124469
 30
0.0
 40
0.9999999999999734
100
AcDbArc
 50
100.0
 51
180.0
  0
ARC
  5
4F8
102
{ACAD_REACTORS
330
6A7
102
}
330
1F
100
AcDbEntity
  8
LC-002-002-RND-0
 62
     7
370
    50
100
AcDbCircle
 10
279.572403
 20
10.794303
 30
0.0
 40
0.9999999999999734
100
AcDbArc
 50
100.0
 51
180.0
  0
ARC
  5
4F9
102
{ACAD_REACTORS
330
6A7
102
}
330
1F
100
AcDbEntity
  8
LC-002-002-RND-0
 62
     7
370
    50
100
AcDbCircle
 10
279.572403
 20
-1.535863
 30
0.0
 40
0.9999999999999735
100
AcDbArc
 50
100.0
 51
180.0
  0
ARC
  5
4FA
102
{ACAD_REACTORS
330
6A7
102
}
330
1F
100
AcDbEntity
  8
LC-002-002-RND-0
 62
     7
370
    50
100
AcDbCircle
 10
279.572403
 20
-13.866028
 30
0.0
 40
0.9999999999999734
100
AcDbArc
 50
100.0
 51
180.0
  0
ARC
  5
4FB
102
{ACAD_REACTORS
330
6A7
102
}
330
1F
100
AcDbEntity
  8
LC-002-002-RND-0
 62
     7
370
    50
100
AcDbCircle
 10
279.572403
 20
-26.196194
 30
0.0
 40
0.9999999999999734
100
AcDbArc
 50
100.0
 51
180.0
  0
ARC
  5
4FC
102
{ACAD_REACTORS
330
6A7
102
}
330
1F
100
AcDbEntity
  8
LC-002-002-RND-0
 62
     7
370
    50
100
AcDbCircle
 10
279.072403
 20
-22.526834
 30
0.0
 40
0.5
100
AcDbArc
 50
180.0
 51
270.0
  0
ARC
  5
4FD
102
{ACAD_REACTORS
330
6A7
102
}
330
1F
100
AcDbEntity
  8
LC-002-002-RND-0
 62
     7
370
    50
100
AcDbCircle
 10
279.072403
 20
-10.196669
 30
0.0
 40
0.5
100
AcDbArc
 50
180.0
 51
270.0
  0
ARC
  5
4FE
102
{ACAD_REACTORS
330
6A7
102
}
330
1F
100
AcDbEntity
  8
LC-002-002-RND-0
 62
     7
370
    50
100
AcDbCircle
 10
279.072403
 20
2.133497
 30
0.0
 40
0.5
100
AcDbArc
 50
180.0
 51
270.0
  0
LINE
  5
4FF
102
{ACAD_REACTORS
330
6A7
102
}
330
1F
100
AcDbEntity
  8
LC-001-002-----0
 62
     7
370
    50
100
AcDbLine
 10
278.572403
 20
269.727782
 30
0.0
 11
278.572403
 21
261.066976
 31
0.0
  0
ARC
  5
500
102
{ACAD_REACTORS
330
6A7
102
}
330
1F
100
AcDbEntity
  8
LC-002-002-RND-0
 62
     7
370
    50
100
AcDbCircle
 10
279.072403
 20
14.463663
 30
0.0
 40
0.5
100
AcDbArc
 50
180.0
 51
270.0
  0
ARC
  5
501
102
{ACAD_REACTORS
330
6A7
102
}
330
1F
100
AcDbEntity
  8
LC-002-002-RND-0
 62
     7
370
    50
100
AcDbCircle
 10
279.072403
 20
26.793828
 30
0.0
 40
0.5
100
AcDbArc
 50
180.0
 51
270.0
  0
LINE
  5
502
102
{ACAD_REACTORS
330
6A7
102
}
330
1F
100
AcDbEntity
  8
LC-001-002-----0
 62
     7
370
    50
100
AcDbLine
 10
279.072403
 20
-23.026834
 30
0.0
 11
286.072938
 21
-23.026834
 31
0.0
  0
ARC
  5
503
102
{ACAD_REACTORS
330
6A7
102
}
330
1F
100
AcDbEntity
  8
LC-002-002-RND-0
 62
     7
370
    50
100
AcDbCircle
 10
279.072403
 20
39.123994
 30
0.0
 40
0.5
100
AcDbArc
 50
180.0
 51
270.0
  0
ARC
  5
504
102
{ACAD_REACTORS
330
6A7
102
}
330
1F
100
AcDbEntity
  8
LC-002-002-RND-0
 62
     7
370
    50
100
AcDbCircle
 10
279.072403
 20
51.45416
 30
0.0
 40
0.5
100
AcDbArc
 50
180.0
 51
270.0
  0
ARC
  5
505
102
{ACAD_REACTORS
330
6A7
102
}
330
1F
100
AcDbEntity
  8
LC-002-002-RND-0
 62
     7
370
    50
100
AcDbCircle
 10
279.072403
 20
63.784325
 30
0.0
 40
0.5
100
AcDbArc
 50
180.0
 51
270.0
  0
LINE
  5
506
102
{ACAD_REACTORS
330
6A7
102
}
330
1F
100
AcDbEntity
  8
LC-001-002-----0
 62
     7
370
    50
100
AcDbLine
 10
279.072403
 20
-10.696669
 30
0.0
 11
286.072938
 21
-10.696669
 31
0.0
  0
LINE
  5
507
102
{ACAD_REACTORS
330
6A7
102
}
330
1F
100
AcDbEntity
  8
LC-001-002-----0
 62
     7
370
    50
100
AcDbLine
 10
286.159762
 20
123.94275
 30
0.0
 11
279.398755
 21
122.750602
 31
0.0
  0
LINE
  5
508
102
{ACAD_REACTORS
330
6A7
102
}
330
1F
100
AcDbEntity
  8
LC-001-002-----0
 62
     7
370
    50
100
AcDbLine
 10
279.072403
 20
1.633497
 30
0.0
 11
286.072938
 21
1.633497
 31
0.0
  0
LINE
  5
509
102
{ACAD_REACTORS
330
6A7
102
}
330
1F
100
AcDbEntity
  8
LC-001-002-----0
 62
     7
370
    50
100
AcDbLine
 10
286.159762
 20
111.612584
 30
0.0
 11
279.398755
 21
110.420436
 31
0.0
  0
LINE
  5
50A
102
{ACAD_REACTORS
330
6A7
102
}
330
1F
100
AcDbEntity
  8
LC-001-002-----0
 62
     7
370
    50
100
AcDbLine
 10
279.072403
 20
13.963663
 30
0.0
 11
286.072938
 21
13.963663
 31
0.0
  0
LINE
  5
50B
102
{ACAD_REACTORS
330
6A7
102
}
330
1F
100
AcDbEntity
  8
LC-001-002-----0
 62
     7
370
    50
100
AcDbLine
 10
286.159762
 20
99.282418
 30
0.0
 11
279.398755
 21
98.09027
 31
0.0
  0
LINE
  5
50C
102
{ACAD_REACTORS
330
6A7
102
}
330
1F
100
AcDbEntity
  8
LC-001-002-----0
 62
     7
370
    50
100
AcDbLine
 10
279.072403
 20
26.293828
 30
0.0
 11
286.072938
 21
26.293828
 31
0.0
  0
LINE
  5
50D
102
{ACAD_REACTORS
330
6A7
102
}
330
1F
100
AcDbEntity
  8
LC-001-002-----0
 62
     7
370
    50
100
AcDbLine
 10
286.159762
 20
86.952253
 30
0.0
 11
279.398755
 21
85.760105
 31
0.0
  0
LINE
  5
50E
102
{ACAD_REACTORS
330
6A7
102
}
330
1F
100
AcDbEntity
  8
LC-001-002-----0
 62
     7
370
    50
100
AcDbLine
 10
286.159762
 20
74.622087
 30
0.0
 11
279.398755
 21
73.429939
 31
0.0
  0
LINE
  5
50F
102
{ACAD_REACTORS
330
6A7
102
}
330
1F
100
AcDbEntity
  8
LC-001-002-----0
 62
     7
370
    50
100
AcDbLine
 10
279.072403
 20
38.623994
 30
0.0
 11
286.072938
 21
38.623994
 31
0.0
  0
LINE
  5
510
102
{ACAD_REACTORS
330
6A7
102
}
330
1F
100
AcDbEntity
  8
LC-001-002-----0
 62
     7
370
    50
100
AcDbLine
 10
286.159762
 20
62.291921
 30
0.0
 11
279.398755
 21
61.099774
 31
0.0
  0
LINE
  5
511
102
{ACAD_REACTORS
330
6A7
102
}
330
1F
100
AcDbEntity
  8
LC-001-002-----0
 62
     7
370
    50
100
AcDbLine
 10
279.072403
 20
50.95416
 30
0.0
 11
286.072938
 21
50.95416
 31
0.0
  0
ARC
  5
512
102
{ACAD_REACTORS
330
6A7
102
}
330
1F
100
AcDbEntity
  8
LC-002-002-RND-0
 62
     7
370
    50
100
AcDbCircle
 10
279.072403
 20
76.114491
 30
0.0
 40
0.5
100
AcDbArc
 50
180.0
 51
270.0
  0
ARC
  5
513
102
{ACAD_REACTORS
330
6A7
102
}
330
1F
100
AcDbEntity
  8
LC-002-002-RND-0
 62
     7
370
    50
100
AcDbCircle
 10
279.072403
 20
88.444657
 30
0.0
 40
0.5
100
AcDbArc
 50
180.0
 51
270.0
  0
LINE
  5
514
102
{ACAD_REACTORS
330
6A7
102
}
330
1F
100
AcDbEntity
  8
LC-001-002-----0
 62
     7
370
    50
100
AcDbLine
 10
286.159762
 20
49.961756
 30
0.0
 11
279.398755
 21
48.769608
 31
0.0
  0
LINE
  5
515
102
{ACAD_REACTORS
330
6A7
102
}
330
1F
100
AcDbEntity
  8
LC-001-002-----0
 62
     7
370
    50
100
AcDbLine
 10
279.072403
 20
63.284325
 30
0.0
 11
286.072938
 21
63.284325
 31
0.0
  0
LINE
  5
516
102
{ACAD_REACTORS
330
6A7
102
}
330
1F
100
AcDbEntity
  8
LC-001-002-----0
 62
     7
370
    50
100
AcDbLine
 10
286.159762
 20
37.63159
 30
0.0
 11
279.398755
 21
36.439442
 31
0.0
  0
LINE
  5
517
102
{ACAD_REACTORS
330
6A7
102
}
330
1F
100
AcDbEntity
  8
LC-001-002-----0
 62
     7
370
    50
100
AcDbLine
 10
279.072403
 20
75.614491
 30
0.0
 11
286.072938
 21
75.614491
 31
0.0
  0
ARC
  5
518
102
{ACAD_REACTORS
330
6A7
102
}
330
1F
100
AcDbEntity
  8
LC-002-002-RND-0
 62
     7
370
    50
100
AcDbCircle
 10
279.072403
 20
100.774822
 30
0.0
 40
0.5
100
AcDbArc
 50
180.0
 51
270.0
  0
ARC
  5
519
102
{ACAD_REACTORS
330
6A7
102
}
330
1F
100
AcDbEntity
  8
LC-002-002-RND-0
 62
     7
370
    50
100
AcDbCircle
 10
279.072403
 20
113.104988
 30
0.0
 40
0.5
100
AcDbArc
 50
180.0
 51
270.0
  0
ARC
  5
51A
102
{ACAD_REACTORS
330
6A7
102
}
330
1F
100
AcDbEntity
  8
LC-002-002-RND-0
 62
     7
370
    50
100
AcDbCircle
 10
279.072403
 20
125.435154
 30
0.0
 40
0.5
100
AcDbArc
 50
180.0
 51
270.0
  0
ARC
  5
51B
102
{ACAD_REACTORS
330
6A7
102
}
330
1F
100
AcDbEntity
  8
LC-002-002-RND-0
 62
     7
370
    50
100
AcDbCircle
 10
279.072403
 20
137.765319
 30
0.0
 40
0.5
100
AcDbArc
 50
180.0
 51
270.0
  0
ARC
  5
51C
102
{ACAD_REACTORS
330
6A7
102
}
330
1F
100
AcDbEntity
  8
LC-002-002-RND-0
 62
     7
370
    50
100
AcDbCircle
 10
279.072403
 20
150.095485
 30
0.0
 40
0.5
100
AcDbArc
 50
180.0
 51
270.0
  0
LINE
  5
51D
102
{ACAD_REACTORS
330
6A7
102
}
330
1F
100
AcDbEntity
  8
LC-001-002-----0
 62
     7
370
    50
100
AcDbLine
 10
286.159762
 20
25.301424
 30
0.0
 11
279.398755
 21
24.109277
 31
0.0
  0
LINE
  5
51E
102
{ACAD_REACTORS
330
6A7
102
}
330
1F
100
AcDbEntity
  8
LC-001-002-----0
 62
     7
370
    50
100
AcDbLine
 10
286.159762
 20
12.971259
 30
0.0
 11
279.398755
 21
11.779111
 31
0.0
  0
ARC
  5
51F
102
{ACAD_REACTORS
330
6A7
102
}
330
1F
100
AcDbEntity
  8
LC-002-002-RND-0
 62
     7
370
    50
100
AcDbCircle
 10
279.072403
 20
162.425651
 30
0.0
 40
0.5
100
AcDbArc
 50
180.0
 51
270.0
  0
LINE
  5
520
102
{ACAD_REACTORS
330
6A7
102
}
330
1F
100
AcDbEntity
  8
LC-001-002-----0
 62
     7
370
    50
100
AcDbLine
 10
286.159762
 20
0.641093
 30
0.0
 11
279.398755
 21
-0.551055
 31
0.0
  0
ARC
  5
521
102
{ACAD_REACTORS
330
6A7
102
}
330
1F
100
AcDbEntity
  8
LC-002-002-RND-0
 62
     7
370
    50
100
AcDbCircle
 10
279.072403
 20
174.755816
 30
0.0
 40
0.5
100
AcDbArc
 50
180.0
 51
270.0
  0
LINE
  5
522
102
{ACAD_REACTORS
330
6A7
102
}
330
1F
100
AcDbEntity
  8
LC-001-002-----0
 62
     7
370
    50
100
AcDbLine
 10
286.159762
 20
-11.689073
 30
0.0
 11
279.398755
 21
-12.88122
 31
0.0
  0
LINE
  5
523
102
{ACAD_REACTORS
330
6A7
102
}
330
1F
100
AcDbEntity
  8
LC-001-002-----0
 62
     7
370
    50
100
AcDbLine
 10
286.159762
 20
-24.019238
 30
0.0
 11
279.398755
 21
-25.211386
 31
0.0
  0
LINE
  5
524
102
{ACAD_REACTORS
330
6A7
102
}
330
1F
100
AcDbEntity
  8
LC-001-002-----0
 62
     7
370
    50
100
AcDbLine
 10
278.072403
 20
-27.084
 30
0.0
 11
277.568428
 21
-27.084
 31
0.0
  0
LINE
  5
525
102
{ACAD_REACTORS
330
6A7
102
}
330
1F
100
AcDbEntity
  8
LC-001-002-----0
 62
     7
370
    50
100
AcDbLine
 10
278.572403
 20
-26.584
 30
0.0
 11
278.072403
 21
-27.084
 31
0.0
  0
LINE
  5
526
102
{ACAD_REACTORS
330
6A7
102
}
330
1F
100
AcDbEntity
  8
LC-001-002-----0
 62
     7
370
    50
100
AcDbLine
 10
279.072403
 20
87.944657
 30
0.0
 11
286.072938
 21
87.944657
 31
0.0
  0
LINE
  5
527
102
{ACAD_REACTORS
330
6A7
102
}
330
1F
100
AcDbEntity
  8
LC-001-002-----0
 62
     7
370
    50
100
AcDbLine
 10
279.072403
 20
100.274822
 30
0.0
 11
286.072938
 21
100.274822
 31
0.0
  0
LINE
  5
528
102
{ACAD_REACTORS
330
6A7
102
}
330
1F
100
AcDbEntity
  8
LC-001-002-----0
 62
     7
370
    50
100
AcDbLine
 10
279.072403
 20
112.604988
 30
0.0
 11
286.072938
 21
112.604988
 31
0.0
  0
LINE
  5
529
102
{ACAD_REACTORS
330
6A7
102
}
330
1F
100
AcDbEntity
  8
LC-001-002-----0
 62
     7
370
    50
100
AcDbLine
 10
279.072403
 20
124.935154
 30
0.0
 11
286.072938
 21
124.935154
 31
0.0
  0
LINE
  5
52A
102
{ACAD_REACTORS
330
6A7
102
}
330
1F
100
AcDbEntity
  8
LC-001-002-----0
 62
     7
370
    50
100
AcDbLine
 10
279.072403
 20
137.265319
 30
0.0
 11
286.072938
 21
137.265319
 31
0.0
  0
ARC
  5
52B
102
{ACAD_REACTORS
330
6A7
102
}
330
1F
100
AcDbEntity
  8
LC-002-002-RND-0
 62
     7
370
    50
100
AcDbCircle
 10
279.072403
 20
187.085982
 30
0.0
 40
0.5
100
AcDbArc
 50
180.0
 51
270.0
  0
ARC
  5
52C
102
{ACAD_REACTORS
330
6A7
102
}
330
1F
100
AcDbEntity
  8
LC-002-002-RND-0
 62
     7
370
    50
100
AcDbCircle
 10
279.072403
 20
199.416148
 30
0.0
 40
0.5
100
AcDbArc
 50
180.0
 51
270.0
  0
ARC
  5
52D
102
{ACAD_REACTORS
330
6A7
102
}
330
1F
100
AcDbEntity
  8
LC-002-002-RND-0
 62
     7
370
    50
100
AcDbCircle
 10
279.072403
 20
211.746313
 30
0.0
 40
0.5
100
AcDbArc
 50
180.0
 51
270.0
  0
ARC
  5
52E
102
{ACAD_REACTORS
330
6A7
102
}
330
1F
100
AcDbEntity
  8
LC-002-002-RND-0
 62
     7
370
    50
100
AcDbCircle
 10
279.072403
 20
224.076479
 30
0.0
 40
0.5
100
AcDbArc
 50
180.0
 51
270.0
  0
ARC
  5
52F
102
{ACAD_REACTORS
330
6A7
102
}
330
1F
100
AcDbEntity
  8
LC-002-002-RND-0
 62
     7
370
    50
100
AcDbCircle
 10
279.072403
 20
236.406645
 30
0.0
 40
0.5
100
AcDbArc
 50
180.0
 51
270.0
  0
ARC
  5
530
102
{ACAD_REACTORS
330
6A7
102
}
330
1F
100
AcDbEntity
  8
LC-002-002-RND-0
 62
     7
370
    50
100
AcDbCircle
 10
279.072403
 20
248.73681
 30
0.0
 40
0.5
100
AcDbArc
 50
180.0
 51
270.0
  0
ARC
  5
531
102
{ACAD_REACTORS
330
6A7
102
}
330
1F
100
AcDbEntity
  8
LC-002-002-RND-0
 62
     7
370
    50
100
AcDbCircle
 10
279.072403
 20
261.066976
 30
0.0
 40
0.5
100
AcDbArc
 50
180.0
 51
270.0
  0
LINE
  5
532
102
{ACAD_REACTORS
330
6A7
102
}
330
1F
100
AcDbEntity
  8
LC-001-002-----0
 62
     7
370
    50
100
AcDbLine
 10
286.072938
 20
149.595485
 30
0.0
 11
279.072403
 21
149.595485
 31
0.0
  0
LINE
  5
533
102
{ACAD_REACTORS
330
6A7
102
}
330
1F
100
AcDbEntity
  8
LC-001-002-----0
 62
     7
370
    50
100
AcDbLine
 10
286.159762
 20
197.923744
 30
0.0
 11
279.398755
 21
196.731596
 31
0.0
  0
LINE
  5
534
102
{ACAD_REACTORS
330
6A7
102
}
330
1F
100
AcDbEntity
  8
LC-001-002-----0
 62
     7
370
    50
100
AcDbLine
 10
286.072938
 20
211.246313
 30
0.0
 11
279.072403
 21
211.246313
 31
0.0
  0
LINE
  5
535
102
{ACAD_REACTORS
330
6A7
102
}
330
1F
100
AcDbEntity
  8
LC-001-002-----0
 62
     7
370
    50
100
AcDbLine
 10
286.159762
 20
210.253909
 30
0.0
 11
279.398755
 21
209.061761
 31
0.0
  0
LINE
  5
536
102
{ACAD_REACTORS
330
6A7
102
}
330
1F
100
AcDbEntity
  8
LC-001-002-----0
 62
     7
370
    50
100
AcDbLine
 10
286.072938
 20
223.576479
 30
0.0
 11
279.072403
 21
223.576479
 31
0.0
  0
LINE
  5
537
102
{ACAD_REACTORS
330
6A7
102
}
330
1F
100
AcDbEntity
  8
LC-001-002-----0
 62
     7
370
    50
100
AcDbLine
 10
286.159762
 20
222.584075
 30
0.0
 11
279.398755
 21
221.391927
 31
0.0
  0
LINE
  5
538
102
{ACAD_REACTORS
330
6A7
102
}
330
1F
100
AcDbEntity
  8
LC-001-002-----0
 62
     7
370
    50
100
AcDbLine
 10
286.072938
 20
235.906645
 30
0.0
 11
279.072403
 21
235.906645
 31
0.0
  0
LINE
  5
539
102
{ACAD_REACTORS
330
6A7
102
}
330
1F
100
AcDbEntity
  8
LC-001-002-----0
 62
     7
370
    50
100
AcDbLine
 10
286.159762
 20
234.914241
 30
0.0
 11
279.398755
 21
233.722093
 31
0.0
  0
LINE
  5
53A
102
{ACAD_REACTORS
330
6A7
102
}
330
1F
100
AcDbEntity
  8
LC-001-002-----0
 62
     7
370
    50
100
AcDbLine
 10
286.072938
 20
248.23681
 30
0.0
 11
279.072403
 21
248.23681
 31
0.0
  0
LINE
  5
53B
102
{ACAD_REACTORS
330
6A7
102
}
330
1F
100
AcDbEntity
  8
LC-001-002-----0
 62
     7
370
    50
100
AcDbLine
 10
286.159762
 20
247.244406
 30
0.0
 11
279.398755
 21
246.052258
 31
0.0
  0
LINE
  5
53C
102
{ACAD_REACTORS
330
6A7
102
}
330
1F
100
AcDbEntity
  8
LC-001-002-----0
 62
     7
370
    50
100
AcDbLine
 10
286.072938
 20
260.566976
 30
0.0
 11
279.072403
 21
260.566976
 31
0.0
  0
LINE
  5
53D
102
{ACAD_REACTORS
330
6A7
102
}
330
1F
100
AcDbEntity
  8
LC-001-002-----0
 62
     7
370
    50
100
AcDbLine
 10
286.159762
 20
259.574572
 30
0.0
 11
279.398755
 21
258.382424
 31
0.0
  0
LINE
  5
53E
102
{ACAD_REACTORS
330
6A7
102
}
330
1F
100
AcDbEntity
  8
LC-001-002-----0
 62
     7
370
    50
100
AcDbLine
 10
286.072938
 20
272.897142
 30
0.0
 11
277.568428
 21
272.897142
 31
0.0
  0
LINE
  5
53F
102
{ACAD_REACTORS
330
6A7
102
}
330
1F
100
AcDbEntity
  8
LC-001-002-----0
 62
     7
370
    50
100
AcDbLine
 10
286.159762
 20
271.904738
 30
0.0
 11
279.398755
 21
270.71259
 31
0.0
  0
LINE
  5
540
102
{ACAD_REACTORS
330
6A7
102
}
330
1F
100
AcDbEntity
  8
LC-001-002-----0
 62
     7
370
    50
100
AcDbLine
 10
278.572403
 20
-26.196194
 30
0.0
 11
278.572403
 21
-26.584
 31
0.0
  0
LINE
  5
541
102
{ACAD_REACTORS
330
6A7
102
}
330
1F
100
AcDbEntity
  8
LC-001-002-----0
 62
     7
370
    50
100
AcDbLine
 10
278.572403
 20
-13.866028
 30
0.0
 11
278.572403
 21
-22.526834
 31
0.0
  0
LINE
  5
542
102
{ACAD_REACTORS
330
6A7
102
}
330
1F
100
AcDbEntity
  8
LC-001-002-----0
 62
     7
370
    50
100
AcDbLine
 10
278.572403
 20
-1.535863
 30
0.0
 11
278.572403
 21
-10.196669
 31
0.0
  0
LINE
  5
543
102
{ACAD_REACTORS
330
6A7
102
}
330
1F
100
AcDbEntity
  8
LC-001-002-----0
 62
     7
370
    50
100
AcDbLine
 10
278.572403
 20
10.794303
 30
0.0
 11
278.572403
 21
2.133497
 31
0.0
  0
LINE
  5
544
102
{ACAD_REACTORS
330
6A7
102
}
330
1F
100
AcDbEntity
  8
LC-001-002-----0
 62
     7
370
    50
100
AcDbLine
 10
278.572403
 20
23.124469
 30
0.0
 11
278.572403
 21
14.463663
 31
0.0
  0
LINE
  5
545
102
{ACAD_REACTORS
330
6A7
102
}
330
1F
100
AcDbEntity
  8
LC-001-002-----0
 62
     7
370
    50
100
AcDbLine
 10
278.572403
 20
35.454634
 30
0.0
 11
278.572403
 21
26.793828
 31
0.0
  0
LINE
  5
546
102
{ACAD_REACTORS
330
6A7
102
}
330
1F
100
AcDbEntity
  8
LC-001-002-----0
 62
     7
370
    50
100
AcDbLine
 10
278.572403
 20
47.7848
 30
0.0
 11
278.572403
 21
39.123994
 31
0.0
  0
LINE
  5
547
102
{ACAD_REACTORS
330
6A7
102
}
330
1F
100
AcDbEntity
  8
LC-001-002-----0
 62
     7
370
    50
100
AcDbLine
 10
278.572403
 20
60.114966
 30
0.0
 11
278.572403
 21
51.45416
 31
0.0
  0
LINE
  5
548
102
{ACAD_REACTORS
330
6A7
102
}
330
1F
100
AcDbEntity
  8
LC-001-002-----0
 62
     7
370
    50
100
AcDbLine
 10
278.572403
 20
72.445131
 30
0.0
 11
278.572403
 21
63.784325
 31
0.0
  0
LINE
  5
549
102
{ACAD_REACTORS
330
6A7
102
}
330
1F
100
AcDbEntity
  8
LC-001-002-----0
 62
     7
370
    50
100
AcDbLine
 10
278.572403
 20
84.775297
 30
0.0
 11
278.572403
 21
76.114491
 31
0.0
  0
LINE
  5
54A
102
{ACAD_REACTORS
330
6A7
102
}
330
1F
100
AcDbEntity
  8
LC-001-002-----0
 62
     7
370
    50
100
AcDbLine
 10
278.572403
 20
97.105463
 30
0.0
 11
278.572403
 21
88.444657
 31
0.0
  0
LINE
  5
54B
102
{ACAD_REACTORS
330
6A7
102
}
330
1F
100
AcDbEntity
  8
LC-001-002-----0
 62
     7
370
    50
100
AcDbLine
 10
278.572403
 20
109.435628
 30
0.0
 11
278.572403
 21
100.774822
 31
0.0
  0
LINE
  5
54C
102
{ACAD_REACTORS
330
6A7
102
}
330
1F
100
AcDbEntity
  8
LC-001-002-----0
 62
     7
370
    50
100
AcDbLine
 10
278.572403
 20
121.765794
 30
0.0
 11
278.572403
 21
113.104988
 31
0.0
  0
LINE
  5
54D
102
{ACAD_REACTORS
330
6A7
102
}
330
1F
100
AcDbEntity
  8
LC-001-002-----0
 62
     7
370
    50
100
AcDbLine
 10
278.572403
 20
134.09596
 30
0.0
 11
278.572403
 21
125.435154
 31
0.0
  0
LINE
  5
54E
102
{ACAD_REACTORS
330
6A7
102
}
330
1F
100
AcDbEntity
  8
LC-001-002-----0
 62
     7
370
    50
100
AcDbLine
 10
278.572403
 20
146.426125
 30
0.0
 11
278.572403
 21
137.765319
 31
0.0
  0
LINE
  5
54F
102
{ACAD_REACTORS
330
6A7
102
}
330
1F
100
AcDbEntity
  8
LC-001-002-----0
 62
     7
370
    50
100
AcDbLine
 10
278.572403
 20
158.756291
 30
0.0
 11
278.572403
 21
150.095485
 31
0.0
  0
LINE
  5
550
102
{ACAD_REACTORS
330
6A7
102
}
330
1F
100
AcDbEntity
  8
LC-001-002-----0
 62
     7
370
    50
100
AcDbLine
 10
278.572403
 20
171.086457
 30
0.0
 11
278.572403
 21
162.425651
 31
0.0
  0
LINE
  5
551
102
{ACAD_REACTORS
330
6A7
102
}
330
1F
100
AcDbEntity
  8
LC-001-002-----0
 62
     7
370
    50
100
AcDbLine
 10
278.572403
 20
183.416622
 30
0.0
 11
278.572403
 21
174.755816
 31
0.0
  0
LINE
  5
552
102
{ACAD_REACTORS
330
6A7
102
}
330
1F
100
AcDbEntity
  8
LC-001-002-----0
 62
     7
370
    50
100
AcDbLine
 10
278.572403
 20
195.746788
 30
0.0
 11
278.572403
 21
187.085982
 31
0.0
  0
LINE
  5
553
102
{ACAD_REACTORS
330
6A7
102
}
330
1F
100
AcDbEntity
  8
LC-001-002-----0
 62
     7
370
    50
100
AcDbLine
 10
278.572403
 20
208.076954
 30
0.0
 11
278.572403
 21
199.416148
 31
0.0
  0
LINE
  5
554
102
{ACAD_REACTORS
330
6A7
102
}
330
1F
100
AcDbEntity
  8
LC-001-002-----0
 62
     7
370
    50
100
AcDbLine
 10
278.572403
 20
220.407119
 30
0.0
 11
278.572403
 21
211.746313
 31
0.0
  0
LINE
  5
555
102
{ACAD_REACTORS
330
6A7
102
}
330
1F
100
AcDbEntity
  8
LC-001-002-----0
 62
     7
370
    50
100
AcDbLine
 10
278.572403
 20
232.737285
 30
0.0
 11
278.572403
 21
224.076479
 31
0.0
  0
LINE
  5
556
102
{ACAD_REACTORS
330
6A7
102
}
330
1F
100
AcDbEntity
  8
LC-001-002-----0
 62
     7
370
    50
100
AcDbLine
 10
278.572403
 20
245.067451
 30
0.0
 11
278.572403
 21
236.406645
 31
0.0
  0
LINE
  5
557
102
{ACAD_REACTORS
330
6A7
102
}
330
1F
100
AcDbEntity
  8
LC-001-002-----0
 62
     7
370
    50
100
AcDbLine
 10
278.572403
 20
257.397616
 30
0.0
 11
278.572403
 21
248.73681
 31
0.0
  0
ARC
  5
558
102
{ACAD_REACTORS
330
6A7
102
}
330
1F
100
AcDbEntity
  8
LC-002-002-RND-0
 62
     7
370
    50
100
AcDbCircle
 10
179.063917
 20
-23.526834
 30
0.0
 40
0.5000000000001137
100
AcDbArc
 50
90.0
 51
260.0
  0
ARC
  5
559
102
{ACAD_REACTORS
330
6A7
102
}
330
1F
100
AcDbEntity
  8
LC-002-002-RND-0
 62
     7
370
    50
100
AcDbCircle
 10
179.063917
 20
-11.196669
 30
0.0
 40
0.5000000000001137
100
AcDbArc
 50
90.0
 51
260.0
  0
LINE
  5
55A
102
{ACAD_REACTORS
330
6A7
102
}
330
1F
100
AcDbEntity
  8
LC-001-002-----0
 62
     7
370
    50
100
AcDbLine
 10
187.568428
 20
272.897142
 30
0.0
 11
187.568428
 21
-27.084
 31
0.0
  0
ARC
  5
55B
102
{ACAD_REACTORS
330
6A7
102
}
330
1F
100
AcDbEntity
  8
LC-002-002-RND-0
 62
     7
370
    50
100
AcDbCircle
 10
179.063917
 20
1.133497
 30
0.0
 40
0.5
100
AcDbArc
 50
90.0
 51
260.0
  0
ARC
  5
55C
102
{ACAD_REACTORS
330
6A7
102
}
330
1F
100
AcDbEntity
  8
LC-002-002-RND-0
 62
     7
370
    50
100
AcDbCircle
 10
179.063917
 20
13.463663
 30
0.0
 40
0.5
100
AcDbArc
 50
90.0
 51
260.0
  0
ARC
  5
55D
102
{ACAD_REACTORS
330
6A7
102
}
330
1F
100
AcDbEntity
  8
LC-002-002-RND-0
 62
     7
370
    50
100
AcDbCircle
 10
179.063917
 20
25.793828
 30
0.0
 40
0.5
100
AcDbArc
 50
90.0
 51
260.0
  0
ARC
  5
55E
102
{ACAD_REACTORS
330
6A7
102
}
330
1F
100
AcDbEntity
  8
LC-002-002-RND-0
 62
     7
370
    50
100
AcDbCircle
 10
179.063917
 20
38.123994
 30
0.0
 40
0.5
100
AcDbArc
 50
90.0
 51
260.0
  0
ARC
  5
55F
102
{ACAD_REACTORS
330
6A7
102
}
330
1F
100
AcDbEntity
  8
LC-002-002-RND-0
 62
     7
370
    50
100
AcDbCircle
 10
179.063917
 20
50.45416
 30
0.0
 40
0.5
100
AcDbArc
 50
90.0
 51
260.0
  0
ARC
  5
560
102
{ACAD_REACTORS
330
6A7
102
}
330
1F
100
AcDbEntity
  8
LC-002-002-RND-0
 62
     7
370
    50
100
AcDbCircle
 10
179.063917
 20
62.784325
 30
0.0
 40
0.5000000000001137
100
AcDbArc
 50
90.0
 51
260.0
  0
ARC
  5
561
102
{ACAD_REACTORS
330
6A7
102
}
330
1F
100
AcDbEntity
  8
LC-002-002-RND-0
 62
     7
370
    50
100
AcDbCircle
 10
179.063917
 20
75.114491
 30
0.0
 40
0.5
100
AcDbArc
 50
90.0
 51
260.0
  0
ARC
  5
562
102
{ACAD_REACTORS
330
6A7
102
}
330
1F
100
AcDbEntity
  8
LC-002-002-RND-0
 62
     7
370
    50
100
AcDbCircle
 10
185.564452
 20
269.727782
 30
0.0
 40
1.000000000000028
100
AcDbArc
 50
360.0
 51
80.0
  0
ARC
  5
563
102
{ACAD_REACTORS
330
6A7
102
}
330
1F
100
AcDbEntity
  8
LC-002-002-RND-0
 62
     7
370
    50
100
AcDbCircle
 10
179.063917
 20
87.444657
 30
0.0
 40
0.5000000000001137
100
AcDbArc
 50
90.0
 51
260.0
  0
ARC
  5
564
102
{ACAD_REACTORS
330
6A7
102
}
330
1F
100
AcDbEntity
  8
LC-002-002-RND-0
 62
     7
370
    50
100
AcDbCircle
 10
179.063917
 20
99.774822
 30
0.0
 40
0.5
100
AcDbArc
 50
90.0
 51
260.0
  0
ARC
  5
565
102
{ACAD_REACTORS
330
6A7
102
}
330
1F
100
AcDbEntity
  8
LC-002-002-RND-0
 62
     7
370
    50
100
AcDbCircle
 10
179.063917
 20
112.104988
 30
0.0
 40
0.5000000000001137
100
AcDbArc
 50
90.0
 51
260.0
  0
ARC
  5
566
102
{ACAD_REACTORS
330
6A7
102
}
330
1F
100
AcDbEntity
  8
LC-002-002-RND-0
 62
     7
370
    50
100
AcDbCircle
 10
179.063917
 20
124.435154
 30
0.0
 40
0.4999999999998863
100
AcDbArc
 50
90.0
 51
260.0
  0
ARC
  5
567
102
{ACAD_REACTORS
330
6A7
102
}
330
1F
100
AcDbEntity
  8
LC-002-002-RND-0
 62
     7
370
    50
100
AcDbCircle
 10
179.063917
 20
136.765319
 30
0.0
 40
0.5
100
AcDbArc
 50
90.0
 51
260.0
  0
ARC
  5
568
102
{ACAD_REACTORS
330
6A7
102
}
330
1F
100
AcDbEntity
  8
LC-002-002-RND-0
 62
     7
370
    50
100
AcDbCircle
 10
179.063917
 20
149.095485
 30
0.0
 40
0.4999999999998863
100
AcDbArc
 50
90.0
 51
260.0
  0
ARC
  5
569
102
{ACAD_REACTORS
330
6A7
102
}
330
1F
100
AcDbEntity
  8
LC-002-002-RND-0
 62
     7
370
    50
100
AcDbCircle
 10
179.063917
 20
161.425651
 30
0.0
 40
0.5
100
AcDbArc
 50
90.0
 51
260.0
  0
ARC
  5
56A
102
{ACAD_REACTORS
330
6A7
102
}
330
1F
100
AcDbEntity
  8
LC-002-002-RND-0
 62
     7
370
    50
100
AcDbCircle
 10
179.063917
 20
173.755816
 30
0.0
 40
0.5000000000001137
100
AcDbArc
 50
90.0
 51
260.0
  0
ARC
  5
56B
102
{ACAD_REACTORS
330
6A7
102
}
330
1F
100
AcDbEntity
  8
LC-002-002-RND-0
 62
     7
370
    50
100
AcDbCircle
 10
179.063917
 20
186.085982
 30
0.0
 40
0.5
100
AcDbArc
 50
90.0
 51
260.0
  0
ARC
  5
56C
102
{ACAD_REACTORS
330
6A7
102
}
330
1F
100
AcDbEntity
  8
LC-002-002-RND-0
 62
     7
370
    50
100
AcDbCircle
 10
179.063917
 20
198.416148
 30
0.0
 40
0.5
100
AcDbArc
 50
90.0
 51
260.0
  0
ARC
  5
56D
102
{ACAD_REACTORS
330
6A7
102
}
330
1F
100
AcDbEntity
  8
LC-002-002-RND-0
 62
     7
370
    50
100
AcDbCircle
 10
179.063917
 20
210.746313
 30
0.0
 40
0.5
100
AcDbArc
 50
90.0
 51
260.0
  0
ARC
  5
56E
102
{ACAD_REACTORS
330
6A7
102
}
330
1F
100
AcDbEntity
  8
LC-002-002-RND-0
 62
     7
370
    50
100
AcDbCircle
 10
179.063917
 20
223.076479
 30
0.0
 40
0.5
100
AcDbArc
 50
90.0
 51
260.0
  0
ARC
  5
56F
102
{ACAD_REACTORS
330
6A7
102
}
330
1F
100
AcDbEntity
  8
LC-002-002-RND-0
 62
     7
370
    50
100
AcDbCircle
 10
179.063917
 20
235.406645
 30
0.0
 40
0.5
100
AcDbArc
 50
90.0
 51
260.0
  0
ARC
  5
570
102
{ACAD_REACTORS
330
6A7
102
}
330
1F
100
AcDbEntity
  8
LC-002-002-RND-0
 62
     7
370
    50
100
AcDbCircle
 10
179.063917
 20
247.73681
 30
0.0
 40
0.5
100
AcDbArc
 50
90.0
 51
260.0
  0
ARC
  5
571
102
{ACAD_REACTORS
330
6A7
102
}
330
1F
100
AcDbEntity
  8
LC-002-002-RND-0
 62
     7
370
    50
100
AcDbCircle
 10
179.063917
 20
260.066976
 30
0.0
 40
0.5
100
AcDbArc
 50
90.0
 51
260.0
  0
ARC
  5
572
102
{ACAD_REACTORS
330
6A7
102
}
330
1F
100
AcDbEntity
  8
LC-002-002-RND-0
 62
     7
370
    50
100
AcDbCircle
 10
179.063917
 20
272.397142
 30
0.0
 40
0.5
100
AcDbArc
 50
90.0
 51
260.0
  0
ARC
  5
573
102
{ACAD_REACTORS
330
6A7
102
}
330
1F
100
AcDbEntity
  8
LC-002-002-RND-0
 62
     7
370
    50
100
AcDbCircle
 10
185.564452
 20
257.397616
 30
0.0
 40
1.000000000000028
100
AcDbArc
 50
360.0
 51
80.0
  0
ARC
  5
574
102
{ACAD_REACTORS
330
6A7
102
}
330
1F
100
AcDbEntity
  8
LC-002-002-RND-0
 62
     7
370
    50
100
AcDbCircle
 10
185.564452
 20
245.067451
 30
0.0
 40
1.000000000000028
100
AcDbArc
 50
360.0
 51
80.0
  0
ARC
  5
575
102
{ACAD_REACTORS
330
6A7
102
}
330
1F
100
AcDbEntity
  8
LC-002-002-RND-0
 62
     7
370
    50
100
AcDbCircle
 10
185.564452
 20
232.737285
 30
0.0
 40
1.000000000000028
100
AcDbArc
 50
360.0
 51
80.0
  0
ARC
  5
576
102
{ACAD_REACTORS
330
6A7
102
}
330
1F
100
AcDbEntity
  8
LC-002-002-RND-0
 62
     7
370
    50
100
AcDbCircle
 10
185.564452
 20
220.407119
 30
0.0
 40
1.000000000000028
100
AcDbArc
 50
360.0
 51
80.0
  0
ARC
  5
577
102
{ACAD_REACTORS
330
6A7
102
}
330
1F
100
AcDbEntity
  8
LC-002-002-RND-0
 62
     7
370
    50
100
AcDbCircle
 10
185.564452
 20
208.076954
 30
0.0
 40
1.000000000000028
100
AcDbArc
 50
360.0
 51
80.0
  0
ARC
  5
578
102
{ACAD_REACTORS
330
6A7
102
}
330
1F
100
AcDbEntity
  8
LC-002-002-RND-0
 62
     7
370
    50
100
AcDbCircle
 10
185.564452
 20
195.746788
 30
0.0
 40
1.000000000000028
100
AcDbArc
 50
360.0
 51
80.0
  0
ARC
  5
579
102
{ACAD_REACTORS
330
6A7
102
}
330
1F
100
AcDbEntity
  8
LC-002-002-RND-0
 62
     7
370
    50
100
AcDbCircle
 10
185.564452
 20
183.416622
 30
0.0
 40
1.000000000000028
100
AcDbArc
 50
360.0
 51
80.0
  0
ARC
  5
57A
102
{ACAD_REACTORS
330
6A7
102
}
330
1F
100
AcDbEntity
  8
LC-002-002-RND-0
 62
     7
370
    50
100
AcDbCircle
 10
185.564452
 20
171.086457
 30
0.0
 40
1.0
100
AcDbArc
 50
360.0
 51
80.0
  0
ARC
  5
57B
102
{ACAD_REACTORS
330
6A7
102
}
330
1F
100
AcDbEntity
  8
LC-002-002-RND-0
 62
     7
370
    50
100
AcDbCircle
 10
185.564452
 20
158.756291
 30
0.0
 40
1.000000000000028
100
AcDbArc
 50
360.0
 51
80.0
  0
ARC
  5
57C
102
{ACAD_REACTORS
330
6A7
102
}
330
1F
100
AcDbEntity
  8
LC-002-002-RND-0
 62
     7
370
    50
100
AcDbCircle
 10
185.564452
 20
146.426125
 30
0.0
 40
1.000000000000028
100
AcDbArc
 50
360.0
 51
80.0
  0
ARC
  5
57D
102
{ACAD_REACTORS
330
6A7
102
}
330
1F
100
AcDbEntity
  8
LC-002-002-RND-0
 62
     7
370
    50
100
AcDbCircle
 10
185.564452
 20
134.09596
 30
0.0
 40
1.000000000000028
100
AcDbArc
 50
360.0
 51
80.0
  0
ARC
  5
57E
102
{ACAD_REACTORS
330
6A7
102
}
330
1F
100
AcDbEntity
  8
LC-002-002-RND-0
 62
     7
370
    50
100
AcDbCircle
 10
185.564452
 20
121.765794
 30
0.0
 40
1.0
100
AcDbArc
 50
360.0
 51
80.0
  0
ARC
  5
57F
102
{ACAD_REACTORS
330
6A7
102
}
330
1F
100
AcDbEntity
  8
LC-002-002-RND-0
 62
     7
370
    50
100
AcDbCircle
 10
185.564452
 20
109.435628
 30
0.0
 40
1.0
100
AcDbArc
 50
360.0
 51
80.0
  0
ARC
  5
580
102
{ACAD_REACTORS
330
6A7
102
}
330
1F
100
AcDbEntity
  8
LC-002-002-RND-0
 62
     7
370
    50
100
AcDbCircle
 10
185.564452
 20
97.105463
 30
0.0
 40
1.0
100
AcDbArc
 50
360.0
 51
80.0
  0
ARC
  5
581
102
{ACAD_REACTORS
330
6A7
102
}
330
1F
100
AcDbEntity
  8
LC-002-002-RND-0
 62
     7
370
    50
100
AcDbCircle
 10
185.564452
 20
84.775297
 30
0.0
 40
1.0
100
AcDbArc
 50
360.0
 51
80.0
  0
ARC
  5
582
102
{ACAD_REACTORS
330
6A7
102
}
330
1F
100
AcDbEntity
  8
LC-002-002-RND-0
 62
     7
370
    50
100
AcDbCircle
 10
185.564452
 20
72.445131
 30
0.0
 40
1.0
100
AcDbArc
 50
360.0
 51
80.0
  0
ARC
  5
583
102
{ACAD_REACTORS
330
6A7
102
}
330
1F
100
AcDbEntity
  8
LC-002-002-RND-0
 62
     7
370
    50
100
AcDbCircle
 10
185.564452
 20
60.114966
 30
0.0
 40
1.0
100
AcDbArc
 50
360.0
 51
80.0
  0
ARC
  5
584
102
{ACAD_REACTORS
330
6A7
102
}
330
1F
100
AcDbEntity
  8
LC-002-002-RND-0
 62
     7
370
    50
100
AcDbCircle
 10
185.564452
 20
47.7848
 30
0.0
 40
1.0
100
AcDbArc
 50
360.0
 51
80.0
  0
ARC
  5
585
102
{ACAD_REACTORS
330
6A7
102
}
330
1F
100
AcDbEntity
  8
LC-002-002-RND-0
 62
     7
370
    50
100
AcDbCircle
 10
185.564452
 20
35.454634
 30
0.0
 40
1.0
100
AcDbArc
 50
360.0
 51
80.0
  0
LINE
  5
586
102
{ACAD_REACTORS
330
6A7
102
}
330
1F
100
AcDbEntity
  8
LC-001-002-----0
 62
     7
370
    50
100
AcDbLine
 10
178.977093
 20
185.593578
 30
0.0
 11
185.7381
 21
184.40143
 31
0.0
  0
LINE
  5
587
102
{ACAD_REACTORS
330
6A7
102
}
330
1F
100
AcDbEntity
  8
LC-001-002-----0
 62
     7
370
    50
100
AcDbLine
 10
178.977093
 20
173.263412
 30
0.0
 11
185.7381
 21
172.071264
 31
0.0
  0
LINE
  5
588
102
{ACAD_REACTORS
330
6A7
102
}
330
1F
100
AcDbEntity
  8
LC-001-002-----0
 62
     7
370
    50
100
AcDbLine
 10
179.063917
 20
161.925651
 30
0.0
 11
186.064452
 21
161.925651
 31
0.0
  0
LINE
  5
589
102
{ACAD_REACTORS
330
6A7
102
}
330
1F
100
AcDbEntity
  8
LC-001-002-----0
 62
     7
370
    50
100
AcDbLine
 10
179.063917
 20
174.255816
 30
0.0
 11
186.064452
 21
174.255816
 31
0.0
  0
LINE
  5
58A
102
{ACAD_REACTORS
330
6A7
102
}
330
1F
100
AcDbEntity
  8
LC-001-002-----0
 62
     7
370
    50
100
AcDbLine
 10
179.063917
 20
186.585982
 30
0.0
 11
186.064452
 21
186.585982
 31
0.0
  0
LINE
  5
58B
102
{ACAD_REACTORS
330
6A7
102
}
330
1F
100
AcDbEntity
  8
LC-001-002-----0
 62
     7
370
    50
100
AcDbLine
 10
179.063917
 20
198.916148
 30
0.0
 11
186.064452
 21
198.916148
 31
0.0
  0
LINE
  5
58C
102
{ACAD_REACTORS
330
6A7
102
}
330
1F
100
AcDbEntity
  8
LC-001-002-----0
 62
     7
370
    50
100
AcDbLine
 10
178.977093
 20
160.933247
 30
0.0
 11
185.7381
 21
159.741099
 31
0.0
  0
LINE
  5
58D
102
{ACAD_REACTORS
330
6A7
102
}
330
1F
100
AcDbEntity
  8
LC-001-002-----0
 62
     7
370
    50
100
AcDbLine
 10
178.977093
 20
148.603081
 30
0.0
 11
185.7381
 21
147.410933
 31
0.0
  0
LINE
  5
58E
102
{ACAD_REACTORS
330
6A7
102
}
330
1F
100
AcDbEntity
  8
LC-001-002-----0
 62
     7
370
    50
100
AcDbLine
 10
178.977093
 20
136.272915
 30
0.0
 11
185.7381
 21
135.080767
 31
0.0
  0
ARC
  5
58F
102
{ACAD_REACTORS
330
6A7
102
}
330
1F
100
AcDbEntity
  8
LC-002-002-RND-0
 62
     7
370
    50
100
AcDbCircle
 10
185.564452
 20
23.124469
 30
0.0
 40
1.0
100
AcDbArc
 50
360.0
 51
80.0
  0
ARC
  5
590
102
{ACAD_REACTORS
330
6A7
102
}
330
1F
100
AcDbEntity
  8
LC-002-002-RND-0
 62
     7
370
    50
100
AcDbCircle
 10
185.564452
 20
10.794303
 30
0.0
 40
1.000000000000028
100
AcDbArc
 50
360.0
 51
80.0
  0
ARC
  5
591
102
{ACAD_REACTORS
330
6A7
102
}
330
1F
100
AcDbEntity
  8
LC-002-002-RND-0
 62
     7
370
    50
100
AcDbCircle
 10
185.564452
 20
-1.535863
 30
0.0
 40
1.0
100
AcDbArc
 50
360.0
 51
80.0
  0
ARC
  5
592
102
{ACAD_REACTORS
330
6A7
102
}
330
1F
100
AcDbEntity
  8
LC-002-002-RND-0
 62
     7
370
    50
100
AcDbCircle
 10
185.564452
 20
-13.866028
 30
0.0
 40
1.0
100
AcDbArc
 50
360.0
 51
80.0
  0
ARC
  5
593
102
{ACAD_REACTORS
330
6A7
102
}
330
1F
100
AcDbEntity
  8
LC-002-002-RND-0
 62
     7
370
    50
100
AcDbCircle
 10
185.564452
 20
-26.196194
 30
0.0
 40
1.0
100
AcDbArc
 50
360.0
 51
80.0
  0
ARC
  5
594
102
{ACAD_REACTORS
330
6A7
102
}
330
1F
100
AcDbEntity
  8
LC-002-002-RND-0
 62
     7
370
    50
100
AcDbCircle
 10
186.064452
 20
-22.526834
 30
0.0
 40
0.5
100
AcDbArc
 50
270.0
 51
360.0
  0
ARC
  5
595
102
{ACAD_REACTORS
330
6A7
102
}
330
1F
100
AcDbEntity
  8
LC-002-002-RND-0
 62
     7
370
    50
100
AcDbCircle
 10
186.064452
 20
-10.196669
 30
0.0
 40
0.5
100
AcDbArc
 50
270.0
 51
360.0
  0
ARC
  5
596
102
{ACAD_REACTORS
330
6A7
102
}
330
1F
100
AcDbEntity
  8
LC-002-002-RND-0
 62
     7
370
    50
100
AcDbCircle
 10
186.064452
 20
2.133497
 30
0.0
 40
0.5
100
AcDbArc
 50
270.0
 51
360.0
  0
LINE
  5
597
102
{ACAD_REACTORS
330
6A7
102
}
330
1F
100
AcDbEntity
  8
LC-001-002-----0
 62
     7
370
    50
100
AcDbLine
 10
186.564452
 20
269.727782
 30
0.0
 11
186.564452
 21
261.066976
 31
0.0
  0
ARC
  5
598
102
{ACAD_REACTORS
330
6A7
102
}
330
1F
100
AcDbEntity
  8
LC-002-002-RND-0
 62
     7
370
    50
100
AcDbCircle
 10
186.064452
 20
14.463663
 30
0.0
 40
0.5
100
AcDbArc
 50
270.0
 51
360.0
  0
ARC
  5
599
102
{ACAD_REACTORS
330
6A7
102
}
330
1F
100
AcDbEntity
  8
LC-002-002-RND-0
 62
     7
370
    50
100
AcDbCircle
 10
186.064452
 20
26.793828
 30
0.0
 40
0.5
100
AcDbArc
 50
270.0
 51
360.0
  0
LINE
  5
59A
102
{ACAD_REACTORS
330
6A7
102
}
330
1F
100
AcDbEntity
  8
LC-001-002-----0
 62
     7
370
    50
100
AcDbLine
 10
186.064452
 20
-23.026834
 30
0.0
 11
179.063917
 21
-23.026834
 31
0.0
  0
ARC
  5
59B
102
{ACAD_REACTORS
330
6A7
102
}
330
1F
100
AcDbEntity
  8
LC-002-002-RND-0
 62
     7
370
    50
100
AcDbCircle
 10
186.064452
 20
39.123994
 30
0.0
 40
0.5
100
AcDbArc
 50
270.0
 51
360.0
  0
ARC
  5
59C
102
{ACAD_REACTORS
330
6A7
102
}
330
1F
100
AcDbEntity
  8
LC-002-002-RND-0
 62
     7
370
    50
100
AcDbCircle
 10
186.064452
 20
51.45416
 30
0.0
 40
0.5
100
AcDbArc
 50
270.0
 51
360.0
  0
ARC
  5
59D
102
{ACAD_REACTORS
330
6A7
102
}
330
1F
100
AcDbEntity
  8
LC-002-002-RND-0
 62
     7
370
    50
100
AcDbCircle
 10
186.064452
 20
63.784325
 30
0.0
 40
0.5
100
AcDbArc
 50
270.0
 51
360.0
  0
LINE
  5
59E
102
{ACAD_REACTORS
330
6A7
102
}
330
1F
100
AcDbEntity
  8
LC-001-002-----0
 62
     7
370
    50
100
AcDbLine
 10
186.064452
 20
-10.696669
 30
0.0
 11
179.063917
 21
-10.696669
 31
0.0
  0
LINE
  5
59F
102
{ACAD_REACTORS
330
6A7
102
}
330
1F
100
AcDbEntity
  8
LC-001-002-----0
 62
     7
370
    50
100
AcDbLine
 10
178.977093
 20
123.94275
 30
0.0
 11
185.7381
 21
122.750602
 31
0.0
  0
LINE
  5
5A0
102
{ACAD_REACTORS
330
6A7
102
}
330
1F
100
AcDbEntity
  8
LC-001-002-----0
 62
     7
370
    50
100
AcDbLine
 10
186.064452
 20
1.633497
 30
0.0
 11
179.063917
 21
1.633497
 31
0.0
  0
LINE
  5
5A1
102
{ACAD_REACTORS
330
6A7
102
}
330
1F
100
AcDbEntity
  8
LC-001-002-----0
 62
     7
370
    50
100
AcDbLine
 10
178.977093
 20
111.612584
 30
0.0
 11
185.7381
 21
110.420436
 31
0.0
  0
LINE
  5
5A2
102
{ACAD_REACTORS
330
6A7
102
}
330
1F
100
AcDbEntity
  8
LC-001-002-----0
 62
     7
370
    50
100
AcDbLine
 10
186.064452
 20
13.963663
 30
0.0
 11
179.063917
 21
13.963663
 31
0.0
  0
LINE
  5
5A3
102
{ACAD_REACTORS
330
6A7
102
}
330
1F
100
AcDbEntity
  8
LC-001-002-----0
 62
     7
370
    50
100
AcDbLine
 10
178.977093
 20
99.282418
 30
0.0
 11
185.7381
 21
98.09027
 31
0.0
  0
LINE
  5
5A4
102
{ACAD_REACTORS
330
6A7
102
}
330
1F
100
AcDbEntity
  8
LC-001-002-----0
 62
     7
370
    50
100
AcDbLine
 10
186.064452
 20
26.293828
 30
0.0
 11
179.063917
 21
26.293828
 31
0.0
  0
LINE
  5
5A5
102
{ACAD_REACTORS
330
6A7
102
}
330
1F
100
AcDbEntity
  8
LC-001-002-----0
 62
     7
370
    50
100
AcDbLine
 10
178.977093
 20
86.952253
 30
0.0
 11
185.7381
 21
85.760105
 31
0.0
  0
LINE
  5
5A6
102
{ACAD_REACTORS
330
6A7
102
}
330
1F
100
AcDbEntity
  8
LC-001-002-----0
 62
     7
370
    50
100
AcDbLine
 10
178.977093
 20
74.622087
 30
0.0
 11
185.7381
 21
73.429939
 31
0.0
  0
LINE
  5
5A7
102
{ACAD_REACTORS
330
6A7
102
}
330
1F
100
AcDbEntity
  8
LC-001-002-----0
 62
     7
370
    50
100
AcDbLine
 10
186.064452
 20
38.623994
 30
0.0
 11
179.063917
 21
38.623994
 31
0.0
  0
LINE
  5
5A8
102
{ACAD_REACTORS
330
6A7
102
}
330
1F
100
AcDbEntity
  8
LC-001-002-----0
 62
     7
370
    50
100
AcDbLine
 10
178.977093
 20
62.291921
 30
0.0
 11
185.7381
 21
61.099774
 31
0.0
  0
LINE
  5
5A9
102
{ACAD_REACTORS
330
6A7
102
}
330
1F
100
AcDbEntity
  8
LC-001-002-----0
 62
     7
370
    50
100
AcDbLine
 10
186.064452
 20
50.95416
 30
0.0
 11
179.063917
 21
50.95416
 31
0.0
  0
ARC
  5
5AA
102
{ACAD_REACTORS
330
6A7
102
}
330
1F
100
AcDbEntity
  8
LC-002-002-RND-0
 62
     7
370
    50
100
AcDbCircle
 10
186.064452
 20
76.114491
 30
0.0
 40
0.5
100
AcDbArc
 50
270.0
 51
360.0
  0
ARC
  5
5AB
102
{ACAD_REACTORS
330
6A7
102
}
330
1F
100
AcDbEntity
  8
LC-002-002-RND-0
 62
     7
370
    50
100
AcDbCircle
 10
186.064452
 20
88.444657
 30
0.0
 40
0.5
100
AcDbArc
 50
270.0
 51
360.0
  0
LINE
  5
5AC
102
{ACAD_REACTORS
330
6A7
102
}
330
1F
100
AcDbEntity
  8
LC-001-002-----0
 62
     7
370
    50
100
AcDbLine
 10
178.977093
 20
49.961756
 30
0.0
 11
185.7381
 21
48.769608
 31
0.0
  0
LINE
  5
5AD
102
{ACAD_REACTORS
330
6A7
102
}
330
1F
100
AcDbEntity
  8
LC-001-002-----0
 62
     7
370
    50
100
AcDbLine
 10
186.064452
 20
63.284325
 30
0.0
 11
179.063917
 21
63.284325
 31
0.0
  0
LINE
  5
5AE
102
{ACAD_REACTORS
330
6A7
102
}
330
1F
100
AcDbEntity
  8
LC-001-002-----0
 62
     7
370
    50
100
AcDbLine
 10
178.977093
 20
37.63159
 30
0.0
 11
185.7381
 21
36.439442
 31
0.0
  0
LINE
  5
5AF
102
{ACAD_REACTORS
330
6A7
102
}
330
1F
100
AcDbEntity
  8
LC-001-002-----0
 62
     7
370
    50
100
AcDbLine
 10
186.064452
 20
75.614491
 30
0.0
 11
179.063917
 21
75.614491
 31
0.0
  0
ARC
  5
5B0
102
{ACAD_REACTORS
330
6A7
102
}
330
1F
100
AcDbEntity
  8
LC-002-002-RND-0
 62
     7
370
    50
100
AcDbCircle
 10
186.064452
 20
100.774822
 30
0.0
 40
0.5
100
AcDbArc
 50
270.0
 51
360.0
  0
ARC
  5
5B1
102
{ACAD_REACTORS
330
6A7
102
}
330
1F
100
AcDbEntity
  8
LC-002-002-RND-0
 62
     7
370
    50
100
AcDbCircle
 10
186.064452
 20
113.104988
 30
0.0
 40
0.5
100
AcDbArc
 50
270.0
 51
360.0
  0
ARC
  5
5B2
102
{ACAD_REACTORS
330
6A7
102
}
330
1F
100
AcDbEntity
  8
LC-002-002-RND-0
 62
     7
370
    50
100
AcDbCircle
 10
186.064452
 20
125.435154
 30
0.0
 40
0.5
100
AcDbArc
 50
270.0
 51
360.0
  0
ARC
  5
5B3
102
{ACAD_REACTORS
330
6A7
102
}
330
1F
100
AcDbEntity
  8
LC-002-002-RND-0
 62
     7
370
    50
100
AcDbCircle
 10
186.064452
 20
137.765319
 30
0.0
 40
0.5
100
AcDbArc
 50
270.0
 51
360.0
  0
ARC
  5
5B4
102
{ACAD_REACTORS
330
6A7
102
}
330
1F
100
AcDbEntity
  8
LC-002-002-RND-0
 62
     7
370
    50
100
AcDbCircle
 10
186.064452
 20
150.095485
 30
0.0
 40
0.5
100
AcDbArc
 50
270.0
 51
360.0
  0
LINE
  5
5B5
102
{ACAD_REACTORS
330
6A7
102
}
330
1F
100
AcDbEntity
  8
LC-001-002-----0
 62
     7
370
    50
100
AcDbLine
 10
178.977093
 20
25.301424
 30
0.0
 11
185.7381
 21
24.109277
 31
0.0
  0
LINE
  5
5B6
102
{ACAD_REACTORS
330
6A7
102
}
330
1F
100
AcDbEntity
  8
LC-001-002-----0
 62
     7
370
    50
100
AcDbLine
 10
178.977093
 20
12.971259
 30
0.0
 11
185.7381
 21
11.779111
 31
0.0
  0
ARC
  5
5B7
102
{ACAD_REACTORS
330
6A7
102
}
330
1F
100
AcDbEntity
  8
LC-002-002-RND-0
 62
     7
370
    50
100
AcDbCircle
 10
186.064452
 20
162.425651
 30
0.0
 40
0.5
100
AcDbArc
 50
270.0
 51
360.0
  0
LINE
  5
5B8
102
{ACAD_REACTORS
330
6A7
102
}
330
1F
100
AcDbEntity
  8
LC-001-002-----0
 62
     7
370
    50
100
AcDbLine
 10
178.977093
 20
0.641093
 30
0.0
 11
185.7381
 21
-0.551055
 31
0.0
  0
ARC
  5
5B9
102
{ACAD_REACTORS
330
6A7
102
}
330
1F
100
AcDbEntity
  8
LC-002-002-RND-0
 62
     7
370
    50
100
AcDbCircle
 10
186.064452
 20
174.755816
 30
0.0
 40
0.5
100
AcDbArc
 50
270.0
 51
360.0
  0
LINE
  5
5BA
102
{ACAD_REACTORS
330
6A7
102
}
330
1F
100
AcDbEntity
  8
LC-001-002-----0
 62
     7
370
    50
100
AcDbLine
 10
178.977093
 20
-11.689073
 30
0.0
 11
185.7381
 21
-12.88122
 31
0.0
  0
LINE
  5
5BB
102
{ACAD_REACTORS
330
6A7
102
}
330
1F
100
AcDbEntity
  8
LC-001-002-----0
 62
     7
370
    50
100
AcDbLine
 10
178.977093
 20
-24.019238
 30
0.0
 11
185.7381
 21
-25.211386
 31
0.0
  0
LINE
  5
5BC
102
{ACAD_REACTORS
330
6A7
102
}
330
1F
100
AcDbEntity
  8
LC-001-002-----0
 62
     7
370
    50
100
AcDbLine
 10
187.064452
 20
-27.084
 30
0.0
 11
187.568428
 21
-27.084
 31
0.0
  0
LINE
  5
5BD
102
{ACAD_REACTORS
330
6A7
102
}
330
1F
100
AcDbEntity
  8
LC-001-002-----0
 62
     7
370
    50
100
AcDbLine
 10
186.564452
 20
-26.584
 30
0.0
 11
187.064452
 21
-27.084
 31
0.0
  0
LINE
  5
5BE
102
{ACAD_REACTORS
330
6A7
102
}
330
1F
100
AcDbEntity
  8
LC-001-002-----0
 62
     7
370
    50
100
AcDbLine
 10
186.064452
 20
87.944657
 30
0.0
 11
179.063917
 21
87.944657
 31
0.0
  0
LINE
  5
5BF
102
{ACAD_REACTORS
330
6A7
102
}
330
1F
100
AcDbEntity
  8
LC-001-002-----0
 62
     7
370
    50
100
AcDbLine
 10
186.064452
 20
100.274822
 30
0.0
 11
179.063917
 21
100.274822
 31
0.0
  0
LINE
  5
5C0
102
{ACAD_REACTORS
330
6A7
102
}
330
1F
100
AcDbEntity
  8
LC-001-002-----0
 62
     7
370
    50
100
AcDbLine
 10
186.064452
 20
112.604988
 30
0.0
 11
179.063917
 21
112.604988
 31
0.0
  0
LINE
  5
5C1
102
{ACAD_REACTORS
330
6A7
102
}
330
1F
100
AcDbEntity
  8
LC-001-002-----0
 62
     7
370
    50
100
AcDbLine
 10
186.064452
 20
124.935154
 30
0.0
 11
179.063917
 21
124.935154
 31
0.0
  0
LINE
  5
5C2
102
{ACAD_REACTORS
330
6A7
102
}
330
1F
100
AcDbEntity
  8
LC-001-002-----0
 62
     7
370
    50
100
AcDbLine
 10
186.064452
 20
137.265319
 30
0.0
 11
179.063917
 21
137.265319
 31
0.0
  0
ARC
  5
5C3
102
{ACAD_REACTORS
330
6A7
102
}
330
1F
100
AcDbEntity
  8
LC-002-002-RND-0
 62
     7
370
    50
100
AcDbCircle
 10
186.064452
 20
187.085982
 30
0.0
 40
0.5
100
AcDbArc
 50
270.0
 51
360.0
  0
ARC
  5
5C4
102
{ACAD_REACTORS
330
6A7
102
}
330
1F
100
AcDbEntity
  8
LC-002-002-RND-0
 62
     7
370
    50
100
AcDbCircle
 10
186.064452
 20
199.416148
 30
0.0
 40
0.5
100
AcDbArc
 50
270.0
 51
360.0
  0
ARC
  5
5C5
102
{ACAD_REACTORS
330
6A7
102
}
330
1F
100
AcDbEntity
  8
LC-002-002-RND-0
 62
     7
370
    50
100
AcDbCircle
 10
186.064452
 20
211.746313
 30
0.0
 40
0.5
100
AcDbArc
 50
270.0
 51
360.0
  0
ARC
  5
5C6
102
{ACAD_REACTORS
330
6A7
102
}
330
1F
100
AcDbEntity
  8
LC-002-002-RND-0
 62
     7
370
    50
100
AcDbCircle
 10
186.064452
 20
224.076479
 30
0.0
 40
0.5
100
AcDbArc
 50
270.0
 51
360.0
  0
ARC
  5
5C7
102
{ACAD_REACTORS
330
6A7
102
}
330
1F
100
AcDbEntity
  8
LC-002-002-RND-0
 62
     7
370
    50
100
AcDbCircle
 10
186.064452
 20
236.406645
 30
0.0
 40
0.5
100
AcDbArc
 50
270.0
 51
360.0
  0
ARC
  5
5C8
102
{ACAD_REACTORS
330
6A7
102
}
330
1F
100
AcDbEntity
  8
LC-002-002-RND-0
 62
     7
370
    50
100
AcDbCircle
 10
186.064452
 20
248.73681
 30
0.0
 40
0.5
100
AcDbArc
 50
270.0
 51
360.0
  0
ARC
  5
5C9
102
{ACAD_REACTORS
330
6A7
102
}
330
1F
100
AcDbEntity
  8
LC-002-002-RND-0
 62
     7
370
    50
100
AcDbCircle
 10
186.064452
 20
261.066976
 30
0.0
 40
0.5
100
AcDbArc
 50
270.0
 51
360.0
  0
LINE
  5
5CA
102
{ACAD_REACTORS
330
6A7
102
}
330
1F
100
AcDbEntity
  8
LC-001-002-----0
 62
     7
370
    50
100
AcDbLine
 10
179.063917
 20
149.595485
 30
0.0
 11
186.064452
 21
149.595485
 31
0.0
  0
LINE
  5
5CB
102
{ACAD_REACTORS
330
6A7
102
}
330
1F
100
AcDbEntity
  8
LC-001-002-----0
 62
     7
370
    50
100
AcDbLine
 10
178.977093
 20
197.923744
 30
0.0
 11
185.7381
 21
196.731596
 31
0.0
  0
LINE
  5
5CC
102
{ACAD_REACTORS
330
6A7
102
}
330
1F
100
AcDbEntity
  8
LC-001-002-----0
 62
     7
370
    50
100
AcDbLine
 10
179.063917
 20
211.246313
 30
0.0
 11
186.064452
 21
211.246313
 31
0.0
  0
LINE
  5
5CD
102
{ACAD_REACTORS
330
6A7
102
}
330
1F
100
AcDbEntity
  8
LC-001-002-----0
 62
     7
370
    50
100
AcDbLine
 10
178.977093
 20
210.253909
 30
0.0
 11
185.7381
 21
209.061761
 31
0.0
  0
LINE
  5
5CE
102
{ACAD_REACTORS
330
6A7
102
}
330
1F
100
AcDbEntity
  8
LC-001-002-----0
 62
     7
370
    50
100
AcDbLine
 10
179.063917
 20
223.576479
 30
0.0
 11
186.064452
 21
223.576479
 31
0.0
  0
LINE
  5
5CF
102
{ACAD_REACTORS
330
6A7
102
}
330
1F
100
AcDbEntity
  8
LC-001-002-----0
 62
     7
370
    50
100
AcDbLine
 10
178.977093
 20
222.584075
 30
0.0
 11
185.7381
 21
221.391927
 31
0.0
  0
LINE
  5
5D0
102
{ACAD_REACTORS
330
6A7
102
}
330
1F
100
AcDbEntity
  8
LC-001-002-----0
 62
     7
370
    50
100
AcDbLine
 10
179.063917
 20
235.906645
 30
0.0
 11
186.064452
 21
235.906645
 31
0.0
  0
LINE
  5
5D1
102
{ACAD_REACTORS
330
6A7
102
}
330
1F
100
AcDbEntity
  8
LC-001-002-----0
 62
     7
370
    50
100
AcDbLine
 10
178.977093
 20
234.914241
 30
0.0
 11
185.7381
 21
233.722093
 31
0.0
  0
LINE
  5
5D2
102
{ACAD_REACTORS
330
6A7
102
}
330
1F
100
AcDbEntity
  8
LC-001-002-----0
 62
     7
370
    50
100
AcDbLine
 10
179.063917
 20
248.23681
 30
0.0
 11
186.064452
 21
248.23681
 31
0.0
  0
LINE
  5
5D3
102
{ACAD_REACTORS
330
6A7
102
}
330
1F
100
AcDbEntity
  8
LC-001-002-----0
 62
     7
370
    50
100
AcDbLine
 10
178.977093
 20
247.244406
 30
0.0
 11
185.7381
 21
246.052258
 31
0.0
  0
LINE
  5
5D4
102
{ACAD_REACTORS
330
6A7
102
}
330
1F
100
AcDbEntity
  8
LC-001-002-----0
 62
     7
370
    50
100
AcDbLine
 10
179.063917
 20
260.566976
 30
0.0
 11
186.064452
 21
260.566976
 31
0.0
  0
LINE
  5
5D5
102
{ACAD_REACTORS
330
6A7
102
}
330
1F
100
AcDbEntity
  8
LC-001-002-----0
 62
     7
370
    50
100
AcDbLine
 10
178.977093
 20
259.574572
 30
0.0
 11
185.7381
 21
258.382424
 31
0.0
  0
LINE
  5
5D6
102
{ACAD_REACTORS
330
6A7
102
}
330
1F
100
AcDbEntity
  8
LC-001-002-----0
 62
     7
370
    50
100
AcDbLine
 10
179.063917
 20
272.897142
 30
0.0
 11
187.568428
 21
272.897142
 31
0.0
  0
LINE
  5
5D7
102
{ACAD_REACTORS
330
6A7
102
}
330
1F
100
AcDbEntity
  8
LC-001-002-----0
 62
     7
370
    50
100
AcDbLine
 10
178.977093
 20
271.904738
 30
0.0
 11
185.7381
 21
270.71259
 31
0.0
  0
LINE
  5
5D8
102
{ACAD_REACTORS
330
6A7
102
}
330
1F
100
AcDbEntity
  8
LC-001-002-----0
 62
     7
370
    50
100
AcDbLine
 10
186.564452
 20
-26.196194
 30
0.0
 11
186.564452
 21
-26.584
 31
0.0
  0
LINE
  5
5D9
102
{ACAD_REACTORS
330
6A7
102
}
330
1F
100
AcDbEntity
  8
LC-001-002-----0
 62
     7
370
    50
100
AcDbLine
 10
186.564452
 20
-13.866028
 30
0.0
 11
186.564452
 21
-22.526834
 31
0.0
  0
LINE
  5
5DA
102
{ACAD_REACTORS
330
6A7
102
}
330
1F
100
AcDbEntity
  8
LC-001-002-----0
 62
     7
370
    50
100
AcDbLine
 10
186.564452
 20
-1.535863
 30
0.0
 11
186.564452
 21
-10.196669
 31
0.0
  0
LINE
  5
5DB
102
{ACAD_REACTORS
330
6A7
102
}
330
1F
100
AcDbEntity
  8
LC-001-002-----0
 62
     7
370
    50
100
AcDbLine
 10
186.564452
 20
10.794303
 30
0.0
 11
186.564452
 21
2.133497
 31
0.0
  0
LINE
  5
5DC
102
{ACAD_REACTORS
330
6A7
102
}
330
1F
100
AcDbEntity
  8
LC-001-002-----0
 62
     7
370
    50
100
AcDbLine
 10
186.564452
 20
23.124469
 30
0.0
 11
186.564452
 21
14.463663
 31
0.0
  0
LINE
  5
5DD
102
{ACAD_REACTORS
330
6A7
102
}
330
1F
100
AcDbEntity
  8
LC-001-002-----0
 62
     7
370
    50
100
AcDbLine
 10
186.564452
 20
35.454634
 30
0.0
 11
186.564452
 21
26.793828
 31
0.0
  0
LINE
  5
5DE
102
{ACAD_REACTORS
330
6A7
102
}
330
1F
100
AcDbEntity
  8
LC-001-002-----0
 62
     7
370
    50
100
AcDbLine
 10
186.564452
 20
47.7848
 30
0.0
 11
186.564452
 21
39.123994
 31
0.0
  0
LINE
  5
5DF
102
{ACAD_REACTORS
330
6A7
102
}
330
1F
100
AcDbEntity
  8
LC-001-002-----0
 62
     7
370
    50
100
AcDbLine
 10
186.564452
 20
60.114966
 30
0.0
 11
186.564452
 21
51.45416
 31
0.0
  0
LINE
  5
5E0
102
{ACAD_REACTORS
330
6A7
102
}
330
1F
100
AcDbEntity
  8
LC-001-002-----0
 62
     7
370
    50
100
AcDbLine
 10
186.564452
 20
72.445131
 30
0.0
 11
186.564452
 21
63.784325
 31
0.0
  0
LINE
  5
5E1
102
{ACAD_REACTORS
330
6A7
102
}
330
1F
100
AcDbEntity
  8
LC-001-002-----0
 62
     7
370
    50
100
AcDbLine
 10
186.564452
 20
84.775297
 30
0.0
 11
186.564452
 21
76.114491
 31
0.0
  0
LINE
  5
5E2
102
{ACAD_REACTORS
330
6A7
102
}
330
1F
100
AcDbEntity
  8
LC-001-002-----0
 62
     7
370
    50
100
AcDbLine
 10
186.564452
 20
97.105463
 30
0.0
 11
186.564452
 21
88.444657
 31
0.0
  0
LINE
  5
5E3
102
{ACAD_REACTORS
330
6A7
102
}
330
1F
100
AcDbEntity
  8
LC-001-002-----0
 62
     7
370
    50
100
AcDbLine
 10
186.564452
 20
109.435628
 30
0.0
 11
186.564452
 21
100.774822
 31
0.0
  0
LINE
  5
5E4
102
{ACAD_REACTORS
330
6A7
102
}
330
1F
100
AcDbEntity
  8
LC-001-002-----0
 62
     7
370
    50
100
AcDbLine
 10
186.564452
 20
121.765794
 30
0.0
 11
186.564452
 21
113.104988
 31
0.0
  0
LINE
  5
5E5
102
{ACAD_REACTORS
330
6A7
102
}
330
1F
100
AcDbEntity
  8
LC-001-002-----0
 62
     7
370
    50
100
AcDbLine
 10
186.564452
 20
134.09596
 30
0.0
 11
186.564452
 21
125.435154
 31
0.0
  0
LINE
  5
5E6
102
{ACAD_REACTORS
330
6A7
102
}
330
1F
100
AcDbEntity
  8
LC-001-002-----0
 62
     7
370
    50
100
AcDbLine
 10
186.564452
 20
146.426125
 30
0.0
 11
186.564452
 21
137.765319
 31
0.0
  0
LINE
  5
5E7
102
{ACAD_REACTORS
330
6A7
102
}
330
1F
100
AcDbEntity
  8
LC-001-002-----0
 62
     7
370
    50
100
AcDbLine
 10
186.564452
 20
158.756291
 30
0.0
 11
186.564452
 21
150.095485
 31
0.0
  0
LINE
  5
5E8
102
{ACAD_REACTORS
330
6A7
102
}
330
1F
100
AcDbEntity
  8
LC-001-002-----0
 62
     7
370
    50
100
AcDbLine
 10
186.564452
 20
171.086457
 30
0.0
 11
186.564452
 21
162.425651
 31
0.0
  0
LINE
  5
5E9
102
{ACAD_REACTORS
330
6A7
102
}
330
1F
100
AcDbEntity
  8
LC-001-002-----0
 62
     7
370
    50
100
AcDbLine
 10
186.564452
 20
183.416622
 30
0.0
 11
186.564452
 21
174.755816
 31
0.0
  0
LINE
  5
5EA
102
{ACAD_REACTORS
330
6A7
102
}
330
1F
100
AcDbEntity
  8
LC-001-002-----0
 62
     7
370
    50
100
AcDbLine
 10
186.564452
 20
195.746788
 30
0.0
 11
186.564452
 21
187.085982
 31
0.0
  0
LINE
  5
5EB
102
{ACAD_REACTORS
330
6A7
102
}
330
1F
100
AcDbEntity
  8
LC-001-002-----0
 62
     7
370
    50
100
AcDbLine
 10
186.564452
 20
208.076954
 30
0.0
 11
186.564452
 21
199.416148
 31
0.0
  0
LINE
  5
5EC
102
{ACAD_REACTORS
330
6A7
102
}
330
1F
100
AcDbEntity
  8
LC-001-002-----0
 62
     7
370
    50
100
AcDbLine
 10
186.564452
 20
220.407119
 30
0.0
 11
186.564452
 21
211.746313
 31
0.0
  0
LINE
  5
5ED
102
{ACAD_REACTORS
330
6A7
102
}
330
1F
100
AcDbEntity
  8
LC-001-002-----0
 62
     7
370
    50
100
AcDbLine
 10
186.564452
 20
232.737285
 30
0.0
 11
186.564452
 21
224.076479
 31
0.0
  0
LINE
  5
5EE
102
{ACAD_REACTORS
330
6A7
102
}
330
1F
100
AcDbEntity
  8
LC-001-002-----0
 62
     7
370
    50
100
AcDbLine
 10
186.564452
 20
245.067451
 30
0.0
 11
186.564452
 21
236.406645
 31
0.0
  0
LINE
  5
5EF
102
{ACAD_REACTORS
330
6A7
102
}
330
1F
100
AcDbEntity
  8
LC-001-002-----0
 62
     7
370
    50
100
AcDbLine
 10
186.564452
 20
257.397616
 30
0.0
 11
186.564452
 21
248.73681
 31
0.0
  0
INSERT
  5
689
102
{ACAD_REACTORS
330
6A7
102
}
330
1F
100
AcDbEntity
  8
LC-003-005-----0
 62
     7
370
    25
100
AcDbBlockReference
  2
*X1924
 10
0.0
 20
0.0
 30
0.0
  0
DIMENSION
  5
68B
330
1F
100
AcDbEntity
  8
LC-006-003-----0
 62
     7
370
    25
100
AcDbDimension
  2
*D25
 10
342.628715
 20
272.89597
 30
0.0
 11
311.828715
 21
117.905985
 31
0.0
 70
   160
 71
     5
 42
309.97997
 53
90.0
  3
LC-DIM-L-0140-01-02
100
AcDbAlignedDimension
 13
276.31339
 23
-37.084
 33
0.0
 14
285.976272
 24
272.89597
 34
0.0
 50
90.0
100
AcDbRotatedDimension
  0
DIMENSION
  5
698
330
1F
100
AcDbEntity
  8
LC-006-003-----0
 62
     7
370
    25
100
AcDbDimension
  2
*D26
 10
286.572938
 20
-149.436984
 30
0.0
 11
229.010157
 21
-118.636984
 31
0.0
 70
   160
  1
%%c<>
 71
     5
 42
108.00902
  3
LC-DIM-L-0140-01-02
100
AcDbAlignedDimension
 13
178.563917
 23
-23.526834
 33
0.0
 14
286.572938
 24
-23.526834
 34
0.0
100
AcDbRotatedDimension
  0
ENDSEC
  0
SECTION
  2
OBJECTS
  0
DICTIONARY
  5
C
330
0
100
AcDbDictionary
281
     1
  3
ACAD_GROUP
350
D
  3
ACAD_LAYOUT
350
1A
  3
ACAD_MLINESTYLE
350
17
  3
ACAD_PLOTSETTINGS
350
19
  3
ACAD_PLOTSTYLENAME
350
E
  0
DICTIONARY
  5
D
102
{ACAD_REACTORS
330
C
102
}
330
C
100
AcDbDictionary
281
     1
  3
LCGROUP2902
350
6A5
  3
LCGROUP2936
350
6A6
  3
LCGROUP2975
350
6A7
  0
DICTIONARY
  5
1A
102
{ACAD_REACTORS
330
C
102
}
330
C
100
AcDbDictionary
281
     1
  3
Layout1
350
1E
  3
Layout2
350
26
  3
Model
350
22
  0
DICTIONARY
  5
17
102
{ACAD_REACTORS
330
C
102
}
330
C
100
AcDbDictionary
281
     1
  3
Standard
350
18
  0
DICTIONARY
  5
19
102
{ACAD_REACTORS
330
C
102
}
330
C
100
AcDbDictionary
281
     1
  0
ACDBDICTIONARYWDFLT
  5
E
102
{ACAD_REACTORS
330
C
102
}
330
C
100
AcDbDictionary
281
     1
  3
Normal
350
F
100
AcDbDictionaryWithDefault
340
F
  0
GROUP
  5
6A5
102
{ACAD_REACTORS
330
D
102
}
330
D
100
AcDbGroup
300
GRP2902
 70
     1
 71
     1
340
46D
340
46E
340
47C
340
47D
340
47E
340
47F
340
480
340
481
340
482
340
483
340
484
340
485
340
486
340
487
340
488
340
489
340
48A
340
48B
340
48C
340
48D
340
48E
340
48F
340
490
  0
GROUP
  5
6A6
102
{ACAD_REACTORS
330
D
102
}
330
D
100
AcDbGroup
300
GRP2936
 70
     1
 71
     1
340
491
340
492
340
49D
340
49E
340
49F
340
4A0
340
4A1
340
4A2
340
4A3
340
4A4
340
4A5
340
4A6
340
4A7
340
4A8
340
4A9
340
4AA
340
4AB
340
4AC
340
4AD
340
4AE
340
4AF
340
4B0
340
4B1
  0
GROUP
  5
6A7
102
{ACAD_REACTORS
330
D
102
}
330
D
100
AcDbGroup
300
GehõuseDS
 70
     1
 71
     1
340
4C0
340
4C1
340
4C2
340
4C3
340
4C4
340
4C5
340
4C6
340
4C7
340
4C8
340
4C9
340
4CA
340
4CB
340
4CC
340
4CD
340
4CE
340
4CF
340
4D0
340
4D1
340
4D2
340
4D3
340
4D4
340
4D5
340
4D6
340
4D7
340
4D8
340
4D9
340
4DA
340
4DB
340
4DC
340
4DD
340
4DE
340
4DF
340
4E0
340
4E1
340
4E2
340
4E3
340
4E4
340
4E5
340
4E6
340
4E7
340
4E8
340
4E9
340
4EA
340
4EB
340
4EC
340
4ED
340
4EE
340
4EF
340
4F0
340
4F1
340
4F2
340
4F3
340
4F4
340
4F5
340
4F6
340
4F7
340
4F8
340
4F9
340
4FA
340
4FB
340
4FC
340
4FD
340
4FE
340
4FF
340
500
340
501
340
502
340
503
340
504
340
505
340
506
340
507
340
508
340
509
340
50A
340
50B
340
50C
340
50D
340
50E
340
50F
340
510
340
511
340
512
340
513
340
514
340
515
340
516
340
517
340
518
340
519
340
51A
340
51B
340
51C
340
51D
340
51E
340
51F
340
520
340
521
340
522
340
523
340
524
340
525
340
526
340
527
340
528
340
529
340
52A
340
52B
340
52C
340
52D
340
52E
340
52F
340
530
340
531
340
532
340
533
340
534
340
535
340
536
340
537
340
538
340
539
340
53A
340
53B
340
53C
340
53D
340
53E
340
53F
340
540
340
541
340
542
340
543
340
544
340
545
340
546
340
547
340
548
340
549
340
54A
340
54B
340
54C
340
54D
340
54E
340
54F
340
550
340
551
340
552
340
553
340
554
340
555
340
556
340
557
340
558
340
559
340
55A
340
55B
340
55C
340
55D
340
55E
340
55F
340
560
340
561
340
562
340
563
340
564
340
565
340
566
340
567
340
568
340
569
340
56A
340
56B
340
56C
340
56D
340
56E
340
56F
340
570
340
571
340
572
340
573
340
574
340
575
340
576
340
577
340
578
340
579
340
57A
340
57B
340
57C
340
57D
340
57E
340
57F
340
580
340
581
340
582
340
583
340
584
340
585
340
586
340
587
340
588
340
589
340
58A
340
58B
340
58C
340
58D
340
58E
340
58F
340
590
340
591
340
592
340
593
340
594
340
595
340
596
340
597
340
598
340
599
340
59A
340
59B
340
59C
340
59D
340
59E
340
59F
340
5A0
340
5A1
340
5A2
340
5A3
340
5A4
340
5A5
340
5A6
340
5A7
340
5A8
340
5A9
340
5AA
340
5AB
340
5AC
340
5AD
340
5AE
340
5AF
340
5B0
340
5B1
340
5B2
340
5B3
340
5B4
340
5B5
340
5B6
340
5B7
340
5B8
340
5B9
340
5BA
340
5BB
340
5BC
340
5BD
340
5BE
340
5BF
340
5C0
340
5C1
340
5C2
340
5C3
340
5C4
340
5C5
340
5C6
340
5C7
340
5C8
340
5C9
340
5CA
340
5CB
340
5CC
340
5CD
340
5CE
340
5CF
340
5D0
340
5D1
340
5D2
340
5D3
340
5D4
340
5D5
340
5D6
340
5D7
340
5D8
340
5D9
340
5DA
340
5DB
340
5DC
340
5DD
340
5DE
340
5DF
340
5E0
340
5E1
340
5E2
340
5E3
340
5E4
340
5E5
340
5E6
340
5E7
340
5E8
340
5E9
340
5EA
340
5EB
340
5EC
340
5ED
340
5EE
340
5EF
340
689
  0
LAYOUT
  5
1E
102
{ACAD_REACTORS
330
1A
102
}
330
1A
100
AcDbPlotSettings
  1

  2

  4

  6

 40
0.0
 41
0.0
 42
0.0
 43
0.0
 44
0.0
 45
0.0
 46
0.0
 47
0.0
 48
0.0
 49
0.0
140
0.0
141
0.0
142
1.0
143
1.0
 70
   688
 72
     0
 73
     0
 74
     5
  7

 75
    16
147
1.0
148
0.0
149
0.0
100
AcDbLayout
  1
Layout1
 70
     1
 71
     1
 10
-206.430358
 20
-261.9
 11
981.569642
 21
578.1
 12
0.0
 22
0.0
 32
0.0
 14
-206.430358
 24
-261.9
 34
0.0
 15
981.569642
 25
578.1
 35
0.0
146
0.0
 13
0.0
 23
0.0
 33
0.0
 16
1.0
 26
0.0
 36
0.0
 17
0.0
 27
1.0
 37
0.0
 76
     0
330
1B
  0
LAYOUT
  5
26
102
{ACAD_REACTORS
330
1A
102
}
330
1A
100
AcDbPlotSettings
  1

  2

  4

  6

 40
0.0
 41
0.0
 42
0.0
 43
0.0
 44
0.0
 45
0.0
 46
0.0
 47
0.0
 48
0.0
 49
0.0
140
0.0
141
0.0
142
1.0
143
1.0
 70
   688
 72
     0
 73
     0
 74
     5
  7

 75
    16
147
1.0
148
0.0
149
0.0
100
AcDbLayout
  1
Layout2
 70
     1
 71
     2
 10
0.0
 20
0.0
 11
0.0
 21
0.0
 12
0.0
 22
0.0
 32
0.0
 14
0.0
 24
0.0
 34
0.0
 15
0.0
 25
0.0
 35
0.0
146
0.0
 13
0.0
 23
0.0
 33
0.0
 16
1.0
 26
0.0
 36
0.0
 17
0.0
 27
1.0
 37
0.0
 76
     0
330
23
  0
LAYOUT
  5
22
102
{ACAD_REACTORS
330
1A
102
}
330
1A
100
AcDbPlotSettings
  1

  2

  4

  6

 40
0.0
 41
0.0
 42
0.0
 43
0.0
 44
0.0
 45
0.0
 46
0.0
 47
0.0
 48
0.0
 49
0.0
140
0.0
141
0.0
142
1.0
143
1.0
 70
  1776
 72
     0
 73
     0
 74
     0
  7

 75
     0
147
1.0
148
0.0
149
0.0
100
AcDbLayout
  1
Model
 70
     1
 71
     0
 10
-206.430358
 20
-261.9
 11
981.569642
 21
578.1
 12
0.0
 22
0.0
 32
0.0
 14
-206.430358
 24
-261.9
 34
0.0
 15
981.569642
 25
578.1
 35
0.0
146
0.0
 13
0.0
 23
0.0
 33
0.0
 16
1.0
 26
0.0
 36
0.0
 17
0.0
 27
1.0
 37
0.0
 76
     0
330
1F
  0
MLINESTYLE
  5
18
102
{ACAD_REACTORS
330
17
102
}
330
17
100
AcDbMlineStyle
  2
Standard
 70
     0
  3

 62
   256
 51
90.0
 52
90.0
 71
     2
 49
0.5
 62
   256
  6
BYLAYER
 49
-0.5
 62
   256
  6
BYLAYER
  0
ACDBPLACEHOLDER
  5
F
102
{ACAD_REACTORS
330
E
102
}
330
E
  0
ENDSEC
  0
EOF
