  0
SECTION
  2
HEADER
  9
$ACADVER
  1
AC1009
  9
$INSBASE
 10
0.0
 20
0.0
 30
0.0
  9
$EXTMIN
 10
-210.0
 20
-148.5
 30
0.0
  9
$EXTMAX
 10
630.0
 20
445.5
 30
0.0
  9
$LIMMIN
 10
-210.0
 20
-148.5
  9
$LIMMAX
 10
630.0
 20
445.5
  9
$ORTHOMODE
 70
     0
  9
$REGENMODE
 70
     1
  9
$FILLMODE
 70
     1
  9
$QTEXTMODE
 70
     0
  9
$MIRRTEXT
 70
     1
  9
$DRAGMODE
 70
     2
  9
$LTSCALE
 40
2.0
  9
$OSMODE
 70
     0
  9
$ATTMODE
 70
     1
  9
$TEXTSIZE
 40
0.2
  9
$TRACEWID
 40
0.05
  9
$TEXTSTYLE
  7
STANDARD
  9
$CLAYER
  8
0
  9
$CELTYPE
  6
BYLAYER
  9
$CECOLOR
 62
     7
  9
$DIMSCALE
 40
2.0
  9
$DIMASZ
 40
3.5
  9
$DIMEXO
 40
0.0625
  9
$DIMDLI
 40
0.38
  9
$DIMRND
 40
0.0
  9
$DIMDLE
 40
0.0
  9
$DIMEXE
 40
0.18
  9
$DIMTP
 40
0.0
  9
$DIMTM
 40
0.0
  9
$DIMTXT
 40
3.5
  9
$DIMCEN
 40
0.09
  9
$DIMTSZ
 40
0.0
  9
$DIMTOL
 70
     0
  9
$DIMLIM
 70
     0
  9
$DIMTIH
 70
     1
  9
$DIMTOH
 70
     1
  9
$DIMSE1
 70
     0
  9
$DIMSE2
 70
     0
  9
$DIMTAD
 70
     1
  9
$DIMZIN
 70
     0
  9
$DIMBLK
  1

  9
$DIMASO
 70
     1
  9
$DIMSHO
 70
     1
  9
$DIMPOST
  1

  9
$DIMAPOST
  1

  9
$DIMALT
 70
     0
  9
$DIMALTD
 70
     2
  9
$DIMALTF
 40
25.4
  9
$DIMLFAC
 40
1.0
  9
$DIMTOFL
 70
     0
  9
$DIMTVP
 40
0.0
  9
$DIMTIX
 70
     0
  9
$DIMSOXD
 70
     0
  9
$DIMSAH
 70
     0
  9
$DIMBLK1
  1

  9
$DIMBLK2
  1

  9
$DIMSTYLE
  2
STANDARD
  9
$DIMCLRD
 70
     0
  9
$DIMCLRE
 70
     0
  9
$DIMCLRT
 70
     0
  9
$DIMTFAC
 40
1.0
  9
$DIMGAP
 40
0.09
  9
$LUNITS
 70
     2
  9
$LUPREC
 70
     2
  9
$AXISMODE
 70
     0
  9
$AXISUNIT
 10
0.0
 20
0.0
  9
$SKETCHINC
 40
0.1
  9
$FILLETRAD
 40
0.0
  9
$AUNITS
 70
     0
  9
$AUPREC
 70
     0
  9
$MENU
  1
acad
  9
$ELEVATION
 40
0.0
  9
$PELEVATION
 40
0.0
  9
$THICKNESS
 40
0.0
  9
$LIMCHECK
 70
     0
  9
$BLIPMODE
 70
     1
  9
$CHAMFERA
 40
0.0
  9
$CHAMFERB
 40
0.0
  9
$SKPOLY
 70
     0
  9
$TDCREATE
 40
0.000000000
  9
$TDUPDATE
 40
0.000000000
  9
$TDINDWG
 40
0.0000000000
  9
$TDUSRTIMER
 40
0.0000000000
  9
$USRTIMER
 70
     1
  9
$ANGBASE
 50
0.0
  9
$ANGDIR
 70
     0
  9
$PDMODE
 70
     0
  9
$PDSIZE
 40
0.0
  9
$PLINEWID
 40
0.0
  9
$COORDS
 70
     0
  9
$SPLFRAME
 70
     0
  9
$SPLINETYPE
 70
     6
  9
$SPLINESEGS
 70
     8
  9
$ATTDIA
 70
     0
  9
$ATTREQ
 70
     1
  9
$HANDLING
 70
     1
  9
$HANDSEED
  5
20E
  9
$SURFTAB1
 70
     6
  9
$SURFTAB2
 70
     6
  9
$SURFTYPE
 70
     6
  9
$SURFU
 70
     6
  9
$SURFV
 70
     6
  9
$UCSNAME
  2

  9
$UCSORG
 10
0.0
 20
0.0
 30
0.0
  9
$UCSXDIR
 10
1.0
 20
0.0
 30
0.0
  9
$UCSYDIR
 10
0.0
 20
1.0
 30
0.0
  9
$PUCSNAME
  2

  9
$PUCSORG
 10
0.0
 20
0.0
 30
0.0
  9
$PUCSXDIR
 10
1.0
 20
0.0
 30
0.0
  9
$PUCSYDIR
 10
0.0
 20
1.0
 30
0.0
  9
$USERI1
 70
     0
  9
$USERI2
 70
     0
  9
$USERI3
 70
     0
  9
$USERI4
 70
     0
  9
$USERI5
 70
     0
  9
$USERR1
 40
0.0
  9
$USERR2
 40
0.0
  9
$USERR3
 40
0.0
  9
$USERR4
 40
0.0
  9
$USERR5
 40
0.0
  9
$WORLDVIEW
 70
     1
  9
$SHADEDGE
 70
     3
  9
$SHADEDIF
 70
    70
  9
$TILEMODE
 70
     1
  9
$MAXACTVP
 70
    16
  9
$PINSBASE
 10
0.0
 20
0.0
 30
0.0
  9
$PLIMCHECK
 70
     0
  9
$PEXTMIN
 10
1.000000E+20
 20
1.000000E+20
 30
1.000000E+20
  9
$PEXTMAX
 10
-1.000000E+20
 20
-1.000000E+20
 30
-1.000000E+20
  9
$PLIMMIN
 10
-210.0
 20
-148.5
  9
$PLIMMAX
 10
630.0
 20
445.5
  9
$UNITMODE
 70
     0
  9
$VISRETAIN
 70
     0
  9
$PLINEGEN
 70
     1
  9
$PSLTSCALE
 70
     0
  9
$TREEDEPTH
 70
  3020
  9
$DWGCODEPAGE
  3
dos850
  0
ENDSEC
  0
SECTION
  2
TABLES
  0
TABLE
  2
VPORT
 70
     1
  0
VPORT
  2
*ACTIVE
 70
     0
 10
0.0
 20
0.0
 11
1.0
 21
1.0
 12
420.0
 22
297.0
 13
0.0
 23
0.0
 14
1.0
 24
1.0
 15
0.0
 25
0.0
 16
0.0
 26
0.0
 36
1.0
 17
-210.0
 27
-148.5
 37
0.0
 40
594.0
 41
1.604229
 42
50.0
 43
0.0
 44
0.0
 50
0.0
 51
0.0
 71
     0
 72
   100
 73
     1
 74
     1
 75
     0
 76
     0
 77
     0
 78
     0
  0
ENDTAB
  0
TABLE
  2
LTYPE
 70
     2
  0
LTYPE
  2
CONTINUOUS
 70
    64
  3
Solid line
 72
    65
 73
     0
 40
0.0
  0
LTYPE
  2
DASHDOT
 70
    64
  3
__ . __ . __ . __ . __
 72
    65
 73
     4
 40
7.5
 49
5.0
 49
-1.25
 49
0.0
 49
-1.25
  0
ENDTAB
  0
TABLE
  2
LAYER
 70
    11
  0
LAYER
  2
0
 70
     0
 62
     7
  6
CONTINUOUS
  0
LAYER
  2
LC-INFO-1-2-MM-A3-0
 70
     1
 62
    -1
  6
CONTINUOUS
  0
LAYER
  2
LC-002-005-----0
 70
     0
 62
     2
  6
CONTINUOUS
  0
LAYER
  2
LC-006-003-MTH-0
 70
     0
 62
     2
  6
CONTINUOUS
  0
LAYER
  2
LC-007-003-MTG-0
 70
     0
 62
     2
  6
CONTINUOUS
  0
LAYER
  2
LC-005-003-----0
 70
     0
 62
     2
  6
CONTINUOUS
  0
LAYER
  2
LC-004-000-----0
 70
     0
 62
     7
  6
CONTINUOUS
  0
LAYER
  2
LC-001-002-----0
 70
     0
 62
     2
  6
DASHDOT
  0
LAYER
  2
LC-003-002-RND-0
 70
     0
 62
     1
  6
CONTINUOUS
  0
LAYER
  2
LC-008-007-KH--0
 70
     0
 62
     7
  6
DASHDOT
  0
LAYER
  2
LC-000
 70
     0
 62
     7
  6
CONTINUOUS
  0
ENDTAB
  0
TABLE
  2
STYLE
 70
     3
  0
STYLE
  2
STANDARD
 70
     0
 40
0.0
 41
1.0
 50
0.0
 71
     0
 42
0.0
  3
txt
  4

  0
STYLE
  2
LC-TXTSTYLE-150-400-0-0-A1
 70
    64
 40
0.0
 41
1.0
 50
15.0
 71
     0
 42
3.5
  3
Arial
  4

  0
STYLE
  2
LC-STANDARD
 70
    64
 40
0.0
 41
1.0
 50
0.0
 71
     0
 42
3.5
  3
MONOTXT
  4

  0
ENDTAB
  0
TABLE
  2
VIEW
 70
     0
  0
ENDTAB
  0
TABLE
  2
UCS
 70
     0
  0
ENDTAB
  0
TABLE
  2
APPID
 70
     1
  0
APPID
  2
ACAD
 70
     0
  0
ENDTAB
  0
TABLE
  2
DIMSTYLE
 70
     3
  0
DIMSTYLE
  2
STANDARD
 70
     0
  3

  4

  5

  6

  7

 40
1.0
 41
0.18
 42
0.0625
 43
0.38
 44
0.18
 45
0.0
 46
0.0
 47
0.0
 48
0.0
 71
     0
 72
     0
 73
     1
 74
     1
 75
     0
 76
     0
 77
     0
 78
     0
140
0.18
141
0.09
142
0.0
143
25.4
144
1.0
145
0.0
146
1.0
147
0.09
170
     0
171
     2
172
     0
173
     0
174
     0
175
     0
176
     0
177
     0
178
     0
  0
DIMSTYLE
  2
LC-STANDARD
 70
     0
  3

  4

  5

  6

  7

 40
1.0
 41
3.5
 42
0.0
 43
7.5
 44
1.8
 45
0.0
 46
0.0
 47
0.0
 48
0.0
 71
     0
 72
     0
 73
     0
 74
     0
 75
     0
 76
     0
 77
     1
 78
     8
140
3.5
141
0.0
142
0.0
143
25.4
144
1.0
145
0.0
146
0.71
147
1.5
170
     0
171
     2
172
     1
173
     0
174
     0
175
     0
176
     0
177
     0
178
     3
  0
DIMSTYLE
  2
LC-DIM-L-0140-02-02
 70
     0
  3

  4

  5

  6

  7

 40
2.0
 41
3.5
 42
0.0
 43
7.5
 44
1.8
 45
0.0
 46
0.0
 47
0.0
 48
0.0
 71
     0
 72
     0
 73
     0
 74
     0
 75
     0
 76
     0
 77
     1
 78
     8
140
14.0
141
0.0
142
0.0
143
25.4
144
1.0
145
0.0
146
0.71
147
1.5
170
     0
171
     2
172
     0
173
     0
174
     0
175
     0
176
     2
177
     2
178
     8
  0
ENDTAB
  0
ENDSEC
  0
SECTION
  2
BLOCKS
  0
BLOCK
  8
0
  5
23
  2
*X0
 70
    65
 10
41.865038
 20
240.408162
 30
0.0
  3
*X0
  0
LINE
  8
LC-002-005-----0
  6
CONTINUOUS
  5
25
 10
43.832486
 20
240.408171
 30
0.0
 11
43.845613
 21
240.421298
 31
0.0
  0
LINE
  8
LC-002-005-----0
  6
CONTINUOUS
  5
26
 10
43.549642
 20
240.40817
 30
0.0
 11
43.845613
 21
240.704141
 31
0.0
  0
LINE
  8
LC-002-005-----0
  6
CONTINUOUS
  5
27
 10
43.266798
 20
240.408169
 30
0.0
 11
43.845613
 21
240.986983
 31
0.0
  0
LINE
  8
LC-002-005-----0
  6
CONTINUOUS
  5
28
 10
42.983954
 20
240.408167
 30
0.0
 11
43.845613
 21
241.269826
 31
0.0
  0
LINE
  8
LC-002-005-----0
  6
CONTINUOUS
  5
29
 10
42.70111
 20
240.408166
 30
0.0
 11
43.720724
 21
241.42778
 31
0.0
  0
LINE
  8
LC-002-005-----0
  6
CONTINUOUS
  5
2A
 10
42.418266
 20
240.408165
 30
0.0
 11
43.43788
 21
241.427779
 31
0.0
  0
LINE
  8
LC-002-005-----0
  6
CONTINUOUS
  5
2B
 10
42.135422
 20
240.408164
 30
0.0
 11
43.155036
 21
241.427778
 31
0.0
  0
LINE
  8
LC-002-005-----0
  6
CONTINUOUS
  5
2C
 10
41.865038
 20
240.420622
 30
0.0
 11
42.872192
 21
241.427776
 31
0.0
  0
LINE
  8
LC-002-005-----0
  6
CONTINUOUS
  5
2D
 10
41.865038
 20
240.703464
 30
0.0
 11
42.589348
 21
241.427775
 31
0.0
  0
LINE
  8
LC-002-005-----0
  6
CONTINUOUS
  5
2E
 10
41.865038
 20
240.986307
 30
0.0
 11
42.306504
 21
241.427774
 31
0.0
  0
LINE
  8
LC-002-005-----0
  6
CONTINUOUS
  5
2F
 10
41.865038
 20
241.26915
 30
0.0
 11
42.02366
 21
241.427773
 31
0.0
  0
ENDBLK
  8
0
  5
30
  0
BLOCK
  8
0
  5
32
  2
*X1
 70
    65
 10
50.343718
 20
240.408199
 30
0.0
  3
*X1
  0
LINE
  8
LC-002-005-----0
  6
CONTINUOUS
  5
33
 10
51.752116
 20
240.408205
 30
0.0
 11
51.822397
 21
240.478486
 31
0.0
  0
LINE
  8
LC-002-005-----0
  6
CONTINUOUS
  5
34
 10
51.469272
 20
240.408204
 30
0.0
 11
51.822397
 21
240.761329
 31
0.0
  0
LINE
  8
LC-002-005-----0
  6
CONTINUOUS
  5
35
 10
51.186428
 20
240.408203
 30
0.0
 11
51.822397
 21
241.044172
 31
0.0
  0
LINE
  8
LC-002-005-----0
  6
CONTINUOUS
  5
36
 10
50.903584
 20
240.408202
 30
0.0
 11
51.822397
 21
241.327014
 31
0.0
  0
LINE
  8
LC-002-005-----0
  6
CONTINUOUS
  5
37
 10
50.62074
 20
240.4082
 30
0.0
 11
51.640354
 21
241.427814
 31
0.0
  0
LINE
  8
LC-002-005-----0
  6
CONTINUOUS
  5
38
 10
50.343718
 20
240.41402
 30
0.0
 11
51.35751
 21
241.427813
 31
0.0
  0
LINE
  8
LC-002-005-----0
  6
CONTINUOUS
  5
39
 10
50.343718
 20
240.696863
 30
0.0
 11
51.074666
 21
241.427812
 31
0.0
  0
LINE
  8
LC-002-005-----0
  6
CONTINUOUS
  5
3A
 10
50.343718
 20
240.979706
 30
0.0
 11
50.791822
 21
241.427811
 31
0.0
  0
LINE
  8
LC-002-005-----0
  6
CONTINUOUS
  5
3B
 10
50.343718
 20
241.262549
 30
0.0
 11
50.508979
 21
241.427809
 31
0.0
  0
ENDBLK
  8
0
  5
3C
  0
BLOCK
  8
0
  5
3E
  2
*X2
 70
    65
 10
237.841089
 20
240.40859
 30
0.0
  3
*X2
  0
LINE
  8
LC-002-005-----0
  6
CONTINUOUS
  5
3F
 10
239.560062
 20
240.40859
 30
0.0
 11
239.821667
 21
240.670195
 31
0.0
  0
LINE
  8
LC-002-005-----0
  6
CONTINUOUS
  5
40
 10
239.27722
 20
240.40859
 30
0.0
 11
239.821666
 21
240.953037
 31
0.0
  0
LINE
  8
LC-002-005-----0
  6
CONTINUOUS
  5
41
 10
238.994377
 20
240.40859
 30
0.0
 11
239.821664
 21
241.235878
 31
0.0
  0
LINE
  8
LC-002-005-----0
  6
CONTINUOUS
  5
42
 10
238.711534
 20
240.40859
 30
0.0
 11
239.731144
 21
241.4282
 31
0.0
  0
LINE
  8
LC-002-005-----0
  6
CONTINUOUS
  5
43
 10
238.428691
 20
240.40859
 30
0.0
 11
239.448301
 21
241.4282
 31
0.0
  0
LINE
  8
LC-002-005-----0
  6
CONTINUOUS
  5
44
 10
238.145849
 20
240.40859
 30
0.0
 11
239.165458
 21
241.4282
 31
0.0
  0
LINE
  8
LC-002-005-----0
  6
CONTINUOUS
  5
45
 10
237.863006
 20
240.40859
 30
0.0
 11
238.882616
 21
241.4282
 31
0.0
  0
LINE
  8
LC-002-005-----0
  6
CONTINUOUS
  5
46
 10
237.841092
 20
240.669519
 30
0.0
 11
238.599773
 21
241.4282
 31
0.0
  0
LINE
  8
LC-002-005-----0
  6
CONTINUOUS
  5
47
 10
237.841091
 20
240.95236
 30
0.0
 11
238.31693
 21
241.4282
 31
0.0
  0
LINE
  8
LC-002-005-----0
  6
CONTINUOUS
  5
48
 10
237.841089
 20
241.235202
 30
0.0
 11
238.034088
 21
241.4282
 31
0.0
  0
ENDBLK
  8
0
  5
49
  0
BLOCK
  8
0
  5
4B
  2
*X3
 70
    65
 10
229.864304
 20
240.40859
 30
0.0
  3
*X3
  0
LINE
  8
LC-002-005-----0
  6
CONTINUOUS
  5
4C
 10
231.074781
 20
240.40859
 30
0.0
 11
231.342987
 21
240.676796
 31
0.0
  0
LINE
  8
LC-002-005-----0
  6
CONTINUOUS
  5
4D
 10
230.791938
 20
240.40859
 30
0.0
 11
231.342986
 21
240.959638
 31
0.0
  0
LINE
  8
LC-002-005-----0
  6
CONTINUOUS
  5
4E
 10
230.509096
 20
240.40859
 30
0.0
 11
231.342984
 21
241.242479
 31
0.0
  0
LINE
  8
LC-002-005-----0
  6
CONTINUOUS
  5
4F
 10
230.226253
 20
240.40859
 30
0.0
 11
231.245862
 21
241.4282
 31
0.0
  0
LINE
  8
LC-002-005-----0
  6
CONTINUOUS
  5
50
 10
229.94341
 20
240.40859
 30
0.0
 11
230.96302
 21
241.4282
 31
0.0
  0
LINE
  8
LC-002-005-----0
  6
CONTINUOUS
  5
51
 10
229.864308
 20
240.612331
 30
0.0
 11
230.680177
 21
241.4282
 31
0.0
  0
LINE
  8
LC-002-005-----0
  6
CONTINUOUS
  5
52
 10
229.864307
 20
240.895172
 30
0.0
 11
230.397334
 21
241.4282
 31
0.0
  0
LINE
  8
LC-002-005-----0
  6
CONTINUOUS
  5
53
 10
229.864305
 20
241.178014
 30
0.0
 11
230.114492
 21
241.4282
 31
0.0
  0
ENDBLK
  8
0
  5
54
  0
BLOCK
  8
0
  5
56
  2
BLK1
 70
    64
 10
0.0
 20
0.0
 30
0.0
  3
BLK1
  0
ENDBLK
  8
0
  5
57
  0
BLOCK
  8
0
  5
59
  2
*X5
 70
    65
 10
88.863944
 20
240.408162
 30
0.0
  3
*X5
  0
LINE
  8
LC-002-005-----0
  6
CONTINUOUS
  5
5A
 10
90.784376
 20
240.408171
 30
0.0
 11
90.844519
 21
240.468314
 31
0.0
  0
LINE
  8
LC-002-005-----0
  6
CONTINUOUS
  5
5B
 10
90.501532
 20
240.40817
 30
0.0
 11
90.844519
 21
240.751157
 31
0.0
  0
LINE
  8
LC-002-005-----0
  6
CONTINUOUS
  5
5C
 10
90.218688
 20
240.408168
 30
0.0
 11
90.844519
 21
241.033999
 31
0.0
  0
LINE
  8
LC-002-005-----0
  6
CONTINUOUS
  5
5D
 10
89.935844
 20
240.408167
 30
0.0
 11
90.844519
 21
241.316842
 31
0.0
  0
LINE
  8
LC-002-005-----0
  6
CONTINUOUS
  5
5E
 10
89.653
 20
240.408166
 30
0.0
 11
90.672614
 21
241.42778
 31
0.0
  0
LINE
  8
LC-002-005-----0
  6
CONTINUOUS
  5
5F
 10
89.370156
 20
240.408165
 30
0.0
 11
90.38977
 21
241.427779
 31
0.0
  0
LINE
  8
LC-002-005-----0
  6
CONTINUOUS
  5
60
 10
89.087312
 20
240.408163
 30
0.0
 11
90.106926
 21
241.427777
 31
0.0
  0
LINE
  8
LC-002-005-----0
  6
CONTINUOUS
  5
61
 10
88.863944
 20
240.467638
 30
0.0
 11
89.824082
 21
241.427776
 31
0.0
  0
LINE
  8
LC-002-005-----0
  6
CONTINUOUS
  5
62
 10
88.863944
 20
240.75048
 30
0.0
 11
89.541238
 21
241.427775
 31
0.0
  0
LINE
  8
LC-002-005-----0
  6
CONTINUOUS
  5
63
 10
88.863944
 20
241.033323
 30
0.0
 11
89.258394
 21
241.427774
 31
0.0
  0
LINE
  8
LC-002-005-----0
  6
CONTINUOUS
  5
64
 10
88.863944
 20
241.316166
 30
0.0
 11
88.975551
 21
241.427773
 31
0.0
  0
ENDBLK
  8
0
  5
65
  0
BLOCK
  8
0
  5
67
  2
*X6
 70
    65
 10
97.342624
 20
240.408199
 30
0.0
  3
*X6
  0
LINE
  8
LC-002-005-----0
  6
CONTINUOUS
  5
68
 10
98.704006
 20
240.408205
 30
0.0
 11
98.821303
 21
240.525502
 31
0.0
  0
LINE
  8
LC-002-005-----0
  6
CONTINUOUS
  5
69
 10
98.421162
 20
240.408204
 30
0.0
 11
98.821303
 21
240.808345
 31
0.0
  0
LINE
  8
LC-002-005-----0
  6
CONTINUOUS
  5
6A
 10
98.138318
 20
240.408203
 30
0.0
 11
98.821303
 21
241.091188
 31
0.0
  0
LINE
  8
LC-002-005-----0
  6
CONTINUOUS
  5
6B
 10
97.855474
 20
240.408201
 30
0.0
 11
98.821303
 21
241.37403
 31
0.0
  0
LINE
  8
LC-002-005-----0
  6
CONTINUOUS
  5
6C
 10
97.57263
 20
240.4082
 30
0.0
 11
98.592244
 21
241.427814
 31
0.0
  0
LINE
  8
LC-002-005-----0
  6
CONTINUOUS
  5
6D
 10
97.342624
 20
240.461036
 30
0.0
 11
98.3094
 21
241.427813
 31
0.0
  0
LINE
  8
LC-002-005-----0
  6
CONTINUOUS
  5
6E
 10
97.342624
 20
240.743879
 30
0.0
 11
98.026556
 21
241.427812
 31
0.0
  0
LINE
  8
LC-002-005-----0
  6
CONTINUOUS
  5
6F
 10
97.342624
 20
241.026722
 30
0.0
 11
97.743713
 21
241.42781
 31
0.0
  0
LINE
  8
LC-002-005-----0
  6
CONTINUOUS
  5
70
 10
97.342624
 20
241.309565
 30
0.0
 11
97.460869
 21
241.427809
 31
0.0
  0
ENDBLK
  8
0
  5
71
  0
BLOCK
  8
0
  5
73
  2
BLK2
 70
    64
 10
0.0
 20
0.0
 30
0.0
  3
BLK2
  0
ENDBLK
  8
0
  5
74
  0
BLOCK
  8
0
  5
76
  2
*X8
 70
    65
 10
190.842182
 20
240.408387
 30
0.0
  3
*X8
  0
LINE
  8
LC-002-005-----0
  6
CONTINUOUS
  5
77
 10
192.607969
 20
240.408387
 30
0.0
 11
192.822761
 21
240.623179
 31
0.0
  0
LINE
  8
LC-002-005-----0
  6
CONTINUOUS
  5
78
 10
192.325126
 20
240.408387
 30
0.0
 11
192.82276
 21
240.906021
 31
0.0
  0
LINE
  8
LC-002-005-----0
  6
CONTINUOUS
  5
79
 10
192.042283
 20
240.408387
 30
0.0
 11
192.822758
 21
241.188862
 31
0.0
  0
LINE
  8
LC-002-005-----0
  6
CONTINUOUS
  5
7A
 10
191.759441
 20
240.408387
 30
0.0
 11
192.77905
 21
241.427997
 31
0.0
  0
LINE
  8
LC-002-005-----0
  6
CONTINUOUS
  5
7B
 10
191.476598
 20
240.408387
 30
0.0
 11
192.496208
 21
241.427997
 31
0.0
  0
LINE
  8
LC-002-005-----0
  6
CONTINUOUS
  5
7C
 10
191.193755
 20
240.408387
 30
0.0
 11
192.213365
 21
241.427997
 31
0.0
  0
LINE
  8
LC-002-005-----0
  6
CONTINUOUS
  5
7D
 10
190.910913
 20
240.408387
 30
0.0
 11
191.930522
 21
241.427997
 31
0.0
  0
LINE
  8
LC-002-005-----0
  6
CONTINUOUS
  5
7E
 10
190.842186
 20
240.622503
 30
0.0
 11
191.647679
 21
241.427997
 31
0.0
  0
LINE
  8
LC-002-005-----0
  6
CONTINUOUS
  5
7F
 10
190.842185
 20
240.905345
 30
0.0
 11
191.364837
 21
241.427997
 31
0.0
  0
LINE
  8
LC-002-005-----0
  6
CONTINUOUS
  5
80
 10
190.842183
 20
241.188186
 30
0.0
 11
191.081994
 21
241.427997
 31
0.0
  0
ENDBLK
  8
0
  5
81
  0
BLOCK
  8
0
  5
83
  2
*X9
 70
    65
 10
182.865398
 20
240.408387
 30
0.0
  3
*X9
  0
LINE
  8
LC-002-005-----0
  6
CONTINUOUS
  5
84
 10
184.122687
 20
240.408387
 30
0.0
 11
184.344081
 21
240.629781
 31
0.0
  0
LINE
  8
LC-002-005-----0
  6
CONTINUOUS
  5
85
 10
183.839845
 20
240.408387
 30
0.0
 11
184.344079
 21
240.912622
 31
0.0
  0
LINE
  8
LC-002-005-----0
  6
CONTINUOUS
  5
86
 10
183.557002
 20
240.408387
 30
0.0
 11
184.344078
 21
241.195463
 31
0.0
  0
LINE
  8
LC-002-005-----0
  6
CONTINUOUS
  5
87
 10
183.274159
 20
240.408387
 30
0.0
 11
184.293769
 21
241.427997
 31
0.0
  0
LINE
  8
LC-002-005-----0
  6
CONTINUOUS
  5
88
 10
182.991317
 20
240.408387
 30
0.0
 11
184.010926
 21
241.427997
 31
0.0
  0
LINE
  8
LC-002-005-----0
  6
CONTINUOUS
  5
89
 10
182.865402
 20
240.565315
 30
0.0
 11
183.728084
 21
241.427997
 31
0.0
  0
LINE
  8
LC-002-005-----0
  6
CONTINUOUS
  5
8A
 10
182.865401
 20
240.848157
 30
0.0
 11
183.445241
 21
241.427997
 31
0.0
  0
LINE
  8
LC-002-005-----0
  6
CONTINUOUS
  5
8B
 10
182.865399
 20
241.130998
 30
0.0
 11
183.162398
 21
241.427997
 31
0.0
  0
LINE
  8
LC-002-005-----0
  6
CONTINUOUS
  5
8C
 10
182.865398
 20
241.41384
 30
0.0
 11
182.879555
 21
241.427997
 31
0.0
  0
ENDBLK
  8
0
  5
8D
  0
BLOCK
  8
0
  5
8F
  2
BLK3
 70
    64
 10
0.0
 20
0.0
 30
0.0
  3
BLK3
  0
ENDBLK
  8
0
  5
90
  0
BLOCK
  8
0
  5
92
  2
*D11
 70
    65
 10
0.0
 20
0.0
 30
0.0
  3
*D11
  0
LINE
  8
LC-006-003-MTH-0
  6
CONTINUOUS
  5
94
 10
16.343783
 20
237.157
 30
0.0
 11
16.343783
 21
340.8
 31
0.0
  0
LINE
  8
LC-006-003-MTH-0
  6
CONTINUOUS
  5
95
 10
265.342936
 20
237.157538
 30
0.0
 11
265.342936
 21
340.8
 31
0.0
  0
LINE
  8
LC-007-003-MTG-0
  6
CONTINUOUS
  5
97
 10
16.343783
 20
324.0
 30
0.0
 11
265.342936
 21
324.0
 31
0.0
  0
LINE
  8
LC-005-003-----0
  6
CONTINUOUS
  5
99
 10
44.10424
 20
327.654733
 30
0.0
 11
16.343783
 21
324.0
 31
0.0
  0
LINE
  8
LC-005-003-----0
  6
CONTINUOUS
  5
9A
 10
16.343783
 20
324.0
 30
0.0
 11
44.10424
 21
320.345267
 31
0.0
  0
LINE
  8
LC-005-003-----0
  6
CONTINUOUS
  5
9B
 10
44.10424
 20
320.345267
 30
0.0
 11
44.10424
 21
327.654733
 31
0.0
  0
LINE
  8
LC-005-003-----0
  6
CONTINUOUS
  5
9C
 10
44.166521
 20
326.704503
 30
0.0
 11
23.623783
 21
324.0
 31
0.0
  0
LINE
  8
LC-005-003-----0
  6
CONTINUOUS
  5
9D
 10
23.623783
 20
324.0
 30
0.0
 11
44.166521
 21
321.295497
 31
0.0
  0
LINE
  8
LC-005-003-----0
  6
CONTINUOUS
  5
9E
 10
44.228802
 20
325.754272
 30
0.0
 11
30.903783
 21
324.0
 31
0.0
  0
LINE
  8
LC-005-003-----0
  6
CONTINUOUS
  5
9F
 10
30.903783
 20
324.0
 30
0.0
 11
44.228802
 21
322.245728
 31
0.0
  0
LINE
  8
LC-005-003-----0
  6
CONTINUOUS
  5
A0
 10
44.291084
 20
324.804041
 30
0.0
 11
38.183783
 21
324.0
 31
0.0
  0
LINE
  8
LC-005-003-----0
  6
CONTINUOUS
  5
A1
 10
38.183783
 20
324.0
 30
0.0
 11
44.291084
 21
323.195959
 31
0.0
  0
LINE
  8
LC-005-003-----0
  6
CONTINUOUS
  5
A2
 10
237.58248
 20
320.345267
 30
0.0
 11
265.342936
 21
324.0
 31
0.0
  0
LINE
  8
LC-005-003-----0
  6
CONTINUOUS
  5
A3
 10
265.342936
 20
324.0
 30
0.0
 11
237.58248
 21
327.654733
 31
0.0
  0
LINE
  8
LC-005-003-----0
  6
CONTINUOUS
  5
A4
 10
237.58248
 20
327.654733
 30
0.0
 11
237.58248
 21
320.345267
 31
0.0
  0
LINE
  8
LC-005-003-----0
  6
CONTINUOUS
  5
A5
 10
237.520199
 20
321.295497
 30
0.0
 11
258.062936
 21
324.0
 31
0.0
  0
LINE
  8
LC-005-003-----0
  6
CONTINUOUS
  5
A6
 10
258.062936
 20
324.0
 30
0.0
 11
237.520199
 21
326.704503
 31
0.0
  0
LINE
  8
LC-005-003-----0
  6
CONTINUOUS
  5
A7
 10
237.457917
 20
322.245728
 30
0.0
 11
250.782936
 21
324.0
 31
0.0
  0
LINE
  8
LC-005-003-----0
  6
CONTINUOUS
  5
A8
 10
250.782936
 20
324.0
 30
0.0
 11
237.457917
 21
325.754272
 31
0.0
  0
LINE
  8
LC-005-003-----0
  6
CONTINUOUS
  5
A9
 10
237.395636
 20
323.195959
 30
0.0
 11
243.502936
 21
324.0
 31
0.0
  0
LINE
  8
LC-005-003-----0
  6
CONTINUOUS
  5
AA
 10
243.502936
 20
324.0
 30
0.0
 11
237.395636
 21
324.804041
 31
0.0
  0
TEXT
  8
LC-005-003-----0
  6
CONTINUOUS
 62
     8
  5
AB
 10
105.662623
 20
331.827554
 30
0.0
 40
28.0
  1
Ø249
 41
0.9
 51
15.0
  7
LC-TXTSTYLE-150-400-0-0-A0
 72
     1
 11
143.934073
 21
331.827554
 31
0.0
  0
ENDBLK
  8
0
  5
AC
  0
BLOCK
  8
0
  5
AE
  2
*D12
 70
    65
 10
0.0
 20
0.0
 30
0.0
  3
*D12
  0
LINE
  8
LC-006-003-MTH-0
  6
CONTINUOUS
  5
AF
 10
216.843495
 20
206.942038
 30
0.0
 11
324.8
 21
206.942038
 31
0.0
  0
LINE
  8
LC-006-003-MTH-0
  6
CONTINUOUS
  5
B0
 10
265.342936
 20
237.157538
 30
0.0
 11
324.8
 21
237.157538
 31
0.0
  0
LINE
  8
LC-005-003-----0
  6
CONTINUOUS
  5
B1
 10
311.654733
 20
179.181582
 30
0.0
 11
308.0
 21
206.942038
 31
0.0
  0
LINE
  8
LC-005-003-----0
  6
CONTINUOUS
  5
B2
 10
308.0
 20
206.942038
 30
0.0
 11
304.345267
 21
179.181582
 31
0.0
  0
LINE
  8
LC-005-003-----0
  6
CONTINUOUS
  5
B3
 10
304.345267
 20
179.181582
 30
0.0
 11
311.654733
 21
179.181582
 31
0.0
  0
LINE
  8
LC-005-003-----0
  6
CONTINUOUS
  5
B4
 10
310.704503
 20
179.119301
 30
0.0
 11
308.0
 21
199.662038
 31
0.0
  0
LINE
  8
LC-005-003-----0
  6
CONTINUOUS
  5
B5
 10
308.0
 20
199.662038
 30
0.0
 11
305.295497
 21
179.119301
 31
0.0
  0
LINE
  8
LC-005-003-----0
  6
CONTINUOUS
  5
B6
 10
309.754272
 20
179.057019
 30
0.0
 11
308.0
 21
192.382038
 31
0.0
  0
LINE
  8
LC-005-003-----0
  6
CONTINUOUS
  5
B7
 10
308.0
 20
192.382038
 30
0.0
 11
306.245728
 21
179.057019
 31
0.0
  0
LINE
  8
LC-005-003-----0
  6
CONTINUOUS
  5
B8
 10
308.804041
 20
178.994738
 30
0.0
 11
308.0
 21
185.102038
 31
0.0
  0
LINE
  8
LC-005-003-----0
  6
CONTINUOUS
  5
B9
 10
308.0
 20
185.102038
 30
0.0
 11
307.195959
 21
178.994738
 31
0.0
  0
LINE
  8
LC-005-003-----0
  6
CONTINUOUS
  5
BA
 10
304.345267
 20
264.917994
 30
0.0
 11
308.0
 21
237.157538
 31
0.0
  0
LINE
  8
LC-005-003-----0
  6
CONTINUOUS
  5
BB
 10
308.0
 20
237.157538
 30
0.0
 11
311.654733
 21
264.917994
 31
0.0
  0
LINE
  8
LC-005-003-----0
  6
CONTINUOUS
  5
BC
 10
311.654733
 20
264.917994
 30
0.0
 11
304.345267
 21
264.917994
 31
0.0
  0
LINE
  8
LC-005-003-----0
  6
CONTINUOUS
  5
BD
 10
305.295497
 20
264.980276
 30
0.0
 11
308.0
 21
244.437538
 31
0.0
  0
LINE
  8
LC-005-003-----0
  6
CONTINUOUS
  5
BE
 10
308.0
 20
244.437538
 30
0.0
 11
310.704503
 21
264.980276
 31
0.0
  0
LINE
  8
LC-005-003-----0
  6
CONTINUOUS
  5
BF
 10
306.245728
 20
265.042557
 30
0.0
 11
308.0
 21
251.717538
 31
0.0
  0
LINE
  8
LC-005-003-----0
  6
CONTINUOUS
  5
C0
 10
308.0
 20
251.717538
 30
0.0
 11
309.754272
 21
265.042557
 31
0.0
  0
LINE
  8
LC-005-003-----0
  6
CONTINUOUS
  5
C1
 10
307.195959
 20
265.104839
 30
0.0
 11
308.0
 21
258.997538
 31
0.0
  0
LINE
  8
LC-005-003-----0
  6
CONTINUOUS
  5
C2
 10
308.0
 20
258.997538
 30
0.0
 11
308.804041
 21
265.104839
 31
0.0
  0
LINE
  8
LC-007-003-MTG-0
  6
CONTINUOUS
  5
C3
 10
308.0
 20
167.742038
 30
0.0
 11
308.0
 21
320.521938
 31
0.0
  0
TEXT
  8
LC-005-003-----0
  6
CONTINUOUS
 62
     8
  5
C4
 10
300.172446
 20
279.585698
 30
0.0
 40
28.0
  1
30
 50
90.0
 41
0.9
 51
15.0
  7
LC-TXTSTYLE-150-400-0-0-A0
  0
ENDBLK
  8
0
  5
C5
  0
BLOCK
  8
0
  5
C7
  2
*D13
 70
    65
 10
0.0
 20
0.0
 30
0.0
  3
*D13
  0
LINE
  8
LC-006-003-MTH-0
  6
CONTINUOUS
  5
C8
 10
46.845613
 20
252.461652
 30
0.0
 11
46.845613
 21
304.8
 31
0.0
  0
LINE
  8
LC-006-003-MTH-0
  6
CONTINUOUS
  5
C9
 10
234.841041
 20
252.462058
 30
0.0
 11
234.841041
 21
304.8
 31
0.0
  0
LINE
  8
LC-007-003-MTG-0
  6
CONTINUOUS
  5
CA
 10
46.845613
 20
288.0
 30
0.0
 11
234.841041
 21
288.0
 31
0.0
  0
LINE
  8
LC-005-003-----0
  6
CONTINUOUS
  5
CB
 10
74.606069
 20
291.654733
 30
0.0
 11
46.845613
 21
288.0
 31
0.0
  0
LINE
  8
LC-005-003-----0
  6
CONTINUOUS
  5
CC
 10
46.845613
 20
288.0
 30
0.0
 11
74.606069
 21
284.345267
 31
0.0
  0
LINE
  8
LC-005-003-----0
  6
CONTINUOUS
  5
CD
 10
74.606069
 20
284.345267
 30
0.0
 11
74.606069
 21
291.654733
 31
0.0
  0
LINE
  8
LC-005-003-----0
  6
CONTINUOUS
  5
CE
 10
74.66835
 20
290.704503
 30
0.0
 11
54.125613
 21
288.0
 31
0.0
  0
LINE
  8
LC-005-003-----0
  6
CONTINUOUS
  5
CF
 10
54.125613
 20
288.0
 30
0.0
 11
74.66835
 21
285.295497
 31
0.0
  0
LINE
  8
LC-005-003-----0
  6
CONTINUOUS
  5
D0
 10
74.730632
 20
289.754272
 30
0.0
 11
61.405613
 21
288.0
 31
0.0
  0
LINE
  8
LC-005-003-----0
  6
CONTINUOUS
  5
D1
 10
61.405613
 20
288.0
 30
0.0
 11
74.730632
 21
286.245728
 31
0.0
  0
LINE
  8
LC-005-003-----0
  6
CONTINUOUS
  5
D2
 10
74.792913
 20
288.804041
 30
0.0
 11
68.685613
 21
288.0
 31
0.0
  0
LINE
  8
LC-005-003-----0
  6
CONTINUOUS
  5
D3
 10
68.685613
 20
288.0
 30
0.0
 11
74.792913
 21
287.195959
 31
0.0
  0
LINE
  8
LC-005-003-----0
  6
CONTINUOUS
  5
D4
 10
207.080585
 20
284.345267
 30
0.0
 11
234.841041
 21
288.0
 31
0.0
  0
LINE
  8
LC-005-003-----0
  6
CONTINUOUS
  5
D5
 10
234.841041
 20
288.0
 30
0.0
 11
207.080585
 21
291.654733
 31
0.0
  0
LINE
  8
LC-005-003-----0
  6
CONTINUOUS
  5
D6
 10
207.080585
 20
291.654733
 30
0.0
 11
207.080585
 21
284.345267
 31
0.0
  0
LINE
  8
LC-005-003-----0
  6
CONTINUOUS
  5
D7
 10
207.018303
 20
285.295497
 30
0.0
 11
227.561041
 21
288.0
 31
0.0
  0
LINE
  8
LC-005-003-----0
  6
CONTINUOUS
  5
D8
 10
227.561041
 20
288.0
 30
0.0
 11
207.018303
 21
290.704503
 31
0.0
  0
LINE
  8
LC-005-003-----0
  6
CONTINUOUS
  5
D9
 10
206.956022
 20
286.245728
 30
0.0
 11
220.281041
 21
288.0
 31
0.0
  0
LINE
  8
LC-005-003-----0
  6
CONTINUOUS
  5
DA
 10
220.281041
 20
288.0
 30
0.0
 11
206.956022
 21
289.754272
 31
0.0
  0
LINE
  8
LC-005-003-----0
  6
CONTINUOUS
  5
DB
 10
206.89374
 20
287.195959
 30
0.0
 11
213.001041
 21
288.0
 31
0.0
  0
LINE
  8
LC-005-003-----0
  6
CONTINUOUS
  5
DC
 10
213.001041
 20
288.0
 30
0.0
 11
206.89374
 21
288.804041
 31
0.0
  0
TEXT
  8
LC-005-003-----0
  6
CONTINUOUS
 62
     8
  5
DD
 10
103.337539
 20
295.827554
 30
0.0
 40
28.0
  1
Ø188
 41
0.9
 51
15.0
  7
LC-TXTSTYLE-150-400-0-0-A0
 72
     1
 11
141.608989
 21
295.827554
 31
0.0
  0
ENDBLK
  8
0
  5
DE
  0
BLOCK
  8
0
  5
E0
  2
*X14
 70
    65
 10
238.343018
 20
230.942034
 30
0.0
  3
*X14
  0
LINE
  8
LC-002-005-----0
  6
CONTINUOUS
  5
E1
 10
264.597869
 20
236.033732
 30
0.0
 11
263.890384
 21
236.741217
 31
0.0
  0
LINE
  8
LC-002-005-----0
  6
CONTINUOUS
  5
E2
 10
262.637281
 20
235.165893
 30
0.0
 11
261.794156
 21
236.009018
 31
0.0
  0
LINE
  8
LC-002-005-----0
  6
CONTINUOUS
  5
E3
 10
260.304675
 20
234.670071
 30
0.0
 11
259.46155
 21
235.513197
 31
0.0
  0
LINE
  8
LC-002-005-----0
  6
CONTINUOUS
  5
E4
 10
257.97207
 20
234.17425
 30
0.0
 11
257.128944
 21
235.017376
 31
0.0
  0
LINE
  8
LC-002-005-----0
  6
CONTINUOUS
  5
E5
 10
255.639464
 20
233.678429
 30
0.0
 11
254.796338
 21
234.521555
 31
0.0
  0
LINE
  8
LC-002-005-----0
  6
CONTINUOUS
  5
E6
 10
253.306858
 20
233.182608
 30
0.0
 11
252.463732
 21
234.025733
 31
0.0
  0
LINE
  8
LC-002-005-----0
  6
CONTINUOUS
  5
E7
 10
250.974252
 20
232.686786
 30
0.0
 11
250.131126
 21
233.529912
 31
0.0
  0
LINE
  8
LC-002-005-----0
  6
CONTINUOUS
  5
E8
 10
248.641646
 20
232.190965
 30
0.0
 11
247.79852
 21
233.034091
 31
0.0
  0
LINE
  8
LC-002-005-----0
  6
CONTINUOUS
  5
E9
 10
246.30904
 20
231.695144
 30
0.0
 11
245.465914
 21
232.53827
 31
0.0
  0
LINE
  8
LC-002-005-----0
  6
CONTINUOUS
  5
EA
 10
243.976434
 20
231.199323
 30
0.0
 11
243.133308
 21
232.042449
 31
0.0
  0
LINE
  8
LC-002-005-----0
  6
CONTINUOUS
  5
EB
 10
241.310096
 20
231.037234
 30
0.0
 11
238.905287
 21
233.442042
 31
0.0
  0
ENDBLK
  8
0
  5
EC
  0
BLOCK
  8
0
  5
EE
  2
*X15
 70
    65
 10
50.343718
 20
206.941709
 30
0.0
  3
*X15
  0
LINE
  8
LC-002-005-----0
  6
CONTINUOUS
  5
EF
 10
61.782216
 20
229.545778
 30
0.0
 11
59.447745
 21
231.880249
 31
0.0
  0
LINE
  8
LC-002-005-----0
  6
CONTINUOUS
  5
F0
 10
61.843669
 20
226.655898
 30
0.0
 11
60.843667
 21
227.6559
 31
0.0
  0
LINE
  8
LC-002-005-----0
  6
CONTINUOUS
  5
F1
 10
57.557886
 20
230.94168
 30
0.0
 11
56.557869
 21
231.941698
 31
0.0
  0
LINE
  8
LC-002-005-----0
  6
CONTINUOUS
  5
F2
 10
61.843676
 20
223.827464
 30
0.0
 11
60.843673
 21
224.827466
 31
0.0
  0
LINE
  8
LC-002-005-----0
  6
CONTINUOUS
  5
F3
 10
54.72947
 20
230.941669
 30
0.0
 11
52.455014
 21
233.216126
 31
0.0
  0
LINE
  8
LC-002-005-----0
  6
CONTINUOUS
  5
F4
 10
61.843682
 20
220.99903
 30
0.0
 11
60.84368
 21
221.999033
 31
0.0
  0
LINE
  8
LC-002-005-----0
  6
CONTINUOUS
  5
F5
 10
50.401061
 20
232.441651
 30
0.0
 11
50.343722
 21
232.498991
 31
0.0
  0
LINE
  8
LC-002-005-----0
  6
CONTINUOUS
  5
F6
 10
61.843689
 20
218.170597
 30
0.0
 11
60.843686
 21
219.170599
 31
0.0
  0
LINE
  8
LC-002-005-----0
  6
CONTINUOUS
  5
F7
 10
61.843695
 20
215.342163
 30
0.0
 11
60.843693
 21
216.342165
 31
0.0
  0
LINE
  8
LC-002-005-----0
  6
CONTINUOUS
  5
F8
 10
65.843355
 20
208.514076
 30
0.0
 11
64.837138
 21
209.520293
 31
0.0
  0
LINE
  8
LC-002-005-----0
  6
CONTINUOUS
  5
F9
 10
64.421954
 20
209.935477
 30
0.0
 11
63.355133
 21
211.002298
 31
0.0
  0
LINE
  8
LC-002-005-----0
  6
CONTINUOUS
  5
FA
 10
61.904293
 20
212.453138
 30
0.0
 11
60.843699
 21
213.513732
 31
0.0
  0
ENDBLK
  8
0
  5
FB
  0
BLOCK
  8
0
  5
FD
  2
*X16
 70
    65
 10
16.152748
 20
230.941593
 30
0.0
  3
*X16
  0
LINE
  8
LC-002-005-----0
  6
CONTINUOUS
  5
FE
 10
41.915816
 20
232.441615
 30
0.0
 11
41.183778
 21
233.173653
 31
0.0
  0
LINE
  8
LC-002-005-----0
  6
CONTINUOUS
  5
FF
 10
40.452472
 20
231.076532
 30
0.0
 11
39.587402
 21
231.941602
 31
0.0
  0
LINE
  8
LC-002-005-----0
  6
CONTINUOUS
  5
100
 10
37.44539
 20
231.255187
 30
0.0
 11
36.147086
 21
232.553491
 31
0.0
  0
LINE
  8
LC-002-005-----0
  6
CONTINUOUS
  5
101
 10
33.853478
 20
232.018672
 30
0.0
 11
32.555175
 21
233.316975
 31
0.0
  0
LINE
  8
LC-002-005-----0
  6
CONTINUOUS
  5
102
 10
30.261567
 20
232.782156
 30
0.0
 11
28.963263
 21
234.080459
 31
0.0
  0
LINE
  8
LC-002-005-----0
  6
CONTINUOUS
  5
103
 10
26.669655
 20
233.54564
 30
0.0
 11
25.371352
 21
234.843944
 31
0.0
  0
LINE
  8
LC-002-005-----0
  6
CONTINUOUS
  5
104
 10
23.077744
 20
234.309125
 30
0.0
 11
21.77944
 21
235.607428
 31
0.0
  0
LINE
  8
LC-002-005-----0
  6
CONTINUOUS
  5
105
 10
19.485832
 20
235.072609
 30
0.0
 11
17.933033
 21
236.625408
 31
0.0
  0
LINE
  8
LC-002-005-----0
  6
CONTINUOUS
  5
106
 10
17.567726
 20
236.990715
 30
0.0
 11
17.415878
 21
237.142564
 31
0.0
  0
ENDBLK
  8
0
  5
107
  0
BLOCK
  8
0
  5
109
  2
*X17
 70
    65
 10
214.843124
 20
206.942034
 30
0.0
  3
*X17
  0
LINE
  8
LC-002-005-----0
  6
CONTINUOUS
  5
10A
 10
231.343018
 20
232.51903
 30
0.0
 11
230.420006
 21
233.442042
 31
0.0
  0
LINE
  8
LC-002-005-----0
  6
CONTINUOUS
  5
10B
 10
229.227959
 20
231.805662
 30
0.0
 11
228.520852
 21
232.512769
 31
0.0
  0
LINE
  8
LC-002-005-----0
  6
CONTINUOUS
  5
10C
 10
227.263152
 20
230.942042
 30
0.0
 11
226.263127
 21
231.942067
 31
0.0
  0
LINE
  8
LC-002-005-----0
  6
CONTINUOUS
  5
10D
 10
224.434726
 20
230.942041
 30
0.0
 11
223.434712
 21
231.942055
 31
0.0
  0
LINE
  8
LC-002-005-----0
  6
CONTINUOUS
  5
10E
 10
221.86294
 20
230.6854
 30
0.0
 11
221.137974
 21
231.410366
 31
0.0
  0
LINE
  8
LC-002-005-----0
  6
CONTINUOUS
  5
10F
 10
220.843092
 20
228.876821
 30
0.0
 11
219.95745
 21
229.762463
 31
0.0
  0
LINE
  8
LC-002-005-----0
  6
CONTINUOUS
  5
110
 10
220.843097
 20
226.048388
 30
0.0
 11
219.843095
 21
227.04839
 31
0.0
  0
LINE
  8
LC-002-005-----0
  6
CONTINUOUS
  5
111
 10
220.843103
 20
223.219956
 30
0.0
 11
219.843101
 21
224.219958
 31
0.0
  0
LINE
  8
LC-002-005-----0
  6
CONTINUOUS
  5
112
 10
220.843109
 20
220.391523
 30
0.0
 11
219.843107
 21
221.391525
 31
0.0
  0
LINE
  8
LC-002-005-----0
  6
CONTINUOUS
  5
113
 10
220.843114
 20
217.56309
 30
0.0
 11
219.843112
 21
218.563092
 31
0.0
  0
LINE
  8
LC-002-005-----0
  6
CONTINUOUS
  5
114
 10
220.84312
 20
214.734657
 30
0.0
 11
219.843118
 21
215.734659
 31
0.0
  0
LINE
  8
LC-002-005-----0
  6
CONTINUOUS
  5
115
 10
220.705511
 20
212.043839
 30
0.0
 11
219.842809
 21
212.906541
 31
0.0
  0
LINE
  8
LC-002-005-----0
  6
CONTINUOUS
  5
116
 10
219.487853
 20
210.43307
 30
0.0
 11
218.757582
 21
211.163341
 31
0.0
  0
LINE
  8
LC-002-005-----0
  6
CONTINUOUS
  5
117
 10
217.178482
 20
209.914014
 30
0.0
 11
216.447475
 21
210.645021
 31
0.0
  0
LINE
  8
LC-002-005-----0
  6
CONTINUOUS
  5
118
 10
216.843493
 20
207.420575
 30
0.0
 11
215.843489
 21
208.42058
 31
0.0
  0
ENDBLK
  8
0
  5
119
  0
BLOCK
  8
0
  5
11B
  2
BLK4
 70
    64
 10
0.0
 20
0.0
 30
0.0
  3
BLK4
  0
ENDBLK
  8
0
  5
11C
  0
BLOCK
  8
0
  5
11E
  2
BLK5
 70
    64
 10
0.0
 20
0.0
 30
0.0
  3
BLK5
  0
ENDBLK
  8
0
  5
11F
  0
BLOCK
  8
0
  5
121
  2
BLK6
 70
    64
 10
0.0
 20
0.0
 30
0.0
  3
BLK6
  0
ENDBLK
  8
0
  5
122
  0
ENDSEC
  0
SECTION
  2
ENTITIES
  0
VIEWPORT
  8
LC-000
  5
204
 67
     1
 68
     1
 10
420.0
 20
297.0
 30
0.0
 40
840.0
 41
594.0
 69
     1
1001
ACAD
1000
MVIEW
1002
{
1070
    16
1010
0.0
1020
0.0
1030
0.0
1010
0.0
1020
0.0
1030
1.0
1040
0.0
1040
594.0
1040
420.0
1040
297.0
1040
50.0
1040
0.0
1040
0.0
1070
     0
1070
   100
1070
     1
1070
     1
1070
     0
1070
     0
1070
     0
1070
     0
1040
0.0
1040
0.0
1040
0.0
1040
1.0
1040
1.0
1040
0.0
1040
0.0
1070
     0
1002
{
1002
}
1002
}
  0
VIEWPORT
  8
0
  5
205
 67
     1
 68
     1
 10
0.0
 20
0.0
 30
0.0
 40
0.0
 41
0.0
 69
     1
1001
ACAD
1000
MVIEW
1002
{
1070
    16
1010
0.0
1020
0.0
1030
0.0
1010
0.0
1020
0.0
1030
1.0
1040
0.0
1040
594.0
1040
0.0
1040
0.0
1040
50.0
1040
0.0
1040
0.0
1070
     0
1070
   100
1070
     0
1070
     1
1070
     0
1070
     0
1070
     0
1070
     0
1040
0.0
1040
0.0
1040
0.0
1040
0.5
1040
0.5
1040
0.5
1040
0.5
1070
     0
1002
{
1002
}
1002
}
  0
INSERT
  8
LC-002-005-----0
  6
CONTINUOUS
  5
123
  2
*X0
 10
41.865038
 20
240.408162
 30
0.0
  0
INSERT
  8
LC-002-005-----0
  6
CONTINUOUS
  5
124
  2
*X1
 10
50.343718
 20
240.408199
 30
0.0
  0
INSERT
  8
LC-002-005-----0
  6
CONTINUOUS
  5
125
  2
*X2
 10
237.841089
 20
240.40859
 30
0.0
  0
INSERT
  8
LC-002-005-----0
  6
CONTINUOUS
  5
126
  2
*X3
 10
229.864304
 20
240.40859
 30
0.0
  0
INSERT
  8
LC-004-000-----0
  5
128
  2
BLK1
 10
0.0
 20
0.0
 30
0.0
  0
INSERT
  8
LC-002-005-----0
  6
CONTINUOUS
  5
129
  2
*X5
 10
88.863944
 20
240.408162
 30
0.0
  0
INSERT
  8
LC-002-005-----0
  6
CONTINUOUS
  5
12A
  2
*X6
 10
97.342624
 20
240.408199
 30
0.0
  0
INSERT
  8
LC-004-000-----0
  5
12B
  2
BLK2
 10
0.0
 20
0.0
 30
0.0
  0
INSERT
  8
LC-002-005-----0
  6
CONTINUOUS
  5
12C
  2
*X8
 10
190.842182
 20
240.408387
 30
0.0
  0
INSERT
  8
LC-002-005-----0
  6
CONTINUOUS
  5
12D
  2
*X9
 10
182.865398
 20
240.408387
 30
0.0
  0
INSERT
  8
LC-004-000-----0
  5
12E
  2
BLK3
 10
0.0
 20
0.0
 30
0.0
  0
DIMENSION
  8
LC-005-003-----0
  6
CONTINUOUS
  5
12F
  2
*D11
 10
139.585913
 20
324.0
 30
0.0
 11
139.585913
 21
324.0
 31
0.0
  1
%%c<>
 13
16.343783
 23
237.157
 33
0.0
 14
265.342936
 24
237.157538
 34
0.0
  3
LC-DIM-L-0140-02-02
  0
DIMENSION
  8
LC-005-003-----0
  6
CONTINUOUS
  5
130
  2
*D12
 10
308.0
 20
222.049788
 30
0.0
 11
308.0
 21
222.049788
 31
0.0
  1
30
 13
265.342936
 23
237.157538
 33
0.0
 14
216.843495
 24
206.942038
 34
0.0
 50
90.0
  3
LC-DIM-L-0140-02-02
  0
DIMENSION
  8
LC-005-003-----0
  6
CONTINUOUS
  5
131
  2
*D13
 10
137.260829
 20
288.0
 30
0.0
 11
137.260829
 21
288.0
 31
0.0
  1
%%c<>
 13
46.845613
 23
252.461652
 33
0.0
 14
234.841041
 24
252.462058
 34
0.0
  3
LC-DIM-L-0140-02-02
  0
INSERT
  8
LC-002-005-----0
  6
CONTINUOUS
  5
132
  2
*X14
 10
238.343018
 20
230.942034
 30
0.0
  0
INSERT
  8
LC-002-005-----0
  6
CONTINUOUS
  5
133
  2
*X15
 10
50.343718
 20
206.941709
 30
0.0
  0
INSERT
  8
LC-002-005-----0
  6
CONTINUOUS
  5
134
  2
*X16
 10
16.152748
 20
230.941593
 30
0.0
  0
INSERT
  8
LC-002-005-----0
  6
CONTINUOUS
  5
135
  2
*X17
 10
214.843124
 20
206.942034
 30
0.0
  0
INSERT
  8
LC-004-000-----0
  5
136
  2
BLK4
 10
0.0
 20
0.0
 30
0.0
  0
INSERT
  8
LC-004-000-----0
  5
137
  2
BLK5
 10
0.0
 20
0.0
 30
0.0
  0
INSERT
  8
LC-004-000-----0
  5
138
  2
BLK6
 10
0.0
 20
0.0
 30
0.0
  0
LINE
  8
LC-001-002-----0
  6
DASHDOT
  5
13B
 10
46.845613
 20
252.461652
 30
0.0
 11
46.845613
 21
232.441648
 31
0.0
  0
LINE
  8
LC-001-002-----0
  6
CONTINUOUS
 62
     1
  5
13C
 10
16.343783
 20
237.157
 30
0.0
 11
265.342936
 21
237.157
 31
0.0
  0
LINE
  8
LC-001-002-----0
  6
CONTINUOUS
 62
     1
  5
13D
 10
64.343355
 20
210.941707
 30
0.0
 11
217.343484
 21
210.941707
 31
0.0
  0
LINE
  8
LC-001-002-----0
  6
CONTINUOUS
 62
     1
  5
13E
 10
65.843355
 20
206.941709
 30
0.0
 11
215.843495
 21
206.941709
 31
0.0
  0
LINE
  8
LC-001-002-----0
  6
CONTINUOUS
 62
     1
  5
13F
 10
51.822397
 20
241.427815
 30
0.0
 11
41.865038
 21
241.427772
 31
0.0
  0
LINE
  8
LC-001-002-----0
  6
CONTINUOUS
 62
     1
  5
140
 10
51.822397
 20
240.408206
 30
0.0
 11
41.865038
 21
240.408162
 31
0.0
  0
LINE
  8
LC-001-002-----0
  6
CONTINUOUS
 62
     1
  5
141
 10
41.865038
 20
241.427772
 30
0.0
 11
41.865038
 21
240.408162
 31
0.0
  0
LINE
  8
LC-001-002-----0
  6
CONTINUOUS
 62
     1
  5
142
 10
51.822397
 20
241.427815
 30
0.0
 11
51.822397
 21
240.408206
 31
0.0
  0
LINE
  8
LC-001-002-----0
  6
CONTINUOUS
 62
     1
  5
143
 10
43.845613
 20
240.408171
 30
0.0
 11
43.845613
 21
241.427772
 31
0.0
  0
LINE
  8
LC-001-002-----0
  6
CONTINUOUS
 62
     1
  5
144
 10
50.343718
 20
240.408199
 30
0.0
 11
50.343718
 21
241.427815
 31
0.0
  0
LINE
  8
LC-001-002-----0
  6
CONTINUOUS
 62
     1
  5
145
 10
229.864339
 20
233.442042
 30
0.0
 11
239.821698
 21
233.442042
 31
0.0
  0
LINE
  8
LC-001-002-----0
  6
DASHDOT
  5
146
 10
140.843359
 20
237.395973
 30
0.0
 11
140.843425
 21
206.941709
 31
0.0
  0
LINE
  8
LC-001-002-----0
  6
DASHDOT
  5
147
 10
234.841041
 20
252.462058
 30
0.0
 11
234.841127
 21
232.442054
 31
0.0
  0
LINE
  8
LC-001-002-----0
  6
CONTINUOUS
 62
     1
  5
148
 10
229.864304
 20
241.4282
 30
0.0
 11
239.821664
 21
241.4282
 31
0.0
  0
LINE
  8
LC-001-002-----0
  6
CONTINUOUS
 62
     1
  5
149
 10
229.864309
 20
240.40859
 30
0.0
 11
239.821668
 21
240.40859
 31
0.0
  0
LINE
  8
LC-001-002-----0
  6
CONTINUOUS
 62
     1
  5
14A
 10
239.821664
 20
241.4282
 30
0.0
 11
239.821668
 21
240.40859
 31
0.0
  0
LINE
  8
LC-001-002-----0
  6
CONTINUOUS
 62
     1
  5
14B
 10
229.864304
 20
241.4282
 30
0.0
 11
229.864309
 21
240.40859
 31
0.0
  0
LINE
  8
LC-001-002-----0
  6
CONTINUOUS
 62
     1
  5
14C
 10
237.841093
 20
240.40859
 30
0.0
 11
237.841089
 21
241.428192
 31
0.0
  0
LINE
  8
LC-001-002-----0
  6
CONTINUOUS
 62
     1
  5
14D
 10
231.342988
 20
240.40859
 30
0.0
 11
231.342984
 21
241.428206
 31
0.0
  0
LINE
  8
LC-001-002-----0
  6
CONTINUOUS
 62
     1
  5
14E
 10
228.84108
 20
243.462033
 30
0.0
 11
240.84108
 21
243.462084
 31
0.0
  0
LINE
  8
LC-001-002-----0
  6
CONTINUOUS
 62
     1
  5
14F
 10
229.841041
 20
252.462037
 30
0.0
 11
239.841041
 21
252.46208
 31
0.0
  0
LINE
  8
LC-001-002-----0
  6
CONTINUOUS
 62
     1
  5
150
 10
241.528916
 20
258.149913
 30
0.0
 11
239.841041
 21
252.46208
 31
0.0
  0
LINE
  8
LC-001-002-----0
  6
CONTINUOUS
 62
     1
  5
151
 10
228.84108
 20
243.462033
 30
0.0
 11
229.841041
 21
252.462037
 31
0.0
  0
LINE
  8
LC-001-002-----0
  6
CONTINUOUS
 62
     1
  5
152
 10
239.841041
 20
252.46208
 30
0.0
 11
240.84108
 21
243.462084
 31
0.0
  0
ARC
  8
LC-003-002-RND-0
  6
CONTINUOUS
  5
154
 10
245.144489
 20
256.537113
 30
0.0
 40
3.925
 50
89.872838
 51
155.894353
  0
ARC
  8
LC-001-002-----0
  6
CONTINUOUS
 62
     1
  5
155
 10
245.153321
 20
254.929345
 30
0.0
 40
5.576109
 50
40.088499
 51
90.091632
  0
ARC
  8
LC-003-002-RND-0
  6
CONTINUOUS
  5
156
 10
246.416503
 20
255.99261
 30
0.0
 40
3.925
 50
315.504434
 51
40.088499
  0
LINE
  8
LC-001-002-----0
  6
CONTINUOUS
 62
     1
  5
157
 10
228.153117
 20
258.149856
 30
0.0
 11
229.841041
 21
252.462037
 31
0.0
  0
ARC
  8
LC-003-002-RND-0
  6
CONTINUOUS
  5
158
 10
223.265548
 20
255.99251
 30
0.0
 40
3.925
 50
139.911996
 51
224.496061
  0
LINE
  8
LC-001-002-----0
  6
CONTINUOUS
 62
     1
  5
159
 10
220.286153
 20
253.437353
 30
0.0
 11
228.84108
 21
243.462033
 31
0.0
  0
LINE
  8
LC-001-002-----0
  6
CONTINUOUS
 62
     1
  5
15A
 10
249.395921
 20
253.437479
 30
0.0
 11
240.84108
 21
243.462084
 31
0.0
  0
ARC
  8
LC-003-002-RND-0
  6
CONTINUOUS
  5
15B
 10
224.537557
 20
256.537024
 30
0.0
 40
3.925
 50
24.106143
 51
90.127658
  0
ARC
  8
LC-001-002-----0
  6
CONTINUOUS
 62
     1
  5
15C
 10
224.528739
 20
254.929256
 30
0.0
 40
5.576109
 50
89.908864
 51
139.911996
  0
LINE
  8
LC-001-002-----0
  6
DASHDOT
  5
15D
 10
140.843425
 20
181.941709
 30
0.0
 11
140.843425
 21
-67.057574
 31
0.0
  0
LINE
  8
LC-001-002-----0
  6
DASHDOT
  5
15E
 10
16.343783
 20
57.442068
 30
0.0
 11
265.343067
 21
57.442068
 31
0.0
  0
CIRCLE
  8
LC-001-002-----0
  6
CONTINUOUS
 62
     1
  5
15F
 10
93.844519
 20
-23.962426
 30
0.0
 40
6.89478
  0
CIRCLE
  8
LC-001-002-----0
  6
CONTINUOUS
 62
     1
  5
160
 10
140.843425
 20
57.442068
 30
0.0
 40
101.817592
  0
CIRCLE
  8
LC-001-002-----0
  6
CONTINUOUS
 62
     1
  5
161
 10
140.843425
 20
57.442068
 30
0.0
 40
75.00007
  0
CIRCLE
  8
LC-001-002-----0
  6
CONTINUOUS
 62
     1
  5
162
 10
140.843425
 20
57.442068
 30
0.0
 40
78.999761
  0
CIRCLE
  8
LC-001-002-----0
  6
CONTINUOUS
 62
     1
  5
163
 10
140.843425
 20
57.442068
 30
0.0
 40
123.381337
  0
CIRCLE
  8
LC-001-002-----0
  6
CONTINUOUS
 62
     1
  5
164
 10
140.843425
 20
57.442068
 30
0.0
 40
124.499642
  0
CIRCLE
  8
LC-001-002-----0
  6
CONTINUOUS
 62
     1
  5
165
 10
93.844519
 20
-23.962426
 30
0.0
 40
4.980575
  0
CIRCLE
  8
LC-001-002-----0
  6
CONTINUOUS
 62
     1
  5
166
 10
93.844519
 20
-23.962426
 30
0.0
 40
3.501895
  0
LINE
  8
LC-001-002-----0
  6
DASHDOT
  5
167
 10
89.934629
 20
-30.734554
 30
0.0
 11
97.291909
 21
-17.991371
 31
0.0
  0
CIRCLE
  8
LC-001-002-----0
  6
DASHDOT
  5
168
 10
140.843425
 20
57.442068
 30
0.0
 40
93.997812
  0
CIRCLE
  8
LC-001-002-----0
  6
CONTINUOUS
 62
     1
  5
169
 10
46.845613
 20
57.442068
 30
0.0
 40
3.501895
  0
CIRCLE
  8
LC-001-002-----0
  6
CONTINUOUS
 62
     1
  5
16A
 10
46.845613
 20
57.442068
 30
0.0
 40
4.980575
  0
CIRCLE
  8
LC-001-002-----0
  6
CONTINUOUS
 62
     1
  5
16B
 10
46.845613
 20
57.442068
 30
0.0
 40
6.89478
  0
CIRCLE
  8
LC-001-002-----0
  6
CONTINUOUS
 62
     1
  5
16C
 10
187.842331
 20
-23.962426
 30
0.0
 40
6.89478
  0
CIRCLE
  8
LC-001-002-----0
  6
CONTINUOUS
 62
     1
  5
16D
 10
187.842331
 20
-23.962426
 30
0.0
 40
4.980575
  0
CIRCLE
  8
LC-001-002-----0
  6
CONTINUOUS
 62
     1
  5
16E
 10
187.842331
 20
-23.962426
 30
0.0
 40
3.501895
  0
LINE
  8
LC-001-002-----0
  6
DASHDOT
  5
16F
 10
191.752221
 20
-30.734554
 30
0.0
 11
184.394942
 21
-17.991371
 31
0.0
  0
CIRCLE
  8
LC-001-002-----0
  6
CONTINUOUS
 62
     1
  5
170
 10
234.841238
 20
57.442068
 30
0.0
 40
6.89478
  0
CIRCLE
  8
LC-001-002-----0
  6
CONTINUOUS
 62
     1
  5
171
 10
234.841238
 20
57.442068
 30
0.0
 40
3.501895
  0
CIRCLE
  8
LC-001-002-----0
  6
CONTINUOUS
 62
     1
  5
172
 10
234.841238
 20
57.442068
 30
0.0
 40
4.980575
  0
CIRCLE
  8
LC-001-002-----0
  6
CONTINUOUS
 62
     1
  5
173
 10
187.842331
 20
138.846561
 30
0.0
 40
6.89478
  0
CIRCLE
  8
LC-001-002-----0
  6
CONTINUOUS
 62
     1
  5
174
 10
187.842331
 20
138.846561
 30
0.0
 40
4.980575
  0
CIRCLE
  8
LC-001-002-----0
  6
CONTINUOUS
 62
     1
  5
175
 10
187.842331
 20
138.846561
 30
0.0
 40
3.501895
  0
CIRCLE
  8
LC-001-002-----0
  6
CONTINUOUS
 62
     1
  5
176
 10
93.844519
 20
138.846561
 30
0.0
 40
6.89478
  0
CIRCLE
  8
LC-001-002-----0
  6
CONTINUOUS
 62
     1
  5
177
 10
93.844519
 20
138.846561
 30
0.0
 40
4.980575
  0
ARC
  8
LC-001-002-----0
  6
CONTINUOUS
 62
     1
  5
178
 10
93.844519
 20
138.846561
 30
0.0
 40
3.501895
 50
297.27056
 51
268.539202
  0
LINE
  8
LC-001-002-----0
  6
DASHDOT
  5
179
 10
97.291909
 20
132.875507
 30
0.0
 11
90.397129
 21
144.817616
 31
0.0
  0
LINE
  8
LC-001-002-----0
  6
DASHDOT
  5
17A
 10
184.394942
 20
132.875507
 30
0.0
 11
190.332619
 21
143.159866
 31
0.0
  0
LINE
  8
LC-001-002-----0
  6
DASHDOT
  5
17B
 10
93.844519
 20
240.408184
 30
0.0
 11
93.844519
 21
251.506583
 31
0.0
  0
LINE
  8
LC-001-002-----0
  6
CONTINUOUS
 62
     1
  5
17C
 10
98.821303
 20
241.427815
 30
0.0
 11
88.863944
 21
241.427772
 31
0.0
  0
LINE
  8
LC-001-002-----0
  6
CONTINUOUS
 62
     1
  5
17D
 10
98.821303
 20
240.408206
 30
0.0
 11
88.863944
 21
240.408162
 31
0.0
  0
LINE
  8
LC-001-002-----0
  6
CONTINUOUS
 62
     1
  5
17E
 10
88.863944
 20
241.427772
 30
0.0
 11
88.863944
 21
240.408162
 31
0.0
  0
LINE
  8
LC-002-005-----0
  6
CONTINUOUS
  5
17F
 10
16.455354
 20
228.984047
 30
0.0
 11
16.396688
 21
229.042713
 31
0.0
  0
LINE
  8
LC-001-002-----0
  6
CONTINUOUS
 62
     1
  5
180
 10
98.821303
 20
241.427815
 30
0.0
 11
98.821303
 21
240.408206
 31
0.0
  0
LINE
  8
LC-001-002-----0
  6
CONTINUOUS
 62
     1
  5
181
 10
90.844519
 20
240.408171
 30
0.0
 11
90.844519
 21
241.427772
 31
0.0
  0
LINE
  8
LC-001-002-----0
  6
CONTINUOUS
 62
     1
  5
182
 10
97.342624
 20
240.408199
 30
0.0
 11
97.342624
 21
241.427815
 31
0.0
  0
LINE
  8
LC-001-002-----0
  6
CONTINUOUS
 62
     1
  5
183
 10
99.844519
 20
243.461652
 30
0.0
 11
87.844519
 21
243.461652
 31
0.0
  0
LINE
  8
LC-001-002-----0
  6
CONTINUOUS
 62
     1
  5
184
 10
98.844519
 20
252.461652
 30
0.0
 11
88.844519
 21
252.461652
 31
0.0
  0
LINE
  8
LC-001-002-----0
  6
CONTINUOUS
 62
     1
  5
185
 10
87.156619
 20
258.149478
 30
0.0
 11
88.844519
 21
252.461652
 31
0.0
  0
LINE
  8
LC-001-002-----0
  6
CONTINUOUS
 62
     1
  5
186
 10
99.844519
 20
243.461652
 30
0.0
 11
98.844519
 21
252.461652
 31
0.0
  0
LINE
  8
LC-001-002-----0
  6
CONTINUOUS
 62
     1
  5
187
 10
88.844519
 20
252.461652
 30
0.0
 11
87.844519
 21
243.461652
 31
0.0
  0
ARC
  8
LC-003-002-RND-0
  6
CONTINUOUS
  5
188
 10
83.541053
 20
256.536662
 30
0.0
 40
3.925
 50
24.105895
 51
90.12741
  0
ARC
  8
LC-001-002-----0
  6
CONTINUOUS
 62
     1
  5
189
 10
83.532228
 20
254.928894
 30
0.0
 40
5.576109
 50
89.908616
 51
139.911749
  0
ARC
  8
LC-003-002-RND-0
  6
CONTINUOUS
  5
18A
 10
82.269041
 20
255.992153
 30
0.0
 40
3.925
 50
139.911749
 51
224.495814
  0
LINE
  8
LC-001-002-----0
  6
CONTINUOUS
 62
     1
  5
18B
 10
100.532419
 20
258.149478
 30
0.0
 11
98.844519
 21
252.461652
 31
0.0
  0
ARC
  8
LC-003-002-RND-0
  6
CONTINUOUS
  5
18C
 10
105.419997
 20
255.992153
 30
0.0
 40
3.925
 50
315.504186
 51
40.088251
  0
LINE
  8
LC-001-002-----0
  6
CONTINUOUS
 62
     1
  5
18D
 10
108.399403
 20
253.437009
 30
0.0
 11
99.844519
 21
243.461652
 31
0.0
  0
LINE
  8
LC-001-002-----0
  6
CONTINUOUS
 62
     1
  5
18E
 10
79.289635
 20
253.437009
 30
0.0
 11
87.844519
 21
243.461652
 31
0.0
  0
ARC
  8
LC-003-002-RND-0
  6
CONTINUOUS
  5
18F
 10
104.147985
 20
256.536662
 30
0.0
 40
3.925
 50
89.87259
 51
155.894105
  0
ARC
  8
LC-001-002-----0
  6
CONTINUOUS
 62
     1
  5
190
 10
104.15681
 20
254.928894
 30
0.0
 40
5.576109
 50
40.088251
 51
90.091384
  0
LINE
  8
LC-001-002-----0
  6
DASHDOT
  5
191
 10
187.842187
 20
240.408387
 30
0.0
 11
187.842135
 21
252.461855
 31
0.0
  0
LINE
  8
LC-001-002-----0
  6
CONTINUOUS
 62
     1
  5
192
 10
182.865398
 20
241.427997
 30
0.0
 11
192.822757
 21
241.427997
 31
0.0
  0
LINE
  8
LC-001-002-----0
  6
CONTINUOUS
 62
     1
  5
193
 10
182.865402
 20
240.408387
 30
0.0
 11
192.822762
 21
240.408387
 31
0.0
  0
LINE
  8
LC-001-002-----0
  6
CONTINUOUS
 62
     1
  5
194
 10
192.822757
 20
241.427997
 30
0.0
 11
192.822762
 21
240.408387
 31
0.0
  0
LINE
  8
LC-001-002-----0
  6
CONTINUOUS
 62
     1
  5
195
 10
182.865398
 20
241.427997
 30
0.0
 11
182.865402
 21
240.408387
 31
0.0
  0
LINE
  8
LC-001-002-----0
  6
CONTINUOUS
 62
     1
  5
196
 10
190.842187
 20
240.408387
 30
0.0
 11
190.842182
 21
241.427988
 31
0.0
  0
LINE
  8
LC-001-002-----0
  6
CONTINUOUS
 62
     1
  5
197
 10
184.344082
 20
240.408387
 30
0.0
 11
184.344077
 21
241.428003
 31
0.0
  0
LINE
  8
LC-001-002-----0
  6
CONTINUOUS
 62
     1
  5
198
 10
181.842173
 20
243.461829
 30
0.0
 11
193.842173
 21
243.461881
 31
0.0
  0
LINE
  8
LC-001-002-----0
  6
CONTINUOUS
 62
     1
  5
199
 10
182.842135
 20
252.461834
 30
0.0
 11
192.842135
 21
252.461877
 31
0.0
  0
LINE
  8
LC-001-002-----0
  6
CONTINUOUS
 62
     1
  5
19A
 10
194.53001
 20
258.14971
 30
0.0
 11
192.842135
 21
252.461877
 31
0.0
  0
LINE
  8
LC-001-002-----0
  6
CONTINUOUS
 62
     1
  5
19B
 10
181.842173
 20
243.461829
 30
0.0
 11
182.842135
 21
252.461834
 31
0.0
  0
LINE
  8
LC-001-002-----0
  6
CONTINUOUS
 62
     1
  5
19C
 10
192.842135
 20
252.461877
 30
0.0
 11
193.842173
 21
243.461881
 31
0.0
  0
ARC
  8
LC-003-002-RND-0
  6
CONTINUOUS
  5
19D
 10
198.145583
 20
256.536909
 30
0.0
 40
3.925
 50
89.872838
 51
155.894353
  0
ARC
  8
LC-001-002-----0
  6
CONTINUOUS
 62
     1
  5
19E
 10
198.154415
 20
254.929142
 30
0.0
 40
5.576109
 50
40.088499
 51
90.091632
  0
ARC
  8
LC-003-002-RND-0
  6
CONTINUOUS
  5
19F
 10
199.417597
 20
255.992407
 30
0.0
 40
3.925
 50
315.504434
 51
40.088499
  0
LINE
  8
LC-001-002-----0
  6
CONTINUOUS
 62
     1
  5
1A0
 10
181.15421
 20
258.149652
 30
0.0
 11
182.842135
 21
252.461834
 31
0.0
  0
ARC
  8
LC-003-002-RND-0
  6
CONTINUOUS
  5
1A1
 10
176.266642
 20
255.992307
 30
0.0
 40
3.925
 50
139.911996
 51
224.496061
  0
LINE
  8
LC-001-002-----0
  6
CONTINUOUS
 62
     1
  5
1A2
 10
173.287246
 20
253.43715
 30
0.0
 11
181.842173
 21
243.461829
 31
0.0
  0
LINE
  8
LC-001-002-----0
  6
CONTINUOUS
 62
     1
  5
1A3
 10
202.397014
 20
253.437275
 30
0.0
 11
193.842173
 21
243.461881
 31
0.0
  0
ARC
  8
LC-003-002-RND-0
  6
CONTINUOUS
  5
1A4
 10
177.538651
 20
256.53682
 30
0.0
 40
3.925
 50
24.106143
 51
90.127658
  0
ARC
  8
LC-001-002-----0
  6
CONTINUOUS
 62
     1
  5
1A5
 10
177.529833
 20
254.929053
 30
0.0
 40
5.576109
 50
89.908864
 51
139.911996
  0
ARC
  8
LC-003-002-RND-0
  6
CONTINUOUS
  5
1A6
 10
63.843701
 20
212.941694
 30
0.0
 40
3.0
 50
180.000136
 51
270.0
  0
LINE
  8
LC-001-002-----0
  6
CONTINUOUS
 62
     1
  5
1A7
 10
60.843664
 20
228.941694
 30
0.0
 11
60.843701
 21
212.941686
 31
0.0
  0
ARC
  8
LC-003-002-RND-0
  6
CONTINUOUS
  5
1A8
 10
58.843664
 20
228.941686
 30
0.0
 40
2.0
 50
0.000248
 51
90.000248
  0
LINE
  8
LC-001-002-----0
  6
CONTINUOUS
 62
     1
  5
1A9
 10
53.736621
 20
230.941665
 30
0.0
 11
58.843655
 21
230.941686
 31
0.0
  0
LINE
  8
LC-001-002-----0
  6
CONTINUOUS
 62
     1
  5
1AA
 10
49.843722
 20
232.441649
 30
0.0
 11
51.822402
 21
232.441657
 31
0.0
  0
LINE
  8
LC-001-002-----0
  6
CONTINUOUS
 62
     1
  5
1AB
 10
38.920736
 20
230.941593
 30
0.0
 11
39.950847
 21
230.941609
 31
0.0
  0
LINE
  8
LC-001-002-----0
  6
CONTINUOUS
 62
     1
  5
1AC
 10
38.920736
 20
230.941593
 30
0.0
 11
18.529013
 21
235.275987
 31
0.0
  0
LINE
  8
LC-001-002-----0
  6
CONTINUOUS
 62
     1
  5
1AD
 10
43.343718
 20
233.441621
 30
0.0
 11
43.343722
 21
232.441621
 31
0.0
  0
LINE
  8
LC-001-002-----0
  6
CONTINUOUS
 62
     1
  5
1AE
 10
50.343718
 20
233.441651
 30
0.0
 11
50.343722
 21
232.441651
 31
0.0
  0
ARC
  8
LC-003-002-RND-0
  6
CONTINUOUS
  5
1AF
 10
53.736617
 20
231.941665
 30
0.0
 40
1.0
 50
225.000248
 51
270.000228
  0
ARC
  8
LC-003-002-RND-0
  6
CONTINUOUS
  5
1B0
 10
39.950833
 20
231.941609
 30
0.0
 40
1.0
 50
270.000823
 51
315.000248
  0
ARC
  8
LC-003-002-RND-0
  6
CONTINUOUS
  5
1B1
 10
36.833806
 20
230.35562
 30
0.0
 40
1.0
 50
71.979964
 51
78.771454
  0
LINE
  8
LC-001-002-----0
  6
CONTINUOUS
 62
     1
  5
1B2
 10
41.865042
 20
232.441615
 30
0.0
 11
49.843722
 21
232.441648
 31
0.0
  0
LINE
  8
LC-001-002-----0
  6
CONTINUOUS
 62
     1
  5
1B3
 10
53.029514
 20
231.234555
 30
0.0
 11
51.822402
 21
232.441657
 31
0.0
  0
LINE
  8
LC-001-002-----0
  6
CONTINUOUS
 62
     1
  5
1B4
 10
41.865042
 20
232.441615
 30
0.0
 11
40.657943
 21
231.234505
 31
0.0
  0
LINE
  8
LC-001-002-----0
  6
CONTINUOUS
 62
     1
  5
1B5
 10
16.343783
 20
237.157
 30
0.0
 11
17.462088
 21
237.141941
 31
0.0
  0
LINE
  8
LC-008-007-KH--0
  6
DASHDOT
  5
1B7
 10
1301.789276
 20
254.393953
 30
0.0
 11
1301.789276
 21
1254.393953
 31
0.0
  0
LINE
  8
LC-001-002-----0
  6
CONTINUOUS
 62
     1
  5
1B8
 10
63.843701
 20
209.941694
 30
0.0
 11
64.343355
 21
209.941694
 31
0.0
  0
LINE
  8
LC-001-002-----0
  6
CONTINUOUS
 62
     1
  5
1B9
 10
58.843664
 20
231.941698
 30
0.0
 11
53.736585
 21
231.941698
 31
0.0
  0
LINE
  8
LC-001-002-----0
  6
CONTINUOUS
 62
     1
  5
1BA
 10
65.843355
 20
209.441707
 30
0.0
 11
65.843355
 21
206.941709
 31
0.0
  0
ARC
  8
LC-003-002-RND-0
  6
CONTINUOUS
  5
1BB
 10
63.843701
 20
212.941705
 30
0.0
 40
2.0
 50
180.000136
 51
270.000228
  0
ARC
  8
LC-003-002-RND-0
  6
CONTINUOUS
  5
1BC
 10
58.843664
 20
228.941698
 30
0.0
 40
3.0
 50
0.000136
 51
90.0
  0
ARC
  8
LC-001-002-----0
  6
CONTINUOUS
 62
     1
  5
1BD
 10
19.152748
 20
238.21043
 30
0.0
 40
3.0
 50
200.557271
 51
258.0
  0
ARC
  8
LC-001-002-----0
  6
CONTINUOUS
 62
     1
  5
1BE
 10
19.152748
 20
238.21043
 30
0.0
 40
2.0
 50
212.292677
 51
258.0
  0
ARC
  8
LC-003-002-RND-0
  6
CONTINUOUS
  5
1BF
 10
64.343355
 20
209.441694
 30
0.0
 40
0.5
 50
0.0
 51
90.0
  0
ARC
  8
LC-003-002-RND-0
  6
CONTINUOUS
  5
1C0
 10
64.343355
 20
209.441707
 30
0.0
 40
1.5
 50
0.0
 51
90.000228
  0
LINE
  8
LC-001-002-----0
  6
CONTINUOUS
 62
     1
  5
1C1
 10
64.843355
 20
209.441694
 30
0.0
 11
64.843355
 21
206.941709
 31
0.0
  0
LINE
  8
LC-001-002-----0
  6
CONTINUOUS
 62
     1
  5
1C2
 10
64.843355
 20
206.941709
 30
0.0
 11
65.843355
 21
206.941709
 31
0.0
  0
LINE
  8
LC-001-002-----0
  6
CONTINUOUS
 62
     1
  5
1C3
 10
63.843709
 20
210.941705
 30
0.0
 11
64.343349
 21
210.941707
 31
0.0
  0
LINE
  8
LC-001-002-----0
  6
CONTINUOUS
 62
     1
  5
1C4
 10
61.843664
 20
228.941705
 30
0.0
 11
61.843701
 21
212.941701
 31
0.0
  0
LINE
  8
LC-001-002-----0
  6
CONTINUOUS
 62
     1
  5
1C5
 10
51.822397
 20
233.441657
 30
0.0
 11
41.865038
 21
233.441614
 31
0.0
  0
LINE
  8
LC-001-002-----0
  6
CONTINUOUS
 62
     1
  5
1C6
 10
53.736617
 20
231.941665
 30
0.0
 11
52.529505
 21
233.148767
 31
0.0
  0
LINE
  8
LC-001-002-----0
  6
CONTINUOUS
 62
     1
  5
1C7
 10
39.025833
 20
231.941594
 30
0.0
 11
39.950833
 21
231.941609
 31
0.0
  0
LINE
  8
LC-001-002-----0
  6
CONTINUOUS
 62
     1
  5
1C8
 10
41.157932
 20
233.148718
 30
0.0
 11
39.950833
 21
231.941609
 31
0.0
  0
LINE
  8
LC-001-002-----0
  6
CONTINUOUS
 62
     1
  5
1C9
 10
39.025833
 20
231.941594
 30
0.0
 11
18.736925
 21
236.254135
 31
0.0
  0
ARC
  8
LC-003-002-RND-0
  6
CONTINUOUS
  5
1CA
 10
51.822401
 20
232.441657
 30
0.0
 40
1.0
 50
45.000248
 51
90.000248
  0
ARC
  8
LC-003-002-RND-0
  6
CONTINUOUS
  5
1CB
 10
41.865042
 20
232.441614
 30
0.0
 40
1.0
 50
90.000248
 51
135.000248
  0
ARC
  8
LC-003-002-RND-0
  6
CONTINUOUS
  5
1CC
 10
217.843124
 20
212.942027
 30
0.0
 40
3.0
 50
270.000248
 51
0.000111
  0
LINE
  8
LC-001-002-----0
  6
CONTINUOUS
 62
     1
  5
1CD
 10
220.843091
 20
228.94204
 30
0.0
 11
220.843124
 21
212.942032
 31
0.0
  0
ARC
  8
LC-003-002-RND-0
  6
CONTINUOUS
  5
1CE
 10
222.843091
 20
228.94204
 30
0.0
 40
2.0
 50
90.0
 51
180.0
  0
LINE
  8
LC-001-002-----0
  6
CONTINUOUS
 62
     1
  5
1CF
 10
227.950125
 20
230.942042
 30
0.0
 11
222.843091
 21
230.94204
 31
0.0
  0
LINE
  8
LC-001-002-----0
  6
CONTINUOUS
 62
     1
  5
1D0
 10
237.894188
 20
232.442044
 30
0.0
 11
229.864338
 21
232.442042
 31
0.0
  0
LINE
  8
LC-001-002-----0
  6
CONTINUOUS
 62
     1
  5
1D1
 10
242.766011
 20
230.942034
 30
0.0
 11
241.735899
 21
230.942045
 31
0.0
  0
LINE
  8
LC-001-002-----0
  6
CONTINUOUS
 62
     1
  5
1D2
 10
242.766011
 20
230.942034
 30
0.0
 11
263.157714
 21
235.276516
 31
0.0
  0
LINE
  8
LC-001-002-----0
  6
CONTINUOUS
 62
     1
  5
1D3
 10
231.843018
 20
232.442042
 30
0.0
 11
231.845613
 21
232.442042
 31
0.0
  0
LINE
  8
LC-001-002-----0
  6
CONTINUOUS
 62
     1
  5
1D4
 10
238.343018
 20
233.442042
 30
0.0
 11
238.343018
 21
232.442042
 31
0.0
  0
LINE
  8
LC-001-002-----0
  6
CONTINUOUS
 62
     1
  5
1D5
 10
231.343018
 20
233.442042
 30
0.0
 11
231.343018
 21
232.442042
 31
0.0
  0
ARC
  8
LC-003-002-RND-0
  6
CONTINUOUS
  5
1D6
 10
227.950125
 20
231.942042
 30
0.0
 40
1.0
 50
270.00002
 51
315.0
  0
ARC
  8
LC-003-002-RND-0
  6
CONTINUOUS
  5
1D7
 10
241.735909
 20
231.942045
 30
0.0
 40
1.0
 50
225.0
 51
269.999425
  0
ARC
  8
LC-003-002-RND-0
  6
CONTINUOUS
  5
1D8
 10
244.852943
 20
230.35607
 30
0.0
 40
1.0
 50
101.228794
 51
108.020284
  0
LINE
  8
LC-001-002-----0
  6
CONTINUOUS
 62
     1
  5
1D9
 10
239.821698
 20
232.442043
 30
0.0
 11
237.843018
 21
232.442042
 31
0.0
  0
LINE
  8
LC-001-002-----0
  6
CONTINUOUS
 62
     1
  5
1DA
 10
228.657232
 20
231.234935
 30
0.0
 11
229.864338
 21
232.442042
 31
0.0
  0
LINE
  8
LC-001-002-----0
  6
CONTINUOUS
 62
     1
  5
1DB
 10
239.821698
 20
232.442043
 30
0.0
 11
241.028802
 21
231.234938
 31
0.0
  0
LINE
  8
LC-001-002-----0
  6
CONTINUOUS
 62
     1
  5
1DC
 10
265.342936
 20
237.157538
 30
0.0
 11
264.224632
 21
237.142475
 31
0.0
  0
LINE
  8
LC-001-002-----0
  6
CONTINUOUS
 62
     1
  5
1DD
 10
217.843137
 20
209.942027
 30
0.0
 11
217.343482
 21
209.942024
 31
0.0
  0
LINE
  8
LC-001-002-----0
  6
CONTINUOUS
 62
     1
  5
1DE
 10
222.843078
 20
231.942052
 30
0.0
 11
227.950157
 21
231.942074
 31
0.0
  0
LINE
  8
LC-001-002-----0
  6
CONTINUOUS
 62
     1
  5
1DF
 10
215.843485
 20
209.442032
 30
0.0
 11
215.843495
 21
206.942034
 31
0.0
  0
ARC
  8
LC-003-002-RND-0
  6
CONTINUOUS
  5
1E0
 10
217.843124
 20
212.942038
 30
0.0
 40
2.0
 50
270.00002
 51
0.000111
  0
ARC
  8
LC-003-002-RND-0
  6
CONTINUOUS
  5
1E1
 10
222.843091
 20
228.942052
 30
0.0
 40
3.0
 50
90.000248
 51
180.000111
  0
ARC
  8
LC-001-002-----0
  6
CONTINUOUS
 62
     1
  5
1E2
 10
262.533967
 20
238.210956
 30
0.0
 40
3.0
 50
282.000248
 51
339.442977
  0
ARC
  8
LC-001-002-----0
  6
CONTINUOUS
 62
     1
  5
1E3
 10
262.533967
 20
238.210956
 30
0.0
 40
2.0
 50
282.000248
 51
327.70757
  0
ARC
  8
LC-003-002-RND-0
  6
CONTINUOUS
  5
1E4
 10
217.343485
 20
209.442024
 30
0.0
 40
0.5
 50
90.000248
 51
180.000248
  0
ARC
  8
LC-003-002-RND-0
  6
CONTINUOUS
  5
1E5
 10
217.343485
 20
209.442038
 30
0.0
 40
1.5
 50
90.00002
 51
180.000248
  0
LINE
  8
LC-001-002-----0
  6
CONTINUOUS
 62
     1
  5
1E6
 10
216.843485
 20
209.442022
 30
0.0
 11
216.843495
 21
206.942038
 31
0.0
  0
LINE
  8
LC-001-002-----0
  6
CONTINUOUS
 62
     1
  5
1E7
 10
216.843495
 20
206.942038
 30
0.0
 11
215.843495
 21
206.942034
 31
0.0
  0
LINE
  8
LC-001-002-----0
  6
CONTINUOUS
 62
     1
  5
1E8
 10
217.843124
 20
210.942038
 30
0.0
 11
217.343484
 21
210.942038
 31
0.0
  0
LINE
  8
LC-001-002-----0
  6
CONTINUOUS
 62
     1
  5
1E9
 10
219.843091
 20
228.942046
 30
0.0
 11
219.843124
 21
212.942042
 31
0.0
  0
LINE
  8
LC-001-002-----0
  6
CONTINUOUS
 62
     1
  5
1EA
 10
227.950125
 20
231.942042
 30
0.0
 11
229.157232
 21
233.149149
 31
0.0
  0
LINE
  8
LC-001-002-----0
  6
CONTINUOUS
 62
     1
  5
1EB
 10
242.660909
 20
231.942035
 30
0.0
 11
241.735909
 21
231.942045
 31
0.0
  0
LINE
  8
LC-001-002-----0
  6
CONTINUOUS
 62
     1
  5
1EC
 10
240.528805
 20
233.149149
 30
0.0
 11
241.735909
 21
231.942045
 31
0.0
  0
LINE
  8
LC-001-002-----0
  6
CONTINUOUS
 62
     1
  5
1ED
 10
242.660909
 20
231.942035
 30
0.0
 11
262.949798
 21
236.254663
 31
0.0
  0
ARC
  8
LC-003-002-RND-0
  6
CONTINUOUS
  5
1EE
 10
229.864339
 20
232.442042
 30
0.0
 40
1.0
 50
90.0
 51
135.0
  0
ARC
  8
LC-003-002-RND-0
  6
CONTINUOUS
  5
1EF
 10
239.821698
 20
232.442042
 30
0.0
 40
1.0
 50
45.0
 51
90.0
  0
LINE
  8
LC-001-002-----0
  6
CONTINUOUS
 62
     1
  5
1F0
 10
52.845613
 20
243.461652
 30
0.0
 11
40.845613
 21
243.461652
 31
0.0
  0
LINE
  8
LC-001-002-----0
  6
CONTINUOUS
 62
     1
  5
1F1
 10
51.845613
 20
252.461652
 30
0.0
 11
41.845613
 21
252.461652
 31
0.0
  0
LINE
  8
LC-001-002-----0
  6
CONTINUOUS
 62
     1
  5
1F2
 10
40.157713
 20
258.149478
 30
0.0
 11
41.845613
 21
252.461652
 31
0.0
  0
LINE
  8
LC-001-002-----0
  6
CONTINUOUS
 62
     1
  5
1F3
 10
52.845613
 20
243.461652
 30
0.0
 11
51.845613
 21
252.461652
 31
0.0
  0
LINE
  8
LC-001-002-----0
  6
CONTINUOUS
 62
     1
  5
1F4
 10
41.845613
 20
252.461652
 30
0.0
 11
40.845613
 21
243.461652
 31
0.0
  0
ARC
  8
LC-003-002-RND-0
  6
CONTINUOUS
  5
1F5
 10
36.542146
 20
256.536662
 30
0.0
 40
3.925
 50
24.105895
 51
90.12741
  0
ARC
  8
LC-001-002-----0
  6
CONTINUOUS
 62
     1
  5
1F6
 10
36.533322
 20
254.928894
 30
0.0
 40
5.576109
 50
89.908616
 51
139.911749
  0
ARC
  8
LC-003-002-RND-0
  6
CONTINUOUS
  5
1F7
 10
35.270135
 20
255.992153
 30
0.0
 40
3.925
 50
139.911749
 51
224.495814
  0
LINE
  8
LC-001-002-----0
  6
CONTINUOUS
 62
     1
  5
1F8
 10
53.533512
 20
258.149478
 30
0.0
 11
51.845613
 21
252.461652
 31
0.0
  0
ARC
  8
LC-003-002-RND-0
  6
CONTINUOUS
  5
1F9
 10
58.42109
 20
255.992153
 30
0.0
 40
3.925
 50
315.504186
 51
40.088251
  0
LINE
  8
LC-001-002-----0
  6
CONTINUOUS
 62
     1
  5
1FA
 10
61.400497
 20
253.437009
 30
0.0
 11
52.845613
 21
243.461652
 31
0.0
  0
LINE
  8
LC-001-002-----0
  6
CONTINUOUS
 62
     1
  5
1FB
 10
32.290729
 20
253.437009
 30
0.0
 11
40.845613
 21
243.461652
 31
0.0
  0
ARC
  8
LC-003-002-RND-0
  6
CONTINUOUS
  5
1FC
 10
57.149079
 20
256.536662
 30
0.0
 40
3.925
 50
89.87259
 51
155.894105
  0
ARC
  8
LC-001-002-----0
  6
CONTINUOUS
 62
     1
  5
1FD
 10
57.157903
 20
254.928894
 30
0.0
 40
5.576109
 50
40.088251
 51
90.091384
  0
LINE
  8
LC-001-002-----0
  6
CONTINUOUS
 62
     1
  5
1FE
 10
43.845613
 20
233.442042
 30
0.0
 11
43.845613
 21
233.442042
 31
0.0
  0
LINE
  8
LC-001-002-----0
  6
CONTINUOUS
 62
     1
  5
1FF
 10
58.849419
 20
231.941698
 30
0.0
 11
140.849102
 21
231.941875
 31
0.0
  0
LINE
  8
LC-001-002-----0
  6
CONTINUOUS
 62
     1
  5
200
 10
43.845613
 20
232.441623
 30
0.0
 11
43.843722
 21
232.441623
 31
0.0
  0
LINE
  8
LC-001-002-----0
  6
CONTINUOUS
 62
     1
  5
201
 10
222.848811
 20
231.941922
 30
0.0
 11
140.849128
 21
231.941875
 31
0.0
  0
LINE
  8
LC-008-007-KH--0
  6
DASHDOT
  5
202
 10
1280.242588
 20
120.038737
 30
0.0
 11
1280.242588
 21
1120.038737
 31
0.0
  0
ENDSEC
  0
EOF
