  0
SECTION
  2
HEADER
  9
$ACADVER
  1
AC1009
  9
$INSBASE
 10
0.0
 20
0.0
 30
0.0
  9
$EXTMIN
 10
-123.0
 20
-87.0
 30
0.0
  9
$EXTMAX
 10
717.0
 20
507.0
 30
0.0
  9
$LIMMIN
 10
-123.0
 20
-87.0
  9
$LIMMAX
 10
717.0
 20
507.0
  9
$ORTHOMODE
 70
     0
  9
$REGENMODE
 70
     1
  9
$FILLMODE
 70
     1
  9
$QTEXTMODE
 70
     0
  9
$MIRRTEXT
 70
     1
  9
$DRAGMODE
 70
     2
  9
$LTSCALE
 40
2.0
  9
$OSMODE
 70
     0
  9
$ATTMODE
 70
     1
  9
$TEXTSIZE
 40
0.2
  9
$TRACEWID
 40
0.05
  9
$TEXTSTYLE
  7
STANDARD
  9
$CLAYER
  8
0
  9
$CELTYPE
  6
BYLAYER
  9
$CECOLOR
 62
     7
  9
$DIMSCALE
 40
2.0
  9
$DIMASZ
 40
3.5
  9
$DIMEXO
 40
0.0625
  9
$DIMDLI
 40
0.38
  9
$DIMRND
 40
0.0
  9
$DIMDLE
 40
0.0
  9
$DIMEXE
 40
0.18
  9
$DIMTP
 40
0.0
  9
$DIMTM
 40
0.0
  9
$DIMTXT
 40
3.5
  9
$DIMCEN
 40
0.09
  9
$DIMTSZ
 40
0.0
  9
$DIMTOL
 70
     0
  9
$DIMLIM
 70
     0
  9
$DIMTIH
 70
     1
  9
$DIMTOH
 70
     1
  9
$DIMSE1
 70
     0
  9
$DIMSE2
 70
     0
  9
$DIMTAD
 70
     1
  9
$DIMZIN
 70
     0
  9
$DIMBLK
  1

  9
$DIMASO
 70
     1
  9
$DIMSHO
 70
     1
  9
$DIMPOST
  1

  9
$DIMAPOST
  1

  9
$DIMALT
 70
     0
  9
$DIMALTD
 70
     2
  9
$DIMALTF
 40
25.4
  9
$DIMLFAC
 40
1.0
  9
$DIMTOFL
 70
     0
  9
$DIMTVP
 40
0.0
  9
$DIMTIX
 70
     0
  9
$DIMSOXD
 70
     0
  9
$DIMSAH
 70
     0
  9
$DIMBLK1
  1

  9
$DIMBLK2
  1

  9
$DIMSTYLE
  2
STANDARD
  9
$DIMCLRD
 70
     0
  9
$DIMCLRE
 70
     0
  9
$DIMCLRT
 70
     0
  9
$DIMTFAC
 40
1.0
  9
$DIMGAP
 40
0.09
  9
$LUNITS
 70
     2
  9
$LUPREC
 70
     2
  9
$AXISMODE
 70
     0
  9
$AXISUNIT
 10
0.0
 20
0.0
  9
$SKETCHINC
 40
0.1
  9
$FILLETRAD
 40
0.0
  9
$AUNITS
 70
     0
  9
$AUPREC
 70
     0
  9
$MENU
  1
acad
  9
$ELEVATION
 40
0.0
  9
$PELEVATION
 40
0.0
  9
$THICKNESS
 40
0.0
  9
$LIMCHECK
 70
     0
  9
$BLIPMODE
 70
     1
  9
$CHAMFERA
 40
0.0
  9
$CHAMFERB
 40
0.0
  9
$SKPOLY
 70
     0
  9
$TDCREATE
 40
0.000000000
  9
$TDUPDATE
 40
0.000000000
  9
$TDINDWG
 40
0.0000000000
  9
$TDUSRTIMER
 40
0.0000000000
  9
$USRTIMER
 70
     1
  9
$ANGBASE
 50
0.0
  9
$ANGDIR
 70
     0
  9
$PDMODE
 70
     0
  9
$PDSIZE
 40
0.0
  9
$PLINEWID
 40
0.0
  9
$COORDS
 70
     0
  9
$SPLFRAME
 70
     0
  9
$SPLINETYPE
 70
     6
  9
$SPLINESEGS
 70
     8
  9
$ATTDIA
 70
     0
  9
$ATTREQ
 70
     1
  9
$HANDLING
 70
     1
  9
$HANDSEED
  5
15C
  9
$SURFTAB1
 70
     6
  9
$SURFTAB2
 70
     6
  9
$SURFTYPE
 70
     6
  9
$SURFU
 70
     6
  9
$SURFV
 70
     6
  9
$UCSNAME
  2

  9
$UCSORG
 10
0.0
 20
0.0
 30
0.0
  9
$UCSXDIR
 10
1.0
 20
0.0
 30
0.0
  9
$UCSYDIR
 10
0.0
 20
1.0
 30
0.0
  9
$PUCSNAME
  2

  9
$PUCSORG
 10
0.0
 20
0.0
 30
0.0
  9
$PUCSXDIR
 10
1.0
 20
0.0
 30
0.0
  9
$PUCSYDIR
 10
0.0
 20
1.0
 30
0.0
  9
$USERI1
 70
     0
  9
$USERI2
 70
     0
  9
$USERI3
 70
     0
  9
$USERI4
 70
     0
  9
$USERI5
 70
     0
  9
$USERR1
 40
0.0
  9
$USERR2
 40
0.0
  9
$USERR3
 40
0.0
  9
$USERR4
 40
0.0
  9
$USERR5
 40
0.0
  9
$WORLDVIEW
 70
     1
  9
$SHADEDGE
 70
     3
  9
$SHADEDIF
 70
    70
  9
$TILEMODE
 70
     1
  9
$MAXACTVP
 70
    16
  9
$PINSBASE
 10
0.0
 20
0.0
 30
0.0
  9
$PLIMCHECK
 70
     0
  9
$PEXTMIN
 10
1.000000E+20
 20
1.000000E+20
 30
1.000000E+20
  9
$PEXTMAX
 10
-1.000000E+20
 20
-1.000000E+20
 30
-1.000000E+20
  9
$PLIMMIN
 10
-123.0
 20
-87.0
  9
$PLIMMAX
 10
717.0
 20
507.0
  9
$UNITMODE
 70
     0
  9
$VISRETAIN
 70
     0
  9
$PLINEGEN
 70
     1
  9
$PSLTSCALE
 70
     0
  9
$TREEDEPTH
 70
  3020
  9
$DWGCODEPAGE
  3
dos850
  0
ENDSEC
  0
SECTION
  2
TABLES
  0
TABLE
  2
VPORT
 70
     1
  0
VPORT
  2
*ACTIVE
 70
     0
 10
0.0
 20
0.0
 11
1.0
 21
1.0
 12
420.0
 22
297.0
 13
0.0
 23
0.0
 14
1.0
 24
1.0
 15
0.0
 25
0.0
 16
0.0
 26
0.0
 36
1.0
 17
-123.0
 27
-87.0
 37
0.0
 40
594.0
 41
1.604229
 42
50.0
 43
0.0
 44
0.0
 50
0.0
 51
0.0
 71
     0
 72
   100
 73
     1
 74
     1
 75
     0
 76
     0
 77
     0
 78
     0
  0
ENDTAB
  0
TABLE
  2
LTYPE
 70
     2
  0
LTYPE
  2
CONTINUOUS
 70
    64
  3
Solid line
 72
    65
 73
     0
 40
0.0
  0
LTYPE
  2
DASHDOT
 70
    64
  3
__ . __ . __ . __ . __
 72
    65
 73
     4
 40
7.5
 49
5.0
 49
-1.25
 49
0.0
 49
-1.25
  0
ENDTAB
  0
TABLE
  2
LAYER
 70
     8
  0
LAYER
  2
0
 70
     0
 62
     7
  6
CONTINUOUS
  0
LAYER
  2
LC-INFO-1-2-MM-A3-0
 70
     1
 62
    -1
  6
CONTINUOUS
  0
LAYER
  2
LC-002-005-----0
 70
     0
 62
     2
  6
CONTINUOUS
  0
LAYER
  2
LC-004-003-MTH-0
 70
     0
 62
     2
  6
CONTINUOUS
  0
LAYER
  2
LC-005-003-MTG-0
 70
     0
 62
     2
  6
CONTINUOUS
  0
LAYER
  2
LC-003-003-----0
 70
     0
 62
     2
  6
CONTINUOUS
  0
LAYER
  2
LC-001-002-----0
 70
     0
 62
     2
  6
DASHDOT
  0
LAYER
  2
LC-000
 70
     0
 62
     7
  6
CONTINUOUS
  0
ENDTAB
  0
TABLE
  2
STYLE
 70
     4
  0
STYLE
  2
STANDARD
 70
     0
 40
0.0
 41
1.0
 50
0.0
 71
     0
 42
0.0
  3
txt
  4

  0
STYLE
  2
LC-STANDARD
 70
    64
 40
0.0
 41
1.0
 50
0.0
 71
     0
 42
3.5
  3
MONOTXT
  4

  0
STYLE
  2
LC-TXTSTYLE-150-400-0-0-A2
 70
    64
 40
0.0
 41
1.0
 50
15.0
 71
     0
 42
3.5
  3
MONOTXT
  4

  0
STYLE
  2
LC-TXTSTYLE-150-400-0-0-D3
 70
    64
 40
0.0
 41
1.0
 50
15.0
 71
     0
 42
3.5
  3
LC-STANDARD
  4

  0
ENDTAB
  0
TABLE
  2
VIEW
 70
     0
  0
ENDTAB
  0
TABLE
  2
UCS
 70
     0
  0
ENDTAB
  0
TABLE
  2
APPID
 70
     1
  0
APPID
  2
ACAD
 70
     0
  0
ENDTAB
  0
TABLE
  2
DIMSTYLE
 70
     3
  0
DIMSTYLE
  2
STANDARD
 70
     0
  3

  4

  5

  6

  7

 40
1.0
 41
0.18
 42
0.0625
 43
0.38
 44
0.18
 45
0.0
 46
0.0
 47
0.0
 48
0.0
 71
     0
 72
     0
 73
     1
 74
     1
 75
     0
 76
     0
 77
     0
 78
     0
140
0.18
141
0.09
142
0.0
143
25.4
144
1.0
145
0.0
146
1.0
147
0.09
170
     0
171
     2
172
     0
173
     0
174
     0
175
     0
176
     0
177
     0
178
     0
  0
DIMSTYLE
  2
LC-STANDARD
 70
     0
  3

  4

  5

  6

  7

 40
1.0
 41
3.5
 42
0.0
 43
7.5
 44
1.8
 45
0.0
 46
0.0
 47
0.0
 48
0.0
 71
     0
 72
     0
 73
     0
 74
     0
 75
     0
 76
     0
 77
     1
 78
     8
140
3.5
141
0.0
142
0.0
143
25.4
144
1.0
145
0.0
146
0.71
147
1.5
170
     0
171
     2
172
     1
173
     0
174
     0
175
     0
176
     0
177
     0
178
     3
  0
DIMSTYLE
  2
LC-DIM-L-0140-02-02
 70
     0
  3

  4

  5

  6

  7

 40
2.0
 41
3.5
 42
0.0
 43
7.5
 44
1.8
 45
0.0
 46
0.0
 47
0.0
 48
0.0
 71
     0
 72
     0
 73
     0
 74
     0
 75
     0
 76
     0
 77
     1
 78
     8
140
14.0
141
0.0
142
0.0
143
25.4
144
1.0
145
0.0
146
0.71
147
1.5
170
     0
171
     2
172
     0
173
     0
174
     0
175
     0
176
     2
177
     2
178
     8
  0
ENDTAB
  0
ENDSEC
  0
SECTION
  2
BLOCKS
  0
BLOCK
  8
0
  5
23
  2
*X0
 70
    65
 10
225.269193
 20
244.227305
 30
0.0
  3
*X0
  0
LINE
  8
LC-002-005-----0
  6
CONTINUOUS
  5
25
 10
250.269193
 20
250.362408
 30
0.0
 11
252.269193
 21
248.362411
 31
0.0
  0
LINE
  8
LC-002-005-----0
  6
CONTINUOUS
  5
26
 10
250.269193
 20
254.605046
 30
0.0
 11
252.269193
 21
252.605049
 31
0.0
  0
LINE
  8
LC-002-005-----0
  6
CONTINUOUS
  5
27
 10
230.473328
 20
278.643522
 30
0.0
 11
233.185421
 21
275.931433
 31
0.0
  0
LINE
  8
LC-002-005-----0
  6
CONTINUOUS
  5
28
 10
250.269193
 20
258.847684
 30
0.0
 11
252.269193
 21
256.847687
 31
0.0
  0
LINE
  8
LC-002-005-----0
  6
CONTINUOUS
  5
29
 10
228.769193
 20
284.590293
 30
0.0
 11
230.987242
 21
282.372247
 31
0.0
  0
LINE
  8
LC-002-005-----0
  6
CONTINUOUS
  5
2A
 10
236.914145
 20
276.445352
 30
0.0
 11
239.132195
 21
274.227305
 31
0.0
  0
LINE
  8
LC-002-005-----0
  6
CONTINUOUS
  5
2B
 10
250.269193
 20
263.090322
 30
0.0
 11
252.269193
 21
261.090324
 31
0.0
  0
LINE
  8
LC-002-005-----0
  6
CONTINUOUS
  5
2C
 10
228.769193
 20
288.832931
 30
0.0
 11
230.769193
 21
286.832934
 31
0.0
  0
LINE
  8
LC-002-005-----0
  6
CONTINUOUS
  5
2D
 10
241.374836
 20
276.227305
 30
0.0
 11
243.374838
 21
274.227305
 31
0.0
  0
LINE
  8
LC-002-005-----0
  6
CONTINUOUS
  5
2E
 10
250.269193
 20
267.33296
 30
0.0
 11
252.269193
 21
265.332962
 31
0.0
  0
LINE
  8
LC-002-005-----0
  6
CONTINUOUS
  5
2F
 10
228.769193
 20
293.075569
 30
0.0
 11
230.769193
 21
291.075572
 31
0.0
  0
LINE
  8
LC-002-005-----0
  6
CONTINUOUS
  5
30
 10
245.617479
 20
276.227305
 30
0.0
 11
247.617482
 21
274.227305
 31
0.0
  0
LINE
  8
LC-002-005-----0
  6
CONTINUOUS
  5
31
 10
250.269193
 20
271.575598
 30
0.0
 11
252.269193
 21
269.5756
 31
0.0
  0
LINE
  8
LC-002-005-----0
  6
CONTINUOUS
  5
32
 10
228.769193
 20
297.318207
 30
0.0
 11
230.769193
 21
295.31821
 31
0.0
  0
LINE
  8
LC-002-005-----0
  6
CONTINUOUS
  5
33
 10
249.860123
 20
276.227305
 30
0.0
 11
252.269193
 21
273.818238
 31
0.0
  0
LINE
  8
LC-002-005-----0
  6
CONTINUOUS
  5
34
 10
228.769193
 20
301.560845
 30
0.0
 11
230.769193
 21
299.560847
 31
0.0
  0
LINE
  8
LC-002-005-----0
  6
CONTINUOUS
  5
35
 10
250.269193
 20
280.060873
 30
0.0
 11
252.269193
 21
278.060876
 31
0.0
  0
LINE
  8
LC-002-005-----0
  6
CONTINUOUS
  5
36
 10
228.769193
 20
305.803483
 30
0.0
 11
230.769193
 21
303.803485
 31
0.0
  0
LINE
  8
LC-002-005-----0
  6
CONTINUOUS
  5
37
 10
250.269193
 20
284.303511
 30
0.0
 11
252.269193
 21
282.303514
 31
0.0
  0
LINE
  8
LC-002-005-----0
  6
CONTINUOUS
  5
38
 10
228.769193
 20
310.046121
 30
0.0
 11
230.769193
 21
308.046123
 31
0.0
  0
LINE
  8
LC-002-005-----0
  6
CONTINUOUS
  5
39
 10
250.269193
 20
288.546149
 30
0.0
 11
252.269193
 21
286.546152
 31
0.0
  0
LINE
  8
LC-002-005-----0
  6
CONTINUOUS
  5
3A
 10
228.769193
 20
314.288758
 30
0.0
 11
230.769193
 21
312.288761
 31
0.0
  0
LINE
  8
LC-002-005-----0
  6
CONTINUOUS
  5
3B
 10
250.269193
 20
292.788787
 30
0.0
 11
252.269193
 21
290.78879
 31
0.0
  0
LINE
  8
LC-002-005-----0
  6
CONTINUOUS
  5
3C
 10
225.269193
 20
322.031392
 30
0.0
 11
227.073282
 21
320.227305
 31
0.0
  0
LINE
  8
LC-002-005-----0
  6
CONTINUOUS
  5
3D
 10
228.769193
 20
318.531396
 30
0.0
 11
230.769193
 21
316.531399
 31
0.0
  0
LINE
  8
LC-002-005-----0
  6
CONTINUOUS
  5
3E
 10
250.269193
 20
297.031425
 30
0.0
 11
252.269193
 21
295.031427
 31
0.0
  0
LINE
  8
LC-002-005-----0
  6
CONTINUOUS
  5
3F
 10
225.269193
 20
326.27403
 30
0.0
 11
228.269193
 21
323.274033
 31
0.0
  0
LINE
  8
LC-002-005-----0
  6
CONTINUOUS
  5
40
 10
228.815922
 20
322.727305
 30
0.0
 11
230.769193
 21
320.774037
 31
0.0
  0
LINE
  8
LC-002-005-----0
  6
CONTINUOUS
  5
41
 10
250.269193
 20
301.274063
 30
0.0
 11
252.269193
 21
299.274065
 31
0.0
  0
LINE
  8
LC-002-005-----0
  6
CONTINUOUS
  5
42
 10
225.269193
 20
330.516667
 30
0.0
 11
228.269193
 21
327.516671
 31
0.0
  0
LINE
  8
LC-002-005-----0
  6
CONTINUOUS
  5
43
 10
250.269193
 20
305.516701
 30
0.0
 11
252.269193
 21
303.516703
 31
0.0
  0
LINE
  8
LC-002-005-----0
  6
CONTINUOUS
  5
44
 10
225.801194
 20
334.227305
 30
0.0
 11
228.269193
 21
331.759309
 31
0.0
  0
ENDBLK
  8
0
  5
45
  0
BLOCK
  8
0
  5
47
  2
*X1
 70
    65
 10
298.269193
 20
244.227305
 30
0.0
  3
*X1
  0
LINE
  8
LC-002-005-----0
  6
CONTINUOUS
  5
48
 10
298.269193
 20
244.788851
 30
0.0
 11
298.549966
 21
244.508078
 31
0.0
  0
LINE
  8
LC-002-005-----0
  6
CONTINUOUS
  5
49
 10
298.269193
 20
249.031488
 30
0.0
 11
300.269193
 21
247.031491
 31
0.0
  0
LINE
  8
LC-002-005-----0
  6
CONTINUOUS
  5
4A
 10
298.269193
 20
253.274126
 30
0.0
 11
300.269193
 21
251.274129
 31
0.0
  0
LINE
  8
LC-002-005-----0
  6
CONTINUOUS
  5
4B
 10
298.269193
 20
257.516764
 30
0.0
 11
300.269193
 21
255.516767
 31
0.0
  0
LINE
  8
LC-002-005-----0
  6
CONTINUOUS
  5
4C
 10
298.269193
 20
261.759402
 30
0.0
 11
300.269193
 21
259.759405
 31
0.0
  0
LINE
  8
LC-002-005-----0
  6
CONTINUOUS
  5
4D
 10
298.269193
 20
266.00204
 30
0.0
 11
300.269193
 21
264.002043
 31
0.0
  0
LINE
  8
LC-002-005-----0
  6
CONTINUOUS
  5
4E
 10
298.269193
 20
270.244678
 30
0.0
 11
300.269193
 21
268.244681
 31
0.0
  0
LINE
  8
LC-002-005-----0
  6
CONTINUOUS
  5
4F
 10
298.269193
 20
274.487316
 30
0.0
 11
300.269193
 21
272.487318
 31
0.0
  0
LINE
  8
LC-002-005-----0
  6
CONTINUOUS
  5
50
 10
298.269193
 20
278.729954
 30
0.0
 11
300.269193
 21
276.729956
 31
0.0
  0
LINE
  8
LC-002-005-----0
  6
CONTINUOUS
  5
51
 10
300.771845
 20
276.227305
 30
0.0
 11
302.771847
 21
274.227305
 31
0.0
  0
LINE
  8
LC-002-005-----0
  6
CONTINUOUS
  5
52
 10
298.269193
 20
282.972591
 30
0.0
 11
300.269193
 21
280.972594
 31
0.0
  0
LINE
  8
LC-002-005-----0
  6
CONTINUOUS
  5
53
 10
305.014488
 20
276.227305
 30
0.0
 11
307.014491
 21
274.227305
 31
0.0
  0
LINE
  8
LC-002-005-----0
  6
CONTINUOUS
  5
54
 10
298.269193
 20
287.215229
 30
0.0
 11
300.269193
 21
285.215232
 31
0.0
  0
LINE
  8
LC-002-005-----0
  6
CONTINUOUS
  5
55
 10
309.257132
 20
276.227305
 30
0.0
 11
311.257134
 21
274.227305
 31
0.0
  0
LINE
  8
LC-002-005-----0
  6
CONTINUOUS
  5
56
 10
298.269193
 20
291.457867
 30
0.0
 11
300.269193
 21
289.45787
 31
0.0
  0
LINE
  8
LC-002-005-----0
  6
CONTINUOUS
  5
57
 10
313.343369
 20
276.383711
 30
0.0
 11
314.97275
 21
274.754332
 31
0.0
  0
LINE
  8
LC-002-005-----0
  6
CONTINUOUS
  5
58
 10
298.269193
 20
295.700505
 30
0.0
 11
300.269193
 21
293.700508
 31
0.0
  0
LINE
  8
LC-002-005-----0
  6
CONTINUOUS
  5
59
 10
316.321148
 20
277.648574
 30
0.0
 11
317.75388
 21
276.215843
 31
0.0
  0
LINE
  8
LC-002-005-----0
  6
CONTINUOUS
  5
5A
 10
298.269193
 20
299.943143
 30
0.0
 11
300.269193
 21
297.943146
 31
0.0
  0
LINE
  8
LC-002-005-----0
  6
CONTINUOUS
  5
5B
 10
318.424421
 20
279.787942
 30
0.0
 11
319.860856
 21
278.351508
 31
0.0
  0
LINE
  8
LC-002-005-----0
  6
CONTINUOUS
  5
5C
 10
298.269193
 20
304.185781
 30
0.0
 11
300.269193
 21
302.185783
 31
0.0
  0
LINE
  8
LC-002-005-----0
  6
CONTINUOUS
  5
5D
 10
319.643004
 20
282.811998
 30
0.0
 11
321.289068
 21
281.165936
 31
0.0
  0
LINE
  8
LC-002-005-----0
  6
CONTINUOUS
  5
5E
 10
319.769193
 20
286.928447
 30
0.0
 11
321.769193
 21
284.92845
 31
0.0
  0
LINE
  8
LC-002-005-----0
  6
CONTINUOUS
  5
5F
 10
319.769193
 20
291.171085
 30
0.0
 11
321.769193
 21
289.171088
 31
0.0
  0
LINE
  8
LC-002-005-----0
  6
CONTINUOUS
  5
60
 10
319.769193
 20
295.413723
 30
0.0
 11
321.769193
 21
293.413726
 31
0.0
  0
LINE
  8
LC-002-005-----0
  6
CONTINUOUS
  5
61
 10
319.769193
 20
299.656361
 30
0.0
 11
321.769193
 21
297.656363
 31
0.0
  0
LINE
  8
LC-002-005-----0
  6
CONTINUOUS
  5
62
 10
319.769193
 20
303.898999
 30
0.0
 11
321.769193
 21
301.899001
 31
0.0
  0
LINE
  8
LC-002-005-----0
  6
CONTINUOUS
  5
63
 10
319.769193
 20
308.141637
 30
0.0
 11
321.769193
 21
306.141639
 31
0.0
  0
LINE
  8
LC-002-005-----0
  6
CONTINUOUS
  5
64
 10
319.769193
 20
312.384274
 30
0.0
 11
321.769193
 21
310.384277
 31
0.0
  0
LINE
  8
LC-002-005-----0
  6
CONTINUOUS
  5
65
 10
319.769193
 20
316.626912
 30
0.0
 11
321.769193
 21
314.626915
 31
0.0
  0
LINE
  8
LC-002-005-----0
  6
CONTINUOUS
  5
66
 10
319.769193
 20
320.86955
 30
0.0
 11
321.769193
 21
318.869553
 31
0.0
  0
LINE
  8
LC-002-005-----0
  6
CONTINUOUS
  5
67
 10
322.154079
 20
322.727305
 30
0.0
 11
324.654082
 21
320.227305
 31
0.0
  0
LINE
  8
LC-002-005-----0
  6
CONTINUOUS
  5
68
 10
322.269193
 20
326.854829
 30
0.0
 11
325.269193
 21
323.854833
 31
0.0
  0
LINE
  8
LC-002-005-----0
  6
CONTINUOUS
  5
69
 10
322.269193
 20
331.097467
 30
0.0
 11
325.269193
 21
328.097471
 31
0.0
  0
LINE
  8
LC-002-005-----0
  6
CONTINUOUS
  5
6A
 10
323.381994
 20
334.227305
 30
0.0
 11
325.269193
 21
332.340109
 31
0.0
  0
ENDBLK
  8
0
  5
6B
  0
BLOCK
  8
0
  5
6D
  2
*X2
 70
    65
 10
192.644193
 20
162.977305
 30
0.0
  3
*X2
  0
LINE
  8
LC-002-005-----0
  6
CONTINUOUS
  5
6E
 10
239.558257
 20
286.227305
 30
0.0
 11
240.269193
 21
286.93824
 31
0.0
  0
LINE
  8
LC-002-005-----0
  6
CONTINUOUS
  5
6F
 10
237.769193
 20
288.680881
 30
0.0
 11
240.269193
 21
291.180881
 31
0.0
  0
LINE
  8
LC-002-005-----0
  6
CONTINUOUS
  5
70
 10
237.769193
 20
292.923522
 30
0.0
 11
240.269193
 21
295.423522
 31
0.0
  0
LINE
  8
LC-002-005-----0
  6
CONTINUOUS
  5
71
 10
237.769193
 20
297.166162
 30
0.0
 11
240.269193
 21
299.666162
 31
0.0
  0
LINE
  8
LC-002-005-----0
  6
CONTINUOUS
  5
72
 10
271.330335
 20
330.727305
 30
0.0
 11
274.830335
 21
334.227305
 31
0.0
  0
LINE
  8
LC-002-005-----0
  6
CONTINUOUS
  5
73
 10
237.769193
 20
301.408803
 30
0.0
 11
240.269193
 21
303.908803
 31
0.0
  0
LINE
  8
LC-002-005-----0
  6
CONTINUOUS
  5
74
 10
261.381693
 20
325.021303
 30
0.0
 11
262.269193
 21
325.908803
 31
0.0
  0
LINE
  8
LC-002-005-----0
  6
CONTINUOUS
  5
75
 10
267.087695
 20
330.727305
 30
0.0
 11
270.587695
 21
334.227305
 31
0.0
  0
LINE
  8
LC-002-005-----0
  6
CONTINUOUS
  5
76
 10
237.769193
 20
305.651444
 30
0.0
 11
240.269193
 21
308.151444
 31
0.0
  0
LINE
  8
LC-002-005-----0
  6
CONTINUOUS
  5
77
 10
256.008869
 20
323.89112
 30
0.0
 11
258.658061
 21
326.540312
 31
0.0
  0
LINE
  8
LC-002-005-----0
  6
CONTINUOUS
  5
78
 10
260.269193
 20
328.151444
 30
0.0
 11
262.269193
 21
330.151444
 31
0.0
  0
LINE
  8
LC-002-005-----0
  6
CONTINUOUS
  5
79
 10
262.845054
 20
330.727305
 30
0.0
 11
266.345054
 21
334.227305
 31
0.0
  0
LINE
  8
LC-002-005-----0
  6
CONTINUOUS
  5
7A
 10
237.769193
 20
309.894084
 30
0.0
 11
240.269193
 21
312.394084
 31
0.0
  0
LINE
  8
LC-002-005-----0
  6
CONTINUOUS
  5
7B
 10
250.055023
 20
322.179915
 30
0.0
 11
253.062216
 21
325.187108
 31
0.0
  0
LINE
  8
LC-002-005-----0
  6
CONTINUOUS
  5
7C
 10
260.269193
 20
332.394084
 30
0.0
 11
262.102413
 21
334.227305
 31
0.0
  0
LINE
  8
LC-002-005-----0
  6
CONTINUOUS
  5
7D
 10
237.769193
 20
314.136725
 30
0.0
 11
240.269193
 21
316.636725
 31
0.0
  0
LINE
  8
LC-002-005-----0
  6
CONTINUOUS
  5
7E
 10
243.203229
 20
319.570761
 30
0.0
 11
246.800318
 21
323.16785
 31
0.0
  0
LINE
  8
LC-002-005-----0
  6
CONTINUOUS
  5
7F
 10
237.769193
 20
318.379366
 30
0.0
 11
239.448731
 21
320.058904
 31
0.0
  0
ENDBLK
  8
0
  5
80
  0
BLOCK
  8
0
  5
82
  2
*X3
 70
    65
 10
192.644193
 20
162.977305
 30
0.0
  3
*X3
  0
LINE
  8
LC-002-005-----0
  6
CONTINUOUS
  5
83
 10
311.683546
 20
286.227305
 30
0.0
 11
312.769193
 21
287.312951
 31
0.0
  0
LINE
  8
LC-002-005-----0
  6
CONTINUOUS
  5
84
 10
310.269193
 20
289.055592
 30
0.0
 11
312.769193
 21
291.555588
 31
0.0
  0
LINE
  8
LC-002-005-----0
  6
CONTINUOUS
  5
85
 10
310.269193
 20
293.29823
 30
0.0
 11
312.769193
 21
295.798226
 31
0.0
  0
LINE
  8
LC-002-005-----0
  6
CONTINUOUS
  5
86
 10
310.269193
 20
297.540868
 30
0.0
 11
312.769193
 21
300.040864
 31
0.0
  0
LINE
  8
LC-002-005-----0
  6
CONTINUOUS
  5
87
 10
310.269193
 20
301.783505
 30
0.0
 11
312.769193
 21
304.283502
 31
0.0
  0
LINE
  8
LC-002-005-----0
  6
CONTINUOUS
  5
88
 10
310.269193
 20
306.026143
 30
0.0
 11
312.769193
 21
308.52614
 31
0.0
  0
LINE
  8
LC-002-005-----0
  6
CONTINUOUS
  5
89
 10
310.269193
 20
310.268781
 30
0.0
 11
312.769193
 21
312.768778
 31
0.0
  0
LINE
  8
LC-002-005-----0
  6
CONTINUOUS
  5
8A
 10
310.269193
 20
314.511419
 30
0.0
 11
312.769193
 21
317.011416
 31
0.0
  0
LINE
  8
LC-002-005-----0
  6
CONTINUOUS
  5
8B
 10
309.913117
 20
318.397981
 30
0.0
 11
311.416106
 21
319.900968
 31
0.0
  0
LINE
  8
LC-002-005-----0
  6
CONTINUOUS
  5
8C
 10
306.991438
 20
319.718944
 30
0.0
 11
308.515768
 21
321.243272
 31
0.0
  0
LINE
  8
LC-002-005-----0
  6
CONTINUOUS
  5
8D
 10
303.970975
 20
320.941123
 30
0.0
 11
305.520183
 21
322.490329
 31
0.0
  0
LINE
  8
LC-002-005-----0
  6
CONTINUOUS
  5
8E
 10
300.846502
 20
322.059292
 30
0.0
 11
302.424601
 21
323.63739
 31
0.0
  0
LINE
  8
LC-002-005-----0
  6
CONTINUOUS
  5
8F
 10
297.611743
 20
323.067175
 30
0.0
 11
299.22335
 21
324.67878
 31
0.0
  0
LINE
  8
LC-002-005-----0
  6
CONTINUOUS
  5
90
 10
294.259124
 20
323.957199
 30
0.0
 11
295.909627
 21
325.607699
 31
0.0
  0
LINE
  8
LC-002-005-----0
  6
CONTINUOUS
  5
91
 10
290.77944
 20
324.720157
 30
0.0
 11
292.475222
 21
326.415937
 31
0.0
  0
LINE
  8
LC-002-005-----0
  6
CONTINUOUS
  5
92
 10
288.269193
 20
326.452551
 30
0.0
 11
290.269193
 21
328.452549
 31
0.0
  0
LINE
  8
LC-002-005-----0
  6
CONTINUOUS
  5
93
 10
288.269193
 20
330.695189
 30
0.0
 11
290.269193
 21
332.695186
 31
0.0
  0
LINE
  8
LC-002-005-----0
  6
CONTINUOUS
  5
94
 10
284.058665
 20
330.727305
 30
0.0
 11
287.55867
 21
334.227305
 31
0.0
  0
LINE
  8
LC-002-005-----0
  6
CONTINUOUS
  5
95
 10
279.816022
 20
330.727305
 30
0.0
 11
283.316026
 21
334.227305
 31
0.0
  0
LINE
  8
LC-002-005-----0
  6
CONTINUOUS
  5
96
 10
275.573378
 20
330.727305
 30
0.0
 11
279.073383
 21
334.227305
 31
0.0
  0
ENDBLK
  8
0
  5
97
  0
BLOCK
  8
0
  5
99
  2
*X4
 70
    65
 10
228.769193
 20
328.227305
 30
0.0
  3
*X4
  0
LINE
  8
LC-002-005-----0
  6
CONTINUOUS
  5
9A
 10
234.889583
 20
328.227305
 30
0.0
 11
236.269193
 21
329.606913
 31
0.0
  0
LINE
  8
LC-002-005-----0
  6
CONTINUOUS
  5
9B
 10
230.64694
 20
328.227305
 30
0.0
 11
236.269193
 21
333.84955
 31
0.0
  0
LINE
  8
LC-002-005-----0
  6
CONTINUOUS
  5
9C
 10
228.769193
 20
330.592198
 30
0.0
 11
232.404304
 21
334.227305
 31
0.0
  0
ENDBLK
  8
0
  5
9D
  0
BLOCK
  8
0
  5
9F
  2
*X5
 70
    65
 10
314.269193
 20
328.227305
 30
0.0
  3
*X5
  0
LINE
  8
LC-002-005-----0
  6
CONTINUOUS
  5
A0
 10
319.742454
 20
328.227305
 30
0.0
 11
321.769193
 21
330.254042
 31
0.0
  0
LINE
  8
LC-002-005-----0
  6
CONTINUOUS
  5
A1
 10
315.49981
 20
328.227305
 30
0.0
 11
321.499818
 21
334.227305
 31
0.0
  0
LINE
  8
LC-002-005-----0
  6
CONTINUOUS
  5
A2
 10
314.269193
 20
331.239327
 30
0.0
 11
317.257174
 21
334.227305
 31
0.0
  0
ENDBLK
  8
0
  5
A3
  0
BLOCK
  8
0
  5
A5
  2
*D6
 70
    65
 10
0.0
 20
0.0
 30
0.0
  3
*D6
  0
LINE
  8
LC-004-003-MTH-0
  6
CONTINUOUS
  5
A7
 10
225.269193
 20
334.227305
 30
0.0
 11
225.269193
 21
376.8
 31
0.0
  0
LINE
  8
LC-004-003-MTH-0
  6
CONTINUOUS
  5
A8
 10
325.269193
 20
334.227305
 30
0.0
 11
325.269193
 21
376.8
 31
0.0
  0
LINE
  8
LC-005-003-MTG-0
  6
CONTINUOUS
  5
AA
 10
225.269193
 20
360.0
 30
0.0
 11
325.269193
 21
360.0
 31
0.0
  0
LINE
  8
LC-003-003-----0
  6
CONTINUOUS
  5
AC
 10
253.029649
 20
363.654733
 30
0.0
 11
225.269193
 21
360.0
 31
0.0
  0
LINE
  8
LC-003-003-----0
  6
CONTINUOUS
  5
AD
 10
225.269193
 20
360.0
 30
0.0
 11
253.029649
 21
356.345267
 31
0.0
  0
LINE
  8
LC-003-003-----0
  6
CONTINUOUS
  5
AE
 10
253.029649
 20
356.345267
 30
0.0
 11
253.029649
 21
363.654733
 31
0.0
  0
LINE
  8
LC-003-003-----0
  6
CONTINUOUS
  5
AF
 10
253.09193
 20
362.704503
 30
0.0
 11
232.549193
 21
360.0
 31
0.0
  0
LINE
  8
LC-003-003-----0
  6
CONTINUOUS
  5
B0
 10
232.549193
 20
360.0
 30
0.0
 11
253.09193
 21
357.295497
 31
0.0
  0
LINE
  8
LC-003-003-----0
  6
CONTINUOUS
  5
B1
 10
253.154212
 20
361.754272
 30
0.0
 11
239.829193
 21
360.0
 31
0.0
  0
LINE
  8
LC-003-003-----0
  6
CONTINUOUS
  5
B2
 10
239.829193
 20
360.0
 30
0.0
 11
253.154212
 21
358.245728
 31
0.0
  0
LINE
  8
LC-003-003-----0
  6
CONTINUOUS
  5
B3
 10
253.216493
 20
360.804041
 30
0.0
 11
247.109193
 21
360.0
 31
0.0
  0
LINE
  8
LC-003-003-----0
  6
CONTINUOUS
  5
B4
 10
247.109193
 20
360.0
 30
0.0
 11
253.216493
 21
359.195959
 31
0.0
  0
LINE
  8
LC-003-003-----0
  6
CONTINUOUS
  5
B5
 10
297.508737
 20
356.345267
 30
0.0
 11
325.269193
 21
360.0
 31
0.0
  0
LINE
  8
LC-003-003-----0
  6
CONTINUOUS
  5
B6
 10
325.269193
 20
360.0
 30
0.0
 11
297.508737
 21
363.654733
 31
0.0
  0
LINE
  8
LC-003-003-----0
  6
CONTINUOUS
  5
B7
 10
297.508737
 20
363.654733
 30
0.0
 11
297.508737
 21
356.345267
 31
0.0
  0
LINE
  8
LC-003-003-----0
  6
CONTINUOUS
  5
B8
 10
297.446455
 20
357.295497
 30
0.0
 11
317.989193
 21
360.0
 31
0.0
  0
LINE
  8
LC-003-003-----0
  6
CONTINUOUS
  5
B9
 10
317.989193
 20
360.0
 30
0.0
 11
297.446455
 21
362.704503
 31
0.0
  0
LINE
  8
LC-003-003-----0
  6
CONTINUOUS
  5
BA
 10
297.384174
 20
358.245728
 30
0.0
 11
310.709193
 21
360.0
 31
0.0
  0
LINE
  8
LC-003-003-----0
  6
CONTINUOUS
  5
BB
 10
310.709193
 20
360.0
 30
0.0
 11
297.384174
 21
361.754272
 31
0.0
  0
LINE
  8
LC-003-003-----0
  6
CONTINUOUS
  5
BC
 10
297.321892
 20
359.195959
 30
0.0
 11
303.429193
 21
360.0
 31
0.0
  0
LINE
  8
LC-003-003-----0
  6
CONTINUOUS
  5
BD
 10
303.429193
 20
360.0
 30
0.0
 11
297.321892
 21
360.804041
 31
0.0
  0
TEXT
  8
LC-003-003-----0
  6
CONTINUOUS
 62
     8
  5
BF
 10
249.853573
 20
367.827554
 30
0.0
 40
28.0
  1
100
 41
0.9
 51
15.0
  7
LC-TXTSTYLE-150-400-0-0-D0
 72
     1
 11
279.617353
 21
367.827554
 31
0.0
  0
ENDBLK
  8
0
  5
C0
  0
BLOCK
  8
0
  5
C2
  2
*D7
 70
    65
 10
0.0
 20
0.0
 30
0.0
  3
*D7
  0
LINE
  8
LC-004-003-MTH-0
  6
CONTINUOUS
  5
C3
 10
250.269193
 20
246.227305
 30
0.0
 11
250.269193
 21
193.2
 31
0.0
  0
LINE
  8
LC-004-003-MTH-0
  6
CONTINUOUS
  5
C4
 10
300.269193
 20
246.227305
 30
0.0
 11
300.269193
 21
193.2
 31
0.0
  0
LINE
  8
LC-003-003-----0
  6
CONTINUOUS
  5
C5
 10
222.508737
 20
206.345267
 30
0.0
 11
250.269193
 21
210.0
 31
0.0
  0
LINE
  8
LC-003-003-----0
  6
CONTINUOUS
  5
C6
 10
250.269193
 20
210.0
 30
0.0
 11
222.508737
 21
213.654733
 31
0.0
  0
LINE
  8
LC-003-003-----0
  6
CONTINUOUS
  5
C7
 10
222.508737
 20
213.654733
 30
0.0
 11
222.508737
 21
206.345267
 31
0.0
  0
LINE
  8
LC-003-003-----0
  6
CONTINUOUS
  5
C8
 10
222.446455
 20
207.295497
 30
0.0
 11
242.989193
 21
210.0
 31
0.0
  0
LINE
  8
LC-003-003-----0
  6
CONTINUOUS
  5
C9
 10
242.989193
 20
210.0
 30
0.0
 11
222.446455
 21
212.704503
 31
0.0
  0
LINE
  8
LC-003-003-----0
  6
CONTINUOUS
  5
CA
 10
222.384174
 20
208.245728
 30
0.0
 11
235.709193
 21
210.0
 31
0.0
  0
LINE
  8
LC-003-003-----0
  6
CONTINUOUS
  5
CB
 10
235.709193
 20
210.0
 30
0.0
 11
222.384174
 21
211.754272
 31
0.0
  0
LINE
  8
LC-003-003-----0
  6
CONTINUOUS
  5
CC
 10
222.321892
 20
209.195959
 30
0.0
 11
228.429193
 21
210.0
 31
0.0
  0
LINE
  8
LC-003-003-----0
  6
CONTINUOUS
  5
CD
 10
228.429193
 20
210.0
 30
0.0
 11
222.321892
 21
210.804041
 31
0.0
  0
LINE
  8
LC-003-003-----0
  6
CONTINUOUS
  5
CE
 10
328.029649
 20
213.654733
 30
0.0
 11
300.269193
 21
210.0
 31
0.0
  0
LINE
  8
LC-003-003-----0
  6
CONTINUOUS
  5
CF
 10
300.269193
 20
210.0
 30
0.0
 11
328.029649
 21
206.345267
 31
0.0
  0
LINE
  8
LC-003-003-----0
  6
CONTINUOUS
  5
D0
 10
328.029649
 20
206.345267
 30
0.0
 11
328.029649
 21
213.654733
 31
0.0
  0
LINE
  8
LC-003-003-----0
  6
CONTINUOUS
  5
D1
 10
328.09193
 20
212.704503
 30
0.0
 11
307.549193
 21
210.0
 31
0.0
  0
LINE
  8
LC-003-003-----0
  6
CONTINUOUS
  5
D2
 10
307.549193
 20
210.0
 30
0.0
 11
328.09193
 21
207.295497
 31
0.0
  0
LINE
  8
LC-003-003-----0
  6
CONTINUOUS
  5
D3
 10
328.154212
 20
211.754272
 30
0.0
 11
314.829193
 21
210.0
 31
0.0
  0
LINE
  8
LC-003-003-----0
  6
CONTINUOUS
  5
D4
 10
314.829193
 20
210.0
 30
0.0
 11
328.154212
 21
208.245728
 31
0.0
  0
LINE
  8
LC-003-003-----0
  6
CONTINUOUS
  5
D5
 10
328.216493
 20
210.804041
 30
0.0
 11
322.109193
 21
210.0
 31
0.0
  0
LINE
  8
LC-003-003-----0
  6
CONTINUOUS
  5
D6
 10
322.109193
 20
210.0
 30
0.0
 11
328.216493
 21
209.195959
 31
0.0
  0
LINE
  8
LC-005-003-MTG-0
  6
CONTINUOUS
  5
D7
 10
211.069193
 20
210.0
 30
0.0
 11
429.239293
 21
210.0
 31
0.0
  0
TEXT
  8
LC-003-003-----0
  6
CONTINUOUS
 62
     8
  5
D8
 10
342.697353
 20
217.827554
 30
0.0
 40
28.0
  1
DN50
 51
15.0
  7
LC-TXTSTYLE-150-400-0-0-D0
  0
ENDBLK
  8
0
  5
D9
  0
BLOCK
  8
0
  5
DB
  2
*D8
 70
    65
 10
0.0
 20
0.0
 30
0.0
  3
*D8
  0
LINE
  8
LC-004-003-MTH-0
  6
CONTINUOUS
  5
DC
 10
238.769193
 20
274.227305
 30
0.0
 11
183.2
 21
274.227305
 31
0.0
  0
LINE
  8
LC-004-003-MTH-0
  6
CONTINUOUS
  5
DD
 10
225.269193
 20
334.227305
 30
0.0
 11
183.2
 21
334.227305
 31
0.0
  0
LINE
  8
LC-003-003-----0
  6
CONTINUOUS
  5
DE
 10
203.654733
 20
246.466849
 30
0.0
 11
200.0
 21
274.227305
 31
0.0
  0
LINE
  8
LC-003-003-----0
  6
CONTINUOUS
  5
DF
 10
200.0
 20
274.227305
 30
0.0
 11
196.345267
 21
246.466849
 31
0.0
  0
LINE
  8
LC-003-003-----0
  6
CONTINUOUS
  5
E0
 10
196.345267
 20
246.466849
 30
0.0
 11
203.654733
 21
246.466849
 31
0.0
  0
LINE
  8
LC-003-003-----0
  6
CONTINUOUS
  5
E1
 10
202.704503
 20
246.404568
 30
0.0
 11
200.0
 21
266.947305
 31
0.0
  0
LINE
  8
LC-003-003-----0
  6
CONTINUOUS
  5
E2
 10
200.0
 20
266.947305
 30
0.0
 11
197.295497
 21
246.404568
 31
0.0
  0
LINE
  8
LC-003-003-----0
  6
CONTINUOUS
  5
E3
 10
201.754272
 20
246.342286
 30
0.0
 11
200.0
 21
259.667305
 31
0.0
  0
LINE
  8
LC-003-003-----0
  6
CONTINUOUS
  5
E4
 10
200.0
 20
259.667305
 30
0.0
 11
198.245728
 21
246.342286
 31
0.0
  0
LINE
  8
LC-003-003-----0
  6
CONTINUOUS
  5
E5
 10
200.804041
 20
246.280005
 30
0.0
 11
200.0
 21
252.387305
 31
0.0
  0
LINE
  8
LC-003-003-----0
  6
CONTINUOUS
  5
E6
 10
200.0
 20
252.387305
 30
0.0
 11
199.195959
 21
246.280005
 31
0.0
  0
LINE
  8
LC-003-003-----0
  6
CONTINUOUS
  5
E7
 10
196.345267
 20
361.987761
 30
0.0
 11
200.0
 21
334.227305
 31
0.0
  0
LINE
  8
LC-003-003-----0
  6
CONTINUOUS
  5
E8
 10
200.0
 20
334.227305
 30
0.0
 11
203.654733
 21
361.987761
 31
0.0
  0
LINE
  8
LC-003-003-----0
  6
CONTINUOUS
  5
E9
 10
203.654733
 20
361.987761
 30
0.0
 11
196.345267
 21
361.987761
 31
0.0
  0
LINE
  8
LC-003-003-----0
  6
CONTINUOUS
  5
EA
 10
197.295497
 20
362.050043
 30
0.0
 11
200.0
 21
341.507305
 31
0.0
  0
LINE
  8
LC-003-003-----0
  6
CONTINUOUS
  5
EB
 10
200.0
 20
341.507305
 30
0.0
 11
202.704503
 21
362.050043
 31
0.0
  0
LINE
  8
LC-003-003-----0
  6
CONTINUOUS
  5
EC
 10
198.245728
 20
362.112324
 30
0.0
 11
200.0
 21
348.787305
 31
0.0
  0
LINE
  8
LC-003-003-----0
  6
CONTINUOUS
  5
ED
 10
200.0
 20
348.787305
 30
0.0
 11
201.754272
 21
362.112324
 31
0.0
  0
LINE
  8
LC-003-003-----0
  6
CONTINUOUS
  5
EE
 10
199.195959
 20
362.174605
 30
0.0
 11
200.0
 21
356.067305
 31
0.0
  0
LINE
  8
LC-003-003-----0
  6
CONTINUOUS
  5
EF
 10
200.0
 20
356.067305
 30
0.0
 11
200.804041
 21
362.174605
 31
0.0
  0
LINE
  8
LC-005-003-MTG-0
  6
CONTINUOUS
  5
F0
 10
200.0
 20
235.027305
 30
0.0
 11
200.0
 21
373.427305
 31
0.0
  0
TEXT
  8
LC-003-003-----0
  6
CONTINUOUS
 62
     8
  5
F1
 10
192.172446
 20
288.655465
 30
0.0
 40
28.0
  1
60
 50
90.0
 51
15.0
  7
LC-TXTSTYLE-150-400-0-0-D0
  0
ENDBLK
  8
0
  5
F2
  0
BLOCK
  8
0
  5
F4
  2
*D9
 70
    65
 10
0.0
 20
0.0
 30
0.0
  3
*D9
  0
LINE
  8
LC-004-003-MTH-0
  6
CONTINUOUS
  5
F5
 10
310.269193
 20
286.227305
 30
0.0
 11
394.8
 21
286.227305
 31
0.0
  0
LINE
  8
LC-004-003-MTH-0
  6
CONTINUOUS
  5
F6
 10
300.269193
 20
306.227305
 30
0.0
 11
394.8
 21
306.227305
 31
0.0
  0
LINE
  8
LC-003-003-----0
  6
CONTINUOUS
  5
F7
 10
381.654733
 20
258.466849
 30
0.0
 11
378.0
 21
286.227305
 31
0.0
  0
LINE
  8
LC-003-003-----0
  6
CONTINUOUS
  5
F8
 10
378.0
 20
286.227305
 30
0.0
 11
374.345267
 21
258.466849
 31
0.0
  0
LINE
  8
LC-003-003-----0
  6
CONTINUOUS
  5
F9
 10
374.345267
 20
258.466849
 30
0.0
 11
381.654733
 21
258.466849
 31
0.0
  0
LINE
  8
LC-003-003-----0
  6
CONTINUOUS
  5
FA
 10
380.704503
 20
258.404568
 30
0.0
 11
378.0
 21
278.947305
 31
0.0
  0
LINE
  8
LC-003-003-----0
  6
CONTINUOUS
  5
FB
 10
378.0
 20
278.947305
 30
0.0
 11
375.295497
 21
258.404568
 31
0.0
  0
LINE
  8
LC-003-003-----0
  6
CONTINUOUS
  5
FC
 10
379.754272
 20
258.342286
 30
0.0
 11
378.0
 21
271.667305
 31
0.0
  0
LINE
  8
LC-003-003-----0
  6
CONTINUOUS
  5
FD
 10
378.0
 20
271.667305
 30
0.0
 11
376.245728
 21
258.342286
 31
0.0
  0
LINE
  8
LC-003-003-----0
  6
CONTINUOUS
  5
FE
 10
378.804041
 20
258.280005
 30
0.0
 11
378.0
 21
264.387305
 31
0.0
  0
LINE
  8
LC-003-003-----0
  6
CONTINUOUS
  5
FF
 10
378.0
 20
264.387305
 30
0.0
 11
377.195959
 21
258.280005
 31
0.0
  0
LINE
  8
LC-003-003-----0
  6
CONTINUOUS
  5
100
 10
374.345267
 20
333.987761
 30
0.0
 11
378.0
 21
306.227305
 31
0.0
  0
LINE
  8
LC-003-003-----0
  6
CONTINUOUS
  5
101
 10
378.0
 20
306.227305
 30
0.0
 11
381.654733
 21
333.987761
 31
0.0
  0
LINE
  8
LC-003-003-----0
  6
CONTINUOUS
  5
102
 10
381.654733
 20
333.987761
 30
0.0
 11
374.345267
 21
333.987761
 31
0.0
  0
LINE
  8
LC-003-003-----0
  6
CONTINUOUS
  5
103
 10
375.295497
 20
334.050043
 30
0.0
 11
378.0
 21
313.507305
 31
0.0
  0
LINE
  8
LC-003-003-----0
  6
CONTINUOUS
  5
104
 10
378.0
 20
313.507305
 30
0.0
 11
380.704503
 21
334.050043
 31
0.0
  0
LINE
  8
LC-003-003-----0
  6
CONTINUOUS
  5
105
 10
376.245728
 20
334.112324
 30
0.0
 11
378.0
 21
320.787305
 31
0.0
  0
LINE
  8
LC-003-003-----0
  6
CONTINUOUS
  5
106
 10
378.0
 20
320.787305
 30
0.0
 11
379.754272
 21
334.112324
 31
0.0
  0
LINE
  8
LC-003-003-----0
  6
CONTINUOUS
  5
107
 10
377.195959
 20
334.174605
 30
0.0
 11
378.0
 21
328.067305
 31
0.0
  0
LINE
  8
LC-003-003-----0
  6
CONTINUOUS
  5
108
 10
378.0
 20
328.067305
 30
0.0
 11
378.804041
 21
334.174605
 31
0.0
  0
LINE
  8
LC-005-003-MTG-0
  6
CONTINUOUS
  5
109
 10
378.0
 20
247.027305
 30
0.0
 11
378.0
 21
389.591705
 31
0.0
  0
TEXT
  8
LC-003-003-----0
  6
CONTINUOUS
 62
     8
  5
10A
 10
370.172446
 20
348.655465
 30
0.0
 40
28.0
  1
25
 50
90.0
 51
15.0
  7
LC-TXTSTYLE-150-400-0-0-D0
  0
ENDBLK
  8
0
  5
10B
  0
ENDSEC
  0
SECTION
  2
ENTITIES
  0
VIEWPORT
  8
LC-000
  5
158
 67
     1
 68
     1
 10
420.0
 20
297.0
 30
0.0
 40
840.0
 41
594.0
 69
     1
1001
ACAD
1000
MVIEW
1002
{
1070
    16
1010
0.0
1020
0.0
1030
0.0
1010
0.0
1020
0.0
1030
1.0
1040
0.0
1040
594.0
1040
420.0
1040
297.0
1040
50.0
1040
0.0
1040
0.0
1070
     0
1070
   100
1070
     1
1070
     1
1070
     0
1070
     0
1070
     0
1070
     0
1040
0.0
1040
0.0
1040
0.0
1040
1.0
1040
1.0
1040
0.0
1040
0.0
1070
     0
1002
{
1002
}
1002
}
  0
VIEWPORT
  8
0
  5
159
 67
     1
 68
     1
 10
0.0
 20
0.0
 30
0.0
 40
0.0
 41
0.0
 69
     1
1001
ACAD
1000
MVIEW
1002
{
1070
    16
1010
0.0
1020
0.0
1030
0.0
1010
0.0
1020
0.0
1030
1.0
1040
0.0
1040
594.0
1040
0.0
1040
0.0
1040
50.0
1040
0.0
1040
0.0
1070
     0
1070
   100
1070
     0
1070
     1
1070
     0
1070
     0
1070
     0
1070
     0
1040
0.0
1040
0.0
1040
0.0
1040
0.5
1040
0.5
1040
0.5
1040
0.5
1070
     0
1002
{
1002
}
1002
}
  0
INSERT
  8
0
  5
10C
  2
*X0
 10
225.269193
 20
244.227305
 30
0.0
  0
INSERT
  8
0
  5
10D
  2
*X1
 10
298.269193
 20
244.227305
 30
0.0
  0
INSERT
  8
0
  5
10E
  2
*X2
 10
192.644193
 20
162.977305
 30
0.0
  0
INSERT
  8
0
  5
10F
  2
*X3
 10
192.644193
 20
162.977305
 30
0.0
  0
INSERT
  8
0
  5
110
  2
*X4
 10
228.769193
 20
328.227305
 30
0.0
  0
INSERT
  8
0
  5
111
  2
*X5
 10
314.269193
 20
328.227305
 30
0.0
  0
DIMENSION
  8
0
  5
112
  2
*D6
 10
275.269193
 20
360.0
 30
0.0
 11
275.269193
 21
360.0
 31
0.0
 13
225.269193
 23
334.227305
 33
0.0
 14
325.269193
 24
334.227305
 34
0.0
  3
LC-DIM-L-0140-02-02
  0
DIMENSION
  8
0
  5
113
  2
*D7
 10
275.269193
 20
210.0
 30
0.0
 11
275.269193
 21
210.0
 31
0.0
  1
DN50
 13
250.269193
 23
246.227305
 33
0.0
 14
300.269193
 24
246.227305
 34
0.0
  3
LC-DIM-L-0140-02-02
  0
DIMENSION
  8
0
  5
114
  2
*D8
 10
200.0
 20
300.72
 30
0.0
 11
200.0
 21
300.72
 31
0.0
 13
225.269193
 23
334.227305
 33
0.0
 14
238.769193
 24
274.227305
 34
0.0
 50
90.0
  3
LC-DIM-L-0140-02-02
  0
DIMENSION
  8
0
  5
115
  2
*D9
 10
378.0
 20
296.227305
 30
0.0
 11
378.0
 21
296.227305
 31
0.0
  1
25
 13
300.269193
 23
306.227305
 33
0.0
 14
310.269193
 24
286.227305
 34
0.0
 50
90.0
  3
LC-DIM-L-0140-02-02
  0
LINE
  8
LC-001-002-----0
  5
118
 10
275.269193
 20
334.227305
 30
0.0
 11
275.269193
 21
244.227305
 31
0.0
  0
LINE
  8
LC-001-002-----0
  6
CONTINUOUS
 62
     1
  5
119
 10
325.269193
 20
334.227305
 30
0.0
 11
225.269193
 21
334.227305
 31
0.0
  0
LINE
  8
LC-001-002-----0
  6
CONTINUOUS
 62
     1
  5
11A
 10
225.269193
 20
334.227305
 30
0.0
 11
225.269193
 21
320.227305
 31
0.0
  0
LINE
  8
LC-001-002-----0
  6
CONTINUOUS
 62
     1
  5
11B
 10
225.269193
 20
320.227305
 30
0.0
 11
228.769193
 21
320.227305
 31
0.0
  0
LINE
  8
LC-001-002-----0
  6
CONTINUOUS
 62
     1
  5
11C
 10
325.269193
 20
320.227305
 30
0.0
 11
325.269193
 21
334.227305
 31
0.0
  0
LINE
  8
LC-001-002-----0
  6
CONTINUOUS
 62
     1
  5
11D
 10
228.269193
 20
334.227305
 30
0.0
 11
228.269193
 21
322.727305
 31
0.0
  0
LINE
  8
LC-001-002-----0
  6
CONTINUOUS
 62
     1
  5
11E
 10
228.269193
 20
327.727305
 30
0.0
 11
236.352526
 21
327.727305
 31
0.0
  0
LINE
  8
LC-001-002-----0
  6
CONTINUOUS
 62
     1
  5
11F
 10
322.269193
 20
322.727305
 30
0.0
 11
322.269193
 21
334.227305
 31
0.0
  0
LINE
  8
LC-001-002-----0
  6
CONTINUOUS
 62
     1
  5
120
 10
300.269193
 20
274.227305
 30
0.0
 11
300.269193
 21
246.227305
 31
0.0
  0
LINE
  8
LC-001-002-----0
  6
CONTINUOUS
 62
     1
  5
121
 10
298.269193
 20
244.227305
 30
0.0
 11
252.269193
 21
244.227305
 31
0.0
  0
LINE
  8
LC-001-002-----0
  6
CONTINUOUS
 62
     1
  5
122
 10
250.269193
 20
246.227305
 30
0.0
 11
250.269193
 21
274.227305
 31
0.0
  0
LINE
  8
LC-001-002-----0
  6
CONTINUOUS
 62
     1
  5
123
 10
252.269193
 20
244.227305
 30
0.0
 11
252.269193
 21
306.227305
 31
0.0
  0
LINE
  8
LC-001-002-----0
  6
CONTINUOUS
 62
     1
  5
124
 10
298.269193
 20
306.227305
 30
0.0
 11
298.269193
 21
244.227305
 31
0.0
  0
LINE
  8
LC-001-002-----0
  6
CONTINUOUS
 62
     1
  5
125
 10
300.269193
 20
276.227305
 30
0.0
 11
300.269193
 21
306.227305
 31
0.0
  0
LINE
  8
LC-001-002-----0
  6
CONTINUOUS
 62
     1
  5
126
 10
300.269193
 20
306.227305
 30
0.0
 11
250.269193
 21
306.227305
 31
0.0
  0
LINE
  8
LC-001-002-----0
  6
CONTINUOUS
 62
     1
  5
127
 10
250.269193
 20
306.227305
 30
0.0
 11
250.269193
 21
276.227305
 31
0.0
  0
LINE
  8
LC-001-002-----0
  6
CONTINUOUS
 62
     1
  5
128
 10
298.269193
 20
244.227305
 30
0.0
 11
300.269193
 21
246.227305
 31
0.0
  0
LINE
  8
LC-001-002-----0
  6
CONTINUOUS
 62
     1
  5
129
 10
252.269193
 20
244.227305
 30
0.0
 11
250.269193
 21
246.227305
 31
0.0
  0
LINE
  8
LC-001-002-----0
  6
CONTINUOUS
 62
     1
  5
12A
 10
228.269193
 20
322.727305
 30
0.0
 11
230.769193
 21
322.727305
 31
0.0
  0
LINE
  8
LC-001-002-----0
  6
CONTINUOUS
 62
     1
  5
12B
 10
321.769193
 20
320.227305
 30
0.0
 11
325.269193
 21
320.227305
 31
0.0
  0
LINE
  8
LC-001-002-----0
  6
CONTINUOUS
 62
     1
  5
12C
 10
311.769193
 20
274.227305
 30
0.0
 11
300.269193
 21
274.227305
 31
0.0
  0
ARC
  8
LC-001-002-----0
  6
CONTINUOUS
 62
     1
  5
12D
 10
311.769193
 20
284.227305
 30
0.0
 40
10.0
 50
270.0
 51
0.0
  0
LINE
  8
LC-001-002-----0
  6
CONTINUOUS
 62
     1
  5
12E
 10
321.769193
 20
320.227305
 30
0.0
 11
321.769193
 21
284.227305
 31
0.0
  0
LINE
  8
LC-001-002-----0
  6
CONTINUOUS
 62
     1
  5
12F
 10
250.269193
 20
274.227305
 30
0.0
 11
238.769193
 21
274.227305
 31
0.0
  0
ARC
  8
LC-001-002-----0
  6
CONTINUOUS
 62
     1
  5
130
 10
238.769193
 20
284.227305
 30
0.0
 40
10.0
 50
179.999848
 51
270.0
  0
LINE
  8
LC-001-002-----0
  6
CONTINUOUS
 62
     1
  5
131
 10
228.769193
 20
284.227305
 30
0.0
 11
228.769193
 21
320.227305
 31
0.0
  0
LINE
  8
LC-001-002-----0
  6
CONTINUOUS
 62
     1
  5
132
 10
250.269193
 20
276.227305
 30
0.0
 11
238.769193
 21
276.227305
 31
0.0
  0
ARC
  8
LC-001-002-----0
  6
CONTINUOUS
 62
     1
  5
133
 10
238.769193
 20
284.227305
 30
0.0
 40
8.0
 50
179.999848
 51
270.0
  0
LINE
  8
LC-001-002-----0
  6
CONTINUOUS
 62
     1
  5
134
 10
230.769193
 20
284.227305
 30
0.0
 11
230.769193
 21
322.727305
 31
0.0
  0
LINE
  8
LC-001-002-----0
  6
CONTINUOUS
 62
     1
  5
135
 10
311.769193
 20
276.227305
 30
0.0
 11
300.269193
 21
276.227305
 31
0.0
  0
ARC
  8
LC-001-002-----0
  6
CONTINUOUS
 62
     1
  5
136
 10
311.769193
 20
284.227305
 30
0.0
 40
8.0
 50
270.0
 51
0.0
  0
LINE
  8
LC-001-002-----0
  6
CONTINUOUS
 62
     1
  5
137
 10
319.769193
 20
322.727305
 30
0.0
 11
319.769193
 21
284.227305
 31
0.0
  0
LINE
  8
LC-001-002-----0
  6
CONTINUOUS
 62
     1
  5
138
 10
321.769193
 20
334.227305
 30
0.0
 11
321.769193
 21
328.227305
 31
0.0
  0
LINE
  8
LC-001-002-----0
  6
CONTINUOUS
 62
     1
  5
139
 10
321.769193
 20
328.227305
 30
0.0
 11
290.269193
 21
328.227305
 31
0.0
  0
LINE
  8
LC-001-002-----0
  6
CONTINUOUS
 62
     1
  5
13A
 10
228.769193
 20
328.227305
 30
0.0
 11
228.769193
 21
334.227305
 31
0.0
  0
LINE
  8
LC-001-002-----0
  6
CONTINUOUS
 62
     1
  5
13B
 10
236.269193
 20
328.227305
 30
0.0
 11
237.769193
 21
319.227305
 31
0.0
  0
LINE
  8
LC-001-002-----0
  6
CONTINUOUS
 62
     1
  5
13C
 10
314.269193
 20
328.227305
 30
0.0
 11
312.769193
 21
319.227305
 31
0.0
  0
LINE
  8
LC-001-002-----0
  6
CONTINUOUS
 62
     1
  5
13D
 10
319.769193
 20
322.727305
 30
0.0
 11
322.269193
 21
322.727305
 31
0.0
  0
LINE
  8
LC-001-002-----0
  6
CONTINUOUS
 62
     1
  5
13E
 10
314.185859
 20
327.727305
 30
0.0
 11
322.269193
 21
327.727305
 31
0.0
  0
LINE
  8
LC-001-002-----0
  6
CONTINUOUS
 62
     1
  5
13F
 10
312.769193
 20
286.227305
 30
0.0
 11
310.269193
 21
286.227305
 31
0.0
  0
LINE
  8
LC-001-002-----0
  6
CONTINUOUS
 62
     1
  5
140
 10
237.769193
 20
286.227305
 30
0.0
 11
237.769193
 21
319.227305
 31
0.0
  0
LINE
  8
LC-001-002-----0
  6
CONTINUOUS
 62
     1
  5
141
 10
312.769193
 20
286.227305
 30
0.0
 11
312.769193
 21
319.227305
 31
0.0
  0
LINE
  8
LC-001-002-----0
  6
CONTINUOUS
 62
     1
  5
142
 10
240.269193
 20
286.227305
 30
0.0
 11
240.269193
 21
318.227305
 31
0.0
  0
LINE
  8
LC-001-002-----0
  6
CONTINUOUS
 62
     1
  5
143
 10
310.269193
 20
286.227305
 30
0.0
 11
310.269193
 21
318.227305
 31
0.0
  0
LINE
  8
LC-001-002-----0
  6
CONTINUOUS
 62
     1
  5
144
 10
240.269193
 20
286.227305
 30
0.0
 11
237.769193
 21
286.227305
 31
0.0
  0
LINE
  8
LC-001-002-----0
  6
CONTINUOUS
 62
     1
  5
145
 10
236.269193
 20
328.227305
 30
0.0
 11
236.269193
 21
334.227305
 31
0.0
  0
LINE
  8
LC-001-002-----0
  6
CONTINUOUS
 62
     1
  5
146
 10
314.269193
 20
328.227305
 30
0.0
 11
314.269193
 21
334.227305
 31
0.0
  0
LINE
  8
LC-001-002-----0
  6
CONTINUOUS
 62
     1
  5
147
 10
290.269193
 20
334.227305
 30
0.0
 11
290.269193
 21
326.854324
 31
0.0
  0
LINE
  8
LC-001-002-----0
  6
CONTINUOUS
 62
     1
  5
148
 10
260.269193
 20
334.227305
 30
0.0
 11
260.269193
 21
326.854324
 31
0.0
  0
LINE
  8
LC-001-002-----0
  6
CONTINUOUS
 62
     1
  5
149
 10
262.269193
 20
330.727305
 30
0.0
 11
288.269193
 21
330.727305
 31
0.0
  0
LINE
  8
LC-001-002-----0
  6
CONTINUOUS
 62
     1
  5
14A
 10
262.269193
 20
330.727305
 30
0.0
 11
262.269193
 21
325.171512
 31
0.0
  0
LINE
  8
LC-001-002-----0
  6
CONTINUOUS
 62
     1
  5
14B
 10
288.269193
 20
330.727305
 30
0.0
 11
288.269193
 21
325.171512
 31
0.0
  0
LINE
  8
LC-001-002-----0
  6
CONTINUOUS
 62
     1
  5
14C
 10
240.269193
 20
318.227305
 30
0.0
 11
310.269193
 21
318.227305
 31
0.0
  0
ARC
  8
LC-001-002-----0
  6
CONTINUOUS
 62
     1
  5
14D
 10
275.269193
 20
245.602305
 30
0.0
 40
82.625
 50
63.008838
 51
79.540345
  0
ARC
  8
LC-001-002-----0
  6
CONTINUOUS
 62
     1
  5
14E
 10
275.269193
 20
245.664805
 30
0.0
 40
80.5625
 50
64.250301
 51
80.713842
  0
LINE
  8
LC-001-002-----0
  6
CONTINUOUS
 62
     1
  5
14F
 10
260.269193
 20
328.227305
 30
0.0
 11
228.769193
 21
328.227305
 31
0.0
  0
ARC
  8
LC-001-002-----0
  6
CONTINUOUS
 62
     1
  5
150
 10
275.269193
 20
245.602305
 30
0.0
 40
82.625
 50
100.459617
 51
116.991429
  0
ARC
  8
LC-001-002-----0
  6
CONTINUOUS
 62
     1
  5
151
 10
275.269193
 20
245.664805
 30
0.0
 40
80.5625
 50
99.28612
 51
115.749966
  0
LINE
  8
LC-001-002-----0
  6
CONTINUOUS
 62
     1
  5
152
 10
262.269193
 20
325.171512
 30
0.0
 11
288.269193
 21
325.171512
 31
0.0
  0
LINE
  8
LC-001-002-----0
  6
CONTINUOUS
  5
153
 10
235.040414
 20
371.754581
 30
0.0
 11
235.040414
 21
386.754581
 31
0.0
  0
LINE
  8
LC-001-002-----0
  6
CONTINUOUS
  5
154
 10
235.040414
 20
371.754581
 30
0.0
 11
250.040414
 21
371.754581
 31
0.0
  0
LINE
  8
LC-001-002-----0
  6
CONTINUOUS
  5
155
 10
235.040414
 20
386.754581
 30
0.0
 11
250.040414
 21
386.754581
 31
0.0
  0
LINE
  8
LC-001-002-----0
  6
CONTINUOUS
  5
156
 10
250.040414
 20
371.754581
 30
0.0
 11
250.040414
 21
386.754581
 31
0.0
  0
ENDSEC
  0
EOF
