  0
SECTION
  2
HEADER
  9
$ACADVER
  1
AC1009
  9
$INSBASE
 10
311.682335
 20
207.507501
 30
0.0
  9
$EXTMIN
 10
311.682335
 20
207.507501
 30
0.0
  9
$EXTMAX
 10
1151.682335
 20
801.507501
 30
0.0
  9
$LIMMIN
 10
311.682335
 20
207.507501
  9
$LIMMAX
 10
1151.682335
 20
801.507501
  9
$ORTHOMODE
 70
     0
  9
$REGENMODE
 70
     1
  9
$FILLMODE
 70
     1
  9
$QTEXTMODE
 70
     0
  9
$MIRRTEXT
 70
     1
  9
$DRAGMODE
 70
     2
  9
$LTSCALE
 40
2.0
  9
$OSMODE
 70
     0
  9
$ATTMODE
 70
     1
  9
$TEXTSIZE
 40
0.2
  9
$TRACEWID
 40
0.05
  9
$TEXTSTYLE
  7
STANDARD
  9
$CLAYER
  8
0
  9
$CELTYPE
  6
BYLAYER
  9
$CECOLOR
 62
     7
  9
$DIMSCALE
 40
2.0
  9
$DIMASZ
 40
3.5
  9
$DIMEXO
 40
0.0625
  9
$DIMDLI
 40
0.38
  9
$DIMRND
 40
0.0
  9
$DIMDLE
 40
0.0
  9
$DIMEXE
 40
0.18
  9
$DIMTP
 40
0.0
  9
$DIMTM
 40
0.0
  9
$DIMTXT
 40
3.5
  9
$DIMCEN
 40
0.09
  9
$DIMTSZ
 40
0.0
  9
$DIMTOL
 70
     0
  9
$DIMLIM
 70
     0
  9
$DIMTIH
 70
     1
  9
$DIMTOH
 70
     1
  9
$DIMSE1
 70
     0
  9
$DIMSE2
 70
     0
  9
$DIMTAD
 70
     1
  9
$DIMZIN
 70
     0
  9
$DIMBLK
  1

  9
$DIMASO
 70
     1
  9
$DIMSHO
 70
     1
  9
$DIMPOST
  1

  9
$DIMAPOST
  1

  9
$DIMALT
 70
     0
  9
$DIMALTD
 70
     2
  9
$DIMALTF
 40
25.4
  9
$DIMLFAC
 40
1.0
  9
$DIMTOFL
 70
     0
  9
$DIMTVP
 40
0.0
  9
$DIMTIX
 70
     0
  9
$DIMSOXD
 70
     0
  9
$DIMSAH
 70
     0
  9
$DIMBLK1
  1

  9
$DIMBLK2
  1

  9
$DIMSTYLE
  2
STANDARD
  9
$DIMCLRD
 70
     0
  9
$DIMCLRE
 70
     0
  9
$DIMCLRT
 70
     0
  9
$DIMTFAC
 40
1.0
  9
$DIMGAP
 40
0.09
  9
$LUNITS
 70
     2
  9
$LUPREC
 70
     2
  9
$AXISMODE
 70
     0
  9
$AXISUNIT
 10
0.0
 20
0.0
  9
$SKETCHINC
 40
0.1
  9
$FILLETRAD
 40
0.0
  9
$AUNITS
 70
     0
  9
$AUPREC
 70
     0
  9
$MENU
  1
acad
  9
$ELEVATION
 40
0.0
  9
$PELEVATION
 40
0.0
  9
$THICKNESS
 40
0.0
  9
$LIMCHECK
 70
     0
  9
$BLIPMODE
 70
     1
  9
$CHAMFERA
 40
0.0
  9
$CHAMFERB
 40
0.0
  9
$SKPOLY
 70
     0
  9
$TDCREATE
 40
0.000000000
  9
$TDUPDATE
 40
0.000000000
  9
$TDINDWG
 40
0.0000000000
  9
$TDUSRTIMER
 40
0.0000000000
  9
$USRTIMER
 70
     1
  9
$ANGBASE
 50
0.0
  9
$ANGDIR
 70
     0
  9
$PDMODE
 70
     0
  9
$PDSIZE
 40
0.0
  9
$PLINEWID
 40
0.0
  9
$COORDS
 70
     0
  9
$SPLFRAME
 70
     0
  9
$SPLINETYPE
 70
     6
  9
$SPLINESEGS
 70
     8
  9
$ATTDIA
 70
     0
  9
$ATTREQ
 70
     1
  9
$HANDLING
 70
     1
  9
$HANDSEED
  5
2B9
  9
$SURFTAB1
 70
     6
  9
$SURFTAB2
 70
     6
  9
$SURFTYPE
 70
     6
  9
$SURFU
 70
     6
  9
$SURFV
 70
     6
  9
$UCSNAME
  2

  9
$UCSORG
 10
0.0
 20
0.0
 30
0.0
  9
$UCSXDIR
 10
1.0
 20
0.0
 30
0.0
  9
$UCSYDIR
 10
0.0
 20
1.0
 30
0.0
  9
$PUCSNAME
  2

  9
$PUCSORG
 10
0.0
 20
0.0
 30
0.0
  9
$PUCSXDIR
 10
1.0
 20
0.0
 30
0.0
  9
$PUCSYDIR
 10
0.0
 20
1.0
 30
0.0
  9
$USERI1
 70
     0
  9
$USERI2
 70
     0
  9
$USERI3
 70
     0
  9
$USERI4
 70
     0
  9
$USERI5
 70
     0
  9
$USERR1
 40
0.0
  9
$USERR2
 40
0.0
  9
$USERR3
 40
0.0
  9
$USERR4
 40
0.0
  9
$USERR5
 40
0.0
  9
$WORLDVIEW
 70
     1
  9
$SHADEDGE
 70
     3
  9
$SHADEDIF
 70
    70
  9
$TILEMODE
 70
     1
  9
$MAXACTVP
 70
    16
  9
$PINSBASE
 10
0.0
 20
0.0
 30
0.0
  9
$PLIMCHECK
 70
     0
  9
$PEXTMIN
 10
1.000000E+20
 20
1.000000E+20
 30
1.000000E+20
  9
$PEXTMAX
 10
-1.000000E+20
 20
-1.000000E+20
 30
-1.000000E+20
  9
$PLIMMIN
 10
311.682335
 20
207.507501
  9
$PLIMMAX
 10
1151.682335
 20
801.507501
  9
$UNITMODE
 70
     0
  9
$VISRETAIN
 70
     0
  9
$PLINEGEN
 70
     1
  9
$PSLTSCALE
 70
     0
  9
$TREEDEPTH
 70
  3020
  9
$DWGCODEPAGE
  3
dos850
  0
ENDSEC
  0
SECTION
  2
TABLES
  0
TABLE
  2
VPORT
 70
     1
  0
VPORT
  2
*ACTIVE
 70
     0
 10
0.0
 20
0.0
 11
1.0
 21
1.0
 12
420.0
 22
297.0
 13
0.0
 23
0.0
 14
1.0
 24
1.0
 15
0.0
 25
0.0
 16
0.0
 26
0.0
 36
1.0
 17
311.682335
 27
207.507501
 37
0.0
 40
594.0
 41
1.604229
 42
50.0
 43
0.0
 44
0.0
 50
0.0
 51
0.0
 71
     0
 72
   100
 73
     1
 74
     1
 75
     0
 76
     0
 77
     0
 78
     0
  0
ENDTAB
  0
TABLE
  2
LTYPE
 70
     4
  0
LTYPE
  2
CONTINUOUS
 70
    64
  3
Solid line
 72
    65
 73
     0
 40
0.0
  0
LTYPE
  2
DASHED
 70
    64
  3
__ __ __ __ __
 72
    65
 73
     2
 40
6.25
 49
5.0
 49
-1.25
  0
LTYPE
  2
DASHDOT
 70
    64
  3
__ . __ . __ . __ . __
 72
    65
 73
     4
 40
7.5
 49
5.0
 49
-1.25
 49
0.0
 49
-1.25
  0
LTYPE
  2
CENTER
 70
    64
  3
__ . __ . __ . __ . __
 72
    65
 73
     4
 40
7.5
 49
5.0
 49
-1.25
 49
0.0
 49
-1.25
  0
ENDTAB
  0
TABLE
  2
LAYER
 70
    10
  0
LAYER
  2
0
 70
     0
 62
     7
  6
CONTINUOUS
  0
LAYER
  2
LC-INFO-1-2-MM-A3-0
 70
     1
 62
    -1
  6
CONTINUOUS
  0
LAYER
  2
LC-004-003-MTH-0
 70
     0
 62
     2
  6
CONTINUOUS
  0
LAYER
  2
LC-003-003-----0
 70
     0
 62
     2
  6
CONTINUOUS
  0
LAYER
  2
LC-005-003-MTG-0
 70
     0
 62
     2
  6
CONTINUOUS
  0
LAYER
  2
LC-006-005-----0
 70
     0
 62
     2
  6
CONTINUOUS
  0
LAYER
  2
LC-002-002-----0
 70
     0
 62
     1
  6
CONTINUOUS
  0
LAYER
  2
LC-007-002-RND-0
 70
     0
 62
     1
  6
CONTINUOUS
  0
LAYER
  2
LC-008-006-MLN-0
 70
     0
 62
     2
  6
CENTER
  0
LAYER
  2
LC-000
 70
     0
 62
     7
  6
CONTINUOUS
  0
ENDTAB
  0
TABLE
  2
STYLE
 70
     3
  0
STYLE
  2
STANDARD
 70
     0
 40
0.0
 41
1.0
 50
0.0
 71
     0
 42
0.0
  3
txt
  4

  0
STYLE
  2
LC-TXTSTYLE-150-400-0-0-A1
 70
    64
 40
0.0
 41
1.0
 50
15.0
 71
     0
 42
3.5
  3
Arial
  4

  0
STYLE
  2
LC-STANDARD
 70
    64
 40
0.0
 41
1.0
 50
0.0
 71
     0
 42
3.5
  3
MONOTXT
  4

  0
ENDTAB
  0
TABLE
  2
VIEW
 70
     0
  0
ENDTAB
  0
TABLE
  2
UCS
 70
     0
  0
ENDTAB
  0
TABLE
  2
APPID
 70
     1
  0
APPID
  2
ACAD
 70
     0
  0
ENDTAB
  0
TABLE
  2
DIMSTYLE
 70
     4
  0
DIMSTYLE
  2
STANDARD
 70
     0
  3

  4

  5

  6

  7

 40
1.0
 41
0.18
 42
0.0625
 43
0.38
 44
0.18
 45
0.0
 46
0.0
 47
0.0
 48
0.0
 71
     0
 72
     0
 73
     1
 74
     1
 75
     0
 76
     0
 77
     0
 78
     0
140
0.18
141
0.09
142
0.0
143
25.4
144
1.0
145
0.0
146
1.0
147
0.09
170
     0
171
     2
172
     0
173
     0
174
     0
175
     0
176
     0
177
     0
178
     0
  0
DIMSTYLE
  2
LC-STANDARD
 70
     0
  3

  4

  5

  6

  7

 40
1.0
 41
3.5
 42
0.0
 43
7.5
 44
1.8
 45
0.0
 46
0.0
 47
0.0
 48
0.0
 71
     0
 72
     0
 73
     0
 74
     0
 75
     0
 76
     0
 77
     1
 78
     8
140
3.5
141
0.0
142
0.0
143
25.4
144
1.0
145
0.0
146
0.71
147
1.5
170
     0
171
     2
172
     1
173
     0
174
     0
175
     0
176
     0
177
     0
178
     3
  0
DIMSTYLE
  2
LC-DIM-L-0140-02-02
 70
     0
  3

  4

  5

  6

  7

 40
2.0
 41
3.5
 42
0.0
 43
7.5
 44
1.8
 45
0.0
 46
0.0
 47
0.0
 48
0.0
 71
     0
 72
     0
 73
     0
 74
     0
 75
     0
 76
     0
 77
     1
 78
     8
140
14.0
141
0.0
142
0.0
143
25.4
144
1.0
145
0.0
146
0.71
147
1.5
170
     0
171
     2
172
     0
173
     0
174
     0
175
     0
176
     2
177
     2
178
     8
  0
DIMSTYLE
  2
LC-DIM-L-0140-01-02
 70
     0
  3

  4

  5

  6

  7

 40
2.0
 41
3.5
 42
0.0
 43
7.5
 44
1.8
 45
0.0
 46
0.0
 47
0.0
 48
0.0
 71
     0
 72
     0
 73
     0
 74
     0
 75
     0
 76
     0
 77
     1
 78
     8
140
14.0
141
0.0
142
0.0
143
25.4
144
1.0
145
0.0
146
0.71
147
1.5
170
     0
171
     2
172
     0
173
     0
174
     0
175
     0
176
     2
177
     2
178
     8
  0
ENDTAB
  0
ENDSEC
  0
SECTION
  2
BLOCKS
  0
BLOCK
  8
0
  5
24
  2
*D0
 70
    65
 10
0.0
 20
0.0
 30
0.0
  3
*D0
  0
LINE
  8
LC-004-003-MTH-0
  6
CONTINUOUS
  5
26
 10
772.842293
 20
602.266899
 30
0.0
 11
879.2
 21
602.266899
 31
0.0
  0
LINE
  8
LC-004-003-MTH-0
  6
CONTINUOUS
  5
27
 10
766.338134
 20
643.266683
 30
0.0
 11
879.2
 21
643.266683
 31
0.0
  0
LINE
  8
LC-003-003-----0
  6
CONTINUOUS
  5
29
 10
866.054733
 20
574.506443
 30
0.0
 11
862.4
 21
602.266899
 31
0.0
  0
LINE
  8
LC-003-003-----0
  6
CONTINUOUS
  5
2A
 10
862.4
 20
602.266899
 30
0.0
 11
858.745267
 21
574.506443
 31
0.0
  0
LINE
  8
LC-003-003-----0
  6
CONTINUOUS
  5
2B
 10
858.745267
 20
574.506443
 30
0.0
 11
866.054733
 21
574.506443
 31
0.0
  0
LINE
  8
LC-003-003-----0
  6
CONTINUOUS
  5
2C
 10
865.104503
 20
574.444161
 30
0.0
 11
862.4
 21
594.986899
 31
0.0
  0
LINE
  8
LC-003-003-----0
  6
CONTINUOUS
  5
2D
 10
862.4
 20
594.986899
 30
0.0
 11
859.695497
 21
574.444161
 31
0.0
  0
LINE
  8
LC-003-003-----0
  6
CONTINUOUS
  5
2E
 10
864.154272
 20
574.38188
 30
0.0
 11
862.4
 21
587.706899
 31
0.0
  0
LINE
  8
LC-003-003-----0
  6
CONTINUOUS
  5
2F
 10
862.4
 20
587.706899
 30
0.0
 11
860.645728
 21
574.38188
 31
0.0
  0
LINE
  8
LC-003-003-----0
  6
CONTINUOUS
  5
30
 10
863.204041
 20
574.319598
 30
0.0
 11
862.4
 21
580.426899
 31
0.0
  0
LINE
  8
LC-003-003-----0
  6
CONTINUOUS
  5
31
 10
862.4
 20
580.426899
 30
0.0
 11
861.595959
 21
574.319598
 31
0.0
  0
LINE
  8
LC-003-003-----0
  6
CONTINUOUS
  5
32
 10
858.745267
 20
671.027139
 30
0.0
 11
862.4
 21
643.266683
 31
0.0
  0
LINE
  8
LC-003-003-----0
  6
CONTINUOUS
  5
33
 10
862.4
 20
643.266683
 30
0.0
 11
866.054733
 21
671.027139
 31
0.0
  0
LINE
  8
LC-003-003-----0
  6
CONTINUOUS
  5
34
 10
866.054733
 20
671.027139
 30
0.0
 11
858.745267
 21
671.027139
 31
0.0
  0
LINE
  8
LC-003-003-----0
  6
CONTINUOUS
  5
35
 10
859.695497
 20
671.089421
 30
0.0
 11
862.4
 21
650.546683
 31
0.0
  0
LINE
  8
LC-003-003-----0
  6
CONTINUOUS
  5
36
 10
862.4
 20
650.546683
 30
0.0
 11
865.104503
 21
671.089421
 31
0.0
  0
LINE
  8
LC-003-003-----0
  6
CONTINUOUS
  5
37
 10
860.645728
 20
671.151702
 30
0.0
 11
862.4
 21
657.826683
 31
0.0
  0
LINE
  8
LC-003-003-----0
  6
CONTINUOUS
  5
38
 10
862.4
 20
657.826683
 30
0.0
 11
864.154272
 21
671.151702
 31
0.0
  0
LINE
  8
LC-003-003-----0
  6
CONTINUOUS
  5
39
 10
861.595959
 20
671.213984
 30
0.0
 11
862.4
 21
665.106683
 31
0.0
  0
LINE
  8
LC-003-003-----0
  6
CONTINUOUS
  5
3A
 10
862.4
 20
665.106683
 30
0.0
 11
863.204041
 21
671.213984
 31
0.0
  0
LINE
  8
LC-005-003-MTG-0
  6
CONTINUOUS
  5
3C
 10
862.4
 20
518.902499
 30
0.0
 11
862.4
 21
682.466683
 31
0.0
  0
TEXT
  8
LC-003-003-----0
  6
CONTINUOUS
 62
     8
  5
3D
 10
854.572446
 20
533.330659
 30
0.0
 40
28.0
  1
41
 50
90.0
 41
0.9
 51
15.0
  7
LC-TXTSTYLE-150-400-0-0-A0
 72
     2
 11
854.572446
 21
568.535059
 31
0.0
  0
ENDBLK
  8
0
  5
3E
  0
BLOCK
  8
0
  5
40
  2
*D1
 70
    65
 10
0.0
 20
0.0
 30
0.0
  3
*D1
  0
LINE
  8
LC-004-003-MTH-0
  6
CONTINUOUS
  5
41
 10
767.337232
 20
614.76708
 30
0.0
 11
840.0
 21
614.76708
 31
0.0
  0
LINE
  8
LC-004-003-MTH-0
  6
CONTINUOUS
  5
42
 10
766.338134
 20
643.266683
 30
0.0
 11
840.0
 21
643.266683
 31
0.0
  0
LINE
  8
LC-003-003-----0
  6
CONTINUOUS
  5
43
 10
826.854733
 20
587.006624
 30
0.0
 11
823.2
 21
614.76708
 31
0.0
  0
LINE
  8
LC-003-003-----0
  6
CONTINUOUS
  5
44
 10
823.2
 20
614.76708
 30
0.0
 11
819.545267
 21
587.006624
 31
0.0
  0
LINE
  8
LC-003-003-----0
  6
CONTINUOUS
  5
45
 10
819.545267
 20
587.006624
 30
0.0
 11
826.854733
 21
587.006624
 31
0.0
  0
LINE
  8
LC-003-003-----0
  6
CONTINUOUS
  5
46
 10
825.904503
 20
586.944343
 30
0.0
 11
823.2
 21
607.48708
 31
0.0
  0
LINE
  8
LC-003-003-----0
  6
CONTINUOUS
  5
47
 10
823.2
 20
607.48708
 30
0.0
 11
820.495497
 21
586.944343
 31
0.0
  0
LINE
  8
LC-003-003-----0
  6
CONTINUOUS
  5
48
 10
824.954272
 20
586.882061
 30
0.0
 11
823.2
 21
600.20708
 31
0.0
  0
LINE
  8
LC-003-003-----0
  6
CONTINUOUS
  5
49
 10
823.2
 20
600.20708
 30
0.0
 11
821.445728
 21
586.882061
 31
0.0
  0
LINE
  8
LC-003-003-----0
  6
CONTINUOUS
  5
4A
 10
824.004041
 20
586.81978
 30
0.0
 11
823.2
 21
592.92708
 31
0.0
  0
LINE
  8
LC-003-003-----0
  6
CONTINUOUS
  5
4B
 10
823.2
 20
592.92708
 30
0.0
 11
822.395959
 21
586.81978
 31
0.0
  0
LINE
  8
LC-003-003-----0
  6
CONTINUOUS
  5
4C
 10
819.545267
 20
671.027139
 30
0.0
 11
823.2
 21
643.266683
 31
0.0
  0
LINE
  8
LC-003-003-----0
  6
CONTINUOUS
  5
4D
 10
823.2
 20
643.266683
 30
0.0
 11
826.854733
 21
671.027139
 31
0.0
  0
LINE
  8
LC-003-003-----0
  6
CONTINUOUS
  5
4E
 10
826.854733
 20
671.027139
 30
0.0
 11
819.545267
 21
671.027139
 31
0.0
  0
LINE
  8
LC-003-003-----0
  6
CONTINUOUS
  5
4F
 10
820.495497
 20
671.089421
 30
0.0
 11
823.2
 21
650.546683
 31
0.0
  0
LINE
  8
LC-003-003-----0
  6
CONTINUOUS
  5
50
 10
823.2
 20
650.546683
 30
0.0
 11
825.904503
 21
671.089421
 31
0.0
  0
LINE
  8
LC-003-003-----0
  6
CONTINUOUS
  5
51
 10
821.445728
 20
671.151702
 30
0.0
 11
823.2
 21
657.826683
 31
0.0
  0
LINE
  8
LC-003-003-----0
  6
CONTINUOUS
  5
52
 10
823.2
 20
657.826683
 30
0.0
 11
824.954272
 21
671.151702
 31
0.0
  0
LINE
  8
LC-003-003-----0
  6
CONTINUOUS
  5
53
 10
822.395959
 20
671.213984
 30
0.0
 11
823.2
 21
665.106683
 31
0.0
  0
LINE
  8
LC-003-003-----0
  6
CONTINUOUS
  5
54
 10
823.2
 20
665.106683
 30
0.0
 11
824.004041
 21
671.213984
 31
0.0
  0
LINE
  8
LC-005-003-MTG-0
  6
CONTINUOUS
  5
55
 10
823.2
 20
504.99938
 30
0.0
 11
823.2
 21
682.466683
 31
0.0
  0
TEXT
  8
LC-003-003-----0
  6
CONTINUOUS
 62
     8
  5
56
 10
815.372446
 20
519.42754
 30
0.0
 40
28.0
  1
28,5
 50
90.0
 41
0.9
 51
15.0
  7
LC-TXTSTYLE-150-400-0-0-A0
 72
     2
 11
815.372446
 21
581.03524
 31
0.0
  0
ENDBLK
  8
0
  5
57
  0
BLOCK
  8
0
  5
59
  2
*X2
 70
    65
 10
611.838156
 20
602.266891
 30
0.0
  3
*X2
  0
LINE
  8
LC-006-005-----0
  6
CONTINUOUS
  5
5B
 10
771.972575
 20
602.266947
 30
0.0
 11
773.609372
 21
603.903744
 31
0.0
  0
LINE
  8
LC-006-005-----0
  6
CONTINUOUS
  5
5C
 10
767.33657
 20
606.116224
 30
0.0
 11
770.338195
 21
609.117849
 31
0.0
  0
LINE
  8
LC-006-005-----0
  6
CONTINUOUS
  5
5D
 10
767.33722
 20
614.602155
 30
0.0
 11
770.338183
 21
617.603119
 31
0.0
  0
LINE
  8
LC-006-005-----0
  6
CONTINUOUS
  5
5E
 10
767.337869
 20
623.088086
 30
0.0
 11
775.338168
 21
631.088385
 31
0.0
  0
LINE
  8
LC-006-005-----0
  6
CONTINUOUS
  5
5F
 10
775.516457
 20
631.266674
 30
0.0
 11
782.691867
 21
638.442084
 31
0.0
  0
LINE
  8
LC-006-005-----0
  6
CONTINUOUS
  5
60
 10
767.031184
 20
631.266682
 30
0.0
 11
778.010027
 21
642.245525
 31
0.0
  0
LINE
  8
LC-006-005-----0
  6
CONTINUOUS
  5
61
 10
758.545915
 20
631.266695
 30
0.0
 11
770.207388
 21
642.928167
 31
0.0
  0
LINE
  8
LC-006-005-----0
  6
CONTINUOUS
  5
62
 10
750.060646
 20
631.266707
 30
0.0
 11
762.060622
 21
643.266683
 31
0.0
  0
LINE
  8
LC-006-005-----0
  6
CONTINUOUS
  5
63
 10
741.575378
 20
631.26672
 30
0.0
 11
753.575341
 21
643.266683
 31
0.0
  0
LINE
  8
LC-006-005-----0
  6
CONTINUOUS
  5
64
 10
733.090109
 20
631.266732
 30
0.0
 11
745.09006
 21
643.266683
 31
0.0
  0
LINE
  8
LC-006-005-----0
  6
CONTINUOUS
  5
65
 10
724.60484
 20
631.266745
 30
0.0
 11
736.604778
 21
643.266683
 31
0.0
  0
LINE
  8
LC-006-005-----0
  6
CONTINUOUS
  5
66
 10
716.119678
 20
631.266864
 30
0.0
 11
728.119497
 21
643.266683
 31
0.0
  0
LINE
  8
LC-006-005-----0
  6
CONTINUOUS
  5
67
 10
707.634361
 20
631.266828
 30
0.0
 11
719.634216
 21
643.266683
 31
0.0
  0
LINE
  8
LC-006-005-----0
  6
CONTINUOUS
  5
68
 10
701.338162
 20
633.455911
 30
0.0
 11
711.148934
 21
643.266683
 31
0.0
  0
LINE
  8
LC-006-005-----0
  6
CONTINUOUS
  5
69
 10
690.663726
 20
631.266757
 30
0.0
 11
693.338161
 21
633.941191
 31
0.0
  0
LINE
  8
LC-006-005-----0
  6
CONTINUOUS
  5
6A
 10
700.163653
 20
640.766683
 30
0.0
 11
702.663653
 21
643.266683
 31
0.0
  0
LINE
  8
LC-006-005-----0
  6
CONTINUOUS
  5
6B
 10
682.178409
 20
631.266721
 30
0.0
 11
694.178371
 21
643.266683
 31
0.0
  0
LINE
  8
LC-006-005-----0
  6
CONTINUOUS
  5
6C
 10
673.693092
 20
631.266685
 30
0.0
 11
685.69309
 21
643.266683
 31
0.0
  0
LINE
  8
LC-006-005-----0
  6
CONTINUOUS
  5
6D
 10
665.207775
 20
631.266649
 30
0.0
 11
677.207809
 21
643.266683
 31
0.0
  0
LINE
  8
LC-006-005-----0
  6
CONTINUOUS
  5
6E
 10
656.722458
 20
631.266614
 30
0.0
 11
668.722527
 21
643.266683
 31
0.0
  0
LINE
  8
LC-006-005-----0
  6
CONTINUOUS
  5
6F
 10
648.237141
 20
631.266578
 30
0.0
 11
660.237246
 21
643.266683
 31
0.0
  0
LINE
  8
LC-006-005-----0
  6
CONTINUOUS
  5
70
 10
624.338186
 20
615.852904
 30
0.0
 11
627.338818
 21
618.853537
 31
0.0
  0
LINE
  8
LC-006-005-----0
  6
CONTINUOUS
  5
71
 10
639.751823
 20
631.266542
 30
0.0
 11
651.751965
 21
643.266683
 31
0.0
  0
LINE
  8
LC-006-005-----0
  6
CONTINUOUS
  5
72
 10
623.766748
 20
623.766748
 30
0.0
 11
627.338146
 21
627.338146
 31
0.0
  0
LINE
  8
LC-006-005-----0
  6
CONTINUOUS
  5
73
 10
631.266506
 20
631.266506
 30
0.0
 11
643.266683
 21
643.266683
 31
0.0
  0
LINE
  8
LC-006-005-----0
  6
CONTINUOUS
  5
74
 10
619.338162
 20
627.823443
 30
0.0
 11
634.781402
 21
643.266683
 31
0.0
  0
LINE
  8
LC-006-005-----0
  6
CONTINUOUS
  5
75
 10
614.494371
 20
631.464933
 30
0.0
 11
626.100122
 21
643.070685
 31
0.0
  0
LINE
  8
LC-006-005-----0
  6
CONTINUOUS
  5
76
 10
611.838438
 20
637.294282
 30
0.0
 11
616.801271
 21
642.257115
 31
0.0
  0
ENDBLK
  8
0
  5
77
  0
BLOCK
  8
0
  5
79
  2
*D3
 70
    65
 10
0.0
 20
0.0
 30
0.0
  3
*D3
  0
LINE
  8
LC-004-003-MTH-0
  6
CONTINUOUS
  5
7A
 10
619.338162
 20
623.266748
 30
0.0
 11
619.338284
 21
534.466748
 31
0.0
  0
LINE
  8
LC-004-003-MTH-0
  6
CONTINUOUS
  5
7B
 10
775.338188
 20
623.266962
 30
0.0
 11
775.33831
 21
534.466962
 31
0.0
  0
LINE
  8
LC-005-003-MTG-0
  6
CONTINUOUS
  5
7C
 10
619.338261
 20
551.266748
 30
0.0
 11
775.338287
 21
551.266962
 31
0.0
  0
LINE
  8
LC-003-003-----0
  6
CONTINUOUS
  5
7D
 10
647.098712
 20
554.92152
 30
0.0
 11
619.338261
 21
551.266748
 31
0.0
  0
LINE
  8
LC-003-003-----0
  6
CONTINUOUS
  5
7E
 10
619.338261
 20
551.266748
 30
0.0
 11
647.098722
 21
547.612053
 31
0.0
  0
LINE
  8
LC-003-003-----0
  6
CONTINUOUS
  5
7F
 10
647.098722
 20
547.612053
 30
0.0
 11
647.098712
 21
554.92152
 31
0.0
  0
LINE
  8
LC-003-003-----0
  6
CONTINUOUS
  5
80
 10
647.160994
 20
553.971289
 30
0.0
 11
626.618261
 21
551.266758
 31
0.0
  0
LINE
  8
LC-003-003-----0
  6
CONTINUOUS
  5
81
 10
626.618261
 20
551.266758
 30
0.0
 11
647.161002
 21
548.562284
 31
0.0
  0
LINE
  8
LC-003-003-----0
  6
CONTINUOUS
  5
82
 10
647.223277
 20
553.021059
 30
0.0
 11
633.898261
 21
551.266768
 31
0.0
  0
LINE
  8
LC-003-003-----0
  6
CONTINUOUS
  5
83
 10
633.898261
 20
551.266768
 30
0.0
 11
647.223282
 21
549.512515
 31
0.0
  0
LINE
  8
LC-003-003-----0
  6
CONTINUOUS
  5
84
 10
647.28556
 20
552.070828
 30
0.0
 11
641.178261
 21
551.266778
 31
0.0
  0
LINE
  8
LC-003-003-----0
  6
CONTINUOUS
  5
85
 10
641.178261
 20
551.266778
 30
0.0
 11
647.285562
 21
550.462745
 31
0.0
  0
LINE
  8
LC-003-003-----0
  6
CONTINUOUS
  5
86
 10
747.577836
 20
547.612191
 30
0.0
 11
775.338287
 21
551.266962
 31
0.0
  0
LINE
  8
LC-003-003-----0
  6
CONTINUOUS
  5
87
 10
775.338287
 20
551.266962
 30
0.0
 11
747.577826
 21
554.921658
 31
0.0
  0
LINE
  8
LC-003-003-----0
  6
CONTINUOUS
  5
88
 10
747.577826
 20
554.921658
 30
0.0
 11
747.577836
 21
547.612191
 31
0.0
  0
LINE
  8
LC-003-003-----0
  6
CONTINUOUS
  5
89
 10
747.515553
 20
548.562422
 30
0.0
 11
768.058287
 21
551.266952
 31
0.0
  0
LINE
  8
LC-003-003-----0
  6
CONTINUOUS
  5
8A
 10
768.058287
 20
551.266952
 30
0.0
 11
747.515546
 21
553.971427
 31
0.0
  0
LINE
  8
LC-003-003-----0
  6
CONTINUOUS
  5
8B
 10
747.45327
 20
549.512652
 30
0.0
 11
760.778287
 21
551.266942
 31
0.0
  0
LINE
  8
LC-003-003-----0
  6
CONTINUOUS
  5
8C
 10
760.778287
 20
551.266942
 30
0.0
 11
747.453266
 21
553.021196
 31
0.0
  0
LINE
  8
LC-003-003-----0
  6
CONTINUOUS
  5
8D
 10
747.390988
 20
550.462883
 30
0.0
 11
753.498287
 21
551.266932
 31
0.0
  0
LINE
  8
LC-003-003-----0
  6
CONTINUOUS
  5
8E
 10
753.498287
 20
551.266932
 30
0.0
 11
747.390985
 21
552.070965
 31
0.0
  0
TEXT
  8
LC-003-003-----0
  6
CONTINUOUS
 62
     8
  5
8F
 10
661.766432
 20
559.094341
 30
0.0
 40
28.0
  1
Ø156
 41
0.9
 51
15.0
  7
LC-TXTSTYLE-150-400-0-0-A0
  0
ENDBLK
  8
0
  5
90
  0
BLOCK
  8
0
  5
92
  2
*D4
 70
    65
 10
0.0
 20
0.0
 30
0.0
  3
*D4
  0
LINE
  8
LC-004-003-MTH-0
  6
CONTINUOUS
  5
93
 10
611.838156
 20
637.241235
 30
0.0
 11
611.838093
 21
683.200839
 31
0.0
  0
LINE
  8
LC-004-003-MTH-0
  6
CONTINUOUS
  5
94
 10
782.838156
 20
637.241469
 30
0.0
 11
782.838093
 21
683.201074
 31
0.0
  0
LINE
  8
LC-005-003-MTG-0
  6
CONTINUOUS
  5
95
 10
611.838116
 20
666.400839
 30
0.0
 11
782.838116
 21
666.401074
 31
0.0
  0
LINE
  8
LC-003-003-----0
  6
CONTINUOUS
  5
96
 10
639.598568
 20
670.055611
 30
0.0
 11
611.838116
 21
666.400839
 31
0.0
  0
LINE
  8
LC-003-003-----0
  6
CONTINUOUS
  5
97
 10
611.838116
 20
666.400839
 30
0.0
 11
639.598578
 21
662.746144
 31
0.0
  0
LINE
  8
LC-003-003-----0
  6
CONTINUOUS
  5
98
 10
639.598578
 20
662.746144
 30
0.0
 11
639.598568
 21
670.055611
 31
0.0
  0
LINE
  8
LC-003-003-----0
  6
CONTINUOUS
  5
99
 10
639.66085
 20
669.10538
 30
0.0
 11
619.118116
 21
666.400849
 31
0.0
  0
LINE
  8
LC-003-003-----0
  6
CONTINUOUS
  5
9A
 10
619.118116
 20
666.400849
 30
0.0
 11
639.660858
 21
663.696375
 31
0.0
  0
LINE
  8
LC-003-003-----0
  6
CONTINUOUS
  5
9B
 10
639.723133
 20
668.15515
 30
0.0
 11
626.398116
 21
666.400859
 31
0.0
  0
LINE
  8
LC-003-003-----0
  6
CONTINUOUS
  5
9C
 10
626.398116
 20
666.400859
 30
0.0
 11
639.723138
 21
664.646605
 31
0.0
  0
LINE
  8
LC-003-003-----0
  6
CONTINUOUS
  5
9D
 10
639.785416
 20
667.204919
 30
0.0
 11
633.678116
 21
666.400869
 31
0.0
  0
LINE
  8
LC-003-003-----0
  6
CONTINUOUS
  5
9E
 10
633.678116
 20
666.400869
 30
0.0
 11
639.785418
 21
665.596836
 31
0.0
  0
LINE
  8
LC-003-003-----0
  6
CONTINUOUS
  5
9F
 10
755.077665
 20
662.746302
 30
0.0
 11
782.838116
 21
666.401074
 31
0.0
  0
LINE
  8
LC-003-003-----0
  6
CONTINUOUS
  5
A0
 10
782.838116
 20
666.401074
 30
0.0
 11
755.077655
 21
670.055769
 31
0.0
  0
LINE
  8
LC-003-003-----0
  6
CONTINUOUS
  5
A1
 10
755.077655
 20
670.055769
 30
0.0
 11
755.077665
 21
662.746302
 31
0.0
  0
LINE
  8
LC-003-003-----0
  6
CONTINUOUS
  5
A2
 10
755.015383
 20
663.696533
 30
0.0
 11
775.558116
 21
666.401064
 31
0.0
  0
LINE
  8
LC-003-003-----0
  6
CONTINUOUS
  5
A3
 10
775.558116
 20
666.401064
 30
0.0
 11
755.015375
 21
669.105538
 31
0.0
  0
LINE
  8
LC-003-003-----0
  6
CONTINUOUS
  5
A4
 10
754.9531
 20
664.646764
 30
0.0
 11
768.278116
 21
666.401054
 31
0.0
  0
LINE
  8
LC-003-003-----0
  6
CONTINUOUS
  5
A5
 10
768.278116
 20
666.401054
 30
0.0
 11
754.953095
 21
668.155308
 31
0.0
  0
LINE
  8
LC-003-003-----0
  6
CONTINUOUS
  5
A6
 10
754.890817
 20
665.596994
 30
0.0
 11
760.998116
 21
666.401044
 31
0.0
  0
LINE
  8
LC-003-003-----0
  6
CONTINUOUS
  5
A7
 10
760.998116
 20
666.401044
 30
0.0
 11
754.890815
 21
667.205077
 31
0.0
  0
TEXT
  8
LC-003-003-----0
  6
CONTINUOUS
 62
     8
  5
A8
 10
663.414838
 20
674.22851
 30
0.0
 40
28.0
  1
Ø171
 41
0.9
 51
15.0
  7
LC-TXTSTYLE-150-400-0-0-A0
 72
     1
 11
701.686288
 21
674.22851
 31
0.0
  0
ENDBLK
  8
0
  5
A9
  0
BLOCK
  8
0
  5
AB
  2
BLK1
 70
    64
 10
0.0
 20
0.0
 30
0.0
  3
BLK1
  0
ARC
  8
LC-002-002-----0
  6
CONTINUOUS
  5
AD
 10
650.439446
 20
603.827221
 30
0.0
 40
0.44387
 50
97.887435
 51
160.684147
  0
ARC
  8
LC-002-002-----0
  6
CONTINUOUS
  5
AE
 10
651.484881
 20
603.297887
 30
0.0
 40
1.612891
 50
155.214685
 51
181.095634
  0
ARC
  8
LC-002-002-----0
  6
CONTINUOUS
  5
AF
 10
651.484875
 20
603.236209
 30
0.0
 40
1.612885
 50
178.904466
 51
204.785478
  0
ARC
  8
LC-002-002-----0
  6
CONTINUOUS
  5
B0
 10
650.439444
 20
602.706873
 30
0.0
 40
0.443866
 50
199.316004
 51
262.113057
  0
ENDBLK
  8
0
  5
B1
  0
ENDSEC
  0
SECTION
  2
ENTITIES
  0
VIEWPORT
  8
LC-000
  5
2B5
 67
     1
 68
     1
 10
420.0
 20
297.0
 30
0.0
 40
840.0
 41
594.0
 69
     1
1001
ACAD
1000
MVIEW
1002
{
1070
    16
1010
0.0
1020
0.0
1030
0.0
1010
0.0
1020
0.0
1030
1.0
1040
0.0
1040
594.0
1040
420.0
1040
297.0
1040
50.0
1040
0.0
1040
0.0
1070
     0
1070
   100
1070
     1
1070
     1
1070
     0
1070
     0
1070
     0
1070
     0
1040
0.0
1040
0.0
1040
0.0
1040
1.0
1040
1.0
1040
0.0
1040
0.0
1070
     0
1002
{
1002
}
1002
}
  0
VIEWPORT
  8
0
  5
2B6
 67
     1
 68
     1
 10
0.0
 20
0.0
 30
0.0
 40
0.0
 41
0.0
 69
     1
1001
ACAD
1000
MVIEW
1002
{
1070
    16
1010
0.0
1020
0.0
1030
0.0
1010
0.0
1020
0.0
1030
1.0
1040
0.0
1040
594.0
1040
0.0
1040
0.0
1040
50.0
1040
0.0
1040
0.0
1070
     0
1070
   100
1070
     0
1070
     1
1070
     0
1070
     0
1070
     0
1070
     0
1040
0.0
1040
0.0
1040
0.0
1040
0.5
1040
0.5
1040
0.5
1040
0.5
1070
     0
1002
{
1002
}
1002
}
  0
DIMENSION
  8
LC-003-003-----0
  6
CONTINUOUS
  5
B2
  2
*D0
 10
862.4
 20
555.591501
 30
0.0
 11
862.4
 21
555.591501
 31
0.0
 13
766.338134
 23
643.266683
 33
0.0
 14
772.842293
 24
602.266899
 34
0.0
 50
90.0
  3
LC-DIM-L-0140-02-02
  0
DIMENSION
  8
LC-003-003-----0
  6
CONTINUOUS
  5
B3
  2
*D1
 10
823.2
 20
555.591501
 30
0.0
 11
823.2
 21
555.591501
 31
0.0
 13
766.338134
 23
643.266683
 33
0.0
 14
767.337232
 24
614.76708
 34
0.0
 50
90.0
  3
LC-DIM-L-0140-02-02
  0
INSERT
  8
LC-006-005-----0
  6
CONTINUOUS
  5
B4
  2
*X2
 10
611.838156
 20
602.266891
 30
0.0
  0
DIMENSION
  8
LC-003-003-----0
  6
CONTINUOUS
  5
B5
  2
*D3
 10
658.56059
 20
551.266802
 30
0.0
 11
658.56059
 21
551.266802
 31
0.0
 70
     1
  1
%%c<>
 13
619.338162
 23
623.266748
 33
0.0
 14
775.338188
 24
623.266962
 34
0.0
  3
LC-DIM-L-0140-01-02
  0
DIMENSION
  8
LC-003-003-----0
  6
CONTINUOUS
  5
B6
  2
*D4
 10
697.338116
 20
666.400957
 30
0.0
 11
697.338116
 21
666.400957
 31
0.0
 70
     1
  1
%%c<>
 13
611.838156
 23
637.241235
 33
0.0
 14
782.838156
 24
637.241469
 34
0.0
  3
LC-DIM-L-0140-01-02
  0
INSERT
  8
LC-002-002-----0
  6
CONTINUOUS
  5
B7
  2
BLK1
 10
0.0
 20
0.0
 30
0.0
  0
LINE
  8
LC-002-002-----0
  6
CONTINUOUS
  5
B8
 10
1032.93134
 20
617.266934
 30
0.0
 11
1032.614543
 21
617.266934
 31
0.0
  0
LINE
  8
LC-002-002-----0
  6
DASHED
 62
     2
  5
BA
 10
1032.614543
 20
640.766934
 30
0.0
 11
1029.386979
 21
640.766934
 31
0.0
  0
ARC
  8
LC-002-002-----0
  6
DASHED
 62
     2
  5
BB
 10
957.338826
 20
629.016934
 30
0.0
 40
72.999992
 50
348.822606
 51
351.177394
  0
LINE
  8
LC-002-002-----0
  6
CONTINUOUS
  5
BC
 10
1032.93134
 20
640.766934
 30
0.0
 11
1032.614543
 21
640.766934
 31
0.0
  0
LINE
  8
LC-002-002-----0
  6
DASHED
 62
     2
  5
BD
 10
1032.614543
 20
617.266934
 30
0.0
 11
1029.386979
 21
617.266934
 31
0.0
  0
ARC
  8
LC-002-002-----0
  6
CONTINUOUS
  5
BE
 10
957.338826
 20
629.016934
 30
0.0
 40
72.999992
 50
41.177394
 51
48.822606
  0
ARC
  8
LC-002-002-----0
  6
CONTINUOUS
  5
BF
 10
957.338826
 20
629.016934
 30
0.0
 40
72.999992
 50
31.177394
 51
38.822606
  0
ARC
  8
LC-002-002-----0
  6
CONTINUOUS
  5
C0
 10
957.338826
 20
629.016934
 30
0.0
 40
72.999992
 50
21.177394
 51
28.822606
  0
ARC
  8
LC-002-002-----0
  6
CONTINUOUS
  5
C1
 10
957.338826
 20
629.016934
 30
0.0
 40
72.999992
 50
1.177394
 51
8.822606
  0
ARC
  8
LC-002-002-----0
  6
CONTINUOUS
  5
C2
 10
957.338826
 20
629.016934
 30
0.0
 40
71.000008
 50
1.210564
 51
8.789436
  0
ARC
  8
LC-002-002-----0
  6
CONTINUOUS
  5
C3
 10
957.338826
 20
629.016934
 30
0.0
 40
72.999992
 50
11.177394
 51
18.822606
  0
ARC
  8
LC-002-002-----0
  6
CONTINUOUS
  5
C4
 10
957.338826
 20
629.016934
 30
0.0
 40
72.999992
 50
351.177394
 51
358.822606
  0
ARC
  8
LC-002-002-----0
  6
DASHED
 62
     2
  5
C5
 10
957.338826
 20
629.016934
 30
0.0
 40
71.000008
 50
348.789436
 51
351.210564
  0
ARC
  8
LC-002-002-----0
  6
CONTINUOUS
  5
C6
 10
957.338826
 20
629.016934
 30
0.0
 40
71.000008
 50
341.210564
 51
348.789436
  0
ARC
  8
LC-002-002-----0
  6
DASHED
 62
     2
  5
C7
 10
957.338826
 20
629.016934
 30
0.0
 40
72.999992
 50
358.822606
 51
1.177394
  0
ARC
  8
LC-002-002-----0
  6
DASHED
 62
     2
  5
C8
 10
957.338826
 20
629.016934
 30
0.0
 40
72.999992
 50
8.822606
 51
11.177394
  0
ARC
  8
LC-002-002-----0
  6
DASHED
 62
     2
  5
C9
 10
957.338826
 20
629.016934
 30
0.0
 40
72.999992
 50
18.822606
 51
21.177394
  0
ARC
  8
LC-002-002-----0
  6
DASHED
 62
     2
  5
CA
 10
957.338826
 20
629.016934
 30
0.0
 40
72.999992
 50
28.822606
 51
31.177394
  0
ARC
  8
LC-002-002-----0
  6
DASHED
 62
     2
  5
CB
 10
957.338826
 20
629.016934
 30
0.0
 40
72.999992
 50
38.822606
 51
41.177394
  0
ARC
  8
LC-002-002-----0
  6
DASHED
 62
     2
  5
CC
 10
957.338826
 20
629.016934
 30
0.0
 40
72.999992
 50
48.822606
 51
51.177394
  0
ARC
  8
LC-002-002-----0
  6
DASHED
 62
     2
  5
CD
 10
957.338826
 20
629.016934
 30
0.0
 40
72.999992
 50
58.822606
 51
61.177394
  0
ARC
  8
LC-002-002-----0
  6
DASHED
 62
     2
  5
CE
 10
957.338826
 20
629.016934
 30
0.0
 40
72.999992
 50
68.822606
 51
71.177394
  0
ARC
  8
LC-002-002-----0
  6
DASHED
 62
     2
  5
CF
 10
957.338826
 20
629.016934
 30
0.0
 40
72.999992
 50
78.822606
 51
81.177394
  0
ARC
  8
LC-002-002-----0
  6
DASHED
 62
     2
  5
D0
 10
957.338826
 20
629.016934
 30
0.0
 40
72.999992
 50
88.822606
 51
91.177394
  0
ARC
  8
LC-002-002-----0
  6
DASHED
 62
     2
  5
D1
 10
957.338826
 20
629.016934
 30
0.0
 40
72.999992
 50
98.822606
 51
101.177394
  0
ARC
  8
LC-002-002-----0
  6
DASHED
 62
     2
  5
D2
 10
957.338826
 20
629.016934
 30
0.0
 40
72.999992
 50
108.822606
 51
111.177394
  0
ARC
  8
LC-002-002-----0
  6
DASHED
 62
     2
  5
D3
 10
957.338826
 20
629.016934
 30
0.0
 40
72.999992
 50
118.822606
 51
121.177394
  0
ARC
  8
LC-002-002-----0
  6
DASHED
 62
     2
  5
D4
 10
957.338826
 20
629.016934
 30
0.0
 40
72.999992
 50
128.822606
 51
131.177394
  0
ARC
  8
LC-002-002-----0
  6
DASHED
 62
     2
  5
D5
 10
957.338826
 20
629.016934
 30
0.0
 40
72.999992
 50
138.822606
 51
141.177394
  0
ARC
  8
LC-002-002-----0
  6
DASHED
 62
     2
  5
D6
 10
957.338826
 20
629.016934
 30
0.0
 40
72.999992
 50
148.822606
 51
151.177394
  0
ARC
  8
LC-002-002-----0
  6
DASHED
 62
     2
  5
D7
 10
957.338826
 20
629.016934
 30
0.0
 40
72.999992
 50
158.822606
 51
161.177394
  0
ARC
  8
LC-002-002-----0
  6
DASHED
 62
     2
  5
D8
 10
957.338826
 20
629.016934
 30
0.0
 40
72.999992
 50
168.822606
 51
171.177394
  0
ARC
  8
LC-002-002-----0
  6
DASHED
 62
     2
  5
D9
 10
957.338826
 20
629.016934
 30
0.0
 40
72.999992
 50
178.822606
 51
181.177394
  0
ARC
  8
LC-002-002-----0
  6
DASHED
 62
     2
  5
DA
 10
957.338826
 20
629.016934
 30
0.0
 40
72.999992
 50
188.822606
 51
191.177394
  0
ARC
  8
LC-002-002-----0
  6
DASHED
 62
     2
  5
DB
 10
957.338826
 20
629.016934
 30
0.0
 40
72.999992
 50
198.822606
 51
201.177394
  0
ARC
  8
LC-002-002-----0
  6
DASHED
 62
     2
  5
DC
 10
957.338826
 20
629.016934
 30
0.0
 40
72.999992
 50
208.822606
 51
211.177394
  0
ARC
  8
LC-002-002-----0
  6
DASHED
 62
     2
  5
DD
 10
957.338826
 20
629.016934
 30
0.0
 40
72.999992
 50
218.822606
 51
221.177394
  0
ARC
  8
LC-002-002-----0
  6
DASHED
 62
     2
  5
DE
 10
957.338826
 20
629.016934
 30
0.0
 40
72.999992
 50
228.822606
 51
231.177394
  0
ARC
  8
LC-002-002-----0
  6
DASHED
 62
     2
  5
DF
 10
957.338826
 20
629.016934
 30
0.0
 40
72.999992
 50
238.822606
 51
241.177394
  0
ARC
  8
LC-002-002-----0
  6
DASHED
 62
     2
  5
E0
 10
957.338826
 20
629.016934
 30
0.0
 40
72.999992
 50
248.822606
 51
251.177394
  0
ARC
  8
LC-002-002-----0
  6
DASHED
 62
     2
  5
E1
 10
957.338826
 20
629.016934
 30
0.0
 40
72.999992
 50
258.822606
 51
261.177394
  0
ARC
  8
LC-002-002-----0
  6
DASHED
 62
     2
  5
E2
 10
957.338826
 20
629.016934
 30
0.0
 40
72.999992
 50
268.822606
 51
271.177394
  0
ARC
  8
LC-002-002-----0
  6
DASHED
 62
     2
  5
E3
 10
957.338826
 20
629.016934
 30
0.0
 40
72.999992
 50
278.822606
 51
281.177394
  0
ARC
  8
LC-002-002-----0
  6
DASHED
 62
     2
  5
E4
 10
957.338826
 20
629.016934
 30
0.0
 40
72.999992
 50
288.822606
 51
291.177394
  0
ARC
  8
LC-002-002-----0
  6
DASHED
 62
     2
  5
E5
 10
957.338826
 20
629.016934
 30
0.0
 40
72.999992
 50
298.822606
 51
301.177394
  0
ARC
  8
LC-002-002-----0
  6
DASHED
 62
     2
  5
E6
 10
957.338826
 20
629.016934
 30
0.0
 40
72.999992
 50
308.822606
 51
311.177394
  0
ARC
  8
LC-002-002-----0
  6
DASHED
 62
     2
  5
E7
 10
957.338826
 20
629.016934
 30
0.0
 40
72.999992
 50
318.822606
 51
321.177394
  0
ARC
  8
LC-002-002-----0
  6
DASHED
 62
     2
  5
E8
 10
957.338826
 20
629.016934
 30
0.0
 40
72.999992
 50
328.822606
 51
331.177394
  0
ARC
  8
LC-002-002-----0
  6
DASHED
 62
     2
  5
E9
 10
957.338826
 20
629.016934
 30
0.0
 40
72.999992
 50
338.822606
 51
341.177394
  0
ARC
  8
LC-002-002-----0
  6
DASHED
 62
     2
  5
EA
 10
957.338826
 20
629.016934
 30
0.0
 40
71.000008
 50
358.789436
 51
1.210564
  0
ARC
  8
LC-002-002-----0
  6
DASHED
 62
     2
  5
EB
 10
957.338826
 20
629.016934
 30
0.0
 40
71.000008
 50
8.789436
 51
11.210564
  0
ARC
  8
LC-002-002-----0
  6
DASHED
 62
     2
  5
EC
 10
957.338826
 20
629.016934
 30
0.0
 40
71.000008
 50
18.789436
 51
21.210564
  0
ARC
  8
LC-002-002-----0
  6
DASHED
 62
     2
  5
ED
 10
957.338826
 20
629.016934
 30
0.0
 40
71.000008
 50
28.789436
 51
31.210564
  0
ARC
  8
LC-002-002-----0
  6
DASHED
 62
     2
  5
EE
 10
957.338826
 20
629.016934
 30
0.0
 40
71.000008
 50
38.789436
 51
41.210564
  0
ARC
  8
LC-002-002-----0
  6
DASHED
 62
     2
  5
EF
 10
957.338826
 20
629.016934
 30
0.0
 40
71.000008
 50
48.789436
 51
51.210564
  0
ARC
  8
LC-002-002-----0
  6
DASHED
 62
     2
  5
F0
 10
957.338826
 20
629.016934
 30
0.0
 40
71.000008
 50
58.789436
 51
61.210564
  0
ARC
  8
LC-002-002-----0
  6
DASHED
 62
     2
  5
F1
 10
957.338826
 20
629.016934
 30
0.0
 40
71.000008
 50
68.789436
 51
71.210564
  0
ARC
  8
LC-002-002-----0
  6
DASHED
 62
     2
  5
F2
 10
957.338826
 20
629.016934
 30
0.0
 40
71.000008
 50
78.789436
 51
81.210564
  0
ARC
  8
LC-002-002-----0
  6
DASHED
 62
     2
  5
F3
 10
957.338826
 20
629.016934
 30
0.0
 40
71.000008
 50
88.789436
 51
91.210564
  0
ARC
  8
LC-002-002-----0
  6
DASHED
 62
     2
  5
F4
 10
957.338826
 20
629.016934
 30
0.0
 40
71.000008
 50
98.789436
 51
101.210564
  0
ARC
  8
LC-002-002-----0
  6
DASHED
 62
     2
  5
F5
 10
957.338826
 20
629.016934
 30
0.0
 40
71.000008
 50
108.789436
 51
111.210564
  0
ARC
  8
LC-002-002-----0
  6
DASHED
 62
     2
  5
F6
 10
957.338826
 20
629.016934
 30
0.0
 40
71.000008
 50
118.789436
 51
121.210564
  0
ARC
  8
LC-002-002-----0
  6
DASHED
 62
     2
  5
F7
 10
957.338826
 20
629.016934
 30
0.0
 40
71.000008
 50
128.789436
 51
131.210564
  0
ARC
  8
LC-002-002-----0
  6
DASHED
 62
     2
  5
F8
 10
957.338826
 20
629.016934
 30
0.0
 40
71.000008
 50
138.789436
 51
141.210564
  0
ARC
  8
LC-002-002-----0
  6
DASHED
 62
     2
  5
F9
 10
957.338826
 20
629.016934
 30
0.0
 40
71.000008
 50
148.789436
 51
151.210564
  0
ARC
  8
LC-002-002-----0
  6
DASHED
 62
     2
  5
FA
 10
957.338826
 20
629.016934
 30
0.0
 40
71.000008
 50
158.789436
 51
161.210564
  0
ARC
  8
LC-002-002-----0
  6
DASHED
 62
     2
  5
FB
 10
957.338826
 20
629.016934
 30
0.0
 40
71.000008
 50
168.789436
 51
171.210564
  0
ARC
  8
LC-002-002-----0
  6
DASHED
 62
     2
  5
FC
 10
957.338826
 20
629.016934
 30
0.0
 40
71.000008
 50
178.789436
 51
181.210564
  0
ARC
  8
LC-002-002-----0
  6
DASHED
 62
     2
  5
FD
 10
957.338826
 20
629.016934
 30
0.0
 40
71.000008
 50
188.789436
 51
191.210564
  0
ARC
  8
LC-002-002-----0
  6
DASHED
 62
     2
  5
FE
 10
957.338826
 20
629.016934
 30
0.0
 40
71.000008
 50
198.789436
 51
201.210564
  0
ARC
  8
LC-002-002-----0
  6
DASHED
 62
     2
  5
FF
 10
957.338826
 20
629.016934
 30
0.0
 40
71.000008
 50
208.789436
 51
211.210564
  0
ARC
  8
LC-002-002-----0
  6
DASHED
 62
     2
  5
100
 10
957.338826
 20
629.016934
 30
0.0
 40
71.000008
 50
218.789436
 51
221.210564
  0
ARC
  8
LC-002-002-----0
  6
DASHED
 62
     2
  5
101
 10
957.338826
 20
629.016934
 30
0.0
 40
71.000008
 50
228.789436
 51
231.210564
  0
ARC
  8
LC-002-002-----0
  6
DASHED
 62
     2
  5
102
 10
957.338826
 20
629.016934
 30
0.0
 40
71.000008
 50
238.789436
 51
241.210564
  0
ARC
  8
LC-002-002-----0
  6
DASHED
 62
     2
  5
103
 10
957.338826
 20
629.016934
 30
0.0
 40
71.000008
 50
248.789436
 51
251.210564
  0
ARC
  8
LC-002-002-----0
  6
DASHED
 62
     2
  5
104
 10
957.338826
 20
629.016934
 30
0.0
 40
71.000008
 50
258.789436
 51
261.210564
  0
ARC
  8
LC-002-002-----0
  6
DASHED
 62
     2
  5
105
 10
957.338826
 20
629.016934
 30
0.0
 40
71.000008
 50
268.789436
 51
271.210564
  0
ARC
  8
LC-002-002-----0
  6
DASHED
 62
     2
  5
106
 10
957.338826
 20
629.016934
 30
0.0
 40
71.000008
 50
278.789436
 51
281.210564
  0
ARC
  8
LC-002-002-----0
  6
DASHED
 62
     2
  5
107
 10
957.338826
 20
629.016934
 30
0.0
 40
71.000008
 50
288.789436
 51
291.210564
  0
ARC
  8
LC-002-002-----0
  6
DASHED
 62
     2
  5
108
 10
957.338826
 20
629.016934
 30
0.0
 40
71.000008
 50
298.789436
 51
301.210564
  0
ARC
  8
LC-002-002-----0
  6
DASHED
 62
     2
  5
109
 10
957.338826
 20
629.016934
 30
0.0
 40
71.000008
 50
308.789436
 51
311.210564
  0
ARC
  8
LC-002-002-----0
  6
CONTINUOUS
  5
10A
 10
957.338826
 20
629.016934
 30
0.0
 40
31.0
 50
2.773459
 51
27.226541
  0
ARC
  8
LC-002-002-----0
  6
CONTINUOUS
  5
10B
 10
957.338826
 20
629.016934
 30
0.0
 40
33.5
 50
2.566341
 51
7.433659
  0
ARC
  8
LC-002-002-----0
  6
CONTINUOUS
  5
10C
 10
957.338826
 20
629.016934
 30
0.0
 40
33.5
 50
352.566341
 51
357.433659
  0
ARC
  8
LC-002-002-----0
  6
CONTINUOUS
  5
10D
 10
957.338826
 20
629.016934
 30
0.0
 40
33.5
 50
342.566341
 51
347.433659
  0
ARC
  8
LC-002-002-----0
  6
DASHED
 62
     2
  5
10E
 10
957.338826
 20
629.016934
 30
0.0
 40
71.000008
 50
318.789436
 51
321.210564
  0
ARC
  8
LC-002-002-----0
  6
DASHED
 62
     2
  5
10F
 10
957.338826
 20
629.016934
 30
0.0
 40
71.000008
 50
328.789436
 51
331.210564
  0
ARC
  8
LC-002-002-----0
  6
DASHED
 62
     2
  5
110
 10
957.338826
 20
629.016934
 30
0.0
 40
71.000008
 50
338.789436
 51
341.210564
  0
LINE
  8
LC-002-002-----0
  6
CONTINUOUS
  5
111
 10
909.366771
 20
688.606972
 30
0.0
 11
909.525169
 21
688.332617
 31
0.0
  0
LINE
  8
LC-002-002-----0
  6
CONTINUOUS
  5
112
 10
929.718368
 20
557.676897
 30
0.0
 11
929.876766
 21
557.951251
 31
0.0
  0
LINE
  8
LC-002-002-----0
  6
CONTINUOUS
  5
113
 10
929.718368
 20
700.356972
 30
0.0
 11
929.876766
 21
700.082617
 31
0.0
  0
LINE
  8
LC-002-002-----0
  6
CONTINUOUS
  5
114
 10
909.366771
 20
569.426897
 30
0.0
 11
909.525169
 21
569.701251
 31
0.0
  0
LINE
  8
LC-002-002-----0
  6
DASHED
 62
     2
  5
115
 10
929.876766
 20
700.082617
 30
0.0
 11
931.490548
 21
697.287465
 31
0.0
  0
LINE
  8
LC-002-002-----0
  6
DASHED
 62
     2
  5
116
 10
909.525169
 20
688.332617
 30
0.0
 11
911.138951
 21
685.537465
 31
0.0
  0
LINE
  8
LC-002-002-----0
  6
DASHED
 62
     2
  5
117
 10
929.876766
 20
557.951251
 30
0.0
 11
931.490548
 21
560.746403
 31
0.0
  0
LINE
  8
LC-002-002-----0
  6
DASHED
 62
     2
  5
118
 10
909.525169
 20
569.701251
 30
0.0
 11
911.138951
 21
572.496403
 31
0.0
  0
ARC
  8
LC-002-002-----0
  6
DASHED
 62
     2
  5
119
 10
957.338826
 20
629.016934
 30
0.0
 40
82.500048
 50
8.958202
 51
11.041798
  0
ARC
  8
LC-002-002-----0
  6
DASHED
 62
     2
  5
11A
 10
957.338826
 20
629.016934
 30
0.0
 40
82.500048
 50
18.958202
 51
21.041798
  0
CIRCLE
  8
LC-002-002-----0
  6
DASHED
 62
     2
  5
11B
 10
957.338826
 20
629.016934
 30
0.0
 40
4.000044
  0
ARC
  8
LC-002-002-----0
  6
DASHED
 62
     2
  5
11C
 10
957.338826
 20
629.016934
 30
0.0
 40
82.500048
 50
28.958202
 51
31.041798
  0
ARC
  8
LC-002-002-----0
  6
DASHED
 62
     2
  5
11D
 10
957.338826
 20
629.016934
 30
0.0
 40
82.500048
 50
358.958202
 51
1.041798
  0
ARC
  8
LC-002-002-----0
  6
DASHED
 62
     2
  5
11E
 10
957.338826
 20
629.016934
 30
0.0
 40
78.000067
 50
358.898091
 51
1.101909
  0
ARC
  8
LC-002-002-----0
  6
CONTINUOUS
  5
11F
 10
957.338826
 20
629.016934
 30
0.0
 40
69.000014
 50
358.754342
 51
1.245658
  0
ARC
  8
LC-002-002-----0
  6
DASHED
 62
     2
  5
120
 10
957.338826
 20
629.016934
 30
0.0
 40
82.500048
 50
38.958202
 51
41.041798
  0
ARC
  8
LC-002-002-----0
  6
DASHED
 62
     2
  5
121
 10
957.338826
 20
629.016934
 30
0.0
 40
82.500048
 50
48.958202
 51
51.041798
  0
ARC
  8
LC-002-002-----0
  6
DASHED
 62
     2
  5
122
 10
957.338826
 20
629.016934
 30
0.0
 40
82.500048
 50
58.958202
 51
61.041798
  0
ARC
  8
LC-002-002-----0
  6
DASHED
 62
     2
  5
123
 10
957.338826
 20
629.016934
 30
0.0
 40
82.500048
 50
68.958202
 51
71.041798
  0
ARC
  8
LC-002-002-----0
  6
DASHED
 62
     2
  5
124
 10
957.338826
 20
629.016934
 30
0.0
 40
82.500048
 50
78.958202
 51
81.041798
  0
ARC
  8
LC-002-002-----0
  6
DASHED
 62
     2
  5
125
 10
957.338826
 20
629.016934
 30
0.0
 40
82.500048
 50
88.958202
 51
91.041798
  0
ARC
  8
LC-002-002-----0
  6
DASHED
 62
     2
  5
126
 10
957.338826
 20
629.016934
 30
0.0
 40
82.500048
 50
98.958202
 51
101.041798
  0
ARC
  8
LC-002-002-----0
  6
DASHED
 62
     2
  5
127
 10
957.338826
 20
629.016934
 30
0.0
 40
82.500048
 50
108.958202
 51
111.041798
  0
ARC
  8
LC-002-002-----0
  6
DASHED
 62
     2
  5
128
 10
957.338826
 20
629.016934
 30
0.0
 40
82.500048
 50
118.958202
 51
121.041798
  0
ARC
  8
LC-002-002-----0
  6
DASHED
 62
     2
  5
129
 10
957.338826
 20
629.016934
 30
0.0
 40
82.500048
 50
128.958202
 51
131.041798
  0
ARC
  8
LC-002-002-----0
  6
DASHED
 62
     2
  5
12A
 10
957.338826
 20
629.016934
 30
0.0
 40
82.500048
 50
138.958202
 51
141.041798
  0
ARC
  8
LC-002-002-----0
  6
DASHED
 62
     2
  5
12B
 10
957.338826
 20
629.016934
 30
0.0
 40
82.500048
 50
148.958202
 51
151.041798
  0
ARC
  8
LC-002-002-----0
  6
DASHED
 62
     2
  5
12C
 10
957.338826
 20
629.016934
 30
0.0
 40
82.500048
 50
158.958202
 51
161.041798
  0
ARC
  8
LC-002-002-----0
  6
DASHED
 62
     2
  5
12D
 10
957.338826
 20
629.016934
 30
0.0
 40
82.500048
 50
168.958202
 51
171.041798
  0
ARC
  8
LC-002-002-----0
  6
DASHED
 62
     2
  5
12E
 10
957.338826
 20
629.016934
 30
0.0
 40
82.500048
 50
178.958202
 51
181.041798
  0
ARC
  8
LC-002-002-----0
  6
CONTINUOUS
  5
12F
 10
957.338826
 20
629.016934
 30
0.0
 40
33.5
 50
12.566341
 51
17.433659
  0
ARC
  8
LC-002-002-----0
  6
DASHED
 62
     2
  5
130
 10
957.338826
 20
629.016934
 30
0.0
 40
82.500048
 50
188.958202
 51
191.041798
  0
ARC
  8
LC-002-002-----0
  6
DASHED
 62
     2
  5
131
 10
957.338826
 20
629.016934
 30
0.0
 40
82.500048
 50
198.958202
 51
201.041798
  0
ARC
  8
LC-002-002-----0
  6
DASHED
 62
     2
  5
132
 10
957.338826
 20
629.016934
 30
0.0
 40
82.500048
 50
208.958202
 51
211.041798
  0
ARC
  8
LC-002-002-----0
  6
DASHED
 62
     2
  5
133
 10
957.338826
 20
629.016934
 30
0.0
 40
82.500048
 50
218.958202
 51
221.041798
  0
ARC
  8
LC-002-002-----0
  6
DASHED
 62
     2
  5
134
 10
957.338826
 20
629.016934
 30
0.0
 40
82.500048
 50
228.958202
 51
231.041798
  0
ARC
  8
LC-002-002-----0
  6
DASHED
 62
     2
  5
135
 10
957.338826
 20
629.016934
 30
0.0
 40
82.500048
 50
238.958202
 51
241.041798
  0
ARC
  8
LC-002-002-----0
  6
DASHED
 62
     2
  5
136
 10
957.338826
 20
629.016934
 30
0.0
 40
82.500048
 50
248.958202
 51
251.041798
  0
ARC
  8
LC-002-002-----0
  6
DASHED
 62
     2
  5
137
 10
957.338826
 20
629.016934
 30
0.0
 40
82.500048
 50
258.958202
 51
261.041798
  0
ARC
  8
LC-002-002-----0
  6
DASHED
 62
     2
  5
138
 10
957.338826
 20
629.016934
 30
0.0
 40
82.500048
 50
268.958202
 51
271.041798
  0
ARC
  8
LC-002-002-----0
  6
DASHED
 62
     2
  5
139
 10
957.338826
 20
629.016934
 30
0.0
 40
82.500048
 50
278.958202
 51
281.041798
  0
ARC
  8
LC-002-002-----0
  6
DASHED
 62
     2
  5
13A
 10
957.338826
 20
629.016934
 30
0.0
 40
82.500048
 50
288.958202
 51
291.041798
  0
ARC
  8
LC-002-002-----0
  6
DASHED
 62
     2
  5
13B
 10
957.338826
 20
629.016934
 30
0.0
 40
82.500048
 50
298.958202
 51
301.041798
  0
ARC
  8
LC-002-002-----0
  6
DASHED
 62
     2
  5
13C
 10
957.338826
 20
629.016934
 30
0.0
 40
82.500048
 50
308.958202
 51
311.041798
  0
ARC
  8
LC-002-002-----0
  6
DASHED
 62
     2
  5
13D
 10
957.338826
 20
629.016934
 30
0.0
 40
82.500048
 50
318.958202
 51
321.041798
  0
ARC
  8
LC-002-002-----0
  6
DASHED
 62
     2
  5
13E
 10
957.338826
 20
629.016934
 30
0.0
 40
82.500048
 50
328.958202
 51
331.041798
  0
ARC
  8
LC-002-002-----0
  6
DASHED
 62
     2
  5
13F
 10
957.338826
 20
629.016934
 30
0.0
 40
82.500048
 50
338.958202
 51
341.041798
  0
ARC
  8
LC-002-002-----0
  6
DASHED
 62
     2
  5
140
 10
957.338826
 20
629.016934
 30
0.0
 40
82.500048
 50
348.958202
 51
351.041798
  0
ARC
  8
LC-002-002-----0
  6
DASHED
 62
     2
  5
141
 10
957.338826
 20
629.016934
 30
0.0
 40
78.000067
 50
8.898091
 51
11.101909
  0
ARC
  8
LC-002-002-----0
  6
DASHED
 62
     2
  5
142
 10
957.338826
 20
629.016934
 30
0.0
 40
78.000067
 50
18.898091
 51
21.101909
  0
ARC
  8
LC-002-002-----0
  6
DASHED
 62
     2
  5
143
 10
957.338826
 20
629.016934
 30
0.0
 40
78.000067
 50
28.898091
 51
31.101909
  0
ARC
  8
LC-002-002-----0
  6
DASHED
 62
     2
  5
144
 10
957.338826
 20
629.016934
 30
0.0
 40
78.000067
 50
38.898091
 51
41.101909
  0
ARC
  8
LC-002-002-----0
  6
DASHED
 62
     2
  5
145
 10
957.338826
 20
629.016934
 30
0.0
 40
78.000067
 50
48.898091
 51
51.101909
  0
ARC
  8
LC-002-002-----0
  6
DASHED
 62
     2
  5
146
 10
957.338826
 20
629.016934
 30
0.0
 40
78.000067
 50
58.898091
 51
61.101909
  0
ARC
  8
LC-002-002-----0
  6
DASHED
 62
     2
  5
147
 10
957.338826
 20
629.016934
 30
0.0
 40
78.000067
 50
68.898091
 51
71.101909
  0
ARC
  8
LC-002-002-----0
  6
CONTINUOUS
  5
148
 10
957.338826
 20
629.016934
 30
0.0
 40
33.5
 50
22.566341
 51
27.433659
  0
ARC
  8
LC-002-002-----0
  6
DASHED
 62
     2
  5
149
 10
957.338826
 20
629.016934
 30
0.0
 40
78.000067
 50
78.898091
 51
81.101909
  0
ARC
  8
LC-002-002-----0
  6
DASHED
 62
     2
  5
14A
 10
957.338826
 20
629.016934
 30
0.0
 40
78.000067
 50
88.898091
 51
91.101909
  0
ARC
  8
LC-002-002-----0
  6
DASHED
 62
     2
  5
14B
 10
957.338826
 20
629.016934
 30
0.0
 40
78.000067
 50
98.898091
 51
101.101909
  0
ARC
  8
LC-002-002-----0
  6
DASHED
 62
     2
  5
14C
 10
957.338826
 20
629.016934
 30
0.0
 40
78.000067
 50
108.898091
 51
111.101909
  0
ARC
  8
LC-002-002-----0
  6
DASHED
 62
     2
  5
14D
 10
957.338826
 20
629.016934
 30
0.0
 40
78.000067
 50
118.898091
 51
121.101909
  0
ARC
  8
LC-002-002-----0
  6
DASHED
 62
     2
  5
14E
 10
957.338826
 20
629.016934
 30
0.0
 40
78.000067
 50
128.898091
 51
131.101909
  0
ARC
  8
LC-002-002-----0
  6
DASHED
 62
     2
  5
14F
 10
957.338826
 20
629.016934
 30
0.0
 40
78.000067
 50
138.898091
 51
141.101909
  0
ARC
  8
LC-002-002-----0
  6
DASHED
 62
     2
  5
150
 10
957.338826
 20
629.016934
 30
0.0
 40
78.000067
 50
148.898091
 51
151.101909
  0
ARC
  8
LC-002-002-----0
  6
CONTINUOUS
  5
151
 10
957.338826
 20
629.016934
 30
0.0
 40
33.5
 50
32.566341
 51
37.433659
  0
ARC
  8
LC-002-002-----0
  6
CONTINUOUS
  5
152
 10
957.338826
 20
629.016934
 30
0.0
 40
31.0
 50
32.773459
 51
57.226541
  0
ARC
  8
LC-002-002-----0
  6
DASHED
 62
     2
  5
153
 10
957.338826
 20
629.016934
 30
0.0
 40
78.000067
 50
158.898091
 51
161.101909
  0
ARC
  8
LC-002-002-----0
  6
DASHED
 62
     2
  5
154
 10
957.338826
 20
629.016934
 30
0.0
 40
78.000067
 50
168.898091
 51
171.101909
  0
ARC
  8
LC-002-002-----0
  6
DASHED
 62
     2
  5
155
 10
957.338826
 20
629.016934
 30
0.0
 40
78.000067
 50
178.898091
 51
181.101909
  0
ARC
  8
LC-002-002-----0
  6
DASHED
 62
     2
  5
156
 10
957.338826
 20
629.016934
 30
0.0
 40
78.000067
 50
188.898091
 51
191.101909
  0
ARC
  8
LC-002-002-----0
  6
DASHED
 62
     2
  5
157
 10
957.338826
 20
629.016934
 30
0.0
 40
78.000067
 50
198.898091
 51
201.101909
  0
ARC
  8
LC-002-002-----0
  6
DASHED
 62
     2
  5
158
 10
957.338826
 20
629.016934
 30
0.0
 40
78.000067
 50
208.898091
 51
211.101909
  0
ARC
  8
LC-002-002-----0
  6
DASHED
 62
     2
  5
159
 10
957.338826
 20
629.016934
 30
0.0
 40
78.000067
 50
218.898091
 51
221.101909
  0
ARC
  8
LC-002-002-----0
  6
DASHED
 62
     2
  5
15A
 10
957.338826
 20
629.016934
 30
0.0
 40
78.000067
 50
228.898091
 51
231.101909
  0
ARC
  8
LC-002-002-----0
  6
DASHED
 62
     2
  5
15B
 10
957.338826
 20
629.016934
 30
0.0
 40
78.000067
 50
238.898091
 51
241.101909
  0
ARC
  8
LC-002-002-----0
  6
DASHED
 62
     2
  5
15C
 10
957.338826
 20
629.016934
 30
0.0
 40
78.000067
 50
248.898091
 51
251.101909
  0
ARC
  8
LC-002-002-----0
  6
DASHED
 62
     2
  5
15D
 10
957.338826
 20
629.016934
 30
0.0
 40
78.000067
 50
258.898091
 51
261.101909
  0
ARC
  8
LC-002-002-----0
  6
DASHED
 62
     2
  5
15E
 10
957.338826
 20
629.016934
 30
0.0
 40
78.000067
 50
268.898091
 51
271.101909
  0
ARC
  8
LC-002-002-----0
  6
DASHED
 62
     2
  5
15F
 10
957.338826
 20
629.016934
 30
0.0
 40
78.000067
 50
278.898091
 51
281.101909
  0
ARC
  8
LC-002-002-----0
  6
DASHED
 62
     2
  5
160
 10
957.338826
 20
629.016934
 30
0.0
 40
78.000067
 50
288.898091
 51
291.101909
  0
ARC
  8
LC-002-002-----0
  6
CONTINUOUS
  5
161
 10
957.338826
 20
629.016934
 30
0.0
 40
33.5
 50
42.566341
 51
47.433659
  0
ARC
  8
LC-002-002-----0
  6
DASHED
 62
     2
  5
162
 10
957.338826
 20
629.016934
 30
0.0
 40
78.000067
 50
298.898091
 51
301.101909
  0
ARC
  8
LC-002-002-----0
  6
CONTINUOUS
  5
163
 10
957.338826
 20
629.016934
 30
0.0
 40
33.5
 50
52.566341
 51
57.433659
  0
ARC
  8
LC-002-002-----0
  6
CONTINUOUS
  5
164
 10
957.338826
 20
629.016934
 30
0.0
 40
33.5
 50
62.566341
 51
67.433659
  0
ARC
  8
LC-002-002-----0
  6
CONTINUOUS
  5
165
 10
957.338826
 20
629.016934
 30
0.0
 40
31.0
 50
62.773459
 51
87.226541
  0
ARC
  8
LC-002-002-----0
  6
CONTINUOUS
  5
166
 10
957.338826
 20
629.016934
 30
0.0
 40
33.5
 50
72.566341
 51
77.433659
  0
ARC
  8
LC-002-002-----0
  6
CONTINUOUS
  5
167
 10
957.338826
 20
629.016934
 30
0.0
 40
33.5
 50
82.566341
 51
87.433659
  0
ARC
  8
LC-002-002-----0
  6
CONTINUOUS
  5
168
 10
957.338826
 20
629.016934
 30
0.0
 40
33.5
 50
92.566341
 51
97.433659
  0
ARC
  8
LC-002-002-----0
  6
CONTINUOUS
  5
169
 10
957.338826
 20
629.016934
 30
0.0
 40
31.0
 50
92.773459
 51
117.226541
  0
ARC
  8
LC-002-002-----0
  6
CONTINUOUS
  5
16A
 10
957.338826
 20
629.016934
 30
0.0
 40
33.5
 50
102.566341
 51
107.433659
  0
ARC
  8
LC-002-002-----0
  6
CONTINUOUS
  5
16B
 10
957.338826
 20
629.016934
 30
0.0
 40
33.5
 50
112.566341
 51
117.433659
  0
ARC
  8
LC-002-002-----0
  6
CONTINUOUS
  5
16C
 10
957.338826
 20
629.016934
 30
0.0
 40
33.5
 50
122.566341
 51
127.433659
  0
ARC
  8
LC-002-002-----0
  6
CONTINUOUS
  5
16D
 10
957.338826
 20
629.016934
 30
0.0
 40
33.5
 50
132.566341
 51
137.433659
  0
ARC
  8
LC-002-002-----0
  6
CONTINUOUS
  5
16E
 10
957.338826
 20
629.016934
 30
0.0
 40
33.5
 50
142.566341
 51
147.433659
  0
ARC
  8
LC-002-002-----0
  6
CONTINUOUS
  5
16F
 10
957.338826
 20
629.016934
 30
0.0
 40
31.0
 50
152.773459
 51
177.226541
  0
ARC
  8
LC-002-002-----0
  6
CONTINUOUS
  5
170
 10
957.338826
 20
629.016934
 30
0.0
 40
31.0
 50
122.773459
 51
147.226541
  0
ARC
  8
LC-002-002-----0
  6
CONTINUOUS
  5
171
 10
957.338826
 20
629.016934
 30
0.0
 40
31.0
 50
182.773459
 51
207.226541
  0
ARC
  8
LC-002-002-----0
  6
DASHED
 62
     2
  5
172
 10
957.338826
 20
629.016934
 30
0.0
 40
78.000067
 50
308.898091
 51
311.101909
  0
ARC
  8
LC-002-002-----0
  6
DASHED
 62
     2
  5
173
 10
957.338826
 20
629.016934
 30
0.0
 40
78.000067
 50
318.898091
 51
321.101909
  0
ARC
  8
LC-002-002-----0
  6
DASHED
 62
     2
  5
174
 10
957.338826
 20
629.016934
 30
0.0
 40
78.000067
 50
328.898091
 51
331.101909
  0
ARC
  8
LC-002-002-----0
  6
DASHED
 62
     2
  5
175
 10
957.338826
 20
629.016934
 30
0.0
 40
78.000067
 50
338.898091
 51
341.101909
  0
ARC
  8
LC-002-002-----0
  6
DASHED
 62
     2
  5
176
 10
957.338826
 20
629.016934
 30
0.0
 40
78.000067
 50
348.898091
 51
351.101909
  0
ARC
  8
LC-002-002-----0
  6
CONTINUOUS
  5
177
 10
957.338826
 20
629.016934
 30
0.0
 40
69.000014
 50
8.754342
 51
11.245658
  0
ARC
  8
LC-002-002-----0
  6
CONTINUOUS
  5
178
 10
957.338826
 20
629.016934
 30
0.0
 40
69.000014
 50
18.754342
 51
21.245658
  0
ARC
  8
LC-002-002-----0
  6
CONTINUOUS
  5
179
 10
957.338826
 20
629.016934
 30
0.0
 40
69.000014
 50
28.754342
 51
31.245658
  0
ARC
  8
LC-002-002-----0
  6
CONTINUOUS
  5
17A
 10
957.338826
 20
629.016934
 30
0.0
 40
69.000014
 50
38.754342
 51
41.245658
  0
ARC
  8
LC-002-002-----0
  6
CONTINUOUS
  5
17B
 10
957.338826
 20
629.016934
 30
0.0
 40
69.000014
 50
48.754342
 51
51.245658
  0
ARC
  8
LC-002-002-----0
  6
CONTINUOUS
  5
17C
 10
957.338826
 20
629.016934
 30
0.0
 40
69.000014
 50
58.754342
 51
61.245658
  0
ARC
  8
LC-002-002-----0
  6
CONTINUOUS
  5
17D
 10
957.338826
 20
629.016934
 30
0.0
 40
69.000014
 50
68.754342
 51
71.245658
  0
ARC
  8
LC-002-002-----0
  6
CONTINUOUS
  5
17E
 10
957.338826
 20
629.016934
 30
0.0
 40
69.000014
 50
78.754342
 51
81.245658
  0
ARC
  8
LC-002-002-----0
  6
CONTINUOUS
  5
17F
 10
957.338826
 20
629.016934
 30
0.0
 40
69.000014
 50
88.754342
 51
91.245658
  0
ARC
  8
LC-002-002-----0
  6
CONTINUOUS
  5
180
 10
957.338826
 20
629.016934
 30
0.0
 40
33.5
 50
182.566341
 51
187.433659
  0
ARC
  8
LC-002-002-----0
  6
CONTINUOUS
  5
181
 10
957.338826
 20
629.016934
 30
0.0
 40
69.000014
 50
98.754342
 51
101.245658
  0
ARC
  8
LC-002-002-----0
  6
CONTINUOUS
  5
182
 10
957.338826
 20
629.016934
 30
0.0
 40
69.000014
 50
108.754342
 51
111.245658
  0
ARC
  8
LC-002-002-----0
  6
CONTINUOUS
  5
183
 10
957.338826
 20
629.016934
 30
0.0
 40
69.000014
 50
118.754342
 51
121.245658
  0
ARC
  8
LC-002-002-----0
  6
CONTINUOUS
  5
184
 10
957.338826
 20
629.016934
 30
0.0
 40
69.000014
 50
128.754342
 51
131.245658
  0
ARC
  8
LC-002-002-----0
  6
CONTINUOUS
  5
185
 10
957.338826
 20
629.016934
 30
0.0
 40
69.000014
 50
138.754342
 51
141.245658
  0
ARC
  8
LC-002-002-----0
  6
CONTINUOUS
  5
186
 10
957.338826
 20
629.016934
 30
0.0
 40
69.000014
 50
148.754342
 51
151.245658
  0
ARC
  8
LC-002-002-----0
  6
CONTINUOUS
  5
187
 10
957.338826
 20
629.016934
 30
0.0
 40
69.000014
 50
158.754342
 51
161.245658
  0
ARC
  8
LC-002-002-----0
  6
CONTINUOUS
  5
188
 10
957.338826
 20
629.016934
 30
0.0
 40
69.000014
 50
168.754342
 51
171.245658
  0
ARC
  8
LC-002-002-----0
  6
CONTINUOUS
  5
189
 10
957.338826
 20
629.016934
 30
0.0
 40
69.000014
 50
178.754342
 51
181.245658
  0
ARC
  8
LC-002-002-----0
  6
CONTINUOUS
  5
18A
 10
957.338826
 20
629.016934
 30
0.0
 40
69.000014
 50
188.754342
 51
191.245658
  0
ARC
  8
LC-002-002-----0
  6
CONTINUOUS
  5
18B
 10
957.338826
 20
629.016934
 30
0.0
 40
69.000014
 50
198.754342
 51
201.245658
  0
ARC
  8
LC-002-002-----0
  6
CONTINUOUS
  5
18C
 10
957.338826
 20
629.016934
 30
0.0
 40
69.000014
 50
208.754342
 51
211.245658
  0
ARC
  8
LC-002-002-----0
  6
CONTINUOUS
  5
18D
 10
957.338826
 20
629.016934
 30
0.0
 40
69.000014
 50
218.754342
 51
221.245658
  0
ARC
  8
LC-002-002-----0
  6
CONTINUOUS
  5
18E
 10
957.338826
 20
629.016934
 30
0.0
 40
69.000014
 50
228.754342
 51
231.245658
  0
ARC
  8
LC-002-002-----0
  6
CONTINUOUS
  5
18F
 10
957.338826
 20
629.016934
 30
0.0
 40
69.000014
 50
238.754342
 51
241.245658
  0
ARC
  8
LC-002-002-----0
  6
CONTINUOUS
  5
190
 10
957.338826
 20
629.016934
 30
0.0
 40
69.000014
 50
248.754342
 51
251.245658
  0
ARC
  8
LC-002-002-----0
  6
CONTINUOUS
  5
191
 10
957.338826
 20
629.016934
 30
0.0
 40
69.000014
 50
258.754342
 51
261.245658
  0
ARC
  8
LC-002-002-----0
  6
CONTINUOUS
  5
192
 10
957.338826
 20
629.016934
 30
0.0
 40
69.000014
 50
268.754342
 51
271.245658
  0
ARC
  8
LC-002-002-----0
  6
CONTINUOUS
  5
193
 10
957.338826
 20
629.016934
 30
0.0
 40
69.000014
 50
278.754342
 51
281.245658
  0
ARC
  8
LC-002-002-----0
  6
CONTINUOUS
  5
194
 10
957.338826
 20
629.016934
 30
0.0
 40
69.000014
 50
288.754342
 51
291.245658
  0
ARC
  8
LC-002-002-----0
  6
CONTINUOUS
  5
195
 10
957.338826
 20
629.016934
 30
0.0
 40
69.000014
 50
298.754342
 51
301.245658
  0
ARC
  8
LC-002-002-----0
  6
CONTINUOUS
  5
196
 10
957.338826
 20
629.016934
 30
0.0
 40
69.000014
 50
308.754342
 51
311.245658
  0
ARC
  8
LC-002-002-----0
  6
CONTINUOUS
  5
197
 10
957.338826
 20
629.016934
 30
0.0
 40
69.000014
 50
318.754342
 51
321.245658
  0
ARC
  8
LC-002-002-----0
  6
CONTINUOUS
  5
198
 10
957.338826
 20
629.016934
 30
0.0
 40
69.000014
 50
328.754342
 51
331.245658
  0
ARC
  8
LC-002-002-----0
  6
CONTINUOUS
  5
199
 10
957.338826
 20
629.016934
 30
0.0
 40
69.000014
 50
338.754342
 51
341.245658
  0
ARC
  8
LC-002-002-----0
  6
CONTINUOUS
  5
19A
 10
957.338826
 20
629.016934
 30
0.0
 40
69.000014
 50
348.754342
 51
351.245658
  0
LINE
  8
LC-002-002-----0
  6
CONTINUOUS
  5
19B
 10
766.338134
 20
643.266683
 30
0.0
 11
628.340325
 21
643.266683
 31
0.0
  0
ARC
  8
LC-002-002-----0
  6
CONTINUOUS
  5
19C
 10
957.338826
 20
629.016934
 30
0.0
 40
33.5
 50
152.566341
 51
157.433659
  0
ARC
  8
LC-002-002-----0
  6
CONTINUOUS
  5
19D
 10
957.338826
 20
629.016934
 30
0.0
 40
33.5
 50
162.566341
 51
167.433659
  0
ARC
  8
LC-002-002-----0
  6
CONTINUOUS
  5
19E
 10
957.338826
 20
629.016934
 30
0.0
 40
33.5
 50
172.566341
 51
177.433659
  0
ARC
  8
LC-002-002-----0
  6
CONTINUOUS
  5
19F
 10
957.338826
 20
629.016934
 30
0.0
 40
33.5
 50
192.566341
 51
197.433659
  0
ARC
  8
LC-002-002-----0
  6
CONTINUOUS
  5
1A0
 10
957.338826
 20
629.016934
 30
0.0
 40
33.5
 50
202.566341
 51
207.433659
  0
ARC
  8
LC-002-002-----0
  6
CONTINUOUS
  5
1A1
 10
957.338826
 20
629.016934
 30
0.0
 40
33.5
 50
212.566341
 51
217.433659
  0
ARC
  8
LC-002-002-----0
  6
CONTINUOUS
  5
1A2
 10
957.338826
 20
629.016934
 30
0.0
 40
31.0
 50
212.773459
 51
237.226541
  0
ARC
  8
LC-002-002-----0
  6
CONTINUOUS
  5
1A3
 10
957.338826
 20
629.016934
 30
0.0
 40
33.5
 50
222.566341
 51
227.433659
  0
ARC
  8
LC-002-002-----0
  6
CONTINUOUS
  5
1A4
 10
957.338826
 20
629.016934
 30
0.0
 40
33.5
 50
232.566341
 51
237.433659
  0
ARC
  8
LC-002-002-----0
  6
CONTINUOUS
  5
1A5
 10
957.338826
 20
629.016934
 30
0.0
 40
33.5
 50
242.566341
 51
247.433659
  0
ARC
  8
LC-002-002-----0
  6
CONTINUOUS
  5
1A6
 10
957.338826
 20
629.016934
 30
0.0
 40
31.0
 50
242.773459
 51
267.226541
  0
ARC
  8
LC-002-002-----0
  6
CONTINUOUS
  5
1A7
 10
957.338826
 20
629.016934
 30
0.0
 40
33.5
 50
252.566341
 51
257.433659
  0
ARC
  8
LC-002-002-----0
  6
CONTINUOUS
  5
1A8
 10
957.338826
 20
629.016934
 30
0.0
 40
33.5
 50
262.566341
 51
267.433659
  0
ARC
  8
LC-002-002-----0
  6
CONTINUOUS
  5
1A9
 10
957.338826
 20
629.016934
 30
0.0
 40
33.5
 50
272.566341
 51
277.433659
  0
ARC
  8
LC-002-002-----0
  6
CONTINUOUS
  5
1AA
 10
957.338826
 20
629.016934
 30
0.0
 40
31.0
 50
272.773459
 51
297.226541
  0
ARC
  8
LC-002-002-----0
  6
CONTINUOUS
  5
1AB
 10
957.338826
 20
629.016934
 30
0.0
 40
33.5
 50
282.566341
 51
287.433659
  0
ARC
  8
LC-002-002-----0
  6
CONTINUOUS
  5
1AC
 10
957.338826
 20
629.016934
 30
0.0
 40
33.5
 50
292.566341
 51
297.433659
  0
ARC
  8
LC-002-002-----0
  6
CONTINUOUS
  5
1AD
 10
957.338826
 20
629.016934
 30
0.0
 40
33.5
 50
302.566341
 51
307.433659
  0
ARC
  8
LC-002-002-----0
  6
CONTINUOUS
  5
1AE
 10
957.338826
 20
629.016934
 30
0.0
 40
31.0
 50
302.773459
 51
327.226541
  0
ARC
  8
LC-002-002-----0
  6
CONTINUOUS
  5
1AF
 10
957.338826
 20
629.016934
 30
0.0
 40
33.5
 50
312.566341
 51
317.433659
  0
ARC
  8
LC-002-002-----0
  6
CONTINUOUS
  5
1B0
 10
957.338826
 20
629.016934
 30
0.0
 40
33.5
 50
322.566341
 51
327.433659
  0
ARC
  8
LC-002-002-----0
  6
CONTINUOUS
  5
1B1
 10
957.338826
 20
629.016934
 30
0.0
 40
33.5
 50
332.566341
 51
337.433659
  0
ARC
  8
LC-002-002-----0
  6
CONTINUOUS
  5
1B2
 10
957.338826
 20
629.016934
 30
0.0
 40
31.0
 50
332.773459
 51
357.226541
  0
ARC
  8
LC-002-002-----0
  6
CONTINUOUS
  5
1B3
 10
957.338826
 20
629.016934
 30
0.0
 40
7.5
 50
11.536959
 51
18.463041
  0
ARC
  8
LC-002-002-----0
  6
CONTINUOUS
  5
1B4
 10
957.338826
 20
629.016934
 30
0.0
 40
7.5
 50
341.536959
 51
348.463041
  0
ARC
  8
LC-002-002-----0
  6
CONTINUOUS
  5
1B5
 10
957.338826
 20
629.016934
 30
0.0
 40
7.5
 50
311.536959
 51
318.463041
  0
ARC
  8
LC-002-002-----0
  6
CONTINUOUS
  5
1B6
 10
957.338826
 20
629.016934
 30
0.0
 40
7.5
 50
281.536959
 51
288.463041
  0
ARC
  8
LC-002-002-----0
  6
CONTINUOUS
  5
1B7
 10
957.338826
 20
629.016934
 30
0.0
 40
7.5
 50
251.536959
 51
258.463041
  0
ARC
  8
LC-002-002-----0
  6
CONTINUOUS
  5
1B8
 10
957.338826
 20
629.016934
 30
0.0
 40
7.5
 50
221.536959
 51
228.463041
  0
ARC
  8
LC-002-002-----0
  6
CONTINUOUS
  5
1B9
 10
957.338826
 20
629.016934
 30
0.0
 40
7.5
 50
191.536959
 51
198.463041
  0
ARC
  8
LC-002-002-----0
  6
CONTINUOUS
  5
1BA
 10
957.338826
 20
629.016934
 30
0.0
 40
7.5
 50
161.536959
 51
168.463041
  0
ARC
  8
LC-002-002-----0
  6
CONTINUOUS
  5
1BB
 10
957.338826
 20
629.016934
 30
0.0
 40
7.5
 50
131.536959
 51
138.463041
  0
ARC
  8
LC-002-002-----0
  6
CONTINUOUS
  5
1BC
 10
957.338826
 20
629.016934
 30
0.0
 40
7.5
 50
101.536959
 51
108.463041
  0
ARC
  8
LC-002-002-----0
  6
CONTINUOUS
  5
1BD
 10
957.338826
 20
629.016934
 30
0.0
 40
7.5
 50
71.536959
 51
78.463041
  0
ARC
  8
LC-002-002-----0
  6
CONTINUOUS
  5
1BE
 10
957.338826
 20
629.016934
 30
0.0
 40
7.5
 50
41.536959
 51
48.463041
  0
LINE
  8
LC-002-002-----0
  6
CONTINUOUS
  5
1BF
 10
766.338134
 20
643.266683
 30
0.0
 11
778.273935
 21
642.222436
 31
0.0
  0
LINE
  8
LC-002-002-----0
  6
CONTINUOUS
  5
1C0
 10
767.337232
 20
614.76708
 30
0.0
 11
671.489843
 21
614.766676
 31
0.0
  0
LINE
  8
LC-002-002-----0
  6
CONTINUOUS
  5
1C1
 10
624.338175
 20
623.766748
 30
0.0
 11
624.338187
 21
614.766151
 31
0.0
  0
LINE
  8
LC-002-002-----0
  6
CONTINUOUS
  5
1C2
 10
671.489843
 20
614.766676
 30
0.0
 11
671.489843
 21
602.267205
 31
0.0
  0
LINE
  8
LC-002-002-----0
  6
CONTINUOUS
  5
1C3
 10
770.338175
 20
623.766949
 30
0.0
 11
770.338201
 21
604.76689
 31
0.0
  0
ARC
  8
LC-007-002-RND-0
  6
CONTINUOUS
  5
1C5
 10
770.838201
 20
604.766891
 30
0.0
 40
0.5
 50
180.000079
 51
270.0
  0
ARC
  8
LC-002-002-----0
  6
CONTINUOUS
  5
1C6
 10
957.338826
 20
629.016934
 30
0.0
 40
76.500266
 50
111.164724
 51
118.876485
  0
ARC
  8
LC-002-002-----0
  6
CONTINUOUS
  5
1C7
 10
957.338826
 20
629.016934
 30
0.0
 40
76.500266
 50
231.164724
 51
238.876485
  0
ARC
  8
LC-002-002-----0
  6
CONTINUOUS
  5
1C8
 10
957.338826
 20
629.016934
 30
0.0
 40
76.500266
 50
351.164724
 51
358.876485
  0
ARC
  8
LC-002-002-----0
  6
CONTINUOUS
  5
1C9
 10
957.338826
 20
629.016934
 30
0.0
 40
76.500266
 50
121.123515
 51
128.835276
  0
ARC
  8
LC-002-002-----0
  6
CONTINUOUS
  5
1CA
 10
957.338826
 20
629.016934
 30
0.0
 40
76.500266
 50
1.123515
 51
8.835276
  0
LINE
  8
LC-002-002-----0
  6
CONTINUOUS
  5
1CB
 10
628.340325
 20
643.266683
 30
0.0
 11
616.402364
 21
642.222214
 31
0.0
  0
ARC
  8
LC-002-002-----0
  6
CONTINUOUS
  5
1CC
 10
957.338826
 20
629.016934
 30
0.0
 40
76.500266
 50
241.123515
 51
248.835276
  0
LINE
  8
LC-002-002-----0
  6
CONTINUOUS
  5
1CD
 10
651.138246
 20
614.76659
 30
0.0
 11
651.138246
 21
604.266891
 31
0.0
  0
LINE
  8
LC-002-002-----0
  6
CONTINUOUS
  5
1CE
 10
772.838421
 20
604.266891
 30
0.0
 11
770.838448
 21
604.266891
 31
0.0
  0
LINE
  8
LC-002-002-----0
  6
CONTINUOUS
  5
1CF
 10
671.489843
 20
602.267205
 30
0.0
 11
650.378537
 21
602.267205
 31
0.0
  0
LINE
  8
LC-002-002-----0
  6
CONTINUOUS
  5
1D0
 10
782.838162
 20
632.998721
 30
0.0
 11
782.838156
 21
637.241469
 31
0.0
  0
ARC
  8
LC-007-002-RND-0
  6
CONTINUOUS
  5
1D1
 10
616.838156
 20
637.241242
 30
0.0
 40
5.0
 50
95.000157
 51
180.000079
  0
LINE
  8
LC-002-002-----0
  6
CONTINUOUS
  5
1D2
 10
611.838162
 20
632.998486
 30
0.0
 11
611.838156
 21
637.241235
 31
0.0
  0
ARC
  8
LC-007-002-RND-0
  6
CONTINUOUS
  5
1D3
 10
777.838156
 20
637.241463
 30
0.0
 40
5.0
 50
0.000079
 51
85.0
  0
LINE
  8
LC-002-002-----0
  6
CONTINUOUS
  5
1D4
 10
619.338162
 20
631.26646
 30
0.0
 11
614.838178
 21
631.266447
 31
0.0
  0
ARC
  8
LC-002-002-----0
  6
CONTINUOUS
  5
1D5
 10
957.338826
 20
629.016934
 30
0.0
 40
87.000274
 50
19.012096
 51
20.987904
  0
LINE
  8
LC-002-002-----0
  6
CONTINUOUS
  5
1D6
 10
1044.326169
 20
630.516934
 30
0.0
 11
990.805227
 21
630.516934
 31
0.0
  0
LINE
  8
LC-002-002-----0
  6
CONTINUOUS
  5
1D7
 10
627.337834
 20
631.26649
 30
0.0
 11
627.339142
 21
614.766178
 31
0.0
  0
LINE
  8
LC-002-002-----0
  6
CONTINUOUS
  5
1D8
 10
1042.744163
 20
645.599339
 30
0.0
 11
990.036325
 21
636.305525
 31
0.0
  0
LINE
  8
LC-002-002-----0
  6
CONTINUOUS
  5
1D9
 10
1038.56716
 20
660.177896
 30
0.0
 11
988.273926
 21
641.872656
 31
0.0
  0
LINE
  8
LC-002-002-----0
  6
CONTINUOUS
  5
1DA
 10
1044.326169
 20
627.516934
 30
0.0
 11
990.805227
 21
627.516934
 31
0.0
  0
LINE
  8
LC-002-002-----0
  6
CONTINUOUS
  5
1DB
 10
1031.922075
 20
673.809643
 30
0.0
 11
985.57158
 21
647.049173
 31
0.0
  0
LINE
  8
LC-002-002-----0
  6
CONTINUOUS
  5
1DC
 10
1023.010815
 20
686.080387
 30
0.0
 11
982.011395
 21
651.677789
 31
0.0
  0
LINE
  8
LC-002-002-----0
  6
CONTINUOUS
  5
1DD
 10
1012.104146
 20
696.617286
 30
0.0
 11
977.701548
 21
655.617866
 31
0.0
  0
LINE
  8
LC-002-002-----0
  6
CONTINUOUS
  5
1DE
 10
999.533459
 20
705.100182
 30
0.0
 11
972.772989
 21
658.749688
 31
0.0
  0
LINE
  8
LC-002-002-----0
  6
CONTINUOUS
  5
1DF
 10
619.338162
 20
631.26646
 30
0.0
 11
619.338162
 21
623.766748
 31
0.0
  0
LINE
  8
LC-002-002-----0
  6
CONTINUOUS
  5
1E0
 10
651.138246
 20
604.266891
 30
0.0
 11
650.378537
 21
604.266891
 31
0.0
  0
LINE
  8
LC-002-002-----0
  6
CONTINUOUS
  5
1E1
 10
985.680711
 20
711.271328
 30
0.0
 11
967.375471
 21
660.978094
 31
0.0
  0
LINE
  8
LC-002-002-----0
  6
CONTINUOUS
  5
1E2
 10
970.966808
 20
714.943216
 30
0.0
 11
961.672994
 21
662.235378
 31
0.0
  0
LINE
  8
LC-002-002-----0
  6
CONTINUOUS
  5
1E3
 10
955.838826
 20
716.004277
 30
0.0
 11
955.838826
 21
662.483335
 31
0.0
  0
LINE
  8
LC-002-002-----0
  6
CONTINUOUS
  5
1E4
 10
940.756421
 20
714.422271
 30
0.0
 11
950.050235
 21
661.714433
 31
0.0
  0
LINE
  8
LC-002-002-----0
  6
CONTINUOUS
  5
1E5
 10
926.177864
 20
710.245268
 30
0.0
 11
944.483104
 21
659.952034
 31
0.0
  0
LINE
  8
LC-002-002-----0
  6
CONTINUOUS
  5
1E6
 10
912.546117
 20
703.600182
 30
0.0
 11
939.306588
 21
657.249688
 31
0.0
  0
LINE
  8
LC-002-002-----0
  6
CONTINUOUS
  5
1E7
 10
900.275374
 20
694.688923
 30
0.0
 11
934.677972
 21
653.689503
 31
0.0
  0
LINE
  8
LC-002-002-----0
  6
CONTINUOUS
  5
1E8
 10
889.738475
 20
683.782253
 30
0.0
 11
930.737894
 21
649.379655
 31
0.0
  0
LINE
  8
LC-002-002-----0
  6
CONTINUOUS
  5
1E9
 10
881.255578
 20
671.211567
 30
0.0
 11
927.606073
 21
644.451096
 31
0.0
  0
LINE
  8
LC-002-002-----0
  6
CONTINUOUS
  5
1EA
 10
875.084432
 20
657.358818
 30
0.0
 11
925.377666
 21
639.053578
 31
0.0
  0
LINE
  8
LC-002-002-----0
  6
CONTINUOUS
  5
1EB
 10
871.412545
 20
642.644916
 30
0.0
 11
924.120383
 21
633.351102
 31
0.0
  0
LINE
  8
LC-002-002-----0
  6
CONTINUOUS
  5
1EC
 10
870.351484
 20
627.516934
 30
0.0
 11
923.872425
 21
627.516934
 31
0.0
  0
LINE
  8
LC-002-002-----0
  6
CONTINUOUS
  5
1ED
 10
871.933489
 20
612.434529
 30
0.0
 11
924.641327
 21
621.728343
 31
0.0
  0
LINE
  8
LC-002-002-----0
  6
CONTINUOUS
  5
1EE
 10
876.110493
 20
597.855972
 30
0.0
 11
926.403726
 21
616.161212
 31
0.0
  0
LINE
  8
LC-002-002-----0
  6
CONTINUOUS
  5
1EF
 10
882.755578
 20
584.224225
 30
0.0
 11
929.106073
 21
610.984695
 31
0.0
  0
LINE
  8
LC-002-002-----0
  6
CONTINUOUS
  5
1F0
 10
891.666837
 20
571.953481
 30
0.0
 11
932.666257
 21
606.356079
 31
0.0
  0
LINE
  8
LC-002-002-----0
  6
CONTINUOUS
  5
1F1
 10
902.573507
 20
561.416582
 30
0.0
 11
936.976105
 21
602.416002
 31
0.0
  0
LINE
  8
LC-002-002-----0
  6
CONTINUOUS
  5
1F2
 10
915.144193
 20
552.933686
 30
0.0
 11
941.904664
 21
599.284181
 31
0.0
  0
LINE
  8
LC-002-002-----0
  6
CONTINUOUS
  5
1F3
 10
928.996942
 20
546.76254
 30
0.0
 11
947.302182
 21
597.055774
 31
0.0
  0
LINE
  8
LC-002-002-----0
  6
CONTINUOUS
  5
1F4
 10
943.710844
 20
543.090652
 30
0.0
 11
953.004658
 21
595.798491
 31
0.0
  0
LINE
  8
LC-002-002-----0
  6
CONTINUOUS
  5
1F5
 10
958.838826
 20
542.029592
 30
0.0
 11
958.838826
 21
595.550533
 31
0.0
  0
LINE
  8
LC-002-002-----0
  6
CONTINUOUS
  5
1F6
 10
973.921231
 20
543.611597
 30
0.0
 11
964.627418
 21
596.319435
 31
0.0
  0
LINE
  8
LC-002-002-----0
  6
CONTINUOUS
  5
1F7
 10
988.499789
 20
547.7886
 30
0.0
 11
970.194549
 21
598.081834
 31
0.0
  0
LINE
  8
LC-002-002-----0
  6
CONTINUOUS
  5
1F8
 10
1002.131536
 20
554.433686
 30
0.0
 11
975.371065
 21
600.784181
 31
0.0
  0
LINE
  8
LC-002-002-----0
  6
CONTINUOUS
  5
1F9
 10
1014.402279
 20
563.344945
 30
0.0
 11
979.999681
 21
604.344365
 31
0.0
  0
LINE
  8
LC-002-002-----0
  6
CONTINUOUS
  5
1FA
 10
1024.939178
 20
574.251615
 30
0.0
 11
983.939758
 21
608.654213
 31
0.0
  0
LINE
  8
LC-002-002-----0
  6
CONTINUOUS
  5
1FB
 10
1033.422075
 20
586.822301
 30
0.0
 11
987.07158
 21
613.582772
 31
0.0
  0
LINE
  8
LC-002-002-----0
  6
CONTINUOUS
  5
1FC
 10
1039.59322
 20
600.67505
 30
0.0
 11
989.299987
 21
618.98029
 31
0.0
  0
LINE
  8
LC-002-002-----0
  6
CONTINUOUS
  5
1FD
 10
1043.265108
 20
615.388952
 30
0.0
 11
990.55727
 21
624.682766
 31
0.0
  0
LINE
  8
LC-002-002-----0
  6
CONTINUOUS
  5
1FE
 10
1043.265108
 20
642.644916
 30
0.0
 11
990.55727
 21
633.351102
 31
0.0
  0
LINE
  8
LC-002-002-----0
  6
CONTINUOUS
  5
1FF
 10
1039.59322
 20
657.358818
 30
0.0
 11
989.299987
 21
639.053578
 31
0.0
  0
LINE
  8
LC-002-002-----0
  6
CONTINUOUS
  5
200
 10
1033.422075
 20
671.211567
 30
0.0
 11
987.07158
 21
644.451096
 31
0.0
  0
LINE
  8
LC-002-002-----0
  6
CONTINUOUS
  5
201
 10
1024.939178
 20
683.782253
 30
0.0
 11
983.939758
 21
649.379655
 31
0.0
  0
LINE
  8
LC-002-002-----0
  6
CONTINUOUS
  5
202
 10
1014.402279
 20
694.688923
 30
0.0
 11
979.999681
 21
653.689503
 31
0.0
  0
LINE
  8
LC-002-002-----0
  6
CONTINUOUS
  5
203
 10
1002.131536
 20
703.600182
 30
0.0
 11
975.371065
 21
657.249688
 31
0.0
  0
LINE
  8
LC-002-002-----0
  6
CONTINUOUS
  5
204
 10
988.499789
 20
710.245268
 30
0.0
 11
970.194549
 21
659.952034
 31
0.0
  0
LINE
  8
LC-002-002-----0
  6
CONTINUOUS
  5
205
 10
973.921231
 20
714.422271
 30
0.0
 11
964.627418
 21
661.714433
 31
0.0
  0
LINE
  8
LC-002-002-----0
  6
CONTINUOUS
  5
206
 10
958.838826
 20
716.004277
 30
0.0
 11
958.838826
 21
662.483335
 31
0.0
  0
LINE
  8
LC-002-002-----0
  6
CONTINUOUS
  5
207
 10
943.710844
 20
714.943216
 30
0.0
 11
953.004658
 21
662.235378
 31
0.0
  0
LINE
  8
LC-002-002-----0
  6
CONTINUOUS
  5
208
 10
928.996942
 20
711.271328
 30
0.0
 11
947.302182
 21
660.978094
 31
0.0
  0
LINE
  8
LC-002-002-----0
  6
CONTINUOUS
  5
209
 10
915.144193
 20
705.100182
 30
0.0
 11
941.904664
 21
658.749688
 31
0.0
  0
LINE
  8
LC-002-002-----0
  6
CONTINUOUS
  5
20A
 10
902.573507
 20
696.617286
 30
0.0
 11
936.976105
 21
655.617866
 31
0.0
  0
LINE
  8
LC-002-002-----0
  6
CONTINUOUS
  5
20B
 10
891.666837
 20
686.080387
 30
0.0
 11
932.666257
 21
651.677789
 31
0.0
  0
LINE
  8
LC-002-002-----0
  6
CONTINUOUS
  5
20C
 10
882.755578
 20
673.809643
 30
0.0
 11
929.106073
 21
647.049173
 31
0.0
  0
LINE
  8
LC-002-002-----0
  6
CONTINUOUS
  5
20D
 10
876.110493
 20
660.177896
 30
0.0
 11
926.403726
 21
641.872656
 31
0.0
  0
LINE
  8
LC-002-002-----0
  6
CONTINUOUS
  5
20E
 10
871.933489
 20
645.599339
 30
0.0
 11
924.641327
 21
636.305525
 31
0.0
  0
LINE
  8
LC-002-002-----0
  6
CONTINUOUS
  5
20F
 10
870.351484
 20
630.516934
 30
0.0
 11
923.872425
 21
630.516934
 31
0.0
  0
LINE
  8
LC-002-002-----0
  6
CONTINUOUS
  5
210
 10
871.412545
 20
615.388952
 30
0.0
 11
924.120383
 21
624.682766
 31
0.0
  0
LINE
  8
LC-002-002-----0
  6
CONTINUOUS
  5
211
 10
875.084432
 20
600.67505
 30
0.0
 11
925.377666
 21
618.98029
 31
0.0
  0
LINE
  8
LC-002-002-----0
  6
CONTINUOUS
  5
212
 10
881.255578
 20
586.822301
 30
0.0
 11
927.606073
 21
613.582772
 31
0.0
  0
LINE
  8
LC-002-002-----0
  6
CONTINUOUS
  5
213
 10
889.738475
 20
574.251615
 30
0.0
 11
930.737894
 21
608.654213
 31
0.0
  0
LINE
  8
LC-002-002-----0
  6
CONTINUOUS
  5
214
 10
900.275374
 20
563.344945
 30
0.0
 11
934.677972
 21
604.344365
 31
0.0
  0
LINE
  8
LC-002-002-----0
  6
CONTINUOUS
  5
215
 10
912.546117
 20
554.433686
 30
0.0
 11
939.306588
 21
600.784181
 31
0.0
  0
LINE
  8
LC-002-002-----0
  6
CONTINUOUS
  5
216
 10
926.177864
 20
547.7886
 30
0.0
 11
944.483104
 21
598.081834
 31
0.0
  0
LINE
  8
LC-002-002-----0
  6
CONTINUOUS
  5
217
 10
940.756421
 20
543.611597
 30
0.0
 11
950.050235
 21
596.319435
 31
0.0
  0
LINE
  8
LC-002-002-----0
  6
CONTINUOUS
  5
218
 10
955.838826
 20
542.029592
 30
0.0
 11
955.838826
 21
595.550533
 31
0.0
  0
LINE
  8
LC-002-002-----0
  6
CONTINUOUS
  5
219
 10
970.966808
 20
543.090652
 30
0.0
 11
961.672994
 21
595.798491
 31
0.0
  0
LINE
  8
LC-002-002-----0
  6
CONTINUOUS
  5
21A
 10
985.680711
 20
546.76254
 30
0.0
 11
967.375471
 21
597.055774
 31
0.0
  0
LINE
  8
LC-002-002-----0
  6
CONTINUOUS
  5
21B
 10
999.533459
 20
552.933686
 30
0.0
 11
972.772989
 21
599.284181
 31
0.0
  0
LINE
  8
LC-002-002-----0
  6
CONTINUOUS
  5
21C
 10
1012.104146
 20
561.416582
 30
0.0
 11
977.701548
 21
602.416002
 31
0.0
  0
LINE
  8
LC-002-002-----0
  6
CONTINUOUS
  5
21D
 10
1023.010815
 20
571.953481
 30
0.0
 11
982.011395
 21
606.356079
 31
0.0
  0
LINE
  8
LC-002-002-----0
  6
CONTINUOUS
  5
21E
 10
1031.922075
 20
584.224225
 30
0.0
 11
985.57158
 21
610.984695
 31
0.0
  0
LINE
  8
LC-002-002-----0
  6
CONTINUOUS
  5
21F
 10
1038.56716
 20
597.855972
 30
0.0
 11
988.273926
 21
616.161212
 31
0.0
  0
LINE
  8
LC-002-002-----0
  6
CONTINUOUS
  5
220
 10
1042.744163
 20
612.434529
 30
0.0
 11
990.036325
 21
621.728343
 31
0.0
  0
LINE
  8
LC-002-002-----0
  6
CONTINUOUS
  5
221
 10
971.521632
 20
656.582275
 30
0.0
 11
959.714023
 21
636.130895
 31
0.0
  0
ARC
  8
LC-002-002-----0
  6
CONTINUOUS
  5
222
 10
957.338826
 20
629.016934
 30
0.0
 40
87.000274
 50
9.012096
 51
10.987904
  0
ARC
  8
LC-002-002-----0
  6
CONTINUOUS
  5
223
 10
957.338826
 20
629.016934
 30
0.0
 40
87.000274
 50
359.012096
 51
0.987904
  0
ARC
  8
LC-002-002-----0
  6
CONTINUOUS
  5
224
 10
957.338826
 20
629.016934
 30
0.0
 40
87.000274
 50
349.012096
 51
350.987904
  0
ARC
  8
LC-002-002-----0
  6
CONTINUOUS
  5
225
 10
957.338826
 20
629.016934
 30
0.0
 40
87.000274
 50
339.012096
 51
340.987904
  0
ARC
  8
LC-002-002-----0
  6
CONTINUOUS
  5
226
 10
957.338826
 20
629.016934
 30
0.0
 40
87.000274
 50
329.012096
 51
331.014737
  0
ARC
  8
LC-002-002-----0
  6
CONTINUOUS
  5
227
 10
957.338826
 20
629.016934
 30
0.0
 40
87.000274
 50
319.012096
 51
320.987904
  0
ARC
  8
LC-002-002-----0
  6
CONTINUOUS
  5
228
 10
957.338826
 20
629.016934
 30
0.0
 40
87.000274
 50
309.012096
 51
310.987904
  0
ARC
  8
LC-002-002-----0
  6
CONTINUOUS
  5
229
 10
957.338826
 20
629.016934
 30
0.0
 40
87.000274
 50
299.012096
 51
300.987904
  0
ARC
  8
LC-002-002-----0
  6
CONTINUOUS
  5
22A
 10
957.338826
 20
629.016934
 30
0.0
 40
87.000274
 50
289.012096
 51
290.987904
  0
ARC
  8
LC-002-002-----0
  6
CONTINUOUS
  5
22B
 10
957.338826
 20
629.016934
 30
0.0
 40
87.000274
 50
279.012096
 51
280.987904
  0
ARC
  8
LC-002-002-----0
  6
CONTINUOUS
  5
22C
 10
957.338826
 20
629.016934
 30
0.0
 40
87.000274
 50
269.012096
 51
270.987904
  0
ARC
  8
LC-002-002-----0
  6
CONTINUOUS
  5
22D
 10
957.338826
 20
629.016934
 30
0.0
 40
87.000274
 50
259.012096
 51
260.987904
  0
ARC
  8
LC-002-002-----0
  6
CONTINUOUS
  5
22E
 10
957.338826
 20
629.016934
 30
0.0
 40
87.000274
 50
249.012096
 51
250.987904
  0
ARC
  8
LC-002-002-----0
  6
CONTINUOUS
  5
22F
 10
957.338826
 20
629.016934
 30
0.0
 40
87.000274
 50
239.012096
 51
240.987904
  0
ARC
  8
LC-002-002-----0
  6
CONTINUOUS
  5
230
 10
957.338826
 20
629.016934
 30
0.0
 40
87.000274
 50
229.012096
 51
230.987904
  0
ARC
  8
LC-002-002-----0
  6
CONTINUOUS
  5
231
 10
957.338826
 20
629.016934
 30
0.0
 40
87.000274
 50
219.012096
 51
220.987904
  0
ARC
  8
LC-002-002-----0
  6
CONTINUOUS
  5
232
 10
957.338826
 20
629.016934
 30
0.0
 40
87.000274
 50
209.012096
 51
210.987904
  0
ARC
  8
LC-002-002-----0
  6
CONTINUOUS
  5
233
 10
957.338826
 20
629.016934
 30
0.0
 40
87.000274
 50
199.012096
 51
200.987904
  0
ARC
  8
LC-002-002-----0
  6
CONTINUOUS
  5
234
 10
957.338826
 20
629.016934
 30
0.0
 40
87.000274
 50
189.012096
 51
190.987904
  0
ARC
  8
LC-002-002-----0
  6
CONTINUOUS
  5
235
 10
957.338826
 20
629.016934
 30
0.0
 40
87.000274
 50
179.012096
 51
180.987904
  0
ARC
  8
LC-002-002-----0
  6
CONTINUOUS
  5
236
 10
957.338826
 20
629.016934
 30
0.0
 40
87.000274
 50
169.012096
 51
170.987904
  0
ARC
  8
LC-002-002-----0
  6
CONTINUOUS
  5
237
 10
957.338826
 20
629.016934
 30
0.0
 40
87.000274
 50
159.012096
 51
160.987904
  0
ARC
  8
LC-002-002-----0
  6
CONTINUOUS
  5
238
 10
957.338826
 20
629.016934
 30
0.0
 40
87.000274
 50
149.012096
 51
150.987904
  0
ARC
  8
LC-002-002-----0
  6
CONTINUOUS
  5
239
 10
957.338826
 20
629.016934
 30
0.0
 40
87.000274
 50
139.012096
 51
140.987904
  0
ARC
  8
LC-002-002-----0
  6
CONTINUOUS
  5
23A
 10
957.338826
 20
629.016934
 30
0.0
 40
87.000274
 50
129.012096
 51
130.987904
  0
ARC
  8
LC-002-002-----0
  6
CONTINUOUS
  5
23B
 10
957.338826
 20
629.016934
 30
0.0
 40
87.000274
 50
119.012096
 51
120.987904
  0
ARC
  8
LC-002-002-----0
  6
CONTINUOUS
  5
23C
 10
957.338826
 20
629.016934
 30
0.0
 40
87.000274
 50
109.012096
 51
110.987904
  0
ARC
  8
LC-002-002-----0
  6
CONTINUOUS
  5
23D
 10
957.338826
 20
629.016934
 30
0.0
 40
87.000274
 50
99.012096
 51
100.987904
  0
ARC
  8
LC-002-002-----0
  6
CONTINUOUS
  5
23E
 10
957.338826
 20
629.016934
 30
0.0
 40
87.000274
 50
89.012096
 51
90.987904
  0
ARC
  8
LC-002-002-----0
  6
CONTINUOUS
  5
23F
 10
957.338826
 20
629.016934
 30
0.0
 40
87.000274
 50
79.012096
 51
80.987904
  0
ARC
  8
LC-002-002-----0
  6
CONTINUOUS
  5
240
 10
957.338826
 20
629.016934
 30
0.0
 40
87.000274
 50
69.012096
 51
70.987904
  0
ARC
  8
LC-002-002-----0
  6
CONTINUOUS
  5
241
 10
957.338826
 20
629.016934
 30
0.0
 40
87.000274
 50
59.012096
 51
60.987904
  0
ARC
  8
LC-002-002-----0
  6
CONTINUOUS
  5
242
 10
957.338826
 20
629.016934
 30
0.0
 40
87.000274
 50
49.012096
 51
50.987904
  0
ARC
  8
LC-002-002-----0
  6
CONTINUOUS
  5
243
 10
957.338826
 20
629.016934
 30
0.0
 40
87.000274
 50
39.012096
 51
40.987904
  0
ARC
  8
LC-002-002-----0
  6
CONTINUOUS
  5
244
 10
957.338826
 20
629.016934
 30
0.0
 40
87.000274
 50
28.985263
 51
30.987904
  0
ARC
  8
LC-002-002-----0
  6
DASHED
 62
     2
  5
245
 10
957.338826
 20
629.016934
 30
0.0
 40
72.999992
 50
8.822606
 51
9.26256
  0
ARC
  8
LC-002-002-----0
  6
CONTINUOUS
  5
246
 10
957.338826
 20
629.016934
 30
0.0
 40
72.999992
 50
51.177394
 51
58.822606
  0
ARC
  8
LC-002-002-----0
  6
CONTINUOUS
  5
247
 10
957.338826
 20
629.016934
 30
0.0
 40
72.999992
 50
61.177394
 51
68.822606
  0
ARC
  8
LC-002-002-----0
  6
CONTINUOUS
  5
248
 10
957.338826
 20
629.016934
 30
0.0
 40
72.999992
 50
71.177394
 51
78.822606
  0
ARC
  8
LC-002-002-----0
  6
CONTINUOUS
  5
249
 10
957.338826
 20
629.016934
 30
0.0
 40
72.999992
 50
81.177394
 51
88.822606
  0
ARC
  8
LC-002-002-----0
  6
CONTINUOUS
  5
24A
 10
957.338826
 20
629.016934
 30
0.0
 40
72.999992
 50
101.177394
 51
108.822606
  0
ARC
  8
LC-002-002-----0
  6
CONTINUOUS
  5
24B
 10
957.338826
 20
629.016934
 30
0.0
 40
72.999992
 50
91.177394
 51
98.822606
  0
ARC
  8
LC-002-002-----0
  6
CONTINUOUS
  5
24C
 10
957.338826
 20
629.016934
 30
0.0
 40
72.999992
 50
111.177394
 51
118.822606
  0
ARC
  8
LC-002-002-----0
  6
CONTINUOUS
  5
24D
 10
957.338826
 20
629.016934
 30
0.0
 40
72.999992
 50
121.177394
 51
128.822606
  0
ARC
  8
LC-002-002-----0
  6
CONTINUOUS
  5
24E
 10
957.338826
 20
629.016934
 30
0.0
 40
72.999992
 50
131.177394
 51
138.822606
  0
ARC
  8
LC-002-002-----0
  6
CONTINUOUS
  5
24F
 10
957.338826
 20
629.016934
 30
0.0
 40
72.999992
 50
141.177394
 51
148.822606
  0
ARC
  8
LC-002-002-----0
  6
CONTINUOUS
  5
250
 10
957.338826
 20
629.016934
 30
0.0
 40
72.999992
 50
151.177394
 51
158.822606
  0
ARC
  8
LC-002-002-----0
  6
CONTINUOUS
  5
251
 10
957.338826
 20
629.016934
 30
0.0
 40
72.999992
 50
161.177394
 51
168.822606
  0
ARC
  8
LC-002-002-----0
  6
CONTINUOUS
  5
252
 10
957.338826
 20
629.016934
 30
0.0
 40
72.999992
 50
171.177394
 51
178.822606
  0
ARC
  8
LC-002-002-----0
  6
CONTINUOUS
  5
253
 10
957.338826
 20
629.016934
 30
0.0
 40
72.999992
 50
191.177394
 51
198.822606
  0
ARC
  8
LC-002-002-----0
  6
CONTINUOUS
  5
254
 10
957.338826
 20
629.016934
 30
0.0
 40
72.999992
 50
181.177394
 51
188.822606
  0
ARC
  8
LC-002-002-----0
  6
CONTINUOUS
  5
255
 10
957.338826
 20
629.016934
 30
0.0
 40
72.999992
 50
201.177394
 51
208.822606
  0
ARC
  8
LC-002-002-----0
  6
CONTINUOUS
  5
256
 10
957.338826
 20
629.016934
 30
0.0
 40
72.999992
 50
211.177394
 51
218.822606
  0
ARC
  8
LC-002-002-----0
  6
CONTINUOUS
  5
257
 10
957.338826
 20
629.016934
 30
0.0
 40
72.999992
 50
221.177394
 51
228.822606
  0
ARC
  8
LC-002-002-----0
  6
CONTINUOUS
  5
258
 10
957.338826
 20
629.016934
 30
0.0
 40
72.999992
 50
231.177394
 51
238.822606
  0
ARC
  8
LC-002-002-----0
  6
CONTINUOUS
  5
259
 10
957.338826
 20
629.016934
 30
0.0
 40
72.999992
 50
241.177394
 51
248.822606
  0
ARC
  8
LC-002-002-----0
  6
CONTINUOUS
  5
25A
 10
957.338826
 20
629.016934
 30
0.0
 40
72.999992
 50
251.177394
 51
258.822606
  0
ARC
  8
LC-002-002-----0
  6
CONTINUOUS
  5
25B
 10
957.338826
 20
629.016934
 30
0.0
 40
72.999992
 50
261.177394
 51
268.822606
  0
ARC
  8
LC-002-002-----0
  6
CONTINUOUS
  5
25C
 10
957.338826
 20
629.016934
 30
0.0
 40
72.999992
 50
271.177394
 51
278.822606
  0
ARC
  8
LC-002-002-----0
  6
CONTINUOUS
  5
25D
 10
957.338826
 20
629.016934
 30
0.0
 40
72.999992
 50
281.177394
 51
288.822606
  0
ARC
  8
LC-002-002-----0
  6
CONTINUOUS
  5
25E
 10
957.338826
 20
629.016934
 30
0.0
 40
72.999992
 50
291.177394
 51
298.822606
  0
ARC
  8
LC-002-002-----0
  6
CONTINUOUS
  5
25F
 10
957.338826
 20
629.016934
 30
0.0
 40
72.999992
 50
301.177394
 51
308.822606
  0
ARC
  8
LC-002-002-----0
  6
CONTINUOUS
  5
260
 10
957.338826
 20
629.016934
 30
0.0
 40
72.999992
 50
311.177394
 51
318.822606
  0
ARC
  8
LC-002-002-----0
  6
CONTINUOUS
  5
261
 10
957.338826
 20
629.016934
 30
0.0
 40
72.999992
 50
321.177394
 51
328.822606
  0
ARC
  8
LC-002-002-----0
  6
CONTINUOUS
  5
262
 10
957.338826
 20
629.016934
 30
0.0
 40
72.999992
 50
331.177394
 51
338.822606
  0
ARC
  8
LC-002-002-----0
  6
CONTINUOUS
  5
263
 10
957.338826
 20
629.016934
 30
0.0
 40
72.999992
 50
341.177394
 51
348.822606
  0
LINE
  8
LC-002-002-----0
  6
CONTINUOUS
  5
264
 10
717.338121
 20
631.266869
 30
0.0
 11
701.338165
 21
631.266802
 31
0.0
  0
ARC
  8
LC-002-002-----0
  6
CONTINUOUS
  5
265
 10
957.338826
 20
629.016934
 30
0.0
 40
71.000008
 50
351.210564
 51
358.789436
  0
LINE
  8
LC-002-002-----0
  6
CONTINUOUS
  5
266
 10
974.119709
 20
655.082275
 30
0.0
 11
962.312099
 21
634.630895
 31
0.0
  0
ARC
  8
LC-002-002-----0
  6
CONTINUOUS
  5
267
 10
957.338826
 20
629.016934
 30
0.0
 40
71.000008
 50
11.210564
 51
18.789436
  0
ARC
  8
LC-002-002-----0
  6
CONTINUOUS
  5
268
 10
957.338826
 20
629.016934
 30
0.0
 40
71.000008
 50
21.210564
 51
28.789436
  0
ARC
  8
LC-002-002-----0
  6
CONTINUOUS
  5
269
 10
957.338826
 20
629.016934
 30
0.0
 40
71.000008
 50
31.210564
 51
38.789436
  0
ARC
  8
LC-002-002-----0
  6
CONTINUOUS
  5
26A
 10
957.338826
 20
629.016934
 30
0.0
 40
71.000008
 50
41.210564
 51
48.789436
  0
ARC
  8
LC-002-002-----0
  6
CONTINUOUS
  5
26B
 10
957.338826
 20
629.016934
 30
0.0
 40
71.000008
 50
51.210564
 51
58.789436
  0
ARC
  8
LC-002-002-----0
  6
CONTINUOUS
  5
26C
 10
957.338826
 20
629.016934
 30
0.0
 40
71.000008
 50
61.210564
 51
68.789436
  0
ARC
  8
LC-002-002-----0
  6
CONTINUOUS
  5
26D
 10
957.338826
 20
629.016934
 30
0.0
 40
71.000008
 50
71.210564
 51
78.789436
  0
ARC
  8
LC-002-002-----0
  6
CONTINUOUS
  5
26E
 10
957.338826
 20
629.016934
 30
0.0
 40
71.000008
 50
81.210564
 51
88.789436
  0
ARC
  8
LC-002-002-----0
  6
CONTINUOUS
  5
26F
 10
957.338826
 20
629.016934
 30
0.0
 40
71.000008
 50
91.210564
 51
98.789436
  0
ARC
  8
LC-002-002-----0
  6
CONTINUOUS
  5
270
 10
957.338826
 20
629.016934
 30
0.0
 40
71.000008
 50
101.210564
 51
108.789436
  0
ARC
  8
LC-002-002-----0
  6
CONTINUOUS
  5
271
 10
957.338826
 20
629.016934
 30
0.0
 40
71.000008
 50
111.210564
 51
118.789436
  0
ARC
  8
LC-002-002-----0
  6
CONTINUOUS
  5
272
 10
957.338826
 20
629.016934
 30
0.0
 40
71.000008
 50
121.210564
 51
128.789436
  0
LINE
  8
LC-002-002-----0
  6
CONTINUOUS
  5
273
 10
652.859448
 20
602.267205
 30
0.0
 11
652.859448
 21
614.766597
 31
0.0
  0
ARC
  8
LC-002-002-----0
  6
CONTINUOUS
  5
274
 10
957.338826
 20
629.016934
 30
0.0
 40
71.000008
 50
131.210564
 51
138.789436
  0
ARC
  8
LC-002-002-----0
  6
CONTINUOUS
  5
275
 10
957.338826
 20
629.016934
 30
0.0
 40
71.000008
 50
141.210564
 51
148.789436
  0
LINE
  8
LC-002-002-----0
  6
CONTINUOUS
  5
276
 10
701.338165
 20
631.266802
 30
0.0
 11
701.338152
 21
640.766683
 31
0.0
  0
LINE
  8
LC-008-006-MLN-0
  6
DASHDOT
  5
27A
 10
697.338201
 20
604.766785
 30
0.0
 11
697.338134
 21
653.266683
 31
0.0
  0
ARC
  8
LC-002-002-----0
  6
CONTINUOUS
  5
27B
 10
957.338826
 20
629.016934
 30
0.0
 40
71.000008
 50
151.210564
 51
158.789436
  0
ARC
  8
LC-002-002-----0
  6
CONTINUOUS
  5
27C
 10
957.338826
 20
629.016934
 30
0.0
 40
71.000008
 50
161.210564
 51
168.789436
  0
ARC
  8
LC-002-002-----0
  6
CONTINUOUS
  5
27D
 10
957.338826
 20
629.016934
 30
0.0
 40
71.000008
 50
171.210564
 51
178.789436
  0
ARC
  8
LC-002-002-----0
  6
CONTINUOUS
  5
27E
 10
957.338826
 20
629.016934
 30
0.0
 40
71.000008
 50
181.210564
 51
188.789436
  0
ARC
  8
LC-002-002-----0
  6
CONTINUOUS
  5
27F
 10
957.338826
 20
629.016934
 30
0.0
 40
71.000008
 50
191.210564
 51
198.789436
  0
ARC
  8
LC-002-002-----0
  6
CONTINUOUS
  5
280
 10
957.338826
 20
629.016934
 30
0.0
 40
71.000008
 50
201.210564
 51
208.789436
  0
ARC
  8
LC-002-002-----0
  6
CONTINUOUS
  5
281
 10
957.338826
 20
629.016934
 30
0.0
 40
71.000008
 50
211.210564
 51
218.789436
  0
ARC
  8
LC-002-002-----0
  6
CONTINUOUS
  5
282
 10
957.338826
 20
629.016934
 30
0.0
 40
71.000008
 50
221.210564
 51
228.789436
  0
ARC
  8
LC-002-002-----0
  6
CONTINUOUS
  5
283
 10
957.338826
 20
629.016934
 30
0.0
 40
71.000008
 50
231.210564
 51
238.789436
  0
ARC
  8
LC-002-002-----0
  6
CONTINUOUS
  5
284
 10
957.338826
 20
629.016934
 30
0.0
 40
71.000008
 50
241.210564
 51
248.789436
  0
ARC
  8
LC-002-002-----0
  6
CONTINUOUS
  5
285
 10
957.338826
 20
629.016934
 30
0.0
 40
71.000008
 50
251.210564
 51
258.789436
  0
ARC
  8
LC-002-002-----0
  6
CONTINUOUS
  5
286
 10
957.338826
 20
629.016934
 30
0.0
 40
71.000008
 50
261.210564
 51
268.789436
  0
ARC
  8
LC-002-002-----0
  6
CONTINUOUS
  5
287
 10
957.338826
 20
629.016934
 30
0.0
 40
71.000008
 50
271.210564
 51
278.789436
  0
ARC
  8
LC-002-002-----0
  6
CONTINUOUS
  5
288
 10
957.338826
 20
629.016934
 30
0.0
 40
71.000008
 50
281.210564
 51
288.789436
  0
ARC
  8
LC-002-002-----0
  6
CONTINUOUS
  5
289
 10
957.338826
 20
629.016934
 30
0.0
 40
71.000008
 50
291.210564
 51
298.789436
  0
ARC
  8
LC-002-002-----0
  6
CONTINUOUS
  5
28A
 10
957.338826
 20
629.016934
 30
0.0
 40
71.000008
 50
301.210564
 51
308.789436
  0
ARC
  8
LC-002-002-----0
  6
CONTINUOUS
  5
28B
 10
957.338826
 20
629.016934
 30
0.0
 40
71.000008
 50
311.210564
 51
318.789436
  0
ARC
  8
LC-002-002-----0
  6
CONTINUOUS
  5
28C
 10
957.338826
 20
629.016934
 30
0.0
 40
71.000008
 50
321.210564
 51
328.789436
  0
ARC
  8
LC-002-002-----0
  6
CONTINUOUS
  5
28D
 10
957.338826
 20
629.016934
 30
0.0
 40
71.000008
 50
331.210564
 51
338.789436
  0
LINE
  8
LC-002-002-----0
  6
CONTINUOUS
  5
28E
 10
614.838178
 20
631.266437
 30
0.0
 11
611.838203
 21
632.998463
 31
0.0
  0
LINE
  8
LC-002-002-----0
  6
CONTINUOUS
  5
28F
 10
619.338162
 20
623.766748
 30
0.0
 11
624.337928
 21
623.766748
 31
0.0
  0
LINE
  8
LC-002-002-----0
  6
CONTINUOUS
  5
290
 10
775.338168
 20
631.266674
 30
0.0
 11
779.838151
 21
631.266674
 31
0.0
  0
LINE
  8
LC-002-002-----0
  6
CONTINUOUS
  5
291
 10
767.338495
 20
631.266682
 30
0.0
 11
767.336275
 21
602.267205
 31
0.0
  0
LINE
  8
LC-002-002-----0
  6
CONTINUOUS
  5
292
 10
775.338168
 20
631.266674
 30
0.0
 11
775.338188
 21
623.766962
 31
0.0
  0
LINE
  8
LC-002-002-----0
  6
CONTINUOUS
  5
293
 10
983.404167
 20
645.797816
 30
0.0
 11
962.952787
 21
633.990207
 31
0.0
  0
LINE
  8
LC-002-002-----0
  6
CONTINUOUS
  5
294
 10
717.338121
 20
631.266755
 30
0.0
 11
767.338495
 21
631.266682
 31
0.0
  0
LINE
  8
LC-002-002-----0
  6
CONTINUOUS
  5
295
 10
984.904167
 20
643.19974
 30
0.0
 11
964.452787
 21
631.392131
 31
0.0
  0
ARC
  8
LC-007-002-RND-0
  6
CONTINUOUS
  5
296
 10
772.838387
 20
603.266891
 30
0.0
 40
1.0
 50
0.000079
 51
90.000157
  0
ARC
  8
LC-007-002-RND-0
  6
CONTINUOUS
  5
297
 10
772.838387
 20
603.266891
 30
0.0
 40
1.0
 50
270.000157
 51
0.000079
  0
LINE
  8
LC-002-002-----0
  6
CONTINUOUS
  5
298
 10
772.842293
 20
602.266899
 30
0.0
 11
767.336275
 21
602.267205
 31
0.0
  0
LINE
  8
LC-002-002-----0
  6
CONTINUOUS
  5
299
 10
988.302515
 20
630.516934
 30
0.0
 11
964.687296
 21
630.516934
 31
0.0
  0
LINE
  8
LC-002-002-----0
  6
CONTINUOUS
  5
29A
 10
779.838169
 20
631.266674
 30
0.0
 11
782.838162
 21
632.998721
 31
0.0
  0
LINE
  8
LC-002-002-----0
  6
CONTINUOUS
  5
29B
 10
988.302515
 20
627.516934
 30
0.0
 11
964.687296
 21
627.516934
 31
0.0
  0
LINE
  8
LC-002-002-----0
  6
CONTINUOUS
  5
29C
 10
775.338188
 20
623.766962
 30
0.0
 11
770.338422
 21
623.766949
 31
0.0
  0
LINE
  8
LC-002-002-----0
  6
CONTINUOUS
  5
29D
 10
693.338165
 20
631.266768
 30
0.0
 11
693.338152
 21
640.766683
 31
0.0
  0
LINE
  8
LC-002-002-----0
  6
CONTINUOUS
  5
29E
 10
701.338152
 20
640.766683
 30
0.0
 11
693.338152
 21
640.766683
 31
0.0
  0
LINE
  8
LC-002-002-----0
  6
CONTINUOUS
  5
29F
 10
984.904167
 20
614.834128
 30
0.0
 11
964.452787
 21
626.641738
 31
0.0
  0
LINE
  8
LC-002-002-----0
  6
CONTINUOUS
  5
2A0
 10
983.404167
 20
612.236052
 30
0.0
 11
962.952787
 21
624.043661
 31
0.0
  0
LINE
  8
LC-002-002-----0
  6
CONTINUOUS
  5
2A1
 10
701.338165
 20
631.266802
 30
0.0
 11
627.337834
 21
631.26649
 31
0.0
  0
LINE
  8
LC-002-002-----0
  6
CONTINUOUS
  5
2A2
 10
974.119709
 20
602.951593
 30
0.0
 11
962.312099
 21
623.402973
 31
0.0
  0
LINE
  8
LC-002-002-----0
  6
CONTINUOUS
  5
2A3
 10
971.521632
 20
601.451593
 30
0.0
 11
959.714023
 21
621.902973
 31
0.0
  0
LINE
  8
LC-002-002-----0
  6
CONTINUOUS
  5
2A4
 10
958.838826
 20
598.053246
 30
0.0
 11
958.838826
 21
621.668465
 31
0.0
  0
LINE
  8
LC-002-002-----0
  6
CONTINUOUS
  5
2A5
 10
955.838826
 20
598.053246
 30
0.0
 11
955.838826
 21
621.668465
 31
0.0
  0
LINE
  8
LC-003-003-----0
  6
CONTINUOUS
  5
2A6
 10
773.838387
 20
603.266893
 30
0.0
 11
773.838387
 21
589.962852
 31
0.0
  0
LINE
  8
LC-002-002-----0
  6
CONTINUOUS
  5
2A7
 10
943.15602
 20
601.451593
 30
0.0
 11
954.96363
 21
621.902973
 31
0.0
  0
LINE
  8
LC-002-002-----0
  6
CONTINUOUS
  5
2A8
 10
940.557944
 20
602.951593
 30
0.0
 11
952.365554
 21
623.402973
 31
0.0
  0
LINE
  8
LC-002-002-----0
  6
CONTINUOUS
  5
2A9
 10
931.273486
 20
612.236052
 30
0.0
 11
951.724865
 21
624.043661
 31
0.0
  0
LINE
  8
LC-002-002-----0
  6
CONTINUOUS
  5
2AA
 10
929.773486
 20
614.834128
 30
0.0
 11
950.224865
 21
626.641738
 31
0.0
  0
LINE
  8
LC-002-002-----0
  6
CONTINUOUS
  5
2AB
 10
926.375138
 20
627.516934
 30
0.0
 11
949.990357
 21
627.516934
 31
0.0
  0
LINE
  8
LC-002-002-----0
  6
CONTINUOUS
  5
2AC
 10
926.375138
 20
630.516934
 30
0.0
 11
949.990357
 21
630.516934
 31
0.0
  0
LINE
  8
LC-002-002-----0
  6
CONTINUOUS
  5
2AD
 10
958.838826
 20
659.980622
 30
0.0
 11
958.838826
 21
636.365403
 31
0.0
  0
LINE
  8
LC-002-002-----0
  6
CONTINUOUS
  5
2AE
 10
955.838826
 20
659.980622
 30
0.0
 11
955.838826
 21
636.365403
 31
0.0
  0
LINE
  8
LC-002-002-----0
  6
CONTINUOUS
  5
2AF
 10
943.15602
 20
656.582275
 30
0.0
 11
954.96363
 21
636.130895
 31
0.0
  0
LINE
  8
LC-002-002-----0
  6
CONTINUOUS
  5
2B0
 10
940.557944
 20
655.082275
 30
0.0
 11
952.365554
 21
634.630895
 31
0.0
  0
LINE
  8
LC-002-002-----0
  6
CONTINUOUS
  5
2B1
 10
931.273486
 20
645.797816
 30
0.0
 11
951.724865
 21
633.990207
 31
0.0
  0
LINE
  8
LC-002-002-----0
  6
CONTINUOUS
  5
2B2
 10
929.773486
 20
643.19974
 30
0.0
 11
950.224865
 21
631.392131
 31
0.0
  0
LINE
  8
LC-002-002-----0
  6
CONTINUOUS
  5
2B3
 10
652.859448
 20
614.766597
 30
0.0
 11
624.338187
 21
614.766477
 31
0.0
  0
ENDSEC
  0
EOF
