  0
SECTION
  2
HEADER
  9
$ACADVER
  1
AC1015
  9
$ACADMAINTVER
 70
     6
  9
$DWGCODEPAGE
  3
ANSI_1252
  9
$INSBASE
 10
-155.805722
 20
224.12296
 30
0.0
  9
$EXTMIN
 10
-155.805722
 20
224.12296
 30
0.0
  9
$EXTMAX
 10
684.194278
 20
818.12296
 30
0.0
  9
$LIMMIN
 10
-155.805722
 20
224.12296
  9
$LIMMAX
 10
684.194278
 20
818.12296
  9
$ORTHOMODE
 70
     0
  9
$REGENMODE
 70
     1
  9
$FILLMODE
 70
     1
  9
$QTEXTMODE
 70
     0
  9
$MIRRTEXT
 70
     1
  9
$LTSCALE
 40
2.0
  9
$ATTMODE
 70
     1
  9
$TEXTSIZE
 40
2.5
  9
$TRACEWID
 40
1.0
  9
$TEXTSTYLE
  7
Standard
  9
$CLAYER
  8
0
  9
$CELTYPE
  6
ByLayer
  9
$CECOLOR
 62
     7
  9
$CELTSCALE
 40
1.0
  9
$DISPSILH
 70
     0
  9
$DIMSCALE
 40
2.0
  9
$DIMASZ
 40
3.5
  9
$DIMEXO
 40
0.625
  9
$DIMDLI
 40
3.75
  9
$DIMRND
 40
0.0
  9
$DIMDLE
 40
0.0
  9
$DIMEXE
 40
1.25
  9
$DIMTP
 40
0.0
  9
$DIMTM
 40
0.0
  9
$DIMTXT
 40
3.5
  9
$DIMCEN
 40
2.5
  9
$DIMTSZ
 40
0.0
  9
$DIMTOL
 70
     0
  9
$DIMLIM
 70
     0
  9
$DIMTIH
 70
     0
  9
$DIMTOH
 70
     0
  9
$DIMSE1
 70
     0
  9
$DIMSE2
 70
     0
  9
$DIMTAD
 70
     1
  9
$DIMZIN
 70
     8
  9
$DIMBLK
  1

  9
$DIMASO
 70
     1
  9
$DIMSHO
 70
     1
  9
$DIMPOST
  1

  9
$DIMAPOST
  1

  9
$DIMALT
 70
     0
  9
$DIMALTD
 70
     3
  9
$DIMALTF
 40
0.03937
  9
$DIMLFAC
 40
1.0
  9
$DIMTOFL
 70
     1
  9
$DIMTVP
 40
0.0
  9
$DIMTIX
 70
     0
  9
$DIMSOXD
 70
     0
  9
$DIMSAH
 70
     0
  9
$DIMBLK1
  1

  9
$DIMBLK2
  1

  9
$DIMSTYLE
  2
ISO-25
  9
$DIMCLRD
 70
     0
  9
$DIMCLRE
 70
     0
  9
$DIMCLRT
 70
     0
  9
$DIMTFAC
 40
1.0
  9
$DIMGAP
 40
0.625
  9
$DIMJUST
 70
     0
  9
$DIMSD1
 70
     0
  9
$DIMSD2
 70
     0
  9
$DIMTOLJ
 70
     0
  9
$DIMTZIN
 70
     8
  9
$DIMALTZ
 70
     0
  9
$DIMALTTZ
 70
     0
  9
$DIMUPT
 70
     0
  9
$DIMDEC
 70
     2
  9
$DIMTDEC
 70
     2
  9
$DIMALTU
 70
     2
  9
$DIMALTTD
 70
     3
  9
$DIMTXSTY
  7
Standard
  9
$DIMAUNIT
 70
     0
  9
$DIMADEC
 70
     0
  9
$DIMALTRND
 40
0.0
  9
$DIMAZIN
 70
     0
  9
$DIMDSEP
 70
    44
  9
$DIMATFIT
 70
     3
  9
$DIMFRAC
 70
     0
  9
$DIMLDRBLK
  1

  9
$DIMLUNIT
 70
     2
  9
$DIMLWD
 70
    -2
  9
$DIMLWE
 70
    -2
  9
$DIMTMOVE
 70
     0
  9
$LUNITS
 70
     2
  9
$LUPREC
 70
     4
  9
$SKETCHINC
 40
1.0
  9
$FILLETRAD
 40
10.0
  9
$AUNITS
 70
     0
  9
$AUPREC
 70
     0
  9
$MENU
  1
.
  9
$ELEVATION
 40
0.0
  9
$PELEVATION
 40
0.0
  9
$THICKNESS
 40
0.0
  9
$LIMCHECK
 70
     0
  9
$CHAMFERA
 40
10.0
  9
$CHAMFERB
 40
10.0
  9
$CHAMFERC
 40
20.0
  9
$CHAMFERD
 40
0.0
  9
$SKPOLY
 70
     0
  9
$TDCREATE
 40
2455404.433838021
  9
$TDUCREATE
 40
2455404.350504688
  9
$TDUPDATE
 40
2455404.433838032
  9
$TDUUPDATE
 40
2455404.350504699
  9
$TDINDWG
 40
0.0000000116
  9
$TDUSRTIMER
 40
0.0000000116
  9
$USRTIMER
 70
     1
  9
$ANGBASE
 50
0.0
  9
$ANGDIR
 70
     0
  9
$PDMODE
 70
     0
  9
$PDSIZE
 40
0.0
  9
$PLINEWID
 40
0.0
  9
$SPLFRAME
 70
     0
  9
$SPLINETYPE
 70
     6
  9
$SPLINESEGS
 70
     8
  9
$HANDSEED
  5
45B
  9
$SURFTAB1
 70
     6
  9
$SURFTAB2
 70
     6
  9
$SURFTYPE
 70
     6
  9
$SURFU
 70
     6
  9
$SURFV
 70
     6
  9
$UCSBASE
  2

  9
$UCSNAME
  2

  9
$UCSORG
 10
0.0
 20
0.0
 30
0.0
  9
$UCSXDIR
 10
1.0
 20
0.0
 30
0.0
  9
$UCSYDIR
 10
0.0
 20
1.0
 30
0.0
  9
$UCSORTHOREF
  2

  9
$UCSORTHOVIEW
 70
     0
  9
$UCSORGTOP
 10
0.0
 20
0.0
 30
0.0
  9
$UCSORGBOTTOM
 10
0.0
 20
0.0
 30
0.0
  9
$UCSORGLEFT
 10
0.0
 20
0.0
 30
0.0
  9
$UCSORGRIGHT
 10
0.0
 20
0.0
 30
0.0
  9
$UCSORGFRONT
 10
0.0
 20
0.0
 30
0.0
  9
$UCSORGBACK
 10
0.0
 20
0.0
 30
0.0
  9
$PUCSBASE
  2

  9
$PUCSNAME
  2

  9
$PUCSORG
 10
0.0
 20
0.0
 30
0.0
  9
$PUCSXDIR
 10
1.0
 20
0.0
 30
0.0
  9
$PUCSYDIR
 10
0.0
 20
1.0
 30
0.0
  9
$PUCSORTHOREF
  2

  9
$PUCSORTHOVIEW
 70
     0
  9
$PUCSORGTOP
 10
0.0
 20
0.0
 30
0.0
  9
$PUCSORGBOTTOM
 10
0.0
 20
0.0
 30
0.0
  9
$PUCSORGLEFT
 10
0.0
 20
0.0
 30
0.0
  9
$PUCSORGRIGHT
 10
0.0
 20
0.0
 30
0.0
  9
$PUCSORGFRONT
 10
0.0
 20
0.0
 30
0.0
  9
$PUCSORGBACK
 10
0.0
 20
0.0
 30
0.0
  9
$USERI1
 70
     0
  9
$USERI2
 70
     0
  9
$USERI3
 70
     0
  9
$USERI4
 70
     0
  9
$USERI5
 70
     0
  9
$USERR1
 40
0.0
  9
$USERR2
 40
0.0
  9
$USERR3
 40
0.0
  9
$USERR4
 40
0.0
  9
$USERR5
 40
0.0
  9
$WORLDVIEW
 70
     1
  9
$SHADEDGE
 70
     3
  9
$SHADEDIF
 70
    70
  9
$TILEMODE
 70
     1
  9
$MAXACTVP
 70
    64
  9
$PINSBASE
 10
0.0
 20
0.0
 30
0.0
  9
$PLIMCHECK
 70
     0
  9
$PEXTMIN
 10
-155.805722
 20
224.12296
 30
0.0
  9
$PEXTMAX
 10
684.194278
 20
818.12296
 30
0.0
  9
$PLIMMIN
 10
-155.805722
 20
224.12296
  9
$PLIMMAX
 10
684.194278
 20
818.12296
  9
$UNITMODE
 70
     0
  9
$VISRETAIN
 70
     1
  9
$PLINEGEN
 70
     0
  9
$PSLTSCALE
 70
     1
  9
$TREEDEPTH
 70
  3020
  9
$CMLSTYLE
  2
Standard
  9
$CMLJUST
 70
     0
  9
$CMLSCALE
 40
20.0
  9
$PROXYGRAPHICS
 70
     1
  9
$MEASUREMENT
 70
     1
  9
$CELWEIGHT
370
    -1
  9
$ENDCAPS
280
     0
  9
$JOINSTYLE
280
     0
  9
$LWDISPLAY
290
     0
  9
$INSUNITS
 70
     4
  9
$HYPERLINKBASE
  1

  9
$STYLESHEET
  1

  9
$XEDIT
290
     1
  9
$CEPSNTYPE
380
     0
  9
$PSTYLEMODE
290
     1
  9
$FINGERPRINTGUID
  2
{FAEB1C30-E019-11D5-929B-00C0DF256EC4}
  9
$VERSIONGUID
  2
{FAEB1C32-E019-11D5-929B-00C0DF256EC4}
  9
$EXTNAMES
290
     1
  9
$PSVPSCALE
 40
0.0
  9
$OLESTARTUP
290
     0
  0
ENDSEC
  0
SECTION
  2
CLASSES
  0
CLASS
  1
ACDBDICTIONARYWDFLT
  2
AcDbDictionaryWithDefault
  3
ObjectDBX Classes
 90
        0
280
     0
281
     0
  0
CLASS
  1
ACDBPLACEHOLDER
  2
AcDbPlaceHolder
  3
ObjectDBX Classes
 90
        0
280
     0
281
     0
  0
CLASS
  1
LAYOUT
  2
AcDbLayout
  3
ObjectDBX Classes
 90
        0
280
     0
281
     0
  0
ENDSEC
  0
SECTION
  2
TABLES
  0
TABLE
  2
VPORT
  5
8
330
0
100
AcDbSymbolTable
 70
     2
  0
VPORT
  5
29
330
8
100
AcDbSymbolTableRecord
100
AcDbViewportTableRecord
  2
*ACTIVE
 70
     0
 10
0.0
 20
0.0
 11
1.0
 21
1.0
 12
264.194278
 22
521.12296
 13
0.0
 23
0.0
 14
1.0
 24
1.0
 15
0.0
 25
0.0
 16
0.0
 26
0.0
 36
1.0
 17
0.0
 27
0.0
 37
0.0
 40
594.0
 41
1.414141
 42
50.0
 43
0.0
 44
0.0
 50
0.0
 51
0.0
 71
    16
 72
   100
 73
     1
 74
     0
 75
     0
 76
     0
 77
     0
 78
     0
281
     0
 65
     0
110
0.0
120
0.0
130
0.0
111
1.0
121
0.0
131
0.0
112
0.0
122
1.0
132
0.0
 79
     0
146
0.0
  0
ENDTAB
  0
TABLE
  2
LTYPE
  5
5
330
0
100
AcDbSymbolTable
 70
     3
  0
LTYPE
  5
14
330
5
100
AcDbSymbolTableRecord
100
AcDbLinetypeTableRecord
  2
ByBlock
 70
     0
  3

 72
    65
 73
     0
 40
0.0
  0
LTYPE
  5
15
330
5
100
AcDbSymbolTableRecord
100
AcDbLinetypeTableRecord
  2
ByLayer
 70
     0
  3

 72
    65
 73
     0
 40
0.0
  0
LTYPE
  5
16
330
5
100
AcDbSymbolTableRecord
100
AcDbLinetypeTableRecord
  2
Continuous
 70
     0
  3
Solid line
 72
    65
 73
     0
 40
0.0
  0
LTYPE
  5
2A
330
5
100
AcDbSymbolTableRecord
100
AcDbLinetypeTableRecord
  2
DASHED
 70
     0
  3
__ __ __ __ __
 72
    65
 73
     2
 40
6.25
 49
5.0
 74
     4
 75
     0
340
0
 46
1.0
 50
0.0
 44
0.0
 45
0.0
 49
-1.25
 74
     4
 75
     0
340
0
 46
1.0
 50
0.0
 44
0.0
 45
0.0
  0
LTYPE
  5
81
330
5
100
AcDbSymbolTableRecord
100
AcDbLinetypeTableRecord
  2
DASHDOT
 70
     0
  3
__ . __ . __ . __ . __
 72
    65
 73
     4
 40
7.5
 49
5.0
 74
     4
 75
     0
340
0
 46
1.0
 50
0.0
 44
0.0
 45
0.0
 49
-1.25
 74
     4
 75
     0
340
0
 46
1.0
 50
0.0
 44
0.0
 45
0.0
 49
0.0
 74
     4
 75
     0
340
0
 46
1.0
 50
0.0
 44
0.0
 45
0.0
 49
-1.25
 74
     4
 75
     0
340
0
 46
1.0
 50
0.0
 44
0.0
 45
0.0
  0
ENDTAB
  0
TABLE
  2
LAYER
  5
2
330
0
100
AcDbSymbolTable
 70
    17
  0
LAYER
  5
10
330
2
100
AcDbSymbolTableRecord
100
AcDbLayerTableRecord
  2
0
 70
     0
 62
     7
  6
Continuous
370
    -3
390
F
  0
LAYER
  5
2B
330
2
100
AcDbSymbolTableRecord
100
AcDbLayerTableRecord
  2
LC-INFO-1-2-mm-A3-0
 70
     1
 62
     7
  6
ByBlock
370
    -3
390
F
  0
LAYER
  5
2C
330
2
100
AcDbSymbolTableRecord
100
AcDbLayerTableRecord
  2
LC-CUT-HIDDEN
 70
     0
 62
     7
  6
DASHED
370
    -3
390
F
  0
LAYER
  5
2D
330
2
100
AcDbSymbolTableRecord
100
AcDbLayerTableRecord
  2
LC-VIEWPORT
 70
     0
 62
     7
  6
ByBlock
370
    -3
390
F
  0
LAYER
  5
2E
330
2
100
AcDbSymbolTableRecord
100
AcDbLayerTableRecord
  2
LC-3D-HIDDEN
 70
     0
 62
     9
  6
DASHED
370
    -3
390
F
  0
LAYER
  5
30
330
2
100
AcDbSymbolTableRecord
100
AcDbLayerTableRecord
  2
LC-001-002-----0
 70
     0
 62
     1
  6
ByBlock
370
    -3
390
F
  0
LAYER
  5
34
330
2
100
AcDbSymbolTableRecord
100
AcDbLayerTableRecord
  2
LC-002-005-----0
 70
     0
 62
     2
  6
ByBlock
370
    -3
390
F
  0
LAYER
  5
3D
330
2
100
AcDbSymbolTableRecord
100
AcDbLayerTableRecord
  2
LC-003-205-RND-0
 70
     0
 62
     1
  6
ByBlock
370
    -3
390
F
  0
LAYER
  5
4A
330
2
100
AcDbSymbolTableRecord
100
AcDbLayerTableRecord
  2
LC-004-205-----0
 70
     0
 62
     1
  6
ByBlock
370
    -3
390
F
  0
LAYER
  5
85
330
2
100
AcDbSymbolTableRecord
100
AcDbLayerTableRecord
  2
LC-005-003-----0
 70
     0
 62
     2
  6
ByBlock
370
    -3
390
F
  0
LAYER
  5
87
330
2
100
AcDbSymbolTableRecord
100
AcDbLayerTableRecord
  2
Defpoints
 70
     0
 62
     7
  6
Continuous
290
     0
370
    -3
390
F
  0
LAYER
  5
18F
330
2
100
AcDbSymbolTableRecord
100
AcDbLayerTableRecord
  2
LC-006-002-RND-0
 70
     0
 62
     1
  6
ByBlock
370
    -3
390
F
  0
LAYER
  5
256
330
2
100
AcDbSymbolTableRecord
100
AcDbLayerTableRecord
  2
LC-007-007-KH--0
 70
     0
 62
    44
  6
DASHDOT
370
    -3
390
F
  0
LAYER
  5
259
330
2
100
AcDbSymbolTableRecord
100
AcDbLayerTableRecord
  2
LC-008-207-----0
 70
     0
 62
     1
  6
ByBlock
370
    -3
390
F
  0
LAYER
  5
321
330
2
100
AcDbSymbolTableRecord
100
AcDbLayerTableRecord
  2
LC-009-207-RND-0
 70
     0
 62
     1
  6
ByBlock
370
    -3
390
F
  0
LAYER
  5
412
330
2
100
AcDbSymbolTableRecord
100
AcDbLayerTableRecord
  2
LC-010-003-MTG-0
 70
     0
 62
     2
  6
ByBlock
370
    -3
390
F
  0
LAYER
  5
414
330
2
100
AcDbSymbolTableRecord
100
AcDbLayerTableRecord
  2
LC-011-003-MTH-0
 70
     0
 62
     2
  6
ByBlock
370
    -3
390
F
  0
ENDTAB
  0
TABLE
  2
STYLE
  5
3
330
0
100
AcDbSymbolTable
 70
     3
  0
STYLE
  5
11
330
3
100
AcDbSymbolTableRecord
100
AcDbTextStyleTableRecord
  2
Standard
 70
     0
 40
0.0
 41
1.0
 50
0.0
 71
     0
 42
2.5
  3
txt
  4

  0
STYLE
  5
2F
330
3
100
AcDbSymbolTableRecord
100
AcDbTextStyleTableRecord
  2
LCTX15-400-0-0-Arial
 70
     0
 40
0.0
 41
0.9
 50
0.0
 71
     0
 42
3.5
  3
ARIAL.TTF
  4

1001
ACAD
1000
Arial
1071
 16777218
  0
STYLE
  5
83
330
3
100
AcDbSymbolTableRecord
100
AcDbTextStyleTableRecord
  2
LCTX15-400-0-0pDIN-Schrift
 70
     0
 40
2.5
 41
0.8
 50
15.0
 71
     0
 42
3.5
  3
STANDARD
  4

  0
ENDTAB
  0
TABLE
  2
VIEW
  5
6
330
0
100
AcDbSymbolTable
 70
     0
  0
ENDTAB
  0
TABLE
  2
UCS
  5
7
330
0
100
AcDbSymbolTable
 70
     0
  0
ENDTAB
  0
TABLE
  2
APPID
  5
9
330
0
100
AcDbSymbolTable
 70
     1
  0
APPID
  5
12
330
9
100
AcDbSymbolTableRecord
100
AcDbRegAppTableRecord
  2
ACAD
 70
     0
  0
ENDTAB
  0
TABLE
  2
DIMSTYLE
  5
A
330
0
100
AcDbSymbolTable
 70
     3
100
AcDbDimStyleTable
  0
DIMSTYLE
105
27
330
A
100
AcDbSymbolTableRecord
100
AcDbDimStyleTableRecord
  2
ISO-25
 70
     0
 41
2.5
 42
0.625
 43
3.75
 44
1.25
 73
     0
 74
     0
 77
     1
 78
     8
140
2.5
141
2.5
143
0.03937
147
0.625
171
     3
172
     1
271
     2
272
     2
274
     3
278
    44
283
     0
284
     8
340
11
  0
DIMSTYLE
105
84
102
{ACAD_REACTORS
330
86
330
94
330
A8
330
CF
330
382
330
38F
330
3BA
330
3CD
330
3DB
102
}
330
A
100
AcDbSymbolTableRecord
100
AcDbDimStyleTableRecord
  2
LC-DIM-L-0140-02-02
 70
     0
 40
2.0
 41
14.0
 42
0.0
 43
7.5
 44
1.8
 73
     0
 74
     0
 77
     1
 78
     8
 79
     2
140
14.0
141
0.0
146
0.71
147
1.5
176
     2
177
     2
178
     2
179
     2
271
     2
278
    44
289
     1
340
83
  0
DIMSTYLE
105
3FB
330
A
100
AcDbSymbolTableRecord
100
AcDbDimStyleTableRecord
  2
LC-DIM-W-0140-02-02
 70
     0
 40
2.0
 41
14.0
 42
0.0
 43
7.5
 44
1.8
 73
     0
 74
     0
 77
     1
 78
     8
 79
     2
140
14.0
141
0.0
146
0.71
147
1.5
176
     2
177
     2
178
     2
179
     2
271
     2
278
    44
289
     1
340
83
  0
ENDTAB
  0
TABLE
  2
BLOCK_RECORD
  5
1
330
0
100
AcDbSymbolTable
 70
    27
  0
BLOCK_RECORD
  5
1F
330
1
100
AcDbSymbolTableRecord
100
AcDbBlockTableRecord
  2
*Model_Space
340
22
  0
BLOCK_RECORD
  5
1B
330
1
100
AcDbSymbolTableRecord
100
AcDbBlockTableRecord
  2
*Paper_Space
340
1E
  0
BLOCK_RECORD
  5
23
330
1
100
AcDbSymbolTableRecord
100
AcDbBlockTableRecord
  2
*Paper_Space0
340
26
  0
BLOCK_RECORD
  5
88
330
1
100
AcDbSymbolTableRecord
100
AcDbBlockTableRecord
  2
*D1
340
0
  0
BLOCK_RECORD
  5
95
330
1
100
AcDbSymbolTableRecord
100
AcDbBlockTableRecord
  2
*D2
340
0
  0
BLOCK_RECORD
  5
A9
330
1
100
AcDbSymbolTableRecord
100
AcDbBlockTableRecord
  2
*D3
340
0
  0
BLOCK_RECORD
  5
B7
330
1
100
AcDbSymbolTableRecord
100
AcDbBlockTableRecord
  2
*X14
340
0
102
{BLKREFS
331
C9
102
}
  0
BLOCK_RECORD
  5
D0
330
1
100
AcDbSymbolTableRecord
100
AcDbBlockTableRecord
  2
*D5
340
0
  0
BLOCK_RECORD
  5
DC
330
1
100
AcDbSymbolTableRecord
100
AcDbBlockTableRecord
  2
*X26
340
0
102
{BLKREFS
331
EE
102
}
  0
BLOCK_RECORD
  5
F6
330
1
100
AcDbSymbolTableRecord
100
AcDbBlockTableRecord
  2
*X37
340
0
102
{BLKREFS
331
110
102
}
  0
BLOCK_RECORD
  5
111
330
1
100
AcDbSymbolTableRecord
100
AcDbBlockTableRecord
  2
*X48
340
0
102
{BLKREFS
331
12E
102
}
  0
BLOCK_RECORD
  5
12F
330
1
100
AcDbSymbolTableRecord
100
AcDbBlockTableRecord
  2
*X59
340
0
102
{BLKREFS
331
146
102
}
  0
BLOCK_RECORD
  5
192
330
1
100
AcDbSymbolTableRecord
100
AcDbBlockTableRecord
  2
*X610
340
0
102
{BLKREFS
331
1BF
102
}
  0
BLOCK_RECORD
  5
220
330
1
100
AcDbSymbolTableRecord
100
AcDbBlockTableRecord
  2
*X711
340
0
102
{BLKREFS
331
24B
102
}
  0
BLOCK_RECORD
  5
296
330
1
100
AcDbSymbolTableRecord
100
AcDbBlockTableRecord
  2
*X812
340
0
102
{BLKREFS
331
2D5
102
}
  0
BLOCK_RECORD
  5
327
330
1
100
AcDbSymbolTableRecord
100
AcDbBlockTableRecord
  2
*X913
340
0
102
{BLKREFS
331
32F
102
}
  0
BLOCK_RECORD
  5
330
330
1
100
AcDbSymbolTableRecord
100
AcDbBlockTableRecord
  2
*X1014
340
0
102
{BLKREFS
331
337
102
}
  0
BLOCK_RECORD
  5
348
330
1
100
AcDbSymbolTableRecord
100
AcDbBlockTableRecord
  2
*X1115
340
0
102
{BLKREFS
331
357
102
}
  0
BLOCK_RECORD
  5
358
330
1
100
AcDbSymbolTableRecord
100
AcDbBlockTableRecord
  2
*X1216
340
0
102
{BLKREFS
331
368
102
}
  0
BLOCK_RECORD
  5
36D
330
1
100
AcDbSymbolTableRecord
100
AcDbBlockTableRecord
  2
*X1317
340
0
102
{BLKREFS
331
374
102
}
  0
BLOCK_RECORD
  5
375
330
1
100
AcDbSymbolTableRecord
100
AcDbBlockTableRecord
  2
*X1418
340
0
102
{BLKREFS
331
37C
102
}
  0
BLOCK_RECORD
  5
383
330
1
100
AcDbSymbolTableRecord
100
AcDbBlockTableRecord
  2
*D19
340
0
  0
BLOCK_RECORD
  5
390
330
1
100
AcDbSymbolTableRecord
100
AcDbBlockTableRecord
  2
*D20
340
0
  0
BLOCK_RECORD
  5
3BB
330
1
100
AcDbSymbolTableRecord
100
AcDbBlockTableRecord
  2
*D21
340
0
  0
BLOCK_RECORD
  5
3CE
330
1
100
AcDbSymbolTableRecord
100
AcDbBlockTableRecord
  2
*D22
340
0
  0
BLOCK_RECORD
  5
3DC
330
1
100
AcDbSymbolTableRecord
100
AcDbBlockTableRecord
  2
*D23
340
0
  0
BLOCK_RECORD
  5
3FC
330
1
100
AcDbSymbolTableRecord
100
AcDbBlockTableRecord
  2
LCDIM1
340
0
102
{BLKREFS
331
417
102
}
  0
BLOCK_RECORD
  5
418
330
1
100
AcDbSymbolTableRecord
100
AcDbBlockTableRecord
  2
*X1525
340
0
102
{BLKREFS
331
423
102
}
  0
BLOCK_RECORD
  5
43C
330
1
100
AcDbSymbolTableRecord
100
AcDbBlockTableRecord
  2
*X1626
340
0
102
{BLKREFS
331
450
102
}
  0
ENDTAB
  0
ENDSEC
  0
SECTION
  2
BLOCKS
  0
BLOCK
  5
20
330
1F
100
AcDbEntity
  8
0
100
AcDbBlockBegin
  2
*Model_Space
 70
     0
 71
     0
 10
0.0
 20
0.0
 30
0.0
  3
*Model_Space
  1

  0
ENDBLK
  5
21
330
1F
100
AcDbEntity
  8
0
100
AcDbBlockEnd
  0
BLOCK
  5
1C
330
1B
100
AcDbEntity
 67
     1
  8
0
100
AcDbBlockBegin
  2
*Paper_Space
 70
     0
 71
     0
 10
0.0
 20
0.0
 30
0.0
  3
*Paper_Space
  1

  0
ENDBLK
  5
1D
330
1B
100
AcDbEntity
 67
     1
  8
0
100
AcDbBlockEnd
  0
BLOCK
  5
24
330
23
100
AcDbEntity
  8
0
100
AcDbBlockBegin
  2
*Paper_Space0
 70
     0
 71
     0
 10
0.0
 20
0.0
 30
0.0
  3
*Paper_Space0
  1

  0
ENDBLK
  5
25
330
23
100
AcDbEntity
  8
0
100
AcDbBlockEnd
  0
BLOCK
  5
92
330
88
100
AcDbEntity
  8
0
100
AcDbBlockBegin
  2
*D1
 70
     1
 71
     0
 10
0.0
 20
0.0
 30
0.0
  3
*D1
  1

  0
LINE
  5
89
330
88
100
AcDbEntity
  8
LC-005-003-----0
 62
     2
370
    -2
100
AcDbLine
 10
75.491064
 20
523.074518
 30
0.0
 11
52.4
 21
523.074518
 31
0.0
  0
LINE
  5
8A
330
88
100
AcDbEntity
  8
LC-005-003-----0
 62
     2
370
    -2
100
AcDbLine
 10
161.991064
 20
411.391245
 30
0.0
 11
52.4
 21
411.391245
 31
0.0
  0
LINE
  5
8B
330
88
100
AcDbEntity
  8
LC-005-003-----0
 62
     2
370
    -2
100
AcDbLine
 10
56.0
 20
495.074518
 30
0.0
 11
56.0
 21
439.391245
 31
0.0
  0
SOLID
  5
8C
330
88
100
AcDbEntity
  8
LC-005-003-----0
 62
     2
100
AcDbTrace
 10
60.666667
 20
495.074518
 30
0.0
 11
51.333333
 21
495.074518
 31
0.0
 12
56.0
 22
523.074518
 32
0.0
 13
56.0
 23
523.074518
 33
0.0
  0
SOLID
  5
8D
330
88
100
AcDbEntity
  8
LC-005-003-----0
 62
     2
100
AcDbTrace
 10
51.333333
 20
439.391245
 30
0.0
 11
60.666667
 21
439.391245
 31
0.0
 12
56.0
 22
411.391245
 32
0.0
 13
56.0
 23
411.391245
 33
0.0
  0
MTEXT
  5
8E
330
88
100
AcDbEntity
  8
LC-005-003-----0
 62
     2
100
AcDbMText
 10
25.2
 20
467.232882
 30
0.0
 40
28.0
 41
0.0
 71
     5
 72
     1
  1
\A1;110
  7
LCTX15-400-0-0pDIN-Schrift
 11
6.123031769111886E-17
 21
1.0
 31
0.0
 73
     1
 44
1.0
  0
POINT
  5
8F
330
88
100
AcDbEntity
  8
Defpoints
 62
     0
100
AcDbPoint
 10
75.491064
 20
523.074518
 30
0.0
  0
POINT
  5
90
330
88
100
AcDbEntity
  8
Defpoints
 62
     0
100
AcDbPoint
 10
161.991064
 20
411.391245
 30
0.0
  0
POINT
  5
91
330
88
100
AcDbEntity
  8
Defpoints
 62
     0
100
AcDbPoint
 10
56.0
 20
411.391245
 30
0.0
  0
ENDBLK
  5
93
330
88
100
AcDbEntity
  8
0
100
AcDbBlockEnd
  0
BLOCK
  5
A1
330
95
100
AcDbEntity
  8
0
100
AcDbBlockBegin
  2
*D2
 70
     1
 71
     0
 10
0.0
 20
0.0
 30
0.0
  3
*D2
  1

  0
LINE
  5
96
330
95
100
AcDbEntity
  8
LC-005-003-----0
 62
     2
370
    -2
100
AcDbLine
 10
214.33164
 20
430.553997
 30
0.0
 11
257.686138
 21
430.553997
 31
0.0
  0
LINE
  5
97
330
95
100
AcDbEntity
  8
LC-005-003-----0
 62
     2
370
    -2
100
AcDbLine
 10
269.145491
 20
480.387697
 30
0.0
 11
250.486138
 21
480.387697
 31
0.0
  0
LINE
  5
98
330
95
100
AcDbEntity
  8
LC-005-003-----0
 62
     2
370
    -2
100
AcDbLine
 10
254.086138
 20
402.553997
 30
0.0
 11
254.086138
 21
374.553997
 31
0.0
  0
LINE
  5
99
330
95
100
AcDbEntity
  8
LC-005-003-----0
 62
     2
370
    -2
100
AcDbLine
 10
254.086138
 20
508.387697
 30
0.0
 11
254.086138
 21
536.387697
 31
0.0
  0
LINE
  5
9A
330
95
100
AcDbEntity
  8
LC-005-003-----0
 62
     2
370
    -2
100
AcDbLine
 10
254.086138
 20
430.553997
 30
0.0
 11
254.086138
 21
480.387697
 31
0.0
  0
SOLID
  5
9B
330
95
100
AcDbEntity
  8
LC-005-003-----0
 62
     2
100
AcDbTrace
 10
258.752805
 20
402.553997
 30
0.0
 11
249.419471
 21
402.553997
 31
0.0
 12
254.086138
 22
430.553997
 32
0.0
 13
254.086138
 23
430.553997
 33
0.0
  0
SOLID
  5
9C
330
95
100
AcDbEntity
  8
LC-005-003-----0
 62
     2
100
AcDbTrace
 10
249.419471
 20
508.387697
 30
0.0
 11
258.752805
 21
508.387697
 31
0.0
 12
254.086138
 22
480.387697
 32
0.0
 13
254.086138
 23
480.387697
 33
0.0
  0
MTEXT
  5
9D
330
95
100
AcDbEntity
  8
LC-005-003-----0
 62
     2
100
AcDbMText
 10
223.286138
 20
475.38496
 30
0.0
 40
28.0
 41
0.0
 71
     5
 72
     1
  1
\A1;50
  7
LCTX15-400-0-0pDIN-Schrift
 11
6.123031769111886E-17
 21
1.0
 31
0.0
 73
     1
 44
1.0
  0
POINT
  5
9E
330
95
100
AcDbEntity
  8
Defpoints
 62
     0
100
AcDbPoint
 10
214.33164
 20
430.553997
 30
0.0
  0
POINT
  5
9F
330
95
100
AcDbEntity
  8
Defpoints
 62
     0
100
AcDbPoint
 10
269.145491
 20
480.387697
 30
0.0
  0
POINT
  5
A0
330
95
100
AcDbEntity
  8
Defpoints
 62
     0
100
AcDbPoint
 10
254.086138
 20
480.387697
 30
0.0
  0
ENDBLK
  5
A2
330
95
100
AcDbEntity
  8
0
100
AcDbBlockEnd
  0
BLOCK
  5
B3
330
A9
100
AcDbEntity
  8
0
100
AcDbBlockBegin
  2
*D3
 70
     1
 71
     0
 10
0.0
 20
0.0
 30
0.0
  3
*D3
  1

  0
LINE
  5
AA
330
A9
100
AcDbEntity
  8
LC-005-003-----0
 62
     2
370
    -2
100
AcDbLine
 10
377.491064
 20
523.074518
 30
0.0
 11
474.0
 21
523.074518
 31
0.0
  0
LINE
  5
AB
330
A9
100
AcDbEntity
  8
LC-005-003-----0
 62
     2
370
    -2
100
AcDbLine
 10
464.889023
 20
452.877151
 30
0.0
 11
474.0
 21
452.877151
 31
0.0
  0
LINE
  5
AC
330
A9
100
AcDbEntity
  8
LC-005-003-----0
 62
     2
370
    -2
100
AcDbLine
 10
470.4
 20
495.074518
 30
0.0
 11
470.4
 21
480.877151
 31
0.0
  0
SOLID
  5
AD
330
A9
100
AcDbEntity
  8
LC-005-003-----0
 62
     2
100
AcDbTrace
 10
475.066667
 20
495.074518
 30
0.0
 11
465.733333
 21
495.074518
 31
0.0
 12
470.4
 22
523.074518
 32
0.0
 13
470.4
 23
523.074518
 33
0.0
  0
SOLID
  5
AE
330
A9
100
AcDbEntity
  8
LC-005-003-----0
 62
     2
100
AcDbTrace
 10
465.733333
 20
480.877151
 30
0.0
 11
475.066667
 21
480.877151
 31
0.0
 12
470.4
 22
452.877151
 32
0.0
 13
470.4
 23
452.877151
 33
0.0
  0
MTEXT
  5
AF
330
A9
100
AcDbEntity
  8
LC-005-003-----0
 62
     2
100
AcDbMText
 10
439.6
 20
487.975835
 30
0.0
 40
28.0
 41
0.0
 71
     5
 72
     1
  1
\A1;70
  7
LCTX15-400-0-0pDIN-Schrift
 11
6.123031769111886E-17
 21
1.0
 31
0.0
 73
     1
 44
1.0
  0
POINT
  5
B0
330
A9
100
AcDbEntity
  8
Defpoints
 62
     0
100
AcDbPoint
 10
377.491064
 20
523.074518
 30
0.0
  0
POINT
  5
B1
330
A9
100
AcDbEntity
  8
Defpoints
 62
     0
100
AcDbPoint
 10
464.889023
 20
452.877151
 30
0.0
  0
POINT
  5
B2
330
A9
100
AcDbEntity
  8
Defpoints
 62
     0
100
AcDbPoint
 10
470.4
 20
452.877151
 30
0.0
  0
ENDBLK
  5
B4
330
A9
100
AcDbEntity
  8
0
100
AcDbBlockEnd
  0
BLOCK
  5
B8
330
B7
100
AcDbEntity
  8
0
100
AcDbBlockBegin
  2
*X14
 70
     1
 71
     0
 10
0.0
 20
0.0
 30
0.0
  3
*X14
  1

  4
*X1
  0
LINE
  5
BA
330
B7
100
AcDbEntity
  8
LC-002-005-----0
 62
     7
370
    25
100
AcDbLine
 10
332.479355
 20
478.713545
 30
0.0
 11
332.936128
 21
478.256771
 31
0.0
  0
LINE
  5
BB
330
B7
100
AcDbEntity
  8
LC-002-005-----0
 62
     7
370
    25
100
AcDbLine
 10
332.278967
 20
479.196775
 30
0.0
 11
333.419358
 21
478.056384
 31
0.0
  0
LINE
  5
BC
330
B7
100
AcDbEntity
  8
LC-002-005-----0
 62
     7
370
    25
100
AcDbLine
 10
332.243532
 20
479.515052
 30
0.0
 11
333.737635
 21
478.020949
 31
0.0
  0
LINE
  5
BD
330
B7
100
AcDbEntity
  8
LC-002-005-----0
 62
     7
370
    25
100
AcDbLine
 10
332.265375
 20
479.776053
 30
0.0
 11
333.998636
 21
478.042792
 31
0.0
  0
LINE
  5
BE
330
B7
100
AcDbEntity
  8
LC-002-005-----0
 62
     7
370
    25
100
AcDbLine
 10
332.322631
 20
480.001639
 30
0.0
 11
334.224222
 21
478.100048
 31
0.0
  0
LINE
  5
BF
330
B7
100
AcDbEntity
  8
LC-002-005-----0
 62
     7
370
    25
100
AcDbLine
 10
332.406397
 20
480.200716
 30
0.0
 11
334.423299
 21
478.183814
 31
0.0
  0
LINE
  5
C0
330
B7
100
AcDbEntity
  8
LC-002-005-----0
 62
     7
370
    25
100
AcDbLine
 10
332.512269
 20
480.377687
 30
0.0
 11
334.60027
 21
478.289686
 31
0.0
  0
LINE
  5
C1
330
B7
100
AcDbEntity
  8
LC-002-005-----0
 62
     7
370
    25
100
AcDbLine
 10
332.638021
 20
480.534777
 30
0.0
 11
334.75736
 21
478.415438
 31
0.0
  0
LINE
  5
C2
330
B7
100
AcDbEntity
  8
LC-002-005-----0
 62
     7
370
    25
100
AcDbLine
 10
332.782768
 20
480.672873
 30
0.0
 11
334.895456
 21
478.560185
 31
0.0
  0
LINE
  5
C3
330
B7
100
AcDbEntity
  8
LC-002-005-----0
 62
     7
370
    25
100
AcDbLine
 10
332.946693
 20
480.79179
 30
0.0
 11
335.014373
 21
478.72411
 31
0.0
  0
LINE
  5
C4
330
B7
100
AcDbEntity
  8
LC-002-005-----0
 62
     7
370
    25
100
AcDbLine
 10
333.131103
 20
480.890224
 30
0.0
 11
335.112807
 21
478.90852
 31
0.0
  0
LINE
  5
C5
330
B7
100
AcDbEntity
  8
LC-002-005-----0
 62
     7
370
    25
100
AcDbLine
 10
333.338849
 20
480.96532
 30
0.0
 11
335.187903
 21
479.116266
 31
0.0
  0
LINE
  5
C6
330
B7
100
AcDbEntity
  8
LC-002-005-----0
 62
     7
370
    25
100
AcDbLine
 10
333.575513
 20
481.011499
 30
0.0
 11
335.234082
 21
479.35293
 31
0.0
  0
LINE
  5
C7
330
B7
100
AcDbEntity
  8
LC-002-005-----0
 62
     7
370
    25
100
AcDbLine
 10
333.852911
 20
481.016944
 30
0.0
 11
335.239527
 21
479.630328
 31
0.0
  0
LINE
  5
C8
330
B7
100
AcDbEntity
  8
LC-002-005-----0
 62
     7
370
    25
100
AcDbLine
 10
334.204278
 20
480.948419
 30
0.0
 11
335.171002
 21
479.981695
 31
0.0
  0
ENDBLK
  5
B9
330
B7
100
AcDbEntity
  8
0
100
AcDbBlockEnd
  0
BLOCK
  5
DA
330
D0
100
AcDbEntity
  8
0
100
AcDbBlockBegin
  2
*D5
 70
     1
 71
     0
 10
0.0
 20
0.0
 30
0.0
  3
*D5
  1

  0
LINE
  5
D1
330
D0
100
AcDbEntity
  8
LC-005-003-----0
 62
     2
370
    -2
100
AcDbLine
 10
75.491064
 20
526.081716
 30
0.0
 11
75.491064
 21
563.6
 31
0.0
  0
LINE
  5
D2
330
D0
100
AcDbEntity
  8
LC-005-003-----0
 62
     2
370
    -2
100
AcDbLine
 10
377.491064
 20
526.081716
 30
0.0
 11
377.491064
 21
563.6
 31
0.0
  0
LINE
  5
D3
330
D0
100
AcDbEntity
  8
LC-005-003-----0
 62
     2
370
    -2
100
AcDbLine
 10
103.491064
 20
560.0
 30
0.0
 11
349.491064
 21
560.0
 31
0.0
  0
SOLID
  5
D4
330
D0
100
AcDbEntity
  8
LC-005-003-----0
 62
     2
100
AcDbTrace
 10
103.491064
 20
564.666667
 30
0.0
 11
103.491064
 21
555.333333
 31
0.0
 12
75.491064
 22
560.0
 32
0.0
 13
75.491064
 23
560.0
 33
0.0
  0
SOLID
  5
D5
330
D0
100
AcDbEntity
  8
LC-005-003-----0
 62
     2
100
AcDbTrace
 10
349.491064
 20
555.333333
 30
0.0
 11
349.491064
 21
564.666667
 31
0.0
 12
377.491064
 22
560.0
 32
0.0
 13
377.491064
 23
560.0
 33
0.0
  0
MTEXT
  5
D6
330
D0
100
AcDbEntity
  8
LC-005-003-----0
 62
     2
100
AcDbMText
 10
226.491064
 20
590.8
 30
0.0
 40
28.0
 41
0.0
 71
     5
 72
     1
  1
\A1;%%c300
  7
LCTX15-400-0-0pDIN-Schrift
 73
     1
 44
1.0
  0
POINT
  5
D7
330
D0
100
AcDbEntity
  8
Defpoints
 62
     0
100
AcDbPoint
 10
75.491064
 20
526.081716
 30
0.0
  0
POINT
  5
D8
330
D0
100
AcDbEntity
  8
Defpoints
 62
     0
100
AcDbPoint
 10
377.491064
 20
526.081716
 30
0.0
  0
POINT
  5
D9
330
D0
100
AcDbEntity
  8
Defpoints
 62
     0
100
AcDbPoint
 10
377.491064
 20
560.0
 30
0.0
  0
ENDBLK
  5
DB
330
D0
100
AcDbEntity
  8
0
100
AcDbBlockEnd
  0
BLOCK
  5
DD
330
DC
100
AcDbEntity
  8
0
100
AcDbBlockBegin
  2
*X26
 70
     1
 71
     0
 10
0.0
 20
0.0
 30
0.0
  3
*X26
  1

  4
*X2
  0
LINE
  5
DF
330
DC
100
AcDbEntity
  8
LC-002-005-----0
 62
     7
370
    25
100
AcDbLine
 10
332.345858
 20
425.672612
 30
0.0
 11
333.198968
 21
424.819502
 31
0.0
  0
LINE
  5
E0
330
DC
100
AcDbEntity
  8
LC-002-005-----0
 62
     7
370
    25
100
AcDbLine
 10
332.253062
 20
426.04825
 30
0.0
 11
333.574606
 21
424.726706
 31
0.0
  0
LINE
  5
E1
330
DC
100
AcDbEntity
  8
LC-002-005-----0
 62
     7
370
    25
100
AcDbLine
 10
332.24823
 20
426.335925
 30
0.0
 11
333.862281
 21
424.721873
 31
0.0
  0
LINE
  5
E2
330
DC
100
AcDbEntity
  8
LC-002-005-----0
 62
     7
370
    25
100
AcDbLine
 10
332.287853
 20
426.579145
 30
0.0
 11
334.105501
 21
424.761496
 31
0.0
  0
LINE
  5
E3
330
DC
100
AcDbEntity
  8
LC-002-005-----0
 62
     7
370
    25
100
AcDbLine
 10
332.35798
 20
426.791861
 30
0.0
 11
334.318217
 21
424.831623
 31
0.0
  0
LINE
  5
E4
330
DC
100
AcDbEntity
  8
LC-002-005-----0
 62
     7
370
    25
100
AcDbLine
 10
332.45224
 20
426.980443
 30
0.0
 11
334.506799
 21
424.925884
 31
0.0
  0
LINE
  5
E5
330
DC
100
AcDbEntity
  8
LC-002-005-----0
 62
     7
370
    25
100
AcDbLine
 10
332.567388
 20
427.148138
 30
0.0
 11
334.674494
 21
425.041032
 31
0.0
  0
LINE
  5
E6
330
DC
100
AcDbEntity
  8
LC-002-005-----0
 62
     7
370
    25
100
AcDbLine
 10
332.701869
 20
427.296499
 30
0.0
 11
334.822855
 21
425.175513
 31
0.0
  0
LINE
  5
E7
330
DC
100
AcDbEntity
  8
LC-002-005-----0
 62
     7
370
    25
100
AcDbLine
 10
332.855301
 20
427.42591
 30
0.0
 11
334.952266
 21
425.328945
 31
0.0
  0
LINE
  5
E8
330
DC
100
AcDbEntity
  8
LC-002-005-----0
 62
     7
370
    25
100
AcDbLine
 10
333.028354
 20
427.5357
 30
0.0
 11
335.062056
 21
425.501997
 31
0.0
  0
LINE
  5
E9
330
DC
100
AcDbEntity
  8
LC-002-005-----0
 62
     7
370
    25
100
AcDbLine
 10
333.222958
 20
427.623939
 30
0.0
 11
335.150295
 21
425.696601
 31
0.0
  0
LINE
  5
EA
330
DC
100
AcDbEntity
  8
LC-002-005-----0
 62
     7
370
    25
100
AcDbLine
 10
333.442989
 20
427.68675
 30
0.0
 11
335.213106
 21
425.916633
 31
0.0
  0
LINE
  5
EB
330
DC
100
AcDbEntity
  8
LC-002-005-----0
 62
     7
370
    25
100
AcDbLine
 10
333.696165
 20
427.716417
 30
0.0
 11
335.242773
 21
426.169809
 31
0.0
  0
LINE
  5
EC
330
DC
100
AcDbEntity
  8
LC-002-005-----0
 62
     7
370
    25
100
AcDbLine
 10
334.000423
 20
427.695001
 30
0.0
 11
335.221358
 21
426.474067
 31
0.0
  0
LINE
  5
ED
330
DC
100
AcDbEntity
  8
LC-002-005-----0
 62
     7
370
    25
100
AcDbLine
 10
334.424683
 20
427.553585
 30
0.0
 11
335.079941
 21
426.898326
 31
0.0
  0
ENDBLK
  5
DE
330
DC
100
AcDbEntity
  8
0
100
AcDbBlockEnd
  0
BLOCK
  5
F7
330
F6
100
AcDbEntity
  8
0
100
AcDbBlockBegin
  2
*X37
 70
     1
 71
     0
 10
0.0
 20
0.0
 30
0.0
  3
*X37
  1

  4
*X3
  0
LINE
  5
F9
330
F6
100
AcDbEntity
  8
LC-002-005-----0
 62
     7
370
    25
100
AcDbLine
 10
165.490804
 20
431.362953
 30
0.0
 11
166.490796
 21
432.362946
 31
0.0
  0
LINE
  5
FA
330
F6
100
AcDbEntity
  8
LC-002-005-----0
 62
     7
370
    25
100
AcDbLine
 10
165.490805
 20
434.191382
 30
0.0
 11
166.490798
 21
435.191375
 31
0.0
  0
LINE
  5
FB
330
F6
100
AcDbEntity
  8
LC-002-005-----0
 62
     7
370
    25
100
AcDbLine
 10
165.490807
 20
437.019811
 30
0.0
 11
166.4908
 21
438.019804
 31
0.0
  0
LINE
  5
FC
330
F6
100
AcDbEntity
  8
LC-002-005-----0
 62
     7
370
    25
100
AcDbLine
 10
165.490809
 20
439.84824
 30
0.0
 11
166.490802
 21
440.848233
 31
0.0
  0
LINE
  5
FD
330
F6
100
AcDbEntity
  8
LC-002-005-----0
 62
     7
370
    25
100
AcDbLine
 10
165.490811
 20
442.676669
 30
0.0
 11
166.490804
 21
443.676662
 31
0.0
  0
LINE
  5
FE
330
F6
100
AcDbEntity
  8
LC-002-005-----0
 62
     7
370
    25
100
AcDbLine
 10
165.490813
 20
445.505098
 30
0.0
 11
166.490806
 21
446.505091
 31
0.0
  0
LINE
  5
FF
330
F6
100
AcDbEntity
  8
LC-002-005-----0
 62
     7
370
    25
100
AcDbLine
 10
165.490815
 20
448.333527
 30
0.0
 11
166.490808
 21
449.333521
 31
0.0
  0
LINE
  5
100
330
F6
100
AcDbEntity
  8
LC-002-005-----0
 62
     7
370
    25
100
AcDbLine
 10
165.490817
 20
451.161956
 30
0.0
 11
166.490811
 21
452.161951
 31
0.0
  0
LINE
  5
101
330
F6
100
AcDbEntity
  8
LC-002-005-----0
 62
     7
370
    25
100
AcDbLine
 10
165.490818
 20
453.990385
 30
0.0
 11
166.490813
 21
454.99038
 31
0.0
  0
LINE
  5
102
330
F6
100
AcDbEntity
  8
LC-002-005-----0
 62
     7
370
    25
100
AcDbLine
 10
165.49082
 20
456.818814
 30
0.0
 11
166.490816
 21
457.81881
 31
0.0
  0
LINE
  5
103
330
F6
100
AcDbEntity
  8
LC-002-005-----0
 62
     7
370
    25
100
AcDbLine
 10
165.490822
 20
459.647243
 30
0.0
 11
166.490818
 21
460.647239
 31
0.0
  0
LINE
  5
104
330
F6
100
AcDbEntity
  8
LC-002-005-----0
 62
     7
370
    25
100
AcDbLine
 10
165.490824
 20
462.475672
 30
0.0
 11
166.490821
 21
463.475669
 31
0.0
  0
LINE
  5
105
330
F6
100
AcDbEntity
  8
LC-002-005-----0
 62
     7
370
    25
100
AcDbLine
 10
165.490826
 20
465.304101
 30
0.0
 11
166.490823
 21
466.304099
 31
0.0
  0
LINE
  5
106
330
F6
100
AcDbEntity
  8
LC-002-005-----0
 62
     7
370
    25
100
AcDbLine
 10
165.490828
 20
468.13253
 30
0.0
 11
166.490826
 21
469.132528
 31
0.0
  0
LINE
  5
107
330
F6
100
AcDbEntity
  8
LC-002-005-----0
 62
     7
370
    25
100
AcDbLine
 10
165.490829
 20
470.960959
 30
0.0
 11
166.490828
 21
471.960958
 31
0.0
  0
LINE
  5
108
330
F6
100
AcDbEntity
  8
LC-002-005-----0
 62
     7
370
    25
100
AcDbLine
 10
165.490831
 20
473.789388
 30
0.0
 11
166.490831
 21
474.789387
 31
0.0
  0
LINE
  5
109
330
F6
100
AcDbEntity
  8
LC-002-005-----0
 62
     7
370
    25
100
AcDbLine
 10
165.490833
 20
476.617817
 30
0.0
 11
166.490833
 21
477.617817
 31
0.0
  0
LINE
  5
10A
330
F6
100
AcDbEntity
  8
LC-002-005-----0
 62
     7
370
    25
100
AcDbLine
 10
165.490835
 20
479.446246
 30
0.0
 11
169.790998
 21
483.746409
 31
0.0
  0
LINE
  5
10B
330
F6
100
AcDbEntity
  8
LC-002-005-----0
 62
     7
370
    25
100
AcDbLine
 10
163.799621
 20
480.583459
 30
0.0
 11
164.999621
 21
481.783459
 31
0.0
  0
LINE
  5
10C
330
F6
100
AcDbEntity
  8
LC-002-005-----0
 62
     7
370
    25
100
AcDbLine
 10
167.790996
 20
484.574834
 30
0.0
 11
169.79099
 21
486.574828
 31
0.0
  0
LINE
  5
10D
330
F6
100
AcDbEntity
  8
LC-002-005-----0
 62
     7
370
    25
100
AcDbLine
 10
167.790988
 20
487.403253
 30
0.0
 11
169.790982
 21
489.403247
 31
0.0
  0
LINE
  5
10E
330
F6
100
AcDbEntity
  8
LC-002-005-----0
 62
     7
370
    25
100
AcDbLine
 10
166.942767
 20
489.383459
 30
0.0
 11
168.142767
 21
490.583459
 31
0.0
  0
LINE
  5
10F
330
F6
100
AcDbEntity
  8
LC-002-005-----0
 62
     7
370
    25
100
AcDbLine
 10
164.11434
 20
489.383459
 30
0.0
 11
165.31434
 21
490.583459
 31
0.0
  0
ENDBLK
  5
F8
330
F6
100
AcDbEntity
  8
0
100
AcDbBlockEnd
  0
BLOCK
  5
112
330
111
100
AcDbEntity
  8
0
100
AcDbBlockBegin
  2
*X48
 70
     1
 71
     0
 10
0.0
 20
0.0
 30
0.0
  3
*X48
  1

  4
*X4
  0
LINE
  5
114
330
111
100
AcDbEntity
  8
LC-002-005-----0
 62
     7
370
    25
100
AcDbLine
 10
212.765109
 20
430.553997
 30
0.0
 11
214.516742
 21
432.30563
 31
0.0
  0
LINE
  5
115
330
111
100
AcDbEntity
  8
LC-002-005-----0
 62
     7
370
    25
100
AcDbLine
 10
212.602177
 20
433.219493
 30
0.0
 11
214.85095
 21
435.468265
 31
0.0
  0
LINE
  5
116
330
111
100
AcDbEntity
  8
LC-002-005-----0
 62
     7
370
    25
100
AcDbLine
 10
212.936385
 20
436.382128
 30
0.0
 11
215.185158
 21
438.630901
 31
0.0
  0
LINE
  5
117
330
111
100
AcDbEntity
  8
LC-002-005-----0
 62
     7
370
    25
100
AcDbLine
 10
213.270593
 20
439.544763
 30
0.0
 11
215.519366
 21
441.793536
 31
0.0
  0
LINE
  5
118
330
111
100
AcDbEntity
  8
LC-002-005-----0
 62
     7
370
    25
100
AcDbLine
 10
213.604801
 20
442.707399
 30
0.0
 11
215.853574
 21
444.956171
 31
0.0
  0
LINE
  5
119
330
111
100
AcDbEntity
  8
LC-002-005-----0
 62
     7
370
    25
100
AcDbLine
 10
213.93901
 20
445.870034
 30
0.0
 11
216.187782
 21
448.118806
 31
0.0
  0
LINE
  5
11A
330
111
100
AcDbEntity
  8
LC-002-005-----0
 62
     7
370
    25
100
AcDbLine
 10
214.273218
 20
449.032669
 30
0.0
 11
216.52199
 21
451.281442
 31
0.0
  0
LINE
  5
11B
330
111
100
AcDbEntity
  8
LC-002-005-----0
 62
     7
370
    25
100
AcDbLine
 10
214.607426
 20
452.195304
 30
0.0
 11
216.856198
 21
454.444077
 31
0.0
  0
LINE
  5
11C
330
111
100
AcDbEntity
  8
LC-002-005-----0
 62
     7
370
    25
100
AcDbLine
 10
214.941634
 20
455.357939
 30
0.0
 11
217.190407
 21
457.606712
 31
0.0
  0
LINE
  5
11D
330
111
100
AcDbEntity
  8
LC-002-005-----0
 62
     7
370
    25
100
AcDbLine
 10
215.275842
 20
458.520575
 30
0.0
 11
217.524615
 21
460.769347
 31
0.0
  0
LINE
  5
11E
330
111
100
AcDbEntity
  8
LC-002-005-----0
 62
     7
370
    25
100
AcDbLine
 10
215.61005
 20
461.68321
 30
0.0
 11
217.858823
 21
463.931983
 31
0.0
  0
LINE
  5
11F
330
111
100
AcDbEntity
  8
LC-002-005-----0
 62
     7
370
    25
100
AcDbLine
 10
215.944258
 20
464.845845
 30
0.0
 11
218.193031
 21
467.094618
 31
0.0
  0
LINE
  5
120
330
111
100
AcDbEntity
  8
LC-002-005-----0
 62
     7
370
    25
100
AcDbLine
 10
216.278466
 20
468.00848
 30
0.0
 11
218.527239
 21
470.257253
 31
0.0
  0
LINE
  5
121
330
111
100
AcDbEntity
  8
LC-002-005-----0
 62
     7
370
    25
100
AcDbLine
 10
216.612674
 20
471.171116
 30
0.0
 11
218.861447
 21
473.419888
 31
0.0
  0
LINE
  5
122
330
111
100
AcDbEntity
  8
LC-002-005-----0
 62
     7
370
    25
100
AcDbLine
 10
216.946883
 20
474.333751
 30
0.0
 11
219.195655
 21
476.582524
 31
0.0
  0
LINE
  5
123
330
111
100
AcDbEntity
  8
LC-002-005-----0
 62
     7
370
    25
100
AcDbLine
 10
217.281091
 20
477.496386
 30
0.0
 11
221.993143
 21
482.208439
 31
0.0
  0
LINE
  5
124
330
111
100
AcDbEntity
  8
LC-002-005-----0
 62
     7
370
    25
100
AcDbLine
 10
217.615299
 20
480.659021
 30
0.0
 11
221.993143
 21
485.036866
 31
0.0
  0
LINE
  5
125
330
111
100
AcDbEntity
  8
LC-002-005-----0
 62
     7
370
    25
100
AcDbLine
 10
217.949507
 20
483.821657
 30
0.0
 11
221.993143
 21
487.865293
 31
0.0
  0
LINE
  5
126
330
111
100
AcDbEntity
  8
LC-002-005-----0
 62
     7
370
    25
100
AcDbLine
 10
218.283715
 20
486.984292
 30
0.0
 11
221.993143
 21
490.69372
 31
0.0
  0
LINE
  5
127
330
111
100
AcDbEntity
  8
LC-002-005-----0
 62
     7
370
    25
100
AcDbLine
 10
218.617923
 20
490.146927
 30
0.0
 11
221.993143
 21
493.522147
 31
0.0
  0
LINE
  5
128
330
111
100
AcDbEntity
  8
LC-002-005-----0
 62
     7
370
    25
100
AcDbLine
 10
218.952131
 20
493.309562
 30
0.0
 11
221.993143
 21
496.350574
 31
0.0
  0
LINE
  5
129
330
111
100
AcDbEntity
  8
LC-002-005-----0
 62
     7
370
    25
100
AcDbLine
 10
219.286339
 20
496.472198
 30
0.0
 11
221.993143
 21
499.179001
 31
0.0
  0
LINE
  5
12A
330
111
100
AcDbEntity
  8
LC-002-005-----0
 62
     7
370
    25
100
AcDbLine
 10
228.106999
 20
505.292857
 30
0.0
 11
230.034978
 21
507.220836
 31
0.0
  0
LINE
  5
12B
330
111
100
AcDbEntity
  8
LC-002-005-----0
 62
     7
370
    25
100
AcDbLine
 10
219.620547
 20
499.634833
 30
0.0
 11
221.993143
 21
502.007428
 31
0.0
  0
LINE
  5
12C
330
111
100
AcDbEntity
  8
LC-002-005-----0
 62
     7
370
    25
100
AcDbLine
 10
225.37401
 20
505.388295
 30
0.0
 11
227.313591
 21
507.327876
 31
0.0
  0
LINE
  5
12D
330
111
100
AcDbEntity
  8
LC-002-005-----0
 62
     7
370
    25
100
AcDbLine
 10
219.954756
 20
502.797468
 30
0.0
 11
224.580073
 21
507.422786
 31
0.0
  0
ENDBLK
  5
113
330
111
100
AcDbEntity
  8
0
100
AcDbBlockEnd
  0
BLOCK
  5
130
330
12F
100
AcDbEntity
  8
0
100
AcDbBlockBegin
  2
*X59
 70
     1
 71
     0
 10
0.0
 20
0.0
 30
0.0
  3
*X59
  1

  4
*X5
  0
LINE
  5
132
330
12F
100
AcDbEntity
  8
LC-002-005-----0
 62
     7
370
    25
100
AcDbLine
 10
288.250331
 20
480.583376
 30
0.0
 11
289.450332
 21
481.783377
 31
0.0
  0
LINE
  5
133
330
12F
100
AcDbEntity
  8
LC-002-005-----0
 62
     7
370
    25
100
AcDbLine
 10
285.435053
 20
480.596524
 30
0.0
 11
286.621909
 21
481.783381
 31
0.0
  0
LINE
  5
134
330
12F
100
AcDbEntity
  8
LC-002-005-----0
 62
     7
370
    25
100
AcDbLine
 10
283.649969
 20
481.639868
 30
0.0
 11
285.191118
 21
483.181016
 31
0.0
  0
LINE
  5
135
330
12F
100
AcDbEntity
  8
LC-002-005-----0
 62
     7
370
    25
100
AcDbLine
 10
283.19096
 20
484.009285
 30
0.0
 11
285.191129
 21
486.009455
 31
0.0
  0
LINE
  5
136
330
12F
100
AcDbEntity
  8
LC-002-005-----0
 62
     7
370
    25
100
AcDbLine
 10
288.565052
 20
489.383378
 30
0.0
 11
289.765059
 21
490.583385
 31
0.0
  0
LINE
  5
137
330
12F
100
AcDbEntity
  8
LC-002-005-----0
 62
     7
370
    25
100
AcDbLine
 10
283.190846
 20
486.837599
 30
0.0
 11
285.191141
 21
488.837894
 31
0.0
  0
LINE
  5
138
330
12F
100
AcDbEntity
  8
LC-002-005-----0
 62
     7
370
    25
100
AcDbLine
 10
285.736629
 20
489.383382
 30
0.0
 11
286.936632
 21
490.583385
 31
0.0
  0
LINE
  5
139
330
12F
100
AcDbEntity
  8
LC-002-005-----0
 62
     7
370
    25
100
AcDbLine
 10
283.190847
 20
489.666027
 30
0.0
 11
286.409745
 21
492.884925
 31
0.0
  0
LINE
  5
13A
330
12F
100
AcDbEntity
  8
LC-002-005-----0
 62
     7
370
    25
100
AcDbLine
 10
283.190848
 20
492.494455
 30
0.0
 11
286.154992
 21
495.4586
 31
0.0
  0
LINE
  5
13B
330
12F
100
AcDbEntity
  8
LC-002-005-----0
 62
     7
370
    25
100
AcDbLine
 10
283.190848
 20
495.322883
 30
0.0
 11
285.884999
 21
498.017034
 31
0.0
  0
LINE
  5
13C
330
12F
100
AcDbEntity
  8
LC-002-005-----0
 62
     7
370
    25
100
AcDbLine
 10
283.049349
 20
498.009811
 30
0.0
 11
285.241512
 21
500.201974
 31
0.0
  0
LINE
  5
13D
330
12F
100
AcDbEntity
  8
LC-002-005-----0
 62
     7
370
    25
100
AcDbLine
 10
282.277623
 20
500.066512
 30
0.0
 11
284.198922
 21
501.98781
 31
0.0
  0
LINE
  5
13E
330
12F
100
AcDbEntity
  8
LC-002-005-----0
 62
     7
370
    25
100
AcDbLine
 10
281.040249
 20
501.657565
 30
0.0
 11
282.827766
 21
503.445082
 31
0.0
  0
LINE
  5
13F
330
12F
100
AcDbEntity
  8
LC-002-005-----0
 62
     7
370
    25
100
AcDbLine
 10
279.389941
 20
502.835684
 30
0.0
 11
281.135048
 21
504.580791
 31
0.0
  0
LINE
  5
140
330
12F
100
AcDbEntity
  8
LC-002-005-----0
 62
     7
370
    25
100
AcDbLine
 10
277.254077
 20
503.528247
 30
0.0
 11
279.071378
 21
505.345548
 31
0.0
  0
LINE
  5
141
330
12F
100
AcDbEntity
  8
LC-002-005-----0
 62
     7
370
    25
100
AcDbLine
 10
274.567813
 20
503.67041
 30
0.0
 11
276.507394
 21
505.609991
 31
0.0
  0
LINE
  5
142
330
12F
100
AcDbEntity
  8
LC-002-005-----0
 62
     7
370
    25
100
AcDbLine
 10
271.834824
 20
503.765848
 30
0.0
 11
273.774405
 21
505.705429
 31
0.0
  0
LINE
  5
143
330
12F
100
AcDbEntity
  8
LC-002-005-----0
 62
     7
370
    25
100
AcDbLine
 10
269.101834
 20
503.861286
 30
0.0
 11
271.041415
 21
505.800867
 31
0.0
  0
LINE
  5
144
330
12F
100
AcDbEntity
  8
LC-002-005-----0
 62
     7
370
    25
100
AcDbLine
 10
266.368845
 20
503.956724
 30
0.0
 11
268.308426
 21
505.896305
 31
0.0
  0
LINE
  5
145
330
12F
100
AcDbEntity
  8
LC-002-005-----0
 62
     7
370
    25
100
AcDbLine
 10
265.096735
 20
505.513041
 30
0.0
 11
265.575437
 21
505.991743
 31
0.0
  0
ENDBLK
  5
131
330
12F
100
AcDbEntity
  8
0
100
AcDbBlockEnd
  0
BLOCK
  5
193
330
192
100
AcDbEntity
  8
0
100
AcDbBlockBegin
  2
*X610
 70
     1
 71
     0
 10
0.0
 20
0.0
 30
0.0
  3
*X610
  1

  4
*X6
  0
LINE
  5
195
330
192
100
AcDbEntity
  8
LC-002-005-----0
 62
     7
370
    25
100
AcDbLine
 10
424.959023
 20
423.569115
 30
0.0
 11
424.144417
 21
424.38372
 31
0.0
  0
LINE
  5
196
330
192
100
AcDbEntity
  8
LC-002-005-----0
 62
     7
370
    25
100
AcDbLine
 10
424.018734
 20
421.680976
 30
0.0
 11
421.292996
 21
424.406715
 31
0.0
  0
LINE
  5
197
330
192
100
AcDbEntity
  8
LC-002-005-----0
 62
     7
370
    25
100
AcDbLine
 10
421.494132
 20
421.377151
 30
0.0
 11
418.441574
 21
424.429709
 31
0.0
  0
LINE
  5
198
330
192
100
AcDbEntity
  8
LC-002-005-----0
 62
     7
370
    25
100
AcDbLine
 10
418.665705
 20
421.377151
 30
0.0
 11
415.590153
 21
424.452703
 31
0.0
  0
LINE
  5
199
330
192
100
AcDbEntity
  8
LC-002-005-----0
 62
     7
370
    25
100
AcDbLine
 10
415.837278
 20
421.377151
 30
0.0
 11
412.738732
 21
424.475697
 31
0.0
  0
LINE
  5
19A
330
192
100
AcDbEntity
  8
LC-002-005-----0
 62
     7
370
    25
100
AcDbLine
 10
413.008851
 20
421.377151
 30
0.0
 11
409.88731
 21
424.498692
 31
0.0
  0
LINE
  5
19B
330
192
100
AcDbEntity
  8
LC-002-005-----0
 62
     7
370
    25
100
AcDbLine
 10
410.180423
 20
421.377151
 30
0.0
 11
407.035889
 21
424.521686
 31
0.0
  0
LINE
  5
19C
330
192
100
AcDbEntity
  8
LC-002-005-----0
 62
     7
370
    25
100
AcDbLine
 10
407.351996
 20
421.377151
 30
0.0
 11
404.184467
 21
424.54468
 31
0.0
  0
LINE
  5
19D
330
192
100
AcDbEntity
  8
LC-002-005-----0
 62
     7
370
    25
100
AcDbLine
 10
404.523569
 20
421.377151
 30
0.0
 11
401.333046
 21
424.567674
 31
0.0
  0
LINE
  5
19E
330
192
100
AcDbEntity
  8
LC-002-005-----0
 62
     7
370
    25
100
AcDbLine
 10
401.695142
 20
421.377151
 30
0.0
 11
398.481625
 21
424.590669
 31
0.0
  0
LINE
  5
19F
330
192
100
AcDbEntity
  8
LC-002-005-----0
 62
     7
370
    25
100
AcDbLine
 10
398.866715
 20
421.377151
 30
0.0
 11
395.630203
 21
424.613663
 31
0.0
  0
LINE
  5
1A0
330
192
100
AcDbEntity
  8
LC-002-005-----0
 62
     7
370
    25
100
AcDbLine
 10
396.038288
 20
421.377151
 30
0.0
 11
392.778782
 21
424.636657
 31
0.0
  0
LINE
  5
1A1
330
192
100
AcDbEntity
  8
LC-002-005-----0
 62
     7
370
    25
100
AcDbLine
 10
393.209861
 20
421.377151
 30
0.0
 11
389.92736
 21
424.659651
 31
0.0
  0
LINE
  5
1A2
330
192
100
AcDbEntity
  8
LC-002-005-----0
 62
     7
370
    25
100
AcDbLine
 10
390.381434
 20
421.377151
 30
0.0
 11
387.075939
 21
424.682646
 31
0.0
  0
LINE
  5
1A3
330
192
100
AcDbEntity
  8
LC-002-005-----0
 62
     7
370
    25
100
AcDbLine
 10
384.959023
 20
426.799562
 30
0.0
 11
383.871952
 21
427.886633
 31
0.0
  0
LINE
  5
1A4
330
192
100
AcDbEntity
  8
LC-002-005-----0
 62
     7
370
    25
100
AcDbLine
 10
387.553006
 20
421.377151
 30
0.0
 11
381.018639
 21
427.911519
 31
0.0
  0
LINE
  5
1A5
330
192
100
AcDbEntity
  8
LC-002-005-----0
 62
     7
370
    25
100
AcDbLine
 10
384.724579
 20
421.377151
 30
0.0
 11
381.959023
 21
424.142708
 31
0.0
  0
LINE
  5
1A6
330
192
100
AcDbEntity
  8
LC-002-005-----0
 62
     7
370
    25
100
AcDbLine
 10
381.224579
 20
424.877151
 30
0.0
 11
378.165325
 21
427.936405
 31
0.0
  0
LINE
  5
1A7
330
192
100
AcDbEntity
  8
LC-002-005-----0
 62
     7
370
    25
100
AcDbLine
 10
378.396152
 20
424.877151
 30
0.0
 11
375.312012
 21
427.961292
 31
0.0
  0
LINE
  5
1A8
330
192
100
AcDbEntity
  8
LC-002-005-----0
 62
     7
370
    25
100
AcDbLine
 10
375.567725
 20
424.877151
 30
0.0
 11
372.458698
 21
427.986178
 31
0.0
  0
LINE
  5
1A9
330
192
100
AcDbEntity
  8
LC-002-005-----0
 62
     7
370
    25
100
AcDbLine
 10
372.739298
 20
424.877151
 30
0.0
 11
369.605385
 21
428.011064
 31
0.0
  0
LINE
  5
1AA
330
192
100
AcDbEntity
  8
LC-002-005-----0
 62
     7
370
    25
100
AcDbLine
 10
369.910871
 20
424.877151
 30
0.0
 11
366.752071
 21
428.035951
 31
0.0
  0
LINE
  5
1AB
330
192
100
AcDbEntity
  8
LC-002-005-----0
 62
     7
370
    25
100
AcDbLine
 10
367.082444
 20
424.877151
 30
0.0
 11
363.898758
 21
428.060837
 31
0.0
  0
LINE
  5
1AC
330
192
100
AcDbEntity
  8
LC-002-005-----0
 62
     7
370
    25
100
AcDbLine
 10
364.254017
 20
424.877151
 30
0.0
 11
361.045444
 21
428.085724
 31
0.0
  0
LINE
  5
1AD
330
192
100
AcDbEntity
  8
LC-002-005-----0
 62
     7
370
    25
100
AcDbLine
 10
361.425589
 20
424.877151
 30
0.0
 11
358.192131
 21
428.11061
 31
0.0
  0
LINE
  5
1AE
330
192
100
AcDbEntity
  8
LC-002-005-----0
 62
     7
370
    25
100
AcDbLine
 10
358.597162
 20
424.877151
 30
0.0
 11
355.338817
 21
428.135496
 31
0.0
  0
LINE
  5
1AF
330
192
100
AcDbEntity
  8
LC-002-005-----0
 62
     7
370
    25
100
AcDbLine
 10
355.768735
 20
424.877151
 30
0.0
 11
352.485504
 21
428.160383
 31
0.0
  0
LINE
  5
1B0
330
192
100
AcDbEntity
  8
LC-002-005-----0
 62
     7
370
    25
100
AcDbLine
 10
352.940308
 20
424.877151
 30
0.0
 11
349.63219
 21
428.185269
 31
0.0
  0
LINE
  5
1B1
330
192
100
AcDbEntity
  8
LC-002-005-----0
 62
     7
370
    25
100
AcDbLine
 10
350.111881
 20
424.877151
 30
0.0
 11
345.235344
 21
429.753688
 31
0.0
  0
LINE
  5
1B2
330
192
100
AcDbEntity
  8
LC-002-005-----0
 62
     7
370
    25
100
AcDbLine
 10
347.283454
 20
424.877151
 30
0.0
 11
343.072581
 21
429.088024
 31
0.0
  0
LINE
  5
1B3
330
192
100
AcDbEntity
  8
LC-002-005-----0
 62
     7
370
    25
100
AcDbLine
 10
344.455027
 20
424.877151
 30
0.0
 11
341.397475
 21
427.934703
 31
0.0
  0
LINE
  5
1B4
330
192
100
AcDbEntity
  8
LC-002-005-----0
 62
     7
370
    25
100
AcDbLine
 10
341.749194
 20
424.754557
 30
0.0
 11
339.619625
 21
426.884126
 31
0.0
  0
LINE
  5
1B5
330
192
100
AcDbEntity
  8
LC-002-005-----0
 62
     7
370
    25
100
AcDbLine
 10
339.90909
 20
423.766233
 30
0.0
 11
337.733313
 21
425.942011
 31
0.0
  0
LINE
  5
1B6
330
192
100
AcDbEntity
  8
LC-002-005-----0
 62
     7
370
    25
100
AcDbLine
 10
337.966591
 20
422.880306
 30
0.0
 11
335.730464
 21
425.116433
 31
0.0
  0
LINE
  5
1B7
330
192
100
AcDbEntity
  8
LC-002-005-----0
 62
     7
370
    25
100
AcDbLine
 10
335.913824
 20
422.104645
 30
0.0
 11
333.599835
 21
424.418634
 31
0.0
  0
LINE
  5
1B8
330
192
100
AcDbEntity
  8
LC-002-005-----0
 62
     7
370
    25
100
AcDbLine
 10
333.740154
 20
421.449888
 30
0.0
 11
331.325686
 21
423.864356
 31
0.0
  0
LINE
  5
1B9
330
192
100
AcDbEntity
  8
LC-002-005-----0
 62
     7
370
    25
100
AcDbLine
 10
331.431057
 20
420.930558
 30
0.0
 11
328.885475
 21
423.476141
 31
0.0
  0
LINE
  5
1BA
330
192
100
AcDbEntity
  8
LC-002-005-----0
 62
     7
370
    25
100
AcDbLine
 10
328.966243
 20
420.566945
 30
0.0
 11
326.245584
 21
423.287604
 31
0.0
  0
LINE
  5
1BB
330
192
100
AcDbEntity
  8
LC-002-005-----0
 62
     7
370
    25
100
AcDbLine
 10
326.316301
 20
420.38846
 30
0.0
 11
323.352562
 21
423.352199
 31
0.0
  0
LINE
  5
1BC
330
192
100
AcDbEntity
  8
LC-002-005-----0
 62
     7
370
    25
100
AcDbLine
 10
323.499183
 20
420.377151
 30
0.0
 11
320.112278
 21
423.764056
 31
0.0
  0
LINE
  5
1BD
330
192
100
AcDbEntity
  8
LC-002-005-----0
 62
     7
370
    25
100
AcDbLine
 10
320.670755
 20
420.377151
 30
0.0
 11
317.193726
 21
423.854181
 31
0.0
  0
LINE
  5
1BE
330
192
100
AcDbEntity
  8
LC-002-005-----0
 62
     7
370
    25
100
AcDbLine
 10
317.842328
 20
420.377151
 30
0.0
 11
316.959023
 21
421.260457
 31
0.0
  0
ENDBLK
  5
194
330
192
100
AcDbEntity
  8
0
100
AcDbBlockEnd
  0
BLOCK
  5
221
330
220
100
AcDbEntity
  8
0
100
AcDbBlockBegin
  2
*X711
 70
     1
 71
     0
 10
0.0
 20
0.0
 30
0.0
  3
*X711
  1

  4
*X7
  0
LINE
  5
223
330
220
100
AcDbEntity
  8
LC-002-005-----0
 62
     7
370
    25
100
AcDbLine
 10
424.823012
 20
483.102095
 30
0.0
 11
423.683966
 21
484.241141
 31
0.0
  0
LINE
  5
224
330
220
100
AcDbEntity
  8
LC-002-005-----0
 62
     7
370
    25
100
AcDbLine
 10
423.729444
 20
481.367236
 30
0.0
 11
420.719529
 21
484.377151
 31
0.0
  0
LINE
  5
225
330
220
100
AcDbEntity
  8
LC-002-005-----0
 62
     7
370
    25
100
AcDbLine
 10
420.923643
 20
481.344609
 30
0.0
 11
417.891102
 21
484.377151
 31
0.0
  0
LINE
  5
226
330
220
100
AcDbEntity
  8
LC-002-005-----0
 62
     7
370
    25
100
AcDbLine
 10
418.117843
 20
481.321983
 30
0.0
 11
415.062674
 21
484.377151
 31
0.0
  0
LINE
  5
227
330
220
100
AcDbEntity
  8
LC-002-005-----0
 62
     7
370
    25
100
AcDbLine
 10
415.312042
 20
481.299357
 30
0.0
 11
412.234247
 21
484.377151
 31
0.0
  0
LINE
  5
228
330
220
100
AcDbEntity
  8
LC-002-005-----0
 62
     7
370
    25
100
AcDbLine
 10
412.506241
 20
481.27673
 30
0.0
 11
409.40582
 21
484.377151
 31
0.0
  0
LINE
  5
229
330
220
100
AcDbEntity
  8
LC-002-005-----0
 62
     7
370
    25
100
AcDbLine
 10
409.70044
 20
481.254104
 30
0.0
 11
406.577393
 21
484.377151
 31
0.0
  0
LINE
  5
22A
330
220
100
AcDbEntity
  8
LC-002-005-----0
 62
     7
370
    25
100
AcDbLine
 10
406.89464
 20
481.231477
 30
0.0
 11
403.748966
 21
484.377151
 31
0.0
  0
LINE
  5
22B
330
220
100
AcDbEntity
  8
LC-002-005-----0
 62
     7
370
    25
100
AcDbLine
 10
404.088839
 20
481.208851
 30
0.0
 11
400.920539
 21
484.377151
 31
0.0
  0
LINE
  5
22C
330
220
100
AcDbEntity
  8
LC-002-005-----0
 62
     7
370
    25
100
AcDbLine
 10
401.283038
 20
481.186225
 30
0.0
 11
398.092112
 21
484.377151
 31
0.0
  0
LINE
  5
22D
330
220
100
AcDbEntity
  8
LC-002-005-----0
 62
     7
370
    25
100
AcDbLine
 10
398.477237
 20
481.163598
 30
0.0
 11
395.263685
 21
484.377151
 31
0.0
  0
LINE
  5
22E
330
220
100
AcDbEntity
  8
LC-002-005-----0
 62
     7
370
    25
100
AcDbLine
 10
395.671437
 20
481.140972
 30
0.0
 11
392.435257
 21
484.377151
 31
0.0
  0
LINE
  5
22F
330
220
100
AcDbEntity
  8
LC-002-005-----0
 62
     7
370
    25
100
AcDbLine
 10
392.865636
 20
481.118346
 30
0.0
 11
389.60683
 21
484.377151
 31
0.0
  0
LINE
  5
230
330
220
100
AcDbEntity
  8
LC-002-005-----0
 62
     7
370
    25
100
AcDbLine
 10
390.059835
 20
481.095719
 30
0.0
 11
386.778403
 21
484.377151
 31
0.0
  0
LINE
  5
231
330
220
100
AcDbEntity
  8
LC-002-005-----0
 62
     7
370
    25
100
AcDbLine
 10
384.959023
 20
486.196532
 30
0.0
 11
383.778403
 21
487.377151
 31
0.0
  0
LINE
  5
232
330
220
100
AcDbEntity
  8
LC-002-005-----0
 62
     7
370
    25
100
AcDbLine
 10
387.254034
 20
481.073093
 30
0.0
 11
381.959023
 21
486.368105
 31
0.0
  0
LINE
  5
233
330
220
100
AcDbEntity
  8
LC-002-005-----0
 62
     7
370
    25
100
AcDbLine
 10
384.959023
 20
480.539678
 30
0.0
 11
381.959023
 21
483.539678
 31
0.0
  0
LINE
  5
234
330
220
100
AcDbEntity
  8
LC-002-005-----0
 62
     7
370
    25
100
AcDbLine
 10
384.794556
 20
477.875717
 30
0.0
 11
381.719757
 21
480.950516
 31
0.0
  0
LINE
  5
235
330
220
100
AcDbEntity
  8
LC-002-005-----0
 62
     7
370
    25
100
AcDbLine
 10
381.990585
 20
477.851261
 30
0.0
 11
378.964695
 21
480.877151
 31
0.0
  0
LINE
  5
236
330
220
100
AcDbEntity
  8
LC-002-005-----0
 62
     7
370
    25
100
AcDbLine
 10
379.186614
 20
477.826805
 30
0.0
 11
376.136268
 21
480.877151
 31
0.0
  0
LINE
  5
237
330
220
100
AcDbEntity
  8
LC-002-005-----0
 62
     7
370
    25
100
AcDbLine
 10
376.382643
 20
477.802349
 30
0.0
 11
373.30784
 21
480.877151
 31
0.0
  0
LINE
  5
238
330
220
100
AcDbEntity
  8
LC-002-005-----0
 62
     7
370
    25
100
AcDbLine
 10
373.578672
 20
477.777893
 30
0.0
 11
370.479413
 21
480.877151
 31
0.0
  0
LINE
  5
239
330
220
100
AcDbEntity
  8
LC-002-005-----0
 62
     7
370
    25
100
AcDbLine
 10
370.774701
 20
477.753437
 30
0.0
 11
367.650986
 21
480.877151
 31
0.0
  0
LINE
  5
23A
330
220
100
AcDbEntity
  8
LC-002-005-----0
 62
     7
370
    25
100
AcDbLine
 10
367.97073
 20
477.728981
 30
0.0
 11
364.822559
 21
480.877151
 31
0.0
  0
LINE
  5
23B
330
220
100
AcDbEntity
  8
LC-002-005-----0
 62
     7
370
    25
100
AcDbLine
 10
365.166758
 20
477.704525
 30
0.0
 11
361.994132
 21
480.877151
 31
0.0
  0
LINE
  5
23C
330
220
100
AcDbEntity
  8
LC-002-005-----0
 62
     7
370
    25
100
AcDbLine
 10
362.362787
 20
477.680069
 30
0.0
 11
359.165705
 21
480.877151
 31
0.0
  0
LINE
  5
23D
330
220
100
AcDbEntity
  8
LC-002-005-----0
 62
     7
370
    25
100
AcDbLine
 10
359.558816
 20
477.655613
 30
0.0
 11
356.337278
 21
480.877151
 31
0.0
  0
LINE
  5
23E
330
220
100
AcDbEntity
  8
LC-002-005-----0
 62
     7
370
    25
100
AcDbLine
 10
356.754845
 20
477.631157
 30
0.0
 11
353.508851
 21
480.877151
 31
0.0
  0
LINE
  5
23F
330
220
100
AcDbEntity
  8
LC-002-005-----0
 62
     7
370
    25
100
AcDbLine
 10
353.950874
 20
477.606701
 30
0.0
 11
350.680423
 21
480.877151
 31
0.0
  0
LINE
  5
240
330
220
100
AcDbEntity
  8
LC-002-005-----0
 62
     7
370
    25
100
AcDbLine
 10
351.146903
 20
477.582245
 30
0.0
 11
347.851996
 21
480.877151
 31
0.0
  0
LINE
  5
241
330
220
100
AcDbEntity
  8
LC-002-005-----0
 62
     7
370
    25
100
AcDbLine
 10
348.342932
 20
477.557789
 30
0.0
 11
345.023569
 21
480.877151
 31
0.0
  0
LINE
  5
242
330
220
100
AcDbEntity
  8
LC-002-005-----0
 62
     7
370
    25
100
AcDbLine
 10
346.938023
 20
476.134271
 30
0.0
 11
342.195142
 21
480.877151
 31
0.0
  0
LINE
  5
243
330
220
100
AcDbEntity
  8
LC-002-005-----0
 62
     7
370
    25
100
AcDbLine
 10
344.243252
 20
476.000615
 30
0.0
 11
336.975638
 21
483.268228
 31
0.0
  0
LINE
  5
244
330
220
100
AcDbEntity
  8
LC-002-005-----0
 62
     7
370
    25
100
AcDbLine
 10
337.496472
 20
479.918967
 30
0.0
 11
332.902054
 21
484.513385
 31
0.0
  0
LINE
  5
245
330
220
100
AcDbEntity
  8
LC-002-005-----0
 62
     7
370
    25
100
AcDbLine
 10
333.117867
 20
481.469145
 30
0.0
 11
329.456661
 21
485.130351
 31
0.0
  0
LINE
  5
246
330
220
100
AcDbEntity
  8
LC-002-005-----0
 62
     7
370
    25
100
AcDbLine
 10
329.568021
 20
482.190563
 30
0.0
 11
326.394912
 21
485.363673
 31
0.0
  0
LINE
  5
247
330
220
100
AcDbEntity
  8
LC-002-005-----0
 62
     7
370
    25
100
AcDbLine
 10
326.470286
 20
482.459872
 30
0.0
 11
323.553006
 21
485.377151
 31
0.0
  0
LINE
  5
248
330
220
100
AcDbEntity
  8
LC-002-005-----0
 62
     7
370
    25
100
AcDbLine
 10
323.678198
 20
482.423533
 30
0.0
 11
320.724579
 21
485.377151
 31
0.0
  0
LINE
  5
249
330
220
100
AcDbEntity
  8
LC-002-005-----0
 62
     7
370
    25
100
AcDbLine
 10
321.116434
 20
482.15687
 30
0.0
 11
317.896152
 21
485.377151
 31
0.0
  0
LINE
  5
24A
330
220
100
AcDbEntity
  8
LC-002-005-----0
 62
     7
370
    25
100
AcDbLine
 10
318.740323
 20
481.704553
 30
0.0
 11
316.959023
 21
483.485854
 31
0.0
  0
ENDBLK
  5
222
330
220
100
AcDbEntity
  8
0
100
AcDbBlockEnd
  0
BLOCK
  5
297
330
296
100
AcDbEntity
  8
0
100
AcDbBlockBegin
  2
*X812
 70
     1
 71
     0
 10
0.0
 20
0.0
 30
0.0
  3
*X812
  1

  4
*X8
  0
LINE
  5
299
330
296
100
AcDbEntity
  8
LC-002-005-----0
 62
     7
370
    25
100
AcDbLine
 10
342.233851
 20
475.169926
 30
0.0
 11
343.052184
 21
475.988259
 31
0.0
  0
LINE
  5
29A
330
296
100
AcDbEntity
  8
LC-002-005-----0
 62
     7
370
    25
100
AcDbLine
 10
339.405424
 20
475.169926
 30
0.0
 11
341.723779
 21
477.488281
 31
0.0
  0
LINE
  5
29B
330
296
100
AcDbEntity
  8
LC-002-005-----0
 62
     7
370
    25
100
AcDbLine
 10
336.576997
 20
475.169926
 30
0.0
 11
339.969034
 21
478.561963
 31
0.0
  0
LINE
  5
29C
330
296
100
AcDbEntity
  8
LC-002-005-----0
 62
     7
370
    25
100
AcDbLine
 10
333.74857
 20
475.169926
 30
0.0
 11
338.106897
 21
479.528254
 31
0.0
  0
LINE
  5
29D
330
296
100
AcDbEntity
  8
LC-002-005-----0
 62
     7
370
    25
100
AcDbLine
 10
330.920143
 20
475.169926
 30
0.0
 11
333.619572
 21
477.869355
 31
0.0
  0
LINE
  5
29E
330
296
100
AcDbEntity
  8
LC-002-005-----0
 62
     7
370
    25
100
AcDbLine
 10
336.054452
 20
480.304236
 30
0.0
 11
336.12981
 21
480.379593
 31
0.0
  0
LINE
  5
29F
330
296
100
AcDbEntity
  8
LC-002-005-----0
 62
     7
370
    25
100
AcDbLine
 10
328.091716
 20
475.169926
 30
0.0
 11
331.55591
 21
478.634121
 31
0.0
  0
LINE
  5
2A0
330
296
100
AcDbEntity
  8
LC-002-005-----0
 62
     7
370
    25
100
AcDbLine
 10
375.884982
 20
522.963193
 30
0.0
 11
377.491064
 21
524.569274
 31
0.0
  0
LINE
  5
2A1
330
296
100
AcDbEntity
  8
LC-002-005-----0
 62
     7
370
    25
100
AcDbLine
 10
325.263288
 20
475.169926
 30
0.0
 11
331.55591
 21
481.462548
 31
0.0
  0
LINE
  5
2A2
330
296
100
AcDbEntity
  8
LC-002-005-----0
 62
     7
370
    25
100
AcDbLine
 10
372.845902
 20
522.75254
 30
0.0
 11
376.077068
 21
525.983705
 31
0.0
  0
LINE
  5
2A3
330
296
100
AcDbEntity
  8
LC-002-005-----0
 62
     7
370
    25
100
AcDbLine
 10
322.434861
 20
475.169926
 30
0.0
 11
329.380307
 21
482.115372
 31
0.0
  0
LINE
  5
2A4
330
296
100
AcDbEntity
  8
LC-002-005-----0
 62
     7
370
    25
100
AcDbLine
 10
369.806822
 20
522.541887
 30
0.0
 11
373.037988
 21
525.773052
 31
0.0
  0
LINE
  5
2A5
330
296
100
AcDbEntity
  8
LC-002-005-----0
 62
     7
370
    25
100
AcDbLine
 10
319.606434
 20
475.169926
 30
0.0
 11
326.783894
 21
482.347386
 31
0.0
  0
LINE
  5
2A6
330
296
100
AcDbEntity
  8
LC-002-005-----0
 62
     7
370
    25
100
AcDbLine
 10
366.767742
 20
522.331234
 30
0.0
 11
369.998908
 21
525.562399
 31
0.0
  0
LINE
  5
2A7
330
296
100
AcDbEntity
  8
LC-002-005-----0
 62
     7
370
    25
100
AcDbLine
 10
316.778007
 20
475.169926
 30
0.0
 11
323.946428
 21
482.338347
 31
0.0
  0
LINE
  5
2A8
330
296
100
AcDbEntity
  8
LC-002-005-----0
 62
     7
370
    25
100
AcDbLine
 10
363.728662
 20
522.120581
 30
0.0
 11
366.959828
 21
525.351746
 31
0.0
  0
LINE
  5
2A9
330
296
100
AcDbEntity
  8
LC-002-005-----0
 62
     7
370
    25
100
AcDbLine
 10
313.94958
 20
475.169926
 30
0.0
 11
320.784014
 21
482.00436
 31
0.0
  0
LINE
  5
2AA
330
296
100
AcDbEntity
  8
LC-002-005-----0
 62
     7
370
    25
100
AcDbLine
 10
360.689582
 20
521.909928
 30
0.0
 11
363.920747
 21
525.141094
 31
0.0
  0
LINE
  5
2AB
330
296
100
AcDbEntity
  8
LC-002-005-----0
 62
     7
370
    25
100
AcDbLine
 10
311.121153
 20
475.169926
 30
0.0
 11
317.127385
 21
481.176159
 31
0.0
  0
LINE
  5
2AC
330
296
100
AcDbEntity
  8
LC-002-005-----0
 62
     7
370
    25
100
AcDbLine
 10
357.650502
 20
521.699275
 30
0.0
 11
360.881667
 21
524.930441
 31
0.0
  0
LINE
  5
2AD
330
296
100
AcDbEntity
  8
LC-002-005-----0
 62
     7
370
    25
100
AcDbLine
 10
308.292726
 20
475.169926
 30
0.0
 11
312.502257
 21
479.379457
 31
0.0
  0
LINE
  5
2AE
330
296
100
AcDbEntity
  8
LC-002-005-----0
 62
     7
370
    25
100
AcDbLine
 10
354.611422
 20
521.488622
 30
0.0
 11
357.842587
 21
524.719788
 31
0.0
  0
LINE
  5
2AF
330
296
100
AcDbEntity
  8
LC-002-005-----0
 62
     7
370
    25
100
AcDbLine
 10
305.464299
 20
475.169926
 30
0.0
 11
308.163424
 21
477.869051
 31
0.0
  0
LINE
  5
2B0
330
296
100
AcDbEntity
  8
LC-002-005-----0
 62
     7
370
    25
100
AcDbLine
 10
351.572342
 20
521.277969
 30
0.0
 11
354.803507
 21
524.509135
 31
0.0
  0
LINE
  5
2B1
330
296
100
AcDbEntity
  8
LC-002-005-----0
 62
     7
370
    25
100
AcDbLine
 10
302.635871
 20
475.169926
 30
0.0
 11
305.334997
 21
477.869051
 31
0.0
  0
LINE
  5
2B2
330
296
100
AcDbEntity
  8
LC-002-005-----0
 62
     7
370
    25
100
AcDbLine
 10
348.533262
 20
521.067316
 30
0.0
 11
351.764427
 21
524.298482
 31
0.0
  0
LINE
  5
2B3
330
296
100
AcDbEntity
  8
LC-002-005-----0
 62
     7
370
    25
100
AcDbLine
 10
299.807444
 20
475.169926
 30
0.0
 11
302.506569
 21
477.869051
 31
0.0
  0
LINE
  5
2B4
330
296
100
AcDbEntity
  8
LC-002-005-----0
 62
     7
370
    25
100
AcDbLine
 10
345.494182
 20
520.856663
 30
0.0
 11
348.725347
 21
524.087829
 31
0.0
  0
LINE
  5
2B5
330
296
100
AcDbEntity
  8
LC-002-005-----0
 62
     7
370
    25
100
AcDbLine
 10
296.979017
 20
475.169926
 30
0.0
 11
299.678142
 21
477.869051
 31
0.0
  0
LINE
  5
2B6
330
296
100
AcDbEntity
  8
LC-002-005-----0
 62
     7
370
    25
100
AcDbLine
 10
341.311657
 20
519.502566
 30
0.0
 11
345.686267
 21
523.877176
 31
0.0
  0
LINE
  5
2B7
330
296
100
AcDbEntity
  8
LC-002-005-----0
 62
     7
370
    25
100
AcDbLine
 10
294.15059
 20
475.169926
 30
0.0
 11
296.849715
 21
477.869051
 31
0.0
  0
LINE
  5
2B8
330
296
100
AcDbEntity
  8
LC-002-005-----0
 62
     7
370
    25
100
AcDbLine
 10
306.559772
 20
487.579108
 30
0.0
 11
311.698363
 21
492.717699
 31
0.0
  0
LINE
  5
2B9
330
296
100
AcDbEntity
  8
LC-002-005-----0
 62
     7
370
    25
100
AcDbLine
 10
337.227127
 20
518.246463
 30
0.0
 11
342.647187
 21
523.666523
 31
0.0
  0
LINE
  5
2BA
330
296
100
AcDbEntity
  8
LC-002-005-----0
 62
     7
370
    25
100
AcDbLine
 10
291.322163
 20
475.169926
 30
0.0
 11
294.021288
 21
477.869051
 31
0.0
  0
LINE
  5
2BB
330
296
100
AcDbEntity
  8
LC-002-005-----0
 62
     7
370
    25
100
AcDbLine
 10
303.731345
 20
487.579108
 30
0.0
 11
314.164335
 21
498.012098
 31
0.0
  0
LINE
  5
2BC
330
296
100
AcDbEntity
  8
LC-002-005-----0
 62
     7
370
    25
100
AcDbLine
 10
334.186047
 20
518.03381
 30
0.0
 11
339.608107
 21
523.45587
 31
0.0
  0
LINE
  5
2BD
330
296
100
AcDbEntity
  8
LC-002-005-----0
 62
     7
370
    25
100
AcDbLine
 10
288.493736
 20
475.169926
 30
0.0
 11
291.192861
 21
477.869051
 31
0.0
  0
LINE
  5
2BE
330
296
100
AcDbEntity
  8
LC-002-005-----0
 62
     7
370
    25
100
AcDbLine
 10
291.436113
 20
478.112303
 30
0.0
 11
293.957869
 21
480.634059
 31
0.0
  0
LINE
  5
2BF
330
296
100
AcDbEntity
  8
LC-002-005-----0
 62
     7
370
    25
100
AcDbLine
 10
300.902917
 20
487.579108
 30
0.0
 11
315.491064
 21
502.167254
 31
0.0
  0
LINE
  5
2C0
330
296
100
AcDbEntity
  8
LC-002-005-----0
 62
     7
370
    25
100
AcDbLine
 10
331.144967
 20
517.821157
 30
0.0
 11
335.476623
 21
522.152813
 31
0.0
  0
LINE
  5
2C1
330
296
100
AcDbEntity
  8
LC-002-005-----0
 62
     7
370
    25
100
AcDbLine
 10
287.97109
 20
477.475708
 30
0.0
 11
293.991064
 21
483.495681
 31
0.0
  0
LINE
  5
2C2
330
296
100
AcDbEntity
  8
LC-002-005-----0
 62
     7
370
    25
100
AcDbLine
 10
298.07449
 20
487.579108
 30
0.0
 11
301.078842
 21
490.583459
 31
0.0
  0
LINE
  5
2C3
330
296
100
AcDbEntity
  8
LC-002-005-----0
 62
     7
370
    25
100
AcDbLine
 10
303.648574
 20
493.153191
 30
0.0
 11
309.773032
 21
499.27765
 31
0.0
  0
LINE
  5
2C4
330
296
100
AcDbEntity
  8
LC-002-005-----0
 62
     7
370
    25
100
AcDbLine
 10
313.240357
 20
502.744974
 30
0.0
 11
315.491064
 21
504.995681
 31
0.0
  0
LINE
  5
2C5
330
296
100
AcDbEntity
  8
LC-002-005-----0
 62
     7
370
    25
100
AcDbLine
 10
318.690661
 20
508.195279
 30
0.0
 11
320.700304
 21
510.204921
 31
0.0
  0
LINE
  5
2C6
330
296
100
AcDbEntity
  8
LC-002-005-----0
 62
     7
370
    25
100
AcDbLine
 10
328.103887
 20
517.608504
 30
0.0
 11
331.43117
 21
520.935788
 31
0.0
  0
LINE
  5
2C7
330
296
100
AcDbEntity
  8
LC-002-005-----0
 62
     7
370
    25
100
AcDbLine
 10
287.971089
 20
480.304133
 30
0.0
 11
288.054652
 21
480.387697
 31
0.0
  0
LINE
  5
2C8
330
296
100
AcDbEntity
  8
LC-002-005-----0
 62
     7
370
    25
100
AcDbLine
 10
290.670058
 20
483.003103
 30
0.0
 11
298.250415
 21
490.583459
 31
0.0
  0
LINE
  5
2C9
330
296
100
AcDbEntity
  8
LC-002-005-----0
 62
     7
370
    25
100
AcDbLine
 10
304.145434
 20
496.478479
 30
0.0
 11
306.944605
 21
499.27765
 31
0.0
  0
LINE
  5
2CA
330
296
100
AcDbEntity
  8
LC-002-005-----0
 62
     7
370
    25
100
AcDbLine
 10
313.240357
 20
505.573401
 30
0.0
 11
321.531269
 21
513.864313
 31
0.0
  0
LINE
  5
2CB
330
296
100
AcDbEntity
  8
LC-002-005-----0
 62
     7
370
    25
100
AcDbLine
 10
325.062807
 20
517.395851
 30
0.0
 11
328.325521
 21
520.658565
 31
0.0
  0
LINE
  5
2CC
330
296
100
AcDbEntity
  8
LC-002-005-----0
 62
     7
370
    25
100
AcDbLine
 10
290.670058
 20
485.83153
 30
0.0
 11
295.421988
 21
490.583459
 31
0.0
  0
LINE
  5
2CD
330
296
100
AcDbEntity
  8
LC-002-005-----0
 62
     7
370
    25
100
AcDbLine
 10
313.240357
 20
508.401828
 30
0.0
 11
315.989682
 21
511.151154
 31
0.0
  0
LINE
  5
2CE
330
296
100
AcDbEntity
  8
LC-002-005-----0
 62
     7
370
    25
100
AcDbLine
 10
318.338975
 20
513.500447
 30
0.0
 11
320.741064
 21
515.902535
 31
0.0
  0
LINE
  5
2CF
330
296
100
AcDbEntity
  8
LC-002-005-----0
 62
     7
370
    25
100
AcDbLine
 10
322.021727
 20
517.183198
 30
0.0
 11
325.275447
 21
520.436918
 31
0.0
  0
LINE
  5
2D0
330
296
100
AcDbEntity
  8
LC-002-005-----0
 62
     7
370
    25
100
AcDbLine
 10
290.670058
 20
488.659957
 30
0.0
 11
292.59356
 21
490.583459
 31
0.0
  0
LINE
  5
2D1
330
296
100
AcDbEntity
  8
LC-002-005-----0
 62
     7
370
    25
100
AcDbLine
 10
313.240357
 20
511.230256
 30
0.0
 11
315.240357
 21
513.230256
 31
0.0
  0
LINE
  5
2D2
330
296
100
AcDbEntity
  8
LC-002-005-----0
 62
     7
370
    25
100
AcDbLine
 10
318.338975
 20
516.328874
 30
0.0
 11
322.225373
 21
520.215271
 31
0.0
  0
LINE
  5
2D3
330
296
100
AcDbEntity
  8
LC-002-005-----0
 62
     7
370
    25
100
AcDbLine
 10
313.240357
 20
514.058683
 30
0.0
 11
315.240357
 21
516.058683
 31
0.0
  0
LINE
  5
2D4
330
296
100
AcDbEntity
  8
LC-002-005-----0
 62
     7
370
    25
100
AcDbLine
 10
318.338975
 20
519.157301
 30
0.0
 11
319.175299
 21
519.993625
 31
0.0
  0
ENDBLK
  5
298
330
296
100
AcDbEntity
  8
0
100
AcDbBlockEnd
  0
BLOCK
  5
328
330
327
100
AcDbEntity
  8
0
100
AcDbBlockBegin
  2
*X913
 70
     1
 71
     0
 10
0.0
 20
0.0
 30
0.0
  3
*X913
  1

  4
*X9
  0
LINE
  5
32A
330
327
100
AcDbEntity
  8
LC-002-005-----0
 62
     7
370
    25
100
AcDbLine
 10
167.701009
 20
485.665657
 30
0.0
 11
164.769018
 21
488.597647
 31
0.0
  0
LINE
  5
32B
330
327
100
AcDbEntity
  8
LC-002-005-----0
  6
DASHED
 62
     7
370
    25
100
AcDbLine
 10
167.226813
 20
483.311426
 30
0.0
 11
162.414787
 21
488.123452
 31
0.0
  0
LINE
  5
32C
330
327
100
AcDbEntity
  8
LC-002-005-----0
  6
DASHED
 62
     7
370
    25
100
AcDbLine
 10
166.585287
 20
482.538738
 30
0.0
 11
161.642099
 21
487.481926
 31
0.0
  0
LINE
  5
32D
330
327
100
AcDbEntity
  8
LC-002-005-----0
 62
     7
370
    25
100
AcDbLine
 10
164.635593
 20
481.660005
 30
0.0
 11
160.763366
 21
485.532232
 31
0.0
  0
LINE
  5
32E
330
327
100
AcDbEntity
  8
LC-002-005-----0
 62
     7
370
    25
100
AcDbLine
 10
163.026014
 20
481.85537
 30
0.0
 11
160.958731
 21
483.922653
 31
0.0
  0
ENDBLK
  5
329
330
327
100
AcDbEntity
  8
0
100
AcDbBlockEnd
  0
BLOCK
  5
331
330
330
100
AcDbEntity
  8
0
100
AcDbBlockBegin
  2
*X1014
 70
     1
 71
     0
 10
0.0
 20
0.0
 30
0.0
  3
*X1014
  1

  4
*X10
  0
LINE
  5
333
330
330
100
AcDbEntity
  8
LC-002-005-----0
  6
DASHED
 62
     7
370
    25
100
AcDbLine
 10
292.132091
 20
484.271155
 30
0.0
 11
287.874516
 21
488.52873
 31
0.0
  0
LINE
  5
334
330
330
100
AcDbEntity
  8
LC-002-005-----0
  6
DASHED
 62
     7
370
    25
100
AcDbLine
 10
291.708005
 20
483.281027
 30
0.0
 11
286.884388
 21
488.104644
 31
0.0
  0
LINE
  5
335
330
330
100
AcDbEntity
  8
LC-002-005-----0
 62
     7
370
    25
100
AcDbLine
 10
290.202972
 20
481.957633
 30
0.0
 11
285.560994
 21
486.599611
 31
0.0
  0
LINE
  5
336
330
330
100
AcDbEntity
  8
LC-002-005-----0
 62
     7
370
    25
100
AcDbLine
 10
289.091142
 20
481.655249
 30
0.0
 11
285.25861
 21
485.487781
 31
0.0
  0
ENDBLK
  5
332
330
330
100
AcDbEntity
  8
0
100
AcDbBlockEnd
  0
BLOCK
  5
349
330
348
100
AcDbEntity
  8
0
100
AcDbBlockBegin
  2
*X1115
 70
     1
 71
     0
 10
0.0
 20
0.0
 30
0.0
  3
*X1115
  1

  4
*X11
  0
LINE
  5
34B
330
348
100
AcDbEntity
  8
LC-002-005-----0
 62
     7
370
    25
100
AcDbLine
 10
227.509091
 20
502.225108
 30
0.0
 11
227.734248
 21
501.99995
 31
0.0
  0
LINE
  5
34C
330
348
100
AcDbEntity
  8
LC-002-005-----0
 62
     7
370
    25
100
AcDbLine
 10
227.604529
 20
504.958097
 30
0.0
 11
230.66502
 21
501.897605
 31
0.0
  0
LINE
  5
34D
330
348
100
AcDbEntity
  8
LC-002-005-----0
 62
     7
370
    25
100
AcDbLine
 10
226.153012
 20
509.23804
 30
0.0
 11
226.856489
 21
508.534564
 31
0.0
  0
LINE
  5
34E
330
348
100
AcDbEntity
  8
LC-002-005-----0
 62
     7
370
    25
100
AcDbLine
 10
230.165425
 20
505.225627
 30
0.0
 11
232.099118
 21
503.291934
 31
0.0
  0
LINE
  5
34F
330
348
100
AcDbEntity
  8
LC-002-005-----0
 62
     7
370
    25
100
AcDbLine
 10
226.676813
 20
511.542667
 30
0.0
 11
229.787261
 21
508.432219
 31
0.0
  0
LINE
  5
350
330
348
100
AcDbEntity
  8
LC-002-005-----0
 62
     7
370
    25
100
AcDbLine
 10
230.260863
 20
507.958616
 30
0.0
 11
232.194557
 21
506.024923
 31
0.0
  0
LINE
  5
351
330
348
100
AcDbEntity
  8
LC-002-005-----0
 62
     7
370
    25
100
AcDbLine
 10
229.607585
 20
511.440322
 30
0.0
 11
232.289995
 21
508.757912
 31
0.0
  0
LINE
  5
352
330
348
100
AcDbEntity
  8
LC-002-005-----0
 62
     7
370
    25
100
AcDbLine
 10
232.630662
 20
511.245672
 30
0.0
 11
235.81328
 21
508.063053
 31
0.0
  0
LINE
  5
353
330
348
100
AcDbEntity
  8
LC-002-005-----0
 62
     7
370
    25
100
AcDbLine
 10
236.867731
 20
509.83703
 30
0.0
 11
239.574937
 21
507.129824
 31
0.0
  0
LINE
  5
354
330
348
100
AcDbEntity
  8
LC-002-005-----0
 62
     7
370
    25
100
AcDbLine
 10
240.566137
 20
508.967051
 30
0.0
 11
242.975977
 21
506.557211
 31
0.0
  0
LINE
  5
355
330
348
100
AcDbEntity
  8
LC-002-005-----0
 62
     7
370
    25
100
AcDbLine
 10
243.90976
 20
508.451856
 30
0.0
 11
246.1127
 21
506.248916
 31
0.0
  0
LINE
  5
356
330
348
100
AcDbEntity
  8
LC-002-005-----0
 62
     7
370
    25
100
AcDbLine
 10
246.992852
 20
508.197191
 30
0.0
 11
247.608279
 21
507.581763
 31
0.0
  0
ENDBLK
  5
34A
330
348
100
AcDbEntity
  8
0
100
AcDbBlockEnd
  0
BLOCK
  5
359
330
358
100
AcDbEntity
  8
0
100
AcDbBlockBegin
  2
*X1216
 70
     1
 71
     0
 10
0.0
 20
0.0
 30
0.0
  3
*X1216
  1

  4
*X12
  0
LINE
  5
35B
330
358
100
AcDbEntity
  8
LC-002-005-----0
 62
     7
370
    25
100
AcDbLine
 10
247.608279
 20
507.581763
 30
0.0
 11
249.042359
 21
506.147684
 31
0.0
  0
LINE
  5
35C
330
358
100
AcDbEntity
  8
LC-002-005-----0
 62
     7
370
    25
100
AcDbLine
 10
249.871464
 20
508.147005
 30
0.0
 11
251.802294
 21
506.216175
 31
0.0
  0
LINE
  5
35D
330
358
100
AcDbEntity
  8
LC-002-005-----0
 62
     7
370
    25
100
AcDbLine
 10
252.582147
 20
508.264749
 30
0.0
 11
254.418441
 21
506.428455
 31
0.0
  0
LINE
  5
35E
330
358
100
AcDbEntity
  8
LC-002-005-----0
 62
     7
370
    25
100
AcDbLine
 10
255.150279
 20
508.525045
 30
0.0
 11
256.909654
 21
506.76567
 31
0.0
  0
LINE
  5
35F
330
358
100
AcDbEntity
  8
LC-002-005-----0
 62
     7
370
    25
100
AcDbLine
 10
262.735687
 20
500.939636
 30
0.0
 11
262.903512
 21
500.771812
 31
0.0
  0
LINE
  5
360
330
358
100
AcDbEntity
  8
LC-002-005-----0
 62
     7
370
    25
100
AcDbLine
 10
257.594293
 20
508.909458
 30
0.0
 11
259.290111
 21
507.213639
 31
0.0
  0
LINE
  5
361
330
358
100
AcDbEntity
  8
LC-002-005-----0
 62
     7
370
    25
100
AcDbLine
 10
262.831126
 20
503.672625
 30
0.0
 11
265.834284
 21
500.669467
 31
0.0
  0
LINE
  5
362
330
358
100
AcDbEntity
  8
LC-002-005-----0
 62
     7
370
    25
100
AcDbLine
 10
259.928035
 20
509.404142
 30
0.0
 11
261.570758
 21
507.76142
 31
0.0
  0
LINE
  5
363
330
358
100
AcDbEntity
  8
LC-002-005-----0
 62
     7
370
    25
100
AcDbLine
 10
262.926564
 20
506.405614
 30
0.0
 11
264.860257
 21
504.471921
 31
0.0
  0
LINE
  5
364
330
358
100
AcDbEntity
  8
LC-002-005-----0
 62
     7
370
    25
100
AcDbLine
 10
265.339509
 20
503.992669
 30
0.0
 11
267.325715
 21
502.006463
 31
0.0
  0
LINE
  5
365
330
358
100
AcDbEntity
  8
LC-002-005-----0
 62
     7
370
    25
100
AcDbLine
 10
262.162175
 20
509.99843
 30
0.0
 11
264.956524
 21
507.204081
 31
0.0
  0
LINE
  5
366
330
358
100
AcDbEntity
  8
LC-002-005-----0
 62
     7
370
    25
100
AcDbLine
 10
264.776848
 20
510.212184
 30
0.0
 11
267.887296
 21
507.101736
 31
0.0
  0
LINE
  5
367
330
358
100
AcDbEntity
  8
LC-002-005-----0
 62
     7
370
    25
100
AcDbLine
 10
267.70762
 20
510.10984
 30
0.0
 11
269.158984
 21
508.658475
 31
0.0
  0
ENDBLK
  5
35A
330
358
100
AcDbEntity
  8
0
100
AcDbBlockEnd
  0
BLOCK
  5
36E
330
36D
100
AcDbEntity
  8
0
100
AcDbBlockBegin
  2
*X1317
 70
     1
 71
     0
 10
0.0
 20
0.0
 30
0.0
  3
*X1317
  1

  4
*X13
  0
LINE
  5
370
330
36D
100
AcDbEntity
  8
LC-002-005-----0
  6
DASHED
 62
     7
370
    25
100
AcDbLine
 10
228.953384
 20
507.270613
 30
0.0
 11
230.103932
 21
508.421161
 31
0.0
  0
LINE
  5
371
330
36D
100
AcDbEntity
  8
LC-002-005-----0
  6
DASHED
 62
     7
370
    25
100
AcDbLine
 10
228.133487
 20
507.299245
 30
0.0
 11
229.284035
 21
508.449792
 31
0.0
  0
LINE
  5
372
330
36D
100
AcDbEntity
  8
LC-002-005-----0
 62
     7
370
    25
100
AcDbLine
 10
226.493694
 20
507.356508
 30
0.0
 11
227.644241
 21
508.507055
 31
0.0
  0
LINE
  5
373
330
36D
100
AcDbEntity
  8
LC-002-005-----0
 62
     7
370
    25
100
AcDbLine
 10
226.103306
 20
507.814648
 30
0.0
 11
226.824345
 21
508.535686
 31
0.0
  0
ENDBLK
  5
36F
330
36D
100
AcDbEntity
  8
0
100
AcDbBlockEnd
  0
BLOCK
  5
376
330
375
100
AcDbEntity
  8
0
100
AcDbBlockBegin
  2
*X1418
 70
     1
 71
     0
 10
0.0
 20
0.0
 30
0.0
  3
*X1418
  1

  4
*X14
  0
LINE
  5
378
330
375
100
AcDbEntity
  8
LC-002-005-----0
  6
DASHED
 62
     7
370
    25
100
AcDbLine
 10
268.308426
 20
505.896305
 30
0.0
 11
269.089813
 21
506.677692
 31
0.0
  0
LINE
  5
379
330
375
100
AcDbEntity
  8
LC-002-005-----0
  6
DASHED
 62
     7
370
    25
100
AcDbLine
 10
267.48853
 20
505.924936
 30
0.0
 11
268.639077
 21
507.075484
 31
0.0
  0
LINE
  5
37A
330
375
100
AcDbEntity
  8
LC-002-005-----0
 62
     7
370
    25
100
AcDbLine
 10
265.848736
 20
505.982199
 30
0.0
 11
266.999284
 21
507.132747
 31
0.0
  0
LINE
  5
37B
330
375
100
AcDbEntity
  8
LC-002-005-----0
 62
     7
370
    25
100
AcDbLine
 10
265.02884
 20
506.010831
 30
0.0
 11
266.179387
 21
507.161378
 31
0.0
  0
ENDBLK
  5
377
330
375
100
AcDbEntity
  8
0
100
AcDbBlockEnd
  0
BLOCK
  5
38D
330
383
100
AcDbEntity
  8
0
100
AcDbBlockBegin
  2
*D19
 70
     1
 71
     0
 10
0.0
 20
0.0
 30
0.0
  3
*D19
  1

  0
LINE
  5
384
330
383
100
AcDbEntity
  8
LC-005-003-----0
 62
     2
370
    -2
100
AcDbLine
 10
75.491064
 20
523.074518
 30
0.0
 11
75.491064
 21
349.2
 31
0.0
  0
LINE
  5
385
330
383
100
AcDbEntity
  8
LC-005-003-----0
 62
     2
370
    -2
100
AcDbLine
 10
161.991064
 20
411.391245
 30
0.0
 11
161.991064
 21
349.2
 31
0.0
  0
LINE
  5
386
330
383
100
AcDbEntity
  8
LC-005-003-----0
 62
     2
370
    -2
100
AcDbLine
 10
103.491064
 20
352.8
 30
0.0
 11
133.991064
 21
352.8
 31
0.0
  0
SOLID
  5
387
330
383
100
AcDbEntity
  8
LC-005-003-----0
 62
     2
100
AcDbTrace
 10
103.491064
 20
357.466667
 30
0.0
 11
103.491064
 21
348.133333
 31
0.0
 12
75.491064
 22
352.8
 32
0.0
 13
75.491064
 23
352.8
 33
0.0
  0
SOLID
  5
388
330
383
100
AcDbEntity
  8
LC-005-003-----0
 62
     2
100
AcDbTrace
 10
133.991064
 20
348.133333
 30
0.0
 11
133.991064
 21
357.466667
 31
0.0
 12
161.991064
 22
352.8
 32
0.0
 13
161.991064
 23
352.8
 33
0.0
  0
MTEXT
  5
389
330
383
100
AcDbEntity
  8
LC-005-003-----0
 62
     2
100
AcDbMText
 10
118.741064
 20
383.6
 30
0.0
 40
28.0
 41
0.0
 71
     5
 72
     1
  1
\A1;86
  7
LCTX15-400-0-0pDIN-Schrift
 73
     1
 44
1.0
  0
POINT
  5
38A
330
383
100
AcDbEntity
  8
Defpoints
 62
     0
100
AcDbPoint
 10
75.491064
 20
523.074518
 30
0.0
  0
POINT
  5
38B
330
383
100
AcDbEntity
  8
Defpoints
 62
     0
100
AcDbPoint
 10
161.991064
 20
411.391245
 30
0.0
  0
POINT
  5
38C
330
383
100
AcDbEntity
  8
Defpoints
 62
     0
100
AcDbPoint
 10
161.991064
 20
352.8
 30
0.0
  0
ENDBLK
  5
38E
330
383
100
AcDbEntity
  8
0
100
AcDbBlockEnd
  0
BLOCK
  5
39A
330
390
100
AcDbEntity
  8
0
100
AcDbBlockBegin
  2
*D20
 70
     1
 71
     0
 10
0.0
 20
0.0
 30
0.0
  3
*D20
  1

  0
LINE
  5
391
330
390
100
AcDbEntity
  8
LC-005-003-----0
 62
     2
370
    -2
100
AcDbLine
 10
161.991064
 20
411.391245
 30
0.0
 11
161.991064
 21
349.2
 31
0.0
  0
LINE
  5
392
330
390
100
AcDbEntity
  8
LC-005-003-----0
 62
     2
370
    -2
100
AcDbLine
 10
226.491064
 20
411.391245
 30
0.0
 11
226.491064
 21
349.2
 31
0.0
  0
LINE
  5
393
330
390
100
AcDbEntity
  8
LC-005-003-----0
 62
     2
370
    -2
100
AcDbLine
 10
189.991064
 20
352.8
 30
0.0
 11
198.491064
 21
352.8
 31
0.0
  0
SOLID
  5
394
330
390
100
AcDbEntity
  8
LC-005-003-----0
 62
     2
100
AcDbTrace
 10
189.991064
 20
357.466667
 30
0.0
 11
189.991064
 21
348.133333
 31
0.0
 12
161.991064
 22
352.8
 32
0.0
 13
161.991064
 23
352.8
 33
0.0
  0
SOLID
  5
395
330
390
100
AcDbEntity
  8
LC-005-003-----0
 62
     2
100
AcDbTrace
 10
198.491064
 20
348.133333
 30
0.0
 11
198.491064
 21
357.466667
 31
0.0
 12
226.491064
 22
352.8
 32
0.0
 13
226.491064
 23
352.8
 33
0.0
  0
MTEXT
  5
396
330
390
100
AcDbEntity
  8
LC-005-003-----0
 62
     2
100
AcDbMText
 10
194.241064
 20
383.6
 30
0.0
 40
28.0
 41
0.0
 71
     5
 72
     1
  1
\A1;64
  7
LCTX15-400-0-0pDIN-Schrift
 73
     1
 44
1.0
  0
POINT
  5
397
330
390
100
AcDbEntity
  8
Defpoints
 62
     0
100
AcDbPoint
 10
161.991064
 20
411.391245
 30
0.0
  0
POINT
  5
398
330
390
100
AcDbEntity
  8
Defpoints
 62
     0
100
AcDbPoint
 10
226.491064
 20
411.391245
 30
0.0
  0
POINT
  5
399
330
390
100
AcDbEntity
  8
Defpoints
 62
     0
100
AcDbPoint
 10
226.491064
 20
352.8
 30
0.0
  0
ENDBLK
  5
39B
330
390
100
AcDbEntity
  8
0
100
AcDbBlockEnd
  0
BLOCK
  5
3C5
330
3BB
100
AcDbEntity
  8
0
100
AcDbBlockBegin
  2
*D21
 70
     1
 71
     0
 10
0.0
 20
0.0
 30
0.0
  3
*D21
  1

  0
LINE
  5
3BC
330
3BB
100
AcDbEntity
  8
LC-005-003-----0
 62
     2
370
    -2
100
AcDbLine
 10
75.491064
 20
523.074518
 30
0.0
 11
75.491064
 21
316.4
 31
0.0
  0
LINE
  5
3BD
330
3BB
100
AcDbEntity
  8
LC-005-003-----0
 62
     2
370
    -2
100
AcDbLine
 10
424.959023
 20
421.377151
 30
0.0
 11
424.959023
 21
316.4
 31
0.0
  0
LINE
  5
3BE
330
3BB
100
AcDbEntity
  8
LC-005-003-----0
 62
     2
370
    -2
100
AcDbLine
 10
103.491064
 20
320.0
 30
0.0
 11
396.959023
 21
320.0
 31
0.0
  0
SOLID
  5
3BF
330
3BB
100
AcDbEntity
  8
LC-005-003-----0
 62
     2
100
AcDbTrace
 10
103.491064
 20
324.666667
 30
0.0
 11
103.491064
 21
315.333333
 31
0.0
 12
75.491064
 22
320.0
 32
0.0
 13
75.491064
 23
320.0
 33
0.0
  0
SOLID
  5
3C0
330
3BB
100
AcDbEntity
  8
LC-005-003-----0
 62
     2
100
AcDbTrace
 10
396.959023
 20
315.333333
 30
0.0
 11
396.959023
 21
324.666667
 31
0.0
 12
424.959023
 22
320.0
 32
0.0
 13
424.959023
 23
320.0
 33
0.0
  0
MTEXT
  5
3C1
330
3BB
100
AcDbEntity
  8
LC-005-003-----0
 62
     2
100
AcDbMText
 10
250.225043
 20
350.8
 30
0.0
 40
28.0
 41
0.0
 71
     5
 72
     1
  1
\A1;350
  7
LCTX15-400-0-0pDIN-Schrift
 73
     1
 44
1.0
  0
POINT
  5
3C2
330
3BB
100
AcDbEntity
  8
Defpoints
 62
     0
100
AcDbPoint
 10
75.491064
 20
523.074518
 30
0.0
  0
POINT
  5
3C3
330
3BB
100
AcDbEntity
  8
Defpoints
 62
     0
100
AcDbPoint
 10
424.959023
 20
421.377151
 30
0.0
  0
POINT
  5
3C4
330
3BB
100
AcDbEntity
  8
Defpoints
 62
     0
100
AcDbPoint
 10
424.959023
 20
320.0
 30
0.0
  0
ENDBLK
  5
3C6
330
3BB
100
AcDbEntity
  8
0
100
AcDbBlockEnd
  0
BLOCK
  5
3D8
330
3CE
100
AcDbEntity
  8
0
100
AcDbBlockBegin
  2
*D22
 70
     1
 71
     0
 10
0.0
 20
0.0
 30
0.0
  3
*D22
  1

  0
LINE
  5
3CF
330
3CE
100
AcDbEntity
  8
LC-005-003-----0
 62
     2
370
    -2
100
AcDbLine
 10
561.892726
 20
484.377151
 30
0.0
 11
545.2
 21
484.377151
 31
0.0
  0
LINE
  5
3D0
330
3CE
100
AcDbEntity
  8
LC-005-003-----0
 62
     2
370
    -2
100
AcDbLine
 10
561.892726
 20
421.377151
 30
0.0
 11
545.2
 21
421.377151
 31
0.0
  0
LINE
  5
3D1
330
3CE
100
AcDbEntity
  8
LC-005-003-----0
 62
     2
370
    -2
100
AcDbLine
 10
548.8
 20
456.377151
 30
0.0
 11
548.8
 21
449.377151
 31
0.0
  0
SOLID
  5
3D2
330
3CE
100
AcDbEntity
  8
LC-005-003-----0
 62
     2
100
AcDbTrace
 10
553.466667
 20
456.377151
 30
0.0
 11
544.133333
 21
456.377151
 31
0.0
 12
548.8
 22
484.377151
 32
0.0
 13
548.8
 23
484.377151
 33
0.0
  0
SOLID
  5
3D3
330
3CE
100
AcDbEntity
  8
LC-005-003-----0
 62
     2
100
AcDbTrace
 10
544.133333
 20
449.377151
 30
0.0
 11
553.466667
 21
449.377151
 31
0.0
 12
548.8
 22
421.377151
 32
0.0
 13
548.8
 23
421.377151
 33
0.0
  0
MTEXT
  5
3D4
330
3CE
100
AcDbEntity
  8
LC-005-003-----0
 62
     2
100
AcDbMText
 10
518.0
 20
452.877151
 30
0.0
 40
28.0
 41
0.0
 71
     5
 72
     1
  1
%%c\A1;63
  7
LCTX15-400-0-0pDIN-Schrift
 11
6.123031769111886E-17
 21
1.0
 31
0.0
 73
     1
 44
1.0
  0
POINT
  5
3D5
330
3CE
100
AcDbEntity
  8
Defpoints
 62
     0
100
AcDbPoint
 10
561.892726
 20
484.377151
 30
0.0
  0
POINT
  5
3D6
330
3CE
100
AcDbEntity
  8
Defpoints
 62
     0
100
AcDbPoint
 10
561.892726
 20
421.377151
 30
0.0
  0
POINT
  5
3D7
330
3CE
100
AcDbEntity
  8
Defpoints
 62
     0
100
AcDbPoint
 10
548.8
 20
421.377151
 30
0.0
  0
ENDBLK
  5
3D9
330
3CE
100
AcDbEntity
  8
0
100
AcDbBlockEnd
  0
BLOCK
  5
3E8
330
3DC
100
AcDbEntity
  8
0
100
AcDbBlockBegin
  2
*D23
 70
     1
 71
     0
 10
0.0
 20
0.0
 30
0.0
  3
*D23
  1

  0
LINE
  5
3DD
330
3DC
100
AcDbEntity
  8
LC-005-003-----0
 62
     2
370
    -2
100
AcDbLine
 10
490.223066
 20
424.877151
 30
0.0
 11
513.2
 21
424.877151
 31
0.0
  0
LINE
  5
3DE
330
3DC
100
AcDbEntity
  8
LC-005-003-----0
 62
     2
370
    -2
100
AcDbLine
 10
490.223066
 20
480.877151
 30
0.0
 11
513.2
 21
480.877151
 31
0.0
  0
LINE
  5
3DF
330
3DC
100
AcDbEntity
  8
LC-005-003-----0
 62
     2
370
    -2
100
AcDbLine
 10
509.6
 20
396.877151
 30
0.0
 11
509.6
 21
368.877151
 31
0.0
  0
LINE
  5
3E0
330
3DC
100
AcDbEntity
  8
LC-005-003-----0
 62
     2
370
    -2
100
AcDbLine
 10
509.6
 20
508.877151
 30
0.0
 11
509.6
 21
536.877151
 31
0.0
  0
LINE
  5
3E1
330
3DC
100
AcDbEntity
  8
LC-005-003-----0
 62
     2
370
    -2
100
AcDbLine
 10
509.6
 20
424.877151
 30
0.0
 11
509.6
 21
480.877151
 31
0.0
  0
SOLID
  5
3E2
330
3DC
100
AcDbEntity
  8
LC-005-003-----0
 62
     2
100
AcDbTrace
 10
514.266667
 20
396.877151
 30
0.0
 11
504.933333
 21
396.877151
 31
0.0
 12
509.6
 22
424.877151
 32
0.0
 13
509.6
 23
424.877151
 33
0.0
  0
SOLID
  5
3E3
330
3DC
100
AcDbEntity
  8
LC-005-003-----0
 62
     2
100
AcDbTrace
 10
504.933333
 20
508.877151
 30
0.0
 11
514.266667
 21
508.877151
 31
0.0
 12
509.6
 22
480.877151
 32
0.0
 13
509.6
 23
480.877151
 33
0.0
  0
MTEXT
  5
3E4
330
3DC
100
AcDbEntity
  8
LC-005-003-----0
 62
     2
100
AcDbMText
 10
478.8
 20
452.877151
 30
0.0
 40
28.0
 41
0.0
 71
     5
 72
     1
  1
%%c\A1;56
  7
LCTX15-400-0-0pDIN-Schrift
 11
6.123031769111886E-17
 21
1.0
 31
0.0
 73
     1
 44
1.0
  0
POINT
  5
3E5
330
3DC
100
AcDbEntity
  8
Defpoints
 62
     0
100
AcDbPoint
 10
490.223066
 20
424.877151
 30
0.0
  0
POINT
  5
3E6
330
3DC
100
AcDbEntity
  8
Defpoints
 62
     0
100
AcDbPoint
 10
490.223066
 20
480.877151
 30
0.0
  0
POINT
  5
3E7
330
3DC
100
AcDbEntity
  8
Defpoints
 62
     0
100
AcDbPoint
 10
509.6
 20
480.877151
 30
0.0
  0
ENDBLK
  5
3E9
330
3DC
100
AcDbEntity
  8
0
100
AcDbBlockEnd
  0
BLOCK
  5
3FD
330
3FC
100
AcDbEntity
  8
0
100
AcDbBlockBegin
  2
LCDIM1
 70
     0
 71
     0
 10
0.0
 20
0.0
 30
0.0
  3
LCDIM1
  1

  4
LCDIM1
  0
TEXT
  5
3FF
330
3FC
100
AcDbEntity
  8
LC-005-003-----0
 62
     7
370
   140
100
AcDbText
 10
437.048817
 20
346.469655
 30
0.0
 40
28.0
  1
 15%%d
 50
56.523056
 41
0.9
 51
15.0
  7
LCTX15-400-0-0-Arial
 72
     1
 11
454.452061
 21
372.786091
 31
0.0
100
AcDbText
  0
LINE
  5
400
330
3FC
100
AcDbEntity
  8
LC-005-003-----0
 62
     7
370
    25
100
AcDbLine
 10
481.787072
 20
382.034496
 30
0.0
 11
487.734561
 21
409.395552
 31
0.0
  0
LINE
  5
401
330
3FC
100
AcDbEntity
  8
LC-005-003-----0
 62
     7
370
    25
100
AcDbLine
 10
487.734561
 20
409.395552
 30
0.0
 11
474.908165
 21
384.506125
 31
0.0
  0
LINE
  5
402
330
3FC
100
AcDbEntity
  8
LC-005-003-----0
 62
     7
370
    25
100
AcDbLine
 10
474.908165
 20
384.506125
 30
0.0
 11
481.787072
 21
382.034496
 31
0.0
  0
LINE
  5
403
330
3FC
100
AcDbEntity
  8
LC-005-003-----0
 62
     7
370
    25
100
AcDbLine
 10
480.871754
 20
382.297195
 30
0.0
 11
485.272896
 21
402.544376
 31
0.0
  0
LINE
  5
404
330
3FC
100
AcDbEntity
  8
LC-005-003-----0
 62
     7
370
    25
100
AcDbLine
 10
485.272896
 20
402.544376
 30
0.0
 11
475.781363
 21
384.1262
 31
0.0
  0
LINE
  5
405
330
3FC
100
AcDbEntity
  8
LC-005-003-----0
 62
     7
370
    25
100
AcDbLine
 10
479.956437
 20
382.559894
 30
0.0
 11
482.811231
 21
395.693201
 31
0.0
  0
LINE
  5
406
330
3FC
100
AcDbEntity
  8
LC-005-003-----0
 62
     7
370
    25
100
AcDbLine
 10
482.811231
 20
395.693201
 30
0.0
 11
476.654561
 21
383.746276
 31
0.0
  0
LINE
  5
407
330
3FC
100
AcDbEntity
  8
LC-005-003-----0
 62
     7
370
    25
100
AcDbLine
 10
479.041119
 20
382.822593
 30
0.0
 11
480.349566
 21
388.842025
 31
0.0
  0
LINE
  5
408
330
3FC
100
AcDbEntity
  8
LC-005-003-----0
 62
     7
370
    25
100
AcDbLine
 10
480.349566
 20
388.842025
 30
0.0
 11
477.527759
 21
383.366351
 31
0.0
  0
LINE
  5
409
330
3FC
100
AcDbEntity
  8
LC-005-003-----0
 62
     7
370
    25
100
AcDbLine
 10
487.511533
 20
480.238207
 30
0.0
 11
493.459023
 21
452.877151
 31
0.0
  0
LINE
  5
40A
330
3FC
100
AcDbEntity
  8
LC-005-003-----0
 62
     7
370
    25
100
AcDbLine
 10
493.459023
 20
452.877151
 30
0.0
 11
494.795751
 21
480.845225
 31
0.0
  0
LINE
  5
40B
330
3FC
100
AcDbEntity
  8
LC-005-003-----0
 62
     7
370
    25
100
AcDbLine
 10
494.795751
 20
480.845225
 30
0.0
 11
487.511533
 21
480.238207
 31
0.0
  0
LINE
  5
40C
330
3FC
100
AcDbEntity
  8
LC-005-003-----0
 62
     7
370
    25
100
AcDbLine
 10
488.453309
 20
480.379186
 30
0.0
 11
492.854452
 21
460.132004
 31
0.0
  0
LINE
  5
40D
330
3FC
100
AcDbEntity
  8
LC-005-003-----0
 62
     7
370
    25
100
AcDbLine
 10
492.854452
 20
460.132004
 30
0.0
 11
493.843631
 21
480.828379
 31
0.0
  0
LINE
  5
40E
330
3FC
100
AcDbEntity
  8
LC-005-003-----0
 62
     7
370
    25
100
AcDbLine
 10
489.395086
 20
480.520164
 30
0.0
 11
492.24988
 21
467.386857
 31
0.0
  0
LINE
  5
40F
330
3FC
100
AcDbEntity
  8
LC-005-003-----0
 62
     7
370
    25
100
AcDbLine
 10
492.24988
 20
467.386857
 30
0.0
 11
492.89151
 21
480.811533
 31
0.0
  0
LINE
  5
410
330
3FC
100
AcDbEntity
  8
LC-005-003-----0
 62
     7
370
    25
100
AcDbLine
 10
490.336862
 20
480.661143
 30
0.0
 11
491.645309
 21
474.641711
 31
0.0
  0
LINE
  5
411
330
3FC
100
AcDbEntity
  8
LC-005-003-----0
 62
     7
370
    25
100
AcDbLine
 10
491.645309
 20
474.641711
 30
0.0
 11
491.93939
 21
480.794687
 31
0.0
  0
ARC
  5
413
330
3FC
100
AcDbEntity
  8
LC-010-003-MTG-0
 62
     7
370
    25
100
AcDbCircle
 10
325.459023
 20
452.877151
 30
0.0
 40
168.0
100
AcDbArc
 50
313.18611
 51
13.134022
  0
LINE
  5
415
330
3FC
100
AcDbEntity
  8
LC-011-003-MTH-0
 62
     7
370
    25
100
AcDbLine
 10
421.568642
 20
427.124656
 30
0.0
 11
491.598265
 21
408.360275
 31
0.0
  0
LINE
  5
416
330
3FC
100
AcDbEntity
  8
LC-011-003-MTH-0
 62
     7
370
    25
100
AcDbLine
 10
438.122081
 20
452.877151
 30
0.0
 11
497.459023
 21
452.877151
 31
0.0
  0
ENDBLK
  5
3FE
330
3FC
100
AcDbEntity
  8
0
100
AcDbBlockEnd
  0
BLOCK
  5
419
330
418
100
AcDbEntity
  8
0
100
AcDbBlockBegin
  2
*X1525
 70
     1
 71
     0
 10
0.0
 20
0.0
 30
0.0
  3
*X1525
  1

  4
*X15
  0
LINE
  5
41B
330
418
100
AcDbEntity
  8
LC-002-005-----0
 62
     7
370
    25
100
AcDbLine
 10
340.112913
 20
415.077129
 30
0.0
 11
339.812913
 21
415.377129
 31
0.0
  0
LINE
  5
41C
330
418
100
AcDbEntity
  8
LC-002-005-----0
 62
     7
370
    25
100
AcDbLine
 10
337.284486
 20
415.077129
 30
0.0
 11
336.984486
 21
415.377129
 31
0.0
  0
LINE
  5
41D
330
418
100
AcDbEntity
  8
LC-002-005-----0
 62
     7
370
    25
100
AcDbLine
 10
334.456059
 20
415.077129
 30
0.0
 11
334.156059
 21
415.377129
 31
0.0
  0
LINE
  5
41E
330
418
100
AcDbEntity
  8
LC-002-005-----0
 62
     7
370
    25
100
AcDbLine
 10
331.627632
 20
415.077129
 30
0.0
 11
331.327632
 21
415.377129
 31
0.0
  0
LINE
  5
41F
330
418
100
AcDbEntity
  8
LC-002-005-----0
 62
     7
370
    25
100
AcDbLine
 10
328.799205
 20
415.077129
 30
0.0
 11
328.499205
 21
415.377129
 31
0.0
  0
LINE
  5
420
330
418
100
AcDbEntity
  8
LC-002-005-----0
 62
     7
370
    25
100
AcDbLine
 10
325.970778
 20
415.077129
 30
0.0
 11
325.670778
 21
415.377129
 31
0.0
  0
LINE
  5
421
330
418
100
AcDbEntity
  8
LC-002-005-----0
 62
     7
370
    25
100
AcDbLine
 10
323.142351
 20
415.077129
 30
0.0
 11
322.842351
 21
415.377129
 31
0.0
  0
LINE
  5
422
330
418
100
AcDbEntity
  8
LC-002-005-----0
 62
     7
370
    25
100
AcDbLine
 10
320.313924
 20
415.077129
 30
0.0
 11
320.013924
 21
415.377129
 31
0.0
  0
ENDBLK
  5
41A
330
418
100
AcDbEntity
  8
0
100
AcDbBlockEnd
  0
BLOCK
  5
43D
330
43C
100
AcDbEntity
  8
0
100
AcDbBlockBegin
  2
*X1626
 70
     1
 71
     0
 10
0.0
 20
0.0
 30
0.0
  3
*X1626
  1

  4
*X16
  0
LINE
  5
43F
330
43C
100
AcDbEntity
  8
LC-002-005-----0
 62
     7
370
    25
100
AcDbLine
 10
318.491064
 20
518.723365
 30
0.0
 11
317.210147
 21
520.004282
 31
0.0
  0
LINE
  5
440
330
43C
100
AcDbEntity
  8
LC-002-005-----0
  6
DASHED
 62
     7
370
    25
100
AcDbLine
 10
314.353292
 20
517.204282
 30
0.0
 11
311.553292
 21
520.004282
 31
0.0
  0
LINE
  5
441
330
43C
100
AcDbEntity
  8
LC-002-005-----0
  6
DASHED
 62
     7
370
    25
100
AcDbLine
 10
313.491064
 20
515.238084
 30
0.0
 11
309.198591
 21
519.530557
 31
0.0
  0
LINE
  5
442
330
43C
100
AcDbEntity
  8
LC-002-005-----0
 62
     7
370
    25
100
AcDbLine
 10
313.491064
 20
509.58123
 30
0.0
 11
308.180901
 21
514.891392
 31
0.0
  0
LINE
  5
443
330
43C
100
AcDbEntity
  8
LC-002-005-----0
 62
     7
370
    25
100
AcDbLine
 10
313.491064
 20
506.752803
 30
0.0
 11
306.107229
 21
514.136637
 31
0.0
  0
LINE
  5
444
330
43C
100
AcDbEntity
  8
LC-002-005-----0
  6
DASHED
 62
     7
370
    25
100
AcDbLine
 10
313.491064
 20
501.095948
 30
0.0
 11
308.491064
 21
506.095948
 31
0.0
  0
LINE
  5
445
330
43C
100
AcDbEntity
  8
LC-002-005-----0
  6
DASHED
 62
     7
370
    25
100
AcDbLine
 10
304.98273
 20
509.604282
 30
0.0
 11
301.959884
 21
512.627127
 31
0.0
  0
LINE
  5
446
330
43C
100
AcDbEntity
  8
LC-002-005-----0
  6
DASHED
 62
     7
370
    25
100
AcDbLine
 10
312.154303
 20
499.604282
 30
0.0
 11
308.491064
 21
503.267521
 31
0.0
  0
LINE
  5
447
330
43C
100
AcDbEntity
  8
LC-002-005-----0
  6
DASHED
 62
     7
370
    25
100
AcDbLine
 10
302.154303
 20
509.604282
 30
0.0
 11
299.886212
 21
511.872373
 31
0.0
  0
LINE
  5
448
330
43C
100
AcDbEntity
  8
LC-002-005-----0
  6
DASHED
 62
     7
370
    25
100
AcDbLine
 10
152.247665
 20
509.604282
 30
0.0
 11
148.196238
 21
513.655709
 31
0.0
  0
LINE
  5
449
330
43C
100
AcDbEntity
  8
LC-002-005-----0
  6
DASHED
 62
     7
370
    25
100
AcDbLine
 10
144.491064
 20
517.360884
 30
0.0
 11
141.847665
 21
520.004282
 31
0.0
  0
LINE
  5
44A
330
43C
100
AcDbEntity
  8
LC-002-005-----0
  6
DASHED
 62
     7
370
    25
100
AcDbLine
 10
149.419238
 20
509.604282
 30
0.0
 11
139.019238
 21
520.004282
 31
0.0
  0
LINE
  5
44B
330
43C
100
AcDbEntity
  8
LC-002-005-----0
 62
     7
370
    25
100
AcDbLine
 10
144.491064
 20
508.875602
 30
0.0
 11
139.491064
 21
513.875602
 31
0.0
  0
LINE
  5
44C
330
43C
100
AcDbEntity
  8
LC-002-005-----0
 62
     7
370
    25
100
AcDbLine
 10
136.162384
 20
517.204282
 30
0.0
 11
134.491064
 21
518.875602
 31
0.0
  0
LINE
  5
44D
330
43C
100
AcDbEntity
  8
LC-002-005-----0
 62
     7
370
    25
100
AcDbLine
 10
144.491064
 20
506.047175
 30
0.0
 11
139.491064
 21
511.047175
 31
0.0
  0
LINE
  5
44E
330
43C
100
AcDbEntity
  8
LC-002-005-----0
  6
DASHED
 62
     7
370
    25
100
AcDbLine
 10
144.491064
 20
500.390321
 30
0.0
 11
139.491064
 21
505.390321
 31
0.0
  0
LINE
  5
44F
330
43C
100
AcDbEntity
  8
LC-002-005-----0
  6
DASHED
 62
     7
370
    25
100
AcDbLine
 10
142.448675
 20
499.604282
 30
0.0
 11
139.491064
 21
502.561894
 31
0.0
  0
ENDBLK
  5
43E
330
43C
100
AcDbEntity
  8
0
100
AcDbBlockEnd
  0
ENDSEC
  0
SECTION
  2
ENTITIES
  0
LINE
  5
31
330
1F
100
AcDbEntity
  8
LC-001-002-----0
 62
     7
370
    50
100
AcDbLine
 10
304.147592
 20
498.478476
 30
0.0
 11
304.347592
 21
498.478476
 31
0.0
  0
LINE
  5
32
330
1F
100
AcDbEntity
  8
LC-001-002-----0
 62
     7
370
    50
100
AcDbLine
 10
219.582803
 20
499.27765
 30
0.0
 11
147.834535
 21
499.27765
 31
0.0
  0
LINE
  5
33
330
1F
100
AcDbEntity
  8
LC-001-002-----0
 62
     7
370
    50
100
AcDbLine
 10
290.291146
 20
489.883374
 30
0.0
 11
290.291146
 21
490.583385
 31
0.0
  0
LINE
  5
35
102
{ACAD_REACTORS
330
454
102
}
330
1F
100
AcDbEntity
  8
LC-002-005-----0
 62
     7
370
    25
100
AcDbLine
 10
164.991064
 20
423.321778
 30
0.0
 11
161.991064
 21
426.321778
 31
0.0
  0
LINE
  5
36
102
{ACAD_REACTORS
330
454
102
}
330
1F
100
AcDbEntity
  8
LC-002-005-----0
 62
     7
370
    25
100
AcDbLine
 10
343.001085
 20
429.15952
 30
0.0
 11
341.576229
 21
430.584376
 31
0.0
  0
LINE
  5
37
102
{ACAD_REACTORS
330
454
102
}
330
1F
100
AcDbEntity
  8
LC-002-005-----0
 62
     7
370
    25
100
AcDbLine
 10
341.325064
 20
428.007114
 30
0.0
 11
338.747802
 21
430.584376
 31
0.0
  0
LINE
  5
38
102
{ACAD_REACTORS
330
453
102
}
330
1F
100
AcDbEntity
  8
LC-002-005-----0
 62
     7
370
    25
100
AcDbLine
 10
139.241771
 20
516.953322
 30
0.0
 11
138.81659
 21
517.378503
 31
0.0
  0
LINE
  5
39
102
{ACAD_REACTORS
330
457
102
}
330
1F
100
AcDbEntity
  8
LC-001-002-----0
 62
     7
370
    50
100
AcDbLine
 10
424.959023
 20
424.377151
 30
0.0
 11
424.959023
 21
484.377151
 31
0.0
  0
LINE
  5
3A
102
{ACAD_REACTORS
330
454
102
}
330
1F
100
AcDbEntity
  8
LC-002-005-----0
 62
     7
370
    25
100
AcDbLine
 10
339.545897
 20
426.957854
 30
0.0
 11
335.919374
 21
430.584376
 31
0.0
  0
LINE
  5
3B
102
{ACAD_REACTORS
330
458
102
}
330
1F
100
AcDbEntity
  8
LC-001-002-----0
 62
     7
370
    50
100
AcDbLine
 10
220.01806
 20
503.396525
 30
0.0
 11
212.320504
 21
430.553997
 31
0.0
  0
LINE
  5
3C
102
{ACAD_REACTORS
330
458
102
}
330
1F
100
AcDbEntity
  8
LC-001-002-----0
 62
     7
370
    50
100
AcDbLine
 10
221.993143
 20
502.923625
 30
0.0
 11
221.993143
 21
479.743377
 31
0.0
  0
ARC
  5
3E
102
{ACAD_REACTORS
330
458
102
}
330
1F
100
AcDbEntity
  8
LC-003-205-RND-0
 62
     7
370
    50
100
AcDbCircle
 10
224.493143
 20
502.923625
 30
0.0
 40
2.500000000000071
100
AcDbArc
 50
92.0
 51
180.0
  0
ARC
  5
3F
102
{ACAD_REACTORS
330
458
102
}
330
1F
100
AcDbEntity
  8
LC-003-205-RND-0
 62
     7
370
    50
100
AcDbCircle
 10
224.493143
 20
502.923625
 30
0.0
 40
4.499999999999991
100
AcDbArc
 50
88.0
 51
173.967717
  0
ARC
  5
40
102
{ACAD_REACTORS
330
458
102
}
330
1F
100
AcDbEntity
  8
LC-003-205-RND-0
 62
     7
370
    50
100
AcDbCircle
 10
276.190849
 20
496.609465
 30
0.0
 40
7.000000000000299
100
AcDbArc
 50
359.999987
 51
88.0
  0
LINE
  5
41
102
{ACAD_REACTORS
330
454
102
}
330
1F
100
AcDbEntity
  8
LC-002-005-----0
 62
     7
370
    25
100
AcDbLine
 10
164.991064
 20
420.493351
 30
0.0
 11
161.991064
 21
423.493351
 31
0.0
  0
ARC
  5
42
102
{ACAD_REACTORS
330
458
102
}
330
1F
100
AcDbEntity
  8
LC-003-205-RND-0
 62
     7
370
    50
100
AcDbCircle
 10
276.999284
 20
496.587328
 30
0.0
 40
9.000000000000155
100
AcDbArc
 50
5.652944
 51
88.0
  0
LINE
  5
43
102
{ACAD_REACTORS
330
458
102
}
330
1F
100
AcDbEntity
  8
LC-001-002-----0
 62
     7
370
    50
100
AcDbLine
 10
224.650191
 20
507.420884
 30
0.0
 11
230.035397
 21
507.232829
 31
0.0
  0
LINE
  5
44
102
{ACAD_REACTORS
330
454
102
}
330
1F
100
AcDbEntity
  8
LC-002-005-----0
 62
     7
370
    25
100
AcDbLine
 10
164.991064
 20
417.664924
 30
0.0
 11
161.991064
 21
420.664924
 31
0.0
  0
LINE
  5
45
102
{ACAD_REACTORS
330
458
102
}
330
1F
100
AcDbEntity
  8
LC-001-002-----0
 62
     7
370
    50
100
AcDbLine
 10
230.035397
 20
507.232829
 30
0.0
 11
230.235275
 21
507.225849
 31
0.0
  0
LINE
  5
46
102
{ACAD_REACTORS
330
458
102
}
330
1F
100
AcDbEntity
  8
LC-001-002-----0
 62
     7
370
    50
100
AcDbLine
 10
264.914136
 20
506.014836
 30
0.0
 11
277.313379
 21
505.581845
 31
0.0
  0
LINE
  5
47
102
{ACAD_REACTORS
330
458
102
}
330
1F
100
AcDbEntity
  8
LC-001-002-----0
 62
     7
370
    50
100
AcDbLine
 10
229.965385
 20
505.227961
 30
0.0
 11
230.165263
 21
505.220981
 31
0.0
  0
LINE
  5
48
102
{ACAD_REACTORS
330
458
102
}
330
1F
100
AcDbEntity
  8
LC-001-002-----0
 62
     7
370
    50
100
AcDbLine
 10
267.392571
 20
503.920975
 30
0.0
 11
276.435145
 21
503.605201
 31
0.0
  0
LINE
  5
49
102
{ACAD_REACTORS
330
458
102
}
330
1F
100
AcDbEntity
  8
LC-001-002-----0
 62
     7
370
    50
100
AcDbLine
 10
265.114015
 20
506.007856
 30
0.0
 11
265.044003
 21
504.002988
 31
0.0
  0
LINE
  5
4B
102
{ACAD_REACTORS
330
458
102
}
330
1F
100
AcDbEntity
  8
LC-004-205-----0
 62
     7
370
    50
100
AcDbLine
 10
283.190846
 20
484.67787
 30
0.0
 11
283.190849
 21
496.609464
 31
0.0
  0
LINE
  5
4C
102
{ACAD_REACTORS
330
458
102
}
330
1F
100
AcDbEntity
  8
LC-004-205-----0
 62
     7
370
    50
100
AcDbLine
 10
285.955515
 20
497.47385
 30
0.0
 11
286.637553
 21
490.583459
 31
0.0
  0
LINE
  5
4D
102
{ACAD_REACTORS
330
453
102
}
330
1F
100
AcDbEntity
  8
LC-002-005-----0
 62
     7
370
    25
100
AcDbLine
 10
139.741771
 20
513.624895
 30
0.0
 11
137.741771
 21
515.624895
 31
0.0
  0
LINE
  5
4E
102
{ACAD_REACTORS
330
453
102
}
330
1F
100
AcDbEntity
  8
LC-002-005-----0
 62
     7
370
    25
100
AcDbLine
 10
134.643152
 20
518.723513
 30
0.0
 11
133.339048
 21
520.027618
 31
0.0
  0
ARC
  5
4F
102
{ACAD_REACTORS
330
458
102
}
330
1F
100
AcDbEntity
  8
LC-004-205-----0
 62
     7
370
    50
100
AcDbCircle
 10
285.691117
 20
483.083376
 30
0.0
 40
2.500000000000143
100
AcDbArc
 50
179.999761
 51
270.0
  0
LINE
  5
50
102
{ACAD_REACTORS
330
454
102
}
330
1F
100
AcDbEntity
  8
LC-002-005-----0
 62
     7
370
    25
100
AcDbLine
 10
164.991064
 20
414.836497
 30
0.0
 11
161.991064
 21
417.836497
 31
0.0
  0
ARC
  5
51
102
{ACAD_REACTORS
330
458
102
}
330
1F
100
AcDbEntity
  8
LC-004-205-----0
 62
     7
370
    50
100
AcDbCircle
 10
289.791136
 20
481.283376
 30
0.0
 40
0.4999999999999724
100
AcDbArc
 50
359.999925
 51
89.999925
  0
LINE
  5
52
102
{ACAD_REACTORS
330
458
102
}
330
1F
100
AcDbEntity
  8
LC-004-205-----0
 62
     7
370
    50
100
AcDbLine
 10
283.191117
 20
483.083386
 30
0.0
 11
283.191148
 21
490.578117
 31
0.0
  0
LINE
  5
53
102
{ACAD_REACTORS
330
458
102
}
330
1F
100
AcDbEntity
  8
LC-004-205-----0
 62
     7
370
    50
100
AcDbLine
 10
285.191114
 20
482.283384
 30
0.0
 11
285.191141
 21
488.883384
 31
0.0
  0
ARC
  5
54
102
{ACAD_REACTORS
330
458
102
}
330
1F
100
AcDbEntity
  8
LC-004-205-----0
 62
     7
370
    50
100
AcDbCircle
 10
285.691114
 20
482.283382
 30
0.0
 40
0.5000000000000286
100
AcDbArc
 50
179.999761
 51
269.999925
  0
LINE
  5
55
102
{ACAD_REACTORS
330
458
102
}
330
1F
100
AcDbEntity
  8
LC-004-205-----0
 62
     7
370
    50
100
AcDbLine
 10
289.791137
 20
481.783376
 30
0.0
 11
285.691113
 21
481.783382
 31
0.0
  0
ARC
  5
56
102
{ACAD_REACTORS
330
458
102
}
330
1F
100
AcDbEntity
  8
LC-004-205-----0
 62
     7
370
    50
100
AcDbCircle
 10
285.691141
 20
488.883382
 30
0.0
 40
0.5000000000001997
100
AcDbArc
 50
89.999925
 51
179.999761
  0
ARC
  5
57
102
{ACAD_REACTORS
330
458
102
}
330
1F
100
AcDbEntity
  8
LC-004-205-----0
 62
     7
370
    50
100
AcDbCircle
 10
289.791146
 20
489.883376
 30
0.0
 40
0.4999999999999724
100
AcDbArc
 50
269.999925
 51
359.999761
  0
LINE
  5
58
102
{ACAD_REACTORS
330
458
102
}
330
1F
100
AcDbEntity
  8
LC-004-205-----0
 62
     7
370
    50
100
AcDbLine
 10
289.791145
 20
489.383376
 30
0.0
 11
285.691142
 21
489.383382
 31
0.0
  0
LINE
  5
59
102
{ACAD_REACTORS
330
458
102
}
330
1F
100
AcDbEntity
  8
LC-004-205-----0
 62
     7
370
    50
100
AcDbLine
 10
286.637553
 20
490.583385
 30
0.0
 11
290.291148
 21
490.583385
 31
0.0
  0
LINE
  5
5A
102
{ACAD_REACTORS
330
458
102
}
330
1F
100
AcDbEntity
  8
LC-004-205-----0
 62
     7
370
    50
100
AcDbLine
 10
290.291135
 20
480.583376
 30
0.0
 11
285.691117
 21
480.583376
 31
0.0
  0
LINE
  5
5B
102
{ACAD_REACTORS
330
458
102
}
330
1F
100
AcDbEntity
  8
LC-001-002-----0
 62
     7
370
    50
100
AcDbLine
 10
224.405894
 20
505.422102
 30
0.0
 11
229.965385
 21
505.227961
 31
0.0
  0
LINE
  5
5C
102
{ACAD_REACTORS
330
458
102
}
330
1F
100
AcDbEntity
  8
LC-001-002-----0
 62
     7
370
    50
100
AcDbLine
 10
230.165263
 20
505.220981
 30
0.0
 11
227.616817
 21
505.309975
 31
0.0
  0
LINE
  5
5D
102
{ACAD_REACTORS
330
458
102
}
330
1F
100
AcDbEntity
  8
LC-001-002-----0
 62
     7
370
    50
100
AcDbLine
 10
230.035397
 20
507.232829
 30
0.0
 11
229.965385
 21
505.227961
 31
0.0
  0
ARC
  5
5E
102
{ACAD_REACTORS
330
458
102
}
330
1F
100
AcDbEntity
  8
LC-004-205-----0
 62
     7
370
    50
100
AcDbCircle
 10
167.291
 20
483.083459
 30
0.0
 40
2.5
100
AcDbArc
 50
270.0
 51
0.000164
  0
ARC
  5
5F
102
{ACAD_REACTORS
330
458
102
}
330
1F
100
AcDbEntity
  8
LC-004-205-----0
 62
     7
370
    50
100
AcDbCircle
 10
167.291003
 20
482.283459
 30
0.0
 40
0.5
100
AcDbArc
 50
270.0
 51
0.000164
  0
ARC
  5
60
102
{ACAD_REACTORS
330
458
102
}
330
1F
100
AcDbEntity
  8
LC-004-205-----0
 62
     7
370
    50
100
AcDbCircle
 10
166.990835
 20
480.083459
 30
0.0
 40
0.5
100
AcDbArc
 50
90.0
 51
179.999963
  0
LINE
  5
61
102
{ACAD_REACTORS
330
458
102
}
330
1F
100
AcDbEntity
  8
LC-004-205-----0
 62
     7
370
    50
100
AcDbLine
 10
166.990835
 20
480.583459
 30
0.0
 11
167.291
 21
480.583459
 31
0.0
  0
LINE
  5
62
102
{ACAD_REACTORS
330
458
102
}
330
1F
100
AcDbEntity
  8
LC-004-205-----0
 62
     7
370
    50
100
AcDbLine
 10
163.190979
 20
481.783459
 30
0.0
 11
167.291003
 21
481.783459
 31
0.0
  0
ARC
  5
63
102
{ACAD_REACTORS
330
458
102
}
330
1F
100
AcDbEntity
  8
LC-004-205-----0
 62
     7
370
    50
100
AcDbCircle
 10
167.290984
 20
488.883459
 30
0.0
 40
0.5000000000000036
100
AcDbArc
 50
0.000164
 51
90.0
  0
LINE
  5
64
102
{ACAD_REACTORS
330
458
102
}
330
1F
100
AcDbEntity
  8
LC-004-205-----0
 62
     7
370
    50
100
AcDbLine
 10
163.190981
 20
489.383459
 30
0.0
 11
167.290984
 21
489.383459
 31
0.0
  0
LINE
  5
65
102
{ACAD_REACTORS
330
454
102
}
330
1F
100
AcDbEntity
  8
LC-002-005-----0
 62
     7
370
    25
100
AcDbLine
 10
337.657803
 20
426.017521
 30
0.0
 11
336.054452
 21
427.620871
 31
0.0
  0
LINE
  5
66
102
{ACAD_REACTORS
330
453
102
}
330
1F
100
AcDbEntity
  8
LC-002-005-----0
 62
     7
370
    25
100
AcDbLine
 10
162.312061
 20
488.226178
 30
0.0
 11
159.95478
 21
490.583459
 31
0.0
  0
LINE
  5
67
330
1F
100
AcDbEntity
  8
LC-001-002-----0
 62
     7
370
    50
100
AcDbLine
 10
304.147592
 20
496.478476
 30
0.0
 11
304.347592
 21
496.478476
 31
0.0
  0
ARC
  5
68
102
{ACAD_REACTORS
330
458
102
}
330
1F
100
AcDbEntity
  8
LC-004-205-----0
 62
     7
370
    50
100
AcDbCircle
 10
163.190979
 20
481.283459
 30
0.0
 40
0.5
100
AcDbArc
 50
90.0
 51
180.0
  0
ARC
  5
69
102
{ACAD_REACTORS
330
458
102
}
330
1F
100
AcDbEntity
  8
LC-004-205-----0
 62
     7
370
    50
100
AcDbCircle
 10
163.190981
 20
489.883459
 30
0.0
 40
0.5000000000000036
100
AcDbArc
 50
180.000164
 51
270.0
  0
LINE
  5
6A
102
{ACAD_REACTORS
330
458
102
}
330
1F
100
AcDbEntity
  8
LC-004-205-----0
 62
     7
370
    50
100
AcDbLine
 10
165.490803
 20
430.553997
 30
0.0
 11
165.490835
 21
480.083459
 31
0.0
  0
ARC
  5
6B
102
{ACAD_REACTORS
330
458
102
}
330
1F
100
AcDbEntity
  8
LC-004-205-----0
 62
     7
370
    50
100
AcDbCircle
 10
164.990835
 20
480.083459
 30
0.0
 40
0.4999999999999931
100
AcDbArc
 50
359.999963
 51
85.018931
  0
LINE
  5
6C
102
{ACAD_REACTORS
330
458
102
}
330
1F
100
AcDbEntity
  8
LC-004-205-----0
 62
     7
370
    50
100
AcDbLine
 10
162.690979
 20
480.583459
 30
0.0
 11
164.990835
 21
480.583459
 31
0.0
  0
LINE
  5
6D
102
{ACAD_REACTORS
330
458
102
}
330
1F
100
AcDbEntity
  8
LC-004-205-----0
 62
     7
370
    50
100
AcDbLine
 10
162.690979
 20
480.583459
 30
0.0
 11
162.690979
 21
481.283459
 31
0.0
  0
LINE
  5
6E
102
{ACAD_REACTORS
330
458
102
}
330
1F
100
AcDbEntity
  8
LC-004-205-----0
 62
     7
370
    50
100
AcDbLine
 10
162.690981
 20
489.883458
 30
0.0
 11
162.690979
 21
490.578191
 31
0.0
  0
LINE
  5
6F
102
{ACAD_REACTORS
330
458
102
}
330
1F
100
AcDbEntity
  8
LC-001-002-----0
 62
     7
370
    50
100
AcDbLine
 10
219.529675
 20
479.743377
 30
0.0
 11
214.33164
 21
430.553997
 31
0.0
  0
LINE
  5
70
102
{ACAD_REACTORS
330
458
102
}
330
1F
100
AcDbEntity
  8
LC-004-205-----0
 62
     7
370
    50
100
AcDbLine
 10
290.291135
 20
480.583376
 30
0.0
 11
290.291136
 21
481.283376
 31
0.0
  0
LINE
  5
71
330
1F
100
AcDbEntity
  8
LC-001-002-----0
 62
     7
370
    50
100
AcDbLine
 10
219.529675
 20
479.743377
 30
0.0
 11
221.993143
 21
479.743377
 31
0.0
  0
LINE
  5
72
330
1F
100
AcDbEntity
  8
LC-001-002-----0
 62
     7
370
    50
100
AcDbLine
 10
285.691117
 20
480.583376
 30
0.0
 11
225.630488
 21
480.583376
 31
0.0
  0
LINE
  5
73
102
{ACAD_REACTORS
330
453
102
}
330
1F
100
AcDbEntity
  8
LC-002-005-----0
 62
     7
370
    25
100
AcDbLine
 10
139.741771
 20
510.796468
 30
0.0
 11
137.741771
 21
512.796468
 31
0.0
  0
LINE
  5
74
102
{ACAD_REACTORS
330
453
102
}
330
1F
100
AcDbEntity
  8
LC-002-005-----0
 62
     7
370
    25
100
AcDbLine
 10
134.643152
 20
515.895086
 30
0.0
 11
130.288974
 21
520.249265
 31
0.0
  0
LINE
  5
75
102
{ACAD_REACTORS
330
454
102
}
330
1F
100
AcDbEntity
  8
LC-002-005-----0
 62
     7
370
    25
100
AcDbLine
 10
335.790798
 20
427.884525
 30
0.0
 11
333.090947
 21
430.584376
 31
0.0
  0
LINE
  5
76
102
{ACAD_REACTORS
330
453
102
}
330
1F
100
AcDbEntity
  8
LC-002-005-----0
 62
     7
370
    25
100
AcDbLine
 10
161.076639
 20
486.633173
 30
0.0
 11
157.126352
 21
490.583459
 31
0.0
  0
LINE
  5
77
102
{ACAD_REACTORS
330
453
102
}
330
1F
100
AcDbEntity
  8
LC-002-005-----0
 62
     7
370
    25
100
AcDbLine
 10
139.741771
 20
507.968041
 30
0.0
 11
136.526044
 21
511.183768
 31
0.0
  0
LINE
  5
78
102
{ACAD_REACTORS
330
453
102
}
330
1F
100
AcDbEntity
  8
LC-002-005-----0
 62
     7
370
    25
100
AcDbLine
 10
134.643152
 20
513.066659
 30
0.0
 11
132.241064
 21
515.468748
 31
0.0
  0
LINE
  5
79
102
{ACAD_REACTORS
330
453
102
}
330
1F
100
AcDbEntity
  8
LC-002-005-----0
 62
     7
370
    25
100
AcDbLine
 10
130.493999
 20
517.215812
 30
0.0
 11
127.2389
 21
520.470912
 31
0.0
  0
LINE
  5
7A
102
{ACAD_REACTORS
330
454
102
}
330
1F
100
AcDbEntity
  8
LC-002-005-----0
 62
     7
370
    25
100
AcDbLine
 10
332.961821
 20
427.885075
 30
0.0
 11
330.26252
 21
430.584376
 31
0.0
  0
LINE
  5
7B
330
1F
100
AcDbEntity
  8
LC-001-002-----0
 62
     7
370
    50
100
AcDbLine
 10
225.630488
 20
480.583376
 30
0.0
 11
221.993143
 21
480.583376
 31
0.0
  0
LINE
  5
7C
330
1F
100
AcDbEntity
  8
LC-001-002-----0
 62
     7
370
    50
100
AcDbLine
 10
212.320504
 20
430.553997
 30
0.0
 11
212.320504
 21
483.083466
 31
0.0
  0
LINE
  5
7D
102
{ACAD_REACTORS
330
458
102
}
330
1F
100
AcDbEntity
  8
LC-004-205-----0
 62
     7
370
    50
100
AcDbLine
 10
169.790979
 20
490.583459
 30
0.0
 11
218.664053
 21
490.583459
 31
0.0
  0
LINE
  5
7E
102
{ACAD_REACTORS
330
458
102
}
330
1F
100
AcDbEntity
  8
LC-004-205-----0
 62
     7
370
    50
100
AcDbLine
 10
162.690979
 20
490.583459
 30
0.0
 11
169.790979
 21
490.583459
 31
0.0
  0
LINE
  5
7F
330
1F
100
AcDbEntity
  8
LC-001-002-----0
 62
     7
370
    50
100
AcDbLine
 10
137.741771
 20
517.204282
 30
0.0
 11
139.241771
 21
517.095278
 31
0.0
  0
LINE
  5
80
330
1F
100
AcDbEntity
  8
LC-001-002-----0
 62
     7
370
    50
100
AcDbLine
 10
313.740357
 20
517.095278
 30
0.0
 11
315.240357
 21
517.204282
 31
0.0
  0
LINE
  5
82
330
1F
100
AcDbEntity
  8
LC-001-002-----0
  6
DASHDOT
 62
     7
370
    25
100
AcDbLine
 10
226.491064
 20
429.492615
 30
0.0
 11
226.491064
 21
411.391245
 31
0.0
  0
DIMENSION
  5
86
330
1F
100
AcDbEntity
  8
LC-005-003-----0
 62
     7
370
    25
100
AcDbDimension
  2
*D1
 10
56.0
 20
411.391245
 30
0.0
 11
25.2
 21
467.232882
 31
0.0
 70
   160
  1
110
 71
     5
 42
111.683273
 53
90.0
  3
LC-DIM-L-0140-02-02
100
AcDbAlignedDimension
 13
75.491064
 23
523.074518
 33
0.0
 14
161.991064
 24
411.391245
 34
0.0
 50
90.0
100
AcDbRotatedDimension
  0
DIMENSION
  5
94
330
1F
100
AcDbEntity
  8
LC-005-003-----0
 62
     7
370
    25
100
AcDbDimension
  2
*D2
 10
254.086138
 20
480.387697
 30
0.0
 11
223.286138
 21
475.38496
 31
0.0
 70
   160
  1
50
 71
     5
 42
49.8337
 53
90.0
  3
LC-DIM-L-0140-02-02
100
AcDbAlignedDimension
 13
214.33164
 23
430.553997
 33
0.0
 14
269.145491
 24
480.387697
 34
0.0
 50
90.0
100
AcDbRotatedDimension
  0
LINE
  5
A3
330
1F
100
AcDbEntity
  8
LC-001-002-----0
  6
DASHDOT
 62
     7
370
    25
100
AcDbLine
 10
226.491064
 20
526.081716
 30
0.0
 11
226.491064
 21
511.549153
 31
0.0
  0
LINE
  5
A4
330
1F
100
AcDbEntity
  8
LC-001-002-----0
  6
DASHDOT
 62
     7
370
    25
100
AcDbLine
 10
226.491064
 20
508.547325
 30
0.0
 11
226.491064
 21
483.17169
 31
0.0
  0
LINE
  5
A5
330
1F
100
AcDbEntity
  8
LC-001-002-----0
 62
     7
370
    50
100
AcDbLine
 10
304.147592
 20
494.978476
 30
0.0
 11
304.347592
 21
494.978476
 31
0.0
  0
LINE
  5
A6
330
1F
100
AcDbEntity
  8
LC-001-002-----0
 62
     7
370
    50
100
AcDbLine
 10
304.147592
 20
492.978476
 30
0.0
 11
304.347592
 21
492.978476
 31
0.0
  0
LINE
  5
A7
102
{ACAD_REACTORS
330
454
102
}
330
1F
100
AcDbEntity
  8
LC-002-005-----0
 62
     7
370
    25
100
AcDbLine
 10
162.078451
 20
431.891245
 30
0.0
 11
161.991064
 21
431.978633
 31
0.0
  0
DIMENSION
  5
A8
330
1F
100
AcDbEntity
  8
LC-005-003-----0
 62
     7
370
    25
100
AcDbDimension
  2
*D3
 10
470.4
 20
452.877151
 30
0.0
 11
439.6
 21
487.975835
 31
0.0
 70
   160
  1
70
 71
     5
 42
70.197367
 53
90.0
  3
LC-DIM-L-0140-02-02
100
AcDbAlignedDimension
 13
377.491064
 23
523.074518
 33
0.0
 14
464.889023
 24
452.877151
 34
0.0
 50
90.0
100
AcDbRotatedDimension
  0
LINE
  5
B5
102
{ACAD_REACTORS
330
454
102
}
330
1F
100
AcDbEntity
  8
LC-002-005-----0
 62
     7
370
    25
100
AcDbLine
 10
164.991064
 20
434.635487
 30
0.0
 11
161.991064
 21
437.635487
 31
0.0
  0
CIRCLE
  5
B6
330
1F
100
AcDbEntity
  8
LC-001-002-----0
 62
     7
370
    50
100
AcDbCircle
 10
333.743521
 20
479.520938
 30
0.0
 40
1.5
  0
INSERT
  5
C9
330
1F
100
AcDbEntity
  8
LC-002-005-----0
 62
     7
370
    25
100
AcDbBlockReference
  2
*X14
 10
0.0
 20
0.0
 30
0.0
  0
CIRCLE
  5
CA
330
1F
100
AcDbEntity
  8
LC-001-002-----0
 62
     7
370
    50
100
AcDbCircle
 10
333.743521
 20
426.217165
 30
0.0
 40
1.5
  0
LINE
  5
CB
330
1F
100
AcDbEntity
  8
LC-001-002-----0
 62
     7
370
    50
100
AcDbLine
 10
290.670058
 20
482.217259
 30
0.0
 11
290.670058
 21
480.387697
 31
0.0
  0
ARC
  5
CC
102
{ACAD_REACTORS
330
457
102
}
330
1F
100
AcDbEntity
  8
LC-001-002-----0
 62
     7
370
    50
100
AcDbCircle
 10
325.459023
 20
452.877151
 30
0.0
 40
29.60000000000008
100
AcDbArc
 50
69.268737
 51
104.187628
  0
ARC
  5
CD
102
{ACAD_REACTORS
330
457
102
}
330
1F
100
AcDbEntity
  8
LC-001-002-----0
 62
     7
370
    50
100
AcDbCircle
 10
325.459023
 20
452.877151
 30
0.0
 40
29.60000000000014
100
AcDbArc
 50
290.717092
 51
308.629598
  0
LINE
  5
CE
330
1F
100
AcDbEntity
  8
LC-001-002-----0
  6
DASHDOT
 62
     7
370
    25
100
AcDbLine
 10
464.889023
 20
452.877151
 30
0.0
 11
309.103835
 21
452.877151
 31
0.0
  0
DIMENSION
  5
CF
330
1F
100
AcDbEntity
  8
LC-005-003-----0
 62
     7
370
    25
100
AcDbDimension
  2
*D5
 10
377.491064
 20
560.0
 30
0.0
 11
226.491064
 21
590.8
 31
0.0
 70
   160
  1
%%c300
 71
     5
 42
302.0
  3
LC-DIM-L-0140-02-02
100
AcDbAlignedDimension
 13
75.491064
 23
526.081716
 33
0.0
 14
377.491064
 24
526.081716
 34
0.0
100
AcDbRotatedDimension
  0
INSERT
  5
EE
330
1F
100
AcDbEntity
  8
LC-002-005-----0
 62
     7
370
    25
100
AcDbBlockReference
  2
*X26
 10
0.0
 20
0.0
 30
0.0
  0
LINE
  5
EF
102
{ACAD_REACTORS
330
458
102
}
330
1F
100
AcDbEntity
  8
LC-001-002-----0
 62
     7
370
    50
100
AcDbLine
 10
166.990835
 20
480.583459
 30
0.0
 11
212.320504
 21
480.583459
 31
0.0
  0
LINE
  5
F0
102
{ACAD_REACTORS
330
458
102
}
330
1F
100
AcDbEntity
  8
LC-004-205-----0
 62
     7
370
    50
100
AcDbLine
 10
165.490803
 20
430.553997
 30
0.0
 11
214.33164
 21
430.553997
 31
0.0
  0
LINE
  5
F1
102
{ACAD_REACTORS
330
458
102
}
330
1F
100
AcDbEntity
  8
LC-004-205-----0
 62
     7
370
    50
100
AcDbLine
 10
166.490795
 20
430.553997
 30
0.0
 11
166.490805
 21
444.88907
 31
0.0
  0
LINE
  5
F2
102
{ACAD_REACTORS
330
458
102
}
330
1F
100
AcDbEntity
  8
LC-004-205-----0
 62
     7
370
    50
100
AcDbLine
 10
166.490812
 20
444.88907
 30
0.0
 11
166.490835
 21
480.083459
 31
0.0
  0
LINE
  5
F3
102
{ACAD_REACTORS
330
458
102
}
330
1F
100
AcDbEntity
  8
LC-004-205-----0
 62
     7
370
    50
100
AcDbLine
 10
169.791
 20
483.083466
 30
0.0
 11
169.790979
 21
490.578191
 31
0.0
  0
LINE
  5
F4
102
{ACAD_REACTORS
330
458
102
}
330
1F
100
AcDbEntity
  8
LC-004-205-----0
 62
     7
370
    50
100
AcDbLine
 10
167.791003
 20
482.283461
 30
0.0
 11
167.790984
 21
488.883461
 31
0.0
  0
LINE
  5
F5
330
1F
100
AcDbEntity
  8
LC-001-002-----0
 62
     7
370
    50
100
AcDbLine
 10
169.791
 20
483.083466
 30
0.0
 11
212.320504
 21
483.083466
 31
0.0
  0
INSERT
  5
110
330
1F
100
AcDbEntity
  8
LC-002-005-----0
 62
     7
370
    25
100
AcDbBlockReference
  2
*X37
 10
0.0
 20
0.0
 30
0.0
  0
INSERT
  5
12E
330
1F
100
AcDbEntity
  8
LC-002-005-----0
 62
     7
370
    25
100
AcDbBlockReference
  2
*X48
 10
0.0
 20
0.0
 30
0.0
  0
INSERT
  5
146
330
1F
100
AcDbEntity
  8
LC-002-005-----0
 62
     7
370
    25
100
AcDbBlockReference
  2
*X59
 10
0.0
 20
0.0
 30
0.0
  0
LINE
  5
147
102
{ACAD_REACTORS
330
453
102
}
330
1F
100
AcDbEntity
  8
LC-002-005-----0
 62
     7
370
    25
100
AcDbLine
 10
164.991064
 20
479.890321
 30
0.0
 11
164.493688
 21
480.387697
 31
0.0
  0
LINE
  5
148
102
{ACAD_REACTORS
330
453
102
}
330
1F
100
AcDbEntity
  8
LC-002-005-----0
 62
     7
370
    25
100
AcDbLine
 10
160.958731
 20
483.922653
 30
0.0
 11
154.297925
 21
490.583459
 31
0.0
  0
LINE
  5
149
102
{ACAD_REACTORS
330
453
102
}
330
1F
100
AcDbEntity
  8
LC-002-005-----0
 62
     7
370
    25
100
AcDbLine
 10
148.634535
 20
496.246849
 30
0.0
 11
145.603735
 21
499.27765
 31
0.0
  0
LINE
  5
14A
102
{ACAD_REACTORS
330
453
102
}
330
1F
100
AcDbEntity
  8
LC-002-005-----0
 62
     7
370
    25
100
AcDbLine
 10
139.741771
 20
505.139614
 30
0.0
 11
137.452765
 21
507.42862
 31
0.0
  0
LINE
  5
14B
102
{ACAD_REACTORS
330
453
102
}
330
1F
100
AcDbEntity
  8
LC-002-005-----0
 62
     7
370
    25
100
AcDbLine
 10
136.765165
 20
508.11622
 30
0.0
 11
131.241064
 21
513.640321
 31
0.0
  0
LINE
  5
14C
102
{ACAD_REACTORS
330
453
102
}
330
1F
100
AcDbEntity
  8
LC-002-005-----0
 62
     7
370
    25
100
AcDbLine
 10
127.452919
 20
517.428465
 30
0.0
 11
124.188826
 21
520.692559
 31
0.0
  0
LINE
  5
14D
102
{ACAD_REACTORS
330
454
102
}
330
1F
100
AcDbEntity
  8
LC-002-005-----0
 62
     7
370
    25
100
AcDbLine
 10
331.55591
 20
426.462559
 30
0.0
 11
327.434093
 21
430.584376
 31
0.0
  0
LINE
  5
14E
102
{ACAD_REACTORS
330
453
102
}
330
1F
100
AcDbEntity
  8
LC-002-005-----0
 62
     7
370
    25
100
AcDbLine
 10
164.991064
 20
477.061894
 30
0.0
 11
158.991064
 21
483.061894
 31
0.0
  0
LINE
  5
14F
102
{ACAD_REACTORS
330
457
102
}
330
1F
100
AcDbEntity
  8
LC-001-002-----0
 62
     7
370
    50
100
AcDbLine
 10
424.959023
 20
421.377151
 30
0.0
 11
424.959023
 21
424.377151
 31
0.0
  0
LINE
  5
150
102
{ACAD_REACTORS
330
453
102
}
330
1F
100
AcDbEntity
  8
LC-002-005-----0
 62
     7
370
    25
100
AcDbLine
 10
154.47385
 20
487.579108
 30
0.0
 11
151.469498
 21
490.583459
 31
0.0
  0
LINE
  5
151
102
{ACAD_REACTORS
330
453
102
}
330
1F
100
AcDbEntity
  8
LC-002-005-----0
 62
     7
370
    25
100
AcDbLine
 10
149.046021
 20
493.006936
 30
0.0
 11
142.775308
 21
499.27765
 31
0.0
  0
LINE
  5
152
102
{ACAD_REACTORS
330
453
102
}
330
1F
100
AcDbEntity
  8
LC-002-005-----0
 62
     7
370
    25
100
AcDbLine
 10
139.741771
 20
502.311187
 30
0.0
 11
137.491064
 21
504.561894
 31
0.0
  0
LINE
  5
153
102
{ACAD_REACTORS
330
453
102
}
330
1F
100
AcDbEntity
  8
LC-002-005-----0
 62
     7
370
    25
100
AcDbLine
 10
133.645698
 20
508.40726
 30
0.0
 11
132.493805
 21
509.559153
 31
0.0
  0
LINE
  5
154
102
{ACAD_REACTORS
330
453
102
}
330
1F
100
AcDbEntity
  8
LC-002-005-----0
 62
     7
370
    25
100
AcDbLine
 10
124.411839
 20
517.641118
 30
0.0
 11
120.996851
 21
521.056106
 31
0.0
  0
LINE
  5
155
102
{ACAD_REACTORS
330
454
102
}
330
1F
100
AcDbEntity
  8
LC-002-005-----0
 62
     7
370
    25
100
AcDbLine
 10
331.240759
 20
423.949284
 30
0.0
 11
324.605666
 21
430.584376
 31
0.0
  0
LINE
  5
156
102
{ACAD_REACTORS
330
453
102
}
330
1F
100
AcDbEntity
  8
LC-002-005-----0
 62
     7
370
    25
100
AcDbLine
 10
164.991064
 20
474.233467
 30
0.0
 11
161.991064
 21
477.233467
 31
0.0
  0
LINE
  5
157
102
{ACAD_REACTORS
330
453
102
}
330
1F
100
AcDbEntity
  8
LC-002-005-----0
 62
     7
370
    25
100
AcDbLine
 10
160.964212
 20
478.260318
 30
0.0
 11
159.172274
 21
480.052256
 31
0.0
  0
LINE
  5
158
102
{ACAD_REACTORS
330
453
102
}
330
1F
100
AcDbEntity
  8
LC-002-005-----0
 62
     7
370
    25
100
AcDbLine
 10
151.645422
 20
487.579108
 30
0.0
 11
137.491064
 21
501.733467
 31
0.0
  0
LINE
  5
159
102
{ACAD_REACTORS
330
453
102
}
330
1F
100
AcDbEntity
  8
LC-002-005-----0
 62
     7
370
    25
100
AcDbLine
 10
121.370759
 20
517.853771
 30
0.0
 11
116.753607
 21
522.470924
 31
0.0
  0
LINE
  5
15A
102
{ACAD_REACTORS
330
454
102
}
330
1F
100
AcDbEntity
  8
LC-002-005-----0
 62
     7
370
    25
100
AcDbLine
 10
328.79521
 20
423.566405
 30
0.0
 11
321.777239
 21
430.584376
 31
0.0
  0
LINE
  5
15B
102
{ACAD_REACTORS
330
453
102
}
330
1F
100
AcDbEntity
  8
LC-002-005-----0
 62
     7
370
    25
100
AcDbLine
 10
164.991064
 20
471.405039
 30
0.0
 11
161.991064
 21
474.405039
 31
0.0
  0
LINE
  5
15C
102
{ACAD_REACTORS
330
453
102
}
330
1F
100
AcDbEntity
  8
LC-002-005-----0
 62
     7
370
    25
100
AcDbLine
 10
148.816995
 20
487.579108
 30
0.0
 11
139.195991
 21
497.200112
 31
0.0
  0
LINE
  5
15D
102
{ACAD_REACTORS
330
453
102
}
330
1F
100
AcDbEntity
  8
LC-002-005-----0
 62
     7
370
    25
100
AcDbLine
 10
118.329679
 20
518.066424
 30
0.0
 11
112.907926
 21
523.488177
 31
0.0
  0
LINE
  5
15E
102
{ACAD_REACTORS
330
454
102
}
330
1F
100
AcDbEntity
  8
LC-002-005-----0
 62
     7
370
    25
100
AcDbLine
 10
326.14799
 20
423.385198
 30
0.0
 11
318.948812
 21
430.584376
 31
0.0
  0
LINE
  5
15F
102
{ACAD_REACTORS
330
453
102
}
330
1F
100
AcDbEntity
  8
LC-002-005-----0
 62
     7
370
    25
100
AcDbLine
 10
164.991064
 20
468.576612
 30
0.0
 11
161.991064
 21
471.576612
 31
0.0
  0
LINE
  5
160
102
{ACAD_REACTORS
330
453
102
}
330
1F
100
AcDbEntity
  8
LC-002-005-----0
 62
     7
370
    25
100
AcDbLine
 10
145.988568
 20
487.579108
 30
0.0
 11
141.661963
 21
491.905713
 31
0.0
  0
LINE
  5
161
102
{ACAD_REACTORS
330
453
102
}
330
1F
100
AcDbEntity
  8
LC-002-005-----0
 62
     7
370
    25
100
AcDbLine
 10
115.212528
 20
518.355148
 30
0.0
 11
109.868846
 21
523.69883
 31
0.0
  0
LINE
  5
162
102
{ACAD_REACTORS
330
454
102
}
330
1F
100
AcDbEntity
  8
LC-002-005-----0
 62
     7
370
    25
100
AcDbLine
 10
270.991064
 20
478.542124
 30
0.0
 11
269.145491
 21
480.387697
 31
0.0
  0
LINE
  5
163
102
{ACAD_REACTORS
330
453
102
}
330
1F
100
AcDbEntity
  8
LC-002-005-----0
 62
     7
370
    25
100
AcDbLine
 10
164.991064
 20
465.748185
 30
0.0
 11
161.991064
 21
468.748185
 31
0.0
  0
LINE
  5
164
102
{ACAD_REACTORS
330
453
102
}
330
1F
100
AcDbEntity
  8
LC-002-005-----0
 62
     7
370
    25
100
AcDbLine
 10
111.028829
 20
519.71042
 30
0.0
 11
106.829766
 21
523.909483
 31
0.0
  0
LINE
  5
165
102
{ACAD_REACTORS
330
454
102
}
330
1F
100
AcDbEntity
  8
LC-002-005-----0
 62
     7
370
    25
100
AcDbLine
 10
323.244361
 20
423.4604
 30
0.0
 11
316.120385
 21
430.584376
 31
0.0
  0
LINE
  5
166
102
{ACAD_REACTORS
330
453
102
}
330
1F
100
AcDbEntity
  8
LC-002-005-----0
 62
     7
370
    25
100
AcDbLine
 10
164.991064
 20
462.919758
 30
0.0
 11
161.991064
 21
465.919758
 31
0.0
  0
LINE
  5
167
102
{ACAD_REACTORS
330
453
102
}
330
1F
100
AcDbEntity
  8
LC-002-005-----0
 62
     7
370
    25
100
AcDbLine
 10
107.021851
 20
520.888971
 30
0.0
 11
103.790686
 21
524.120136
 31
0.0
  0
LINE
  5
168
102
{ACAD_REACTORS
330
454
102
}
330
1F
100
AcDbEntity
  8
LC-002-005-----0
 62
     7
370
    25
100
AcDbLine
 10
270.991064
 20
475.713697
 30
0.0
 11
268.991064
 21
477.713697
 31
0.0
  0
LINE
  5
169
102
{ACAD_REACTORS
330
453
102
}
330
1F
100
AcDbEntity
  8
LC-002-005-----0
 62
     7
370
    25
100
AcDbLine
 10
164.991064
 20
460.091331
 30
0.0
 11
161.991064
 21
463.091331
 31
0.0
  0
LINE
  5
16A
102
{ACAD_REACTORS
330
453
102
}
330
1F
100
AcDbEntity
  8
LC-002-005-----0
 62
     7
370
    25
100
AcDbLine
 10
103.982771
 20
521.099624
 30
0.0
 11
100.751606
 21
524.330789
 31
0.0
  0
LINE
  5
16B
102
{ACAD_REACTORS
330
454
102
}
330
1F
100
AcDbEntity
  8
LC-002-005-----0
 62
     7
370
    25
100
AcDbLine
 10
319.987285
 20
423.889049
 30
0.0
 11
313.291957
 21
430.584376
 31
0.0
  0
LINE
  5
16C
102
{ACAD_REACTORS
330
453
102
}
330
1F
100
AcDbEntity
  8
LC-002-005-----0
 62
     7
370
    25
100
AcDbLine
 10
164.991064
 20
457.262904
 30
0.0
 11
161.991064
 21
460.262904
 31
0.0
  0
LINE
  5
16D
102
{ACAD_REACTORS
330
453
102
}
330
1F
100
AcDbEntity
  8
LC-002-005-----0
 62
     7
370
    25
100
AcDbLine
 10
100.943691
 20
521.310277
 30
0.0
 11
97.712526
 21
524.541442
 31
0.0
  0
LINE
  5
16E
102
{ACAD_REACTORS
330
454
102
}
330
1F
100
AcDbEntity
  8
LC-002-005-----0
 62
     7
370
    25
100
AcDbLine
 10
270.991064
 20
472.88527
 30
0.0
 11
268.991064
 21
474.88527
 31
0.0
  0
LINE
  5
16F
102
{ACAD_REACTORS
330
453
102
}
330
1F
100
AcDbEntity
  8
LC-002-005-----0
 62
     7
370
    25
100
AcDbLine
 10
164.991064
 20
454.434477
 30
0.0
 11
161.991064
 21
457.434477
 31
0.0
  0
LINE
  5
170
102
{ACAD_REACTORS
330
453
102
}
330
1F
100
AcDbEntity
  8
LC-002-005-----0
 62
     7
370
    25
100
AcDbLine
 10
97.904611
 20
521.520929
 30
0.0
 11
94.673445
 21
524.752095
 31
0.0
  0
LINE
  5
171
102
{ACAD_REACTORS
330
454
102
}
330
1F
100
AcDbEntity
  8
LC-002-005-----0
 62
     7
370
    25
100
AcDbLine
 10
316.17017
 20
424.877737
 30
0.0
 11
310.46353
 21
430.584376
 31
0.0
  0
LINE
  5
172
102
{ACAD_REACTORS
330
453
102
}
330
1F
100
AcDbEntity
  8
LC-002-005-----0
 62
     7
370
    25
100
AcDbLine
 10
164.991064
 20
451.60605
 30
0.0
 11
161.991064
 21
454.60605
 31
0.0
  0
LINE
  5
173
102
{ACAD_REACTORS
330
453
102
}
330
1F
100
AcDbEntity
  8
LC-002-005-----0
 62
     7
370
    25
100
AcDbLine
 10
94.865531
 20
521.731582
 30
0.0
 11
91.634365
 21
524.962748
 31
0.0
  0
LINE
  5
174
102
{ACAD_REACTORS
330
454
102
}
330
1F
100
AcDbEntity
  8
LC-002-005-----0
 62
     7
370
    25
100
AcDbLine
 10
270.991064
 20
470.056843
 30
0.0
 11
268.991064
 21
472.056843
 31
0.0
  0
LINE
  5
175
102
{ACAD_REACTORS
330
453
102
}
330
1F
100
AcDbEntity
  8
LC-002-005-----0
 62
     7
370
    25
100
AcDbLine
 10
164.991064
 20
448.777622
 30
0.0
 11
161.991064
 21
451.777622
 31
0.0
  0
LINE
  5
176
102
{ACAD_REACTORS
330
453
102
}
330
1F
100
AcDbEntity
  8
LC-002-005-----0
 62
     7
370
    25
100
AcDbLine
 10
91.826451
 20
521.942235
 30
0.0
 11
88.595285
 21
525.173401
 31
0.0
  0
LINE
  5
177
102
{ACAD_REACTORS
330
454
102
}
330
1F
100
AcDbEntity
  8
LC-002-005-----0
 62
     7
370
    25
100
AcDbLine
 10
311.126731
 20
427.092749
 30
0.0
 11
307.635103
 21
430.584376
 31
0.0
  0
LINE
  5
178
102
{ACAD_REACTORS
330
453
102
}
330
1F
100
AcDbEntity
  8
LC-002-005-----0
 62
     7
370
    25
100
AcDbLine
 10
164.991064
 20
445.949195
 30
0.0
 11
161.991064
 21
448.949195
 31
0.0
  0
LINE
  5
179
102
{ACAD_REACTORS
330
453
102
}
330
1F
100
AcDbEntity
  8
LC-002-005-----0
 62
     7
370
    25
100
AcDbLine
 10
88.787371
 20
522.152888
 30
0.0
 11
85.556205
 21
525.384054
 31
0.0
  0
LINE
  5
17A
102
{ACAD_REACTORS
330
454
102
}
330
1F
100
AcDbEntity
  8
LC-002-005-----0
 62
     7
370
    25
100
AcDbLine
 10
270.991064
 20
467.228416
 30
0.0
 11
268.991064
 21
469.228416
 31
0.0
  0
LINE
  5
17B
102
{ACAD_REACTORS
330
453
102
}
330
1F
100
AcDbEntity
  8
LC-002-005-----0
 62
     7
370
    25
100
AcDbLine
 10
164.991064
 20
443.120768
 30
0.0
 11
161.991064
 21
446.120768
 31
0.0
  0
LINE
  5
17C
102
{ACAD_REACTORS
330
453
102
}
330
1F
100
AcDbEntity
  8
LC-002-005-----0
 62
     7
370
    25
100
AcDbLine
 10
85.748291
 20
522.363541
 30
0.0
 11
82.517125
 21
525.594707
 31
0.0
  0
LINE
  5
17D
102
{ACAD_REACTORS
330
454
102
}
330
1F
100
AcDbEntity
  8
LC-002-005-----0
 62
     7
370
    25
100
AcDbLine
 10
307.505801
 20
427.885251
 30
0.0
 11
304.806676
 21
430.584376
 31
0.0
  0
LINE
  5
17E
102
{ACAD_REACTORS
330
453
102
}
330
1F
100
AcDbEntity
  8
LC-002-005-----0
 62
     7
370
    25
100
AcDbLine
 10
164.991064
 20
440.292341
 30
0.0
 11
161.991064
 21
443.292341
 31
0.0
  0
LINE
  5
17F
102
{ACAD_REACTORS
330
453
102
}
330
1F
100
AcDbEntity
  8
LC-002-005-----0
 62
     7
370
    25
100
AcDbLine
 10
82.709211
 20
522.574194
 30
0.0
 11
79.478045
 21
525.80536
 31
0.0
  0
LINE
  5
180
102
{ACAD_REACTORS
330
453
102
}
330
1F
100
AcDbEntity
  8
LC-002-005-----0
 62
     7
370
    25
100
AcDbLine
 10
164.991064
 20
437.463914
 30
0.0
 11
161.991064
 21
440.463914
 31
0.0
  0
LINE
  5
181
102
{ACAD_REACTORS
330
453
102
}
330
1F
100
AcDbEntity
  8
LC-002-005-----0
 62
     7
370
    25
100
AcDbLine
 10
79.67013
 20
522.784847
 30
0.0
 11
76.438965
 21
526.016013
 31
0.0
  0
LINE
  5
182
102
{ACAD_REACTORS
330
453
102
}
330
1F
100
AcDbEntity
  8
LC-002-005-----0
 62
     7
370
    25
100
AcDbLine
 10
164.991064
 20
434.635487
 30
0.0
 11
161.991064
 21
437.635487
 31
0.0
  0
LINE
  5
183
102
{ACAD_REACTORS
330
453
102
}
330
1F
100
AcDbEntity
  8
LC-002-005-----0
 62
     7
370
    25
100
AcDbLine
 10
76.63105
 20
522.9955
 30
0.0
 11
75.491064
 21
524.135487
 31
0.0
  0
LINE
  5
184
102
{ACAD_REACTORS
330
453
102
}
330
1F
100
AcDbEntity
  8
LC-002-005-----0
 62
     7
370
    25
100
AcDbLine
 10
164.906878
 20
431.891245
 30
0.0
 11
161.991064
 21
434.80706
 31
0.0
  0
LINE
  5
185
102
{ACAD_REACTORS
330
453
102
}
330
1F
100
AcDbEntity
  8
LC-002-005-----0
 62
     7
370
    25
100
AcDbLine
 10
164.991064
 20
428.978633
 30
0.0
 11
161.991064
 21
431.978633
 31
0.0
  0
LINE
  5
186
102
{ACAD_REACTORS
330
453
102
}
330
1F
100
AcDbEntity
  8
LC-002-005-----0
 62
     7
370
    25
100
AcDbLine
 10
164.991064
 20
426.150205
 30
0.0
 11
161.991064
 21
429.150205
 31
0.0
  0
LINE
  5
187
102
{ACAD_REACTORS
330
454
102
}
330
1F
100
AcDbEntity
  8
LC-002-005-----0
 62
     7
370
    25
100
AcDbLine
 10
270.991064
 20
464.399989
 30
0.0
 11
268.991064
 21
466.399989
 31
0.0
  0
LINE
  5
188
102
{ACAD_REACTORS
330
454
102
}
330
1F
100
AcDbEntity
  8
LC-002-005-----0
 62
     7
370
    25
100
AcDbLine
 10
304.677374
 20
427.885251
 30
0.0
 11
301.978249
 21
430.584376
 31
0.0
  0
LINE
  5
189
102
{ACAD_REACTORS
330
454
102
}
330
1F
100
AcDbEntity
  8
LC-002-005-----0
 62
     7
370
    25
100
AcDbLine
 10
270.991064
 20
461.571562
 30
0.0
 11
268.991064
 21
463.571562
 31
0.0
  0
LINE
  5
18A
102
{ACAD_REACTORS
330
454
102
}
330
1F
100
AcDbEntity
  8
LC-002-005-----0
 62
     7
370
    25
100
AcDbLine
 10
301.848947
 20
427.885251
 30
0.0
 11
299.149822
 21
430.584376
 31
0.0
  0
LINE
  5
18B
102
{ACAD_REACTORS
330
454
102
}
330
1F
100
AcDbEntity
  8
LC-002-005-----0
 62
     7
370
    25
100
AcDbLine
 10
270.991064
 20
458.743135
 30
0.0
 11
268.991064
 21
460.743135
 31
0.0
  0
LINE
  5
18C
102
{ACAD_REACTORS
330
454
102
}
330
1F
100
AcDbEntity
  8
LC-002-005-----0
 62
     7
370
    25
100
AcDbLine
 10
299.02052
 20
427.885251
 30
0.0
 11
296.321395
 21
430.584376
 31
0.0
  0
LINE
  5
18D
102
{ACAD_REACTORS
330
454
102
}
330
1F
100
AcDbEntity
  8
LC-002-005-----0
 62
     7
370
    25
100
AcDbLine
 10
270.991064
 20
455.914707
 30
0.0
 11
268.991064
 21
457.914707
 31
0.0
  0
LINE
  5
18E
102
{ACAD_REACTORS
330
454
102
}
330
1F
100
AcDbEntity
  8
LC-002-005-----0
 62
     7
370
    25
100
AcDbLine
 10
296.192093
 20
427.885251
 30
0.0
 11
293.492968
 21
430.584376
 31
0.0
  0
ARC
  5
190
102
{ACAD_REACTORS
330
457
102
}
330
1F
100
AcDbEntity
  8
LC-006-002-RND-0
 62
     7
370
    50
100
AcDbCircle
 10
384.459023
 20
486.877151
 30
0.0
 40
0.5
100
AcDbArc
 50
0.0
 51
90.0
  0
ARC
  5
191
102
{ACAD_REACTORS
330
457
102
}
330
1F
100
AcDbEntity
  8
LC-006-002-RND-0
 62
     7
370
    50
100
AcDbCircle
 10
381.459023
 20
424.377151
 30
0.0
 40
0.5
100
AcDbArc
 50
0.0
 51
90.0
  0
INSERT
  5
1BF
102
{ACAD_REACTORS
330
457
102
}
330
1F
100
AcDbEntity
  8
LC-002-005-----0
 62
     7
370
    25
100
AcDbBlockReference
  2
*X610
 10
0.0
 20
0.0
 30
0.0
  0
LINE
  5
1C0
102
{ACAD_REACTORS
330
457
102
}
330
1F
100
AcDbEntity
  8
LC-001-002-----0
 62
     7
370
    50
100
AcDbLine
 10
382.459023
 20
487.377151
 30
0.0
 11
384.459023
 21
487.377151
 31
0.0
  0
ARC
  5
1C1
102
{ACAD_REACTORS
330
457
102
}
330
1F
100
AcDbEntity
  8
LC-006-002-RND-0
 62
     7
370
    50
100
AcDbCircle
 10
381.459023
 20
481.377151
 30
0.0
 40
0.5
100
AcDbArc
 50
270.0
 51
0.0
  0
ARC
  5
1C2
102
{ACAD_REACTORS
330
457
102
}
330
1F
100
AcDbEntity
  8
LC-006-002-RND-0
 62
     7
370
    50
100
AcDbCircle
 10
382.459023
 20
421.877151
 30
0.0
 40
0.5
100
AcDbArc
 50
180.0
 51
270.0
  0
ARC
  5
1C3
102
{ACAD_REACTORS
330
457
102
}
330
1F
100
AcDbEntity
  8
LC-006-002-RND-0
 62
     7
370
    50
100
AcDbCircle
 10
385.459023
 20
425.195701
 30
0.0
 40
0.5
100
AcDbArc
 50
180.0
 51
269.5
  0
LINE
  5
1C4
102
{ACAD_REACTORS
330
457
102
}
330
1F
100
AcDbEntity
  8
LC-001-002-----0
 62
     7
370
    50
100
AcDbLine
 10
385.454659
 20
481.058582
 30
0.0
 11
424.959023
 21
481.377151
 31
0.0
  0
LINE
  5
1C5
102
{ACAD_REACTORS
330
454
102
}
330
1F
100
AcDbEntity
  8
LC-002-005-----0
 62
     7
370
    25
100
AcDbLine
 10
270.991064
 20
453.08628
 30
0.0
 11
268.991064
 21
455.08628
 31
0.0
  0
LINE
  5
1C6
102
{ACAD_REACTORS
330
457
102
}
330
1F
100
AcDbEntity
  8
LC-001-002-----0
 62
     7
370
    50
100
AcDbLine
 10
384.959023
 20
427.877151
 30
0.0
 11
384.959023
 21
452.877151
 31
0.0
  0
LINE
  5
1C7
102
{ACAD_REACTORS
330
457
102
}
330
1F
100
AcDbEntity
  8
LC-001-002-----0
 62
     7
370
    50
100
AcDbLine
 10
384.959023
 20
477.877151
 30
0.0
 11
384.959023
 21
452.877151
 31
0.0
  0
LINE
  5
1C8
102
{ACAD_REACTORS
330
457
102
}
330
1F
100
AcDbEntity
  8
LC-001-002-----0
 62
     7
370
    50
100
AcDbLine
 10
346.938023
 20
429.753688
 30
0.0
 11
346.938023
 21
476.000615
 31
0.0
  0
ARC
  5
1C9
102
{ACAD_REACTORS
330
457
102
}
330
1F
100
AcDbEntity
  8
LC-006-002-RND-0
 62
     7
370
    50
100
AcDbCircle
 10
385.459023
 20
480.558602
 30
0.0
 40
0.5000000000000305
100
AcDbArc
 50
90.5
 51
180.0
  0
LINE
  5
1CA
102
{ACAD_REACTORS
330
457
102
}
330
1F
100
AcDbEntity
  8
LC-001-002-----0
 62
     7
370
    50
100
AcDbLine
 10
424.959023
 20
482.377151
 30
0.0
 11
424.959023
 21
481.377151
 31
0.0
  0
LINE
  5
1CB
102
{ACAD_REACTORS
330
457
102
}
330
1F
100
AcDbEntity
  8
LC-001-002-----0
 62
     7
370
    50
100
AcDbLine
 10
347.929296
 20
428.200121
 30
0.0
 11
384.959023
 21
427.877151
 31
0.0
  0
LINE
  5
1CC
102
{ACAD_REACTORS
330
457
102
}
330
1F
100
AcDbEntity
  8
LC-001-002-----0
 62
     7
370
    50
100
AcDbLine
 10
384.959023
 20
484.377151
 30
0.0
 11
424.959023
 21
484.377151
 31
0.0
  0
LINE
  5
1CD
102
{ACAD_REACTORS
330
457
102
}
330
1F
100
AcDbEntity
  8
LC-001-002-----0
 62
     7
370
    50
100
AcDbLine
 10
385.454659
 20
424.69572
 30
0.0
 11
424.959023
 21
424.377151
 31
0.0
  0
LINE
  5
1CE
102
{ACAD_REACTORS
330
457
102
}
330
1F
100
AcDbEntity
  8
LC-001-002-----0
 62
     7
370
    50
100
AcDbLine
 10
347.929296
 20
477.554181
 30
0.0
 11
384.959023
 21
477.877151
 31
0.0
  0
ARC
  5
1CF
102
{ACAD_REACTORS
330
457
102
}
330
1F
100
AcDbEntity
  8
LC-006-002-RND-0
 62
     7
370
    50
100
AcDbCircle
 10
382.459023
 20
486.877151
 30
0.0
 40
0.5
100
AcDbArc
 50
90.0
 51
180.0
  0
ARC
  5
1D0
102
{ACAD_REACTORS
330
457
102
}
330
1F
100
AcDbEntity
  8
LC-006-002-RND-0
 62
     7
370
    50
100
AcDbCircle
 10
317.959023
 20
423.210503
 30
0.0
 40
0.99999999999998
100
AcDbArc
 50
75.812372
 51
180.0
  0
LINE
  5
1D1
102
{ACAD_REACTORS
330
457
102
}
330
1F
100
AcDbEntity
  8
LC-001-002-----0
 62
     7
370
    50
100
AcDbLine
 10
341.959023
 20
480.877151
 30
0.0
 11
381.459023
 21
480.877151
 31
0.0
  0
LINE
  5
1D2
102
{ACAD_REACTORS
330
457
102
}
330
1F
100
AcDbEntity
  8
LC-001-002-----0
 62
     7
370
    50
100
AcDbLine
 10
381.959023
 20
486.877151
 30
0.0
 11
381.959023
 21
481.377151
 31
0.0
  0
ARC
  5
1D3
102
{ACAD_REACTORS
330
457
102
}
330
1F
100
AcDbEntity
  8
LC-006-002-RND-0
 62
     7
370
    50
100
AcDbCircle
 10
347.938023
 20
429.200083
 30
0.0
 40
1.0
100
AcDbArc
 50
180.0
 51
269.5
  0
LINE
  5
1D4
102
{ACAD_REACTORS
330
457
102
}
330
1F
100
AcDbEntity
  8
LC-001-002-----0
 62
     7
370
    50
100
AcDbLine
 10
382.459023
 20
421.377151
 30
0.0
 11
424.959023
 21
421.377151
 31
0.0
  0
LINE
  5
1D5
102
{ACAD_REACTORS
330
457
102
}
330
1F
100
AcDbEntity
  8
LC-001-002-----0
 62
     7
370
    50
100
AcDbLine
 10
381.459023
 20
424.877151
 30
0.0
 11
341.959023
 21
424.877151
 31
0.0
  0
LINE
  5
1D6
102
{ACAD_REACTORS
330
454
102
}
330
1F
100
AcDbEntity
  8
LC-002-005-----0
 62
     7
370
    25
100
AcDbLine
 10
293.363666
 20
427.885251
 30
0.0
 11
290.66454
 21
430.584376
 31
0.0
  0
LINE
  5
1D7
102
{ACAD_REACTORS
330
457
102
}
330
1F
100
AcDbEntity
  8
LC-001-002-----0
 62
     7
370
    50
100
AcDbLine
 10
381.959023
 20
421.877151
 30
0.0
 11
381.959023
 21
424.377151
 31
0.0
  0
LINE
  5
1D8
102
{ACAD_REACTORS
330
457
102
}
330
1F
100
AcDbEntity
  8
LC-001-002-----0
 62
     7
370
    50
100
AcDbLine
 10
384.959023
 20
480.558602
 30
0.0
 11
384.959023
 21
477.877151
 31
0.0
  0
LINE
  5
1D9
102
{ACAD_REACTORS
330
457
102
}
330
1F
100
AcDbEntity
  8
LC-001-002-----0
 62
     7
370
    50
100
AcDbLine
 10
384.959023
 20
425.195701
 30
0.0
 11
384.959023
 21
427.877151
 31
0.0
  0
ARC
  5
1DA
102
{ACAD_REACTORS
330
457
102
}
330
1F
100
AcDbEntity
  8
LC-006-002-RND-0
 62
     7
370
    50
100
AcDbCircle
 10
347.938023
 20
476.554219
 30
0.0
 40
1.000000000000006
100
AcDbArc
 50
90.5
 51
180.0
  0
ARC
  5
1DB
102
{ACAD_REACTORS
330
457
102
}
330
1F
100
AcDbEntity
  8
LC-001-002-----0
 62
     7
370
    50
100
AcDbCircle
 10
325.459023
 20
452.877151
 30
0.0
 40
32.49999999999995
100
AcDbArc
 50
59.489763
 51
90.0
  0
LINE
  5
1DC
102
{ACAD_REACTORS
330
454
102
}
330
1F
100
AcDbEntity
  8
LC-002-005-----0
 62
     7
370
    25
100
AcDbLine
 10
270.991064
 20
450.257853
 30
0.0
 11
268.991064
 21
452.257853
 31
0.0
  0
LINE
  5
1DD
102
{ACAD_REACTORS
330
457
102
}
330
1F
100
AcDbEntity
  8
LC-001-002-----0
 62
     7
370
    50
100
AcDbLine
 10
316.959023
 20
420.377151
 30
0.0
 11
316.959023
 21
423.210503
 31
0.0
  0
LINE
  5
1DE
102
{ACAD_REACTORS
330
457
102
}
330
1F
100
AcDbEntity
  8
LC-001-002-----0
 62
     7
370
    50
100
AcDbLine
 10
325.459023
 20
485.377151
 30
0.0
 11
316.959023
 21
485.377151
 31
0.0
  0
LINE
  5
1DF
102
{ACAD_REACTORS
330
454
102
}
330
1F
100
AcDbEntity
  8
LC-002-005-----0
 62
     7
370
    25
100
AcDbLine
 10
291.367423
 20
427.053066
 30
0.0
 11
287.831799
 21
430.58869
 31
0.0
  0
LINE
  5
1E0
102
{ACAD_REACTORS
330
454
102
}
330
1F
100
AcDbEntity
  8
LC-002-005-----0
 62
     7
370
    25
100
AcDbLine
 10
270.991064
 20
447.429426
 30
0.0
 11
268.991064
 21
449.429426
 31
0.0
  0
LINE
  5
1E1
102
{ACAD_REACTORS
330
454
102
}
330
1F
100
AcDbEntity
  8
LC-002-005-----0
 62
     7
370
    25
100
AcDbLine
 10
290.991064
 20
424.600999
 30
0.0
 11
284.912973
 21
430.67909
 31
0.0
  0
LINE
  5
1E2
102
{ACAD_REACTORS
330
454
102
}
330
1F
100
AcDbEntity
  8
LC-002-005-----0
 62
     7
370
    25
100
AcDbLine
 10
270.991064
 20
444.600999
 30
0.0
 11
268.991064
 21
446.600999
 31
0.0
  0
LINE
  5
1E3
102
{ACAD_REACTORS
330
454
102
}
330
1F
100
AcDbEntity
  8
LC-002-005-----0
 62
     7
370
    25
100
AcDbLine
 10
290.991064
 20
421.772572
 30
0.0
 11
287.991064
 21
424.772572
 31
0.0
  0
LINE
  5
1E4
102
{ACAD_REACTORS
330
454
102
}
330
1F
100
AcDbEntity
  8
LC-002-005-----0
 62
     7
370
    25
100
AcDbLine
 10
284.575424
 20
428.188211
 30
0.0
 11
281.994147
 21
430.769489
 31
0.0
  0
LINE
  5
1E5
102
{ACAD_REACTORS
330
454
102
}
330
1F
100
AcDbEntity
  8
LC-002-005-----0
 62
     7
370
    25
100
AcDbLine
 10
270.991064
 20
441.772572
 30
0.0
 11
268.991064
 21
443.772572
 31
0.0
  0
LINE
  5
1E6
102
{ACAD_REACTORS
330
454
102
}
330
1F
100
AcDbEntity
  8
LC-002-005-----0
 62
     7
370
    25
100
AcDbLine
 10
290.991064
 20
418.944145
 30
0.0
 11
287.991064
 21
421.944145
 31
0.0
  0
LINE
  5
1E7
102
{ACAD_REACTORS
330
454
102
}
330
1F
100
AcDbEntity
  8
LC-002-005-----0
 62
     7
370
    25
100
AcDbLine
 10
281.656598
 20
428.27861
 30
0.0
 11
279.075321
 21
430.859888
 31
0.0
  0
LINE
  5
1E8
102
{ACAD_REACTORS
330
454
102
}
330
1F
100
AcDbEntity
  8
LC-002-005-----0
 62
     7
370
    25
100
AcDbLine
 10
270.991064
 20
438.944145
 30
0.0
 11
268.991064
 21
440.944145
 31
0.0
  0
LINE
  5
1E9
102
{ACAD_REACTORS
330
454
102
}
330
1F
100
AcDbEntity
  8
LC-002-005-----0
 62
     7
370
    25
100
AcDbLine
 10
290.991064
 20
416.115718
 30
0.0
 11
287.991064
 21
419.115718
 31
0.0
  0
LINE
  5
1EA
102
{ACAD_REACTORS
330
454
102
}
330
1F
100
AcDbEntity
  8
LC-002-005-----0
 62
     7
370
    25
100
AcDbLine
 10
278.737772
 20
428.369009
 30
0.0
 11
276.156494
 21
430.950287
 31
0.0
  0
LINE
  5
1EB
102
{ACAD_REACTORS
330
454
102
}
330
1F
100
AcDbEntity
  8
LC-002-005-----0
 62
     7
370
    25
100
AcDbLine
 10
270.991064
 20
436.115718
 30
0.0
 11
268.991064
 21
438.115718
 31
0.0
  0
LINE
  5
1EC
102
{ACAD_REACTORS
330
454
102
}
330
1F
100
AcDbEntity
  8
LC-002-005-----0
 62
     7
370
    25
100
AcDbLine
 10
290.991064
 20
413.28729
 30
0.0
 11
287.991064
 21
416.28729
 31
0.0
  0
LINE
  5
1ED
102
{ACAD_REACTORS
330
454
102
}
330
1F
100
AcDbEntity
  8
LC-002-005-----0
 62
     7
370
    25
100
AcDbLine
 10
275.818946
 20
428.459408
 30
0.0
 11
273.237668
 21
431.040686
 31
0.0
  0
LINE
  5
1EE
102
{ACAD_REACTORS
330
454
102
}
330
1F
100
AcDbEntity
  8
LC-002-005-----0
 62
     7
370
    25
100
AcDbLine
 10
270.991064
 20
433.28729
 30
0.0
 11
268.991064
 21
435.28729
 31
0.0
  0
LINE
  5
1EF
102
{ACAD_REACTORS
330
454
102
}
330
1F
100
AcDbEntity
  8
LC-002-005-----0
 62
     7
370
    25
100
AcDbLine
 10
290.056536
 20
411.393391
 30
0.0
 11
287.991064
 21
413.458863
 31
0.0
  0
LINE
  5
1F0
102
{ACAD_REACTORS
330
454
102
}
330
1F
100
AcDbEntity
  8
LC-002-005-----0
 62
     7
370
    25
100
AcDbLine
 10
272.90012
 20
428.549807
 30
0.0
 11
268.991064
 21
432.458863
 31
0.0
  0
LINE
  5
1F1
102
{ACAD_REACTORS
330
454
102
}
330
1F
100
AcDbEntity
  8
LC-002-005-----0
 62
     7
370
    25
100
AcDbLine
 10
270.991064
 20
427.630436
 30
0.0
 11
268.991064
 21
429.630436
 31
0.0
  0
LINE
  5
1F2
102
{ACAD_REACTORS
330
454
102
}
330
1F
100
AcDbEntity
  8
LC-002-005-----0
 62
     7
370
    25
100
AcDbLine
 10
270.991064
 20
424.802009
 30
0.0
 11
268.991064
 21
426.802009
 31
0.0
  0
LINE
  5
1F3
102
{ACAD_REACTORS
330
454
102
}
330
1F
100
AcDbEntity
  8
LC-002-005-----0
 62
     7
370
    25
100
AcDbLine
 10
270.991064
 20
421.973582
 30
0.0
 11
268.991064
 21
423.973582
 31
0.0
  0
LINE
  5
1F4
102
{ACAD_REACTORS
330
454
102
}
330
1F
100
AcDbEntity
  8
LC-002-005-----0
 62
     7
370
    25
100
AcDbLine
 10
270.991064
 20
419.145155
 30
0.0
 11
268.991064
 21
421.145155
 31
0.0
  0
LINE
  5
1F5
102
{ACAD_REACTORS
330
454
102
}
330
1F
100
AcDbEntity
  8
LC-002-005-----0
 62
     7
370
    25
100
AcDbLine
 10
270.991064
 20
416.316728
 30
0.0
 11
268.991064
 21
418.316728
 31
0.0
  0
LINE
  5
1F6
102
{ACAD_REACTORS
330
454
102
}
330
1F
100
AcDbEntity
  8
LC-002-005-----0
 62
     7
370
    25
100
AcDbLine
 10
270.991064
 20
413.488301
 30
0.0
 11
268.991064
 21
415.488301
 31
0.0
  0
LINE
  5
1F7
102
{ACAD_REACTORS
330
457
102
}
330
1F
100
AcDbEntity
  8
LC-001-002-----0
 62
     7
370
    50
100
AcDbLine
 10
325.459023
 20
420.377151
 30
0.0
 11
316.959023
 21
420.377151
 31
0.0
  0
LINE
  5
1F8
102
{ACAD_REACTORS
330
454
102
}
330
1F
100
AcDbEntity
  8
LC-002-005-----0
 62
     7
370
    25
100
AcDbLine
 10
270.259692
 20
411.391245
 30
0.0
 11
267.259692
 21
414.391245
 31
0.0
  0
LINE
  5
1F9
102
{ACAD_REACTORS
330
454
102
}
330
1F
100
AcDbEntity
  8
LC-002-005-----0
 62
     7
370
    25
100
AcDbLine
 10
267.431265
 20
411.391245
 30
0.0
 11
264.431265
 21
414.391245
 31
0.0
  0
LINE
  5
1FA
102
{ACAD_REACTORS
330
454
102
}
330
1F
100
AcDbEntity
  8
LC-002-005-----0
 62
     7
370
    25
100
AcDbLine
 10
264.602838
 20
411.391245
 30
0.0
 11
261.602838
 21
414.391245
 31
0.0
  0
LINE
  5
1FB
102
{ACAD_REACTORS
330
454
102
}
330
1F
100
AcDbEntity
  8
LC-002-005-----0
 62
     7
370
    25
100
AcDbLine
 10
261.77441
 20
411.391245
 30
0.0
 11
258.77441
 21
414.391245
 31
0.0
  0
LINE
  5
1FC
102
{ACAD_REACTORS
330
454
102
}
330
1F
100
AcDbEntity
  8
LC-002-005-----0
 62
     7
370
    25
100
AcDbLine
 10
258.945983
 20
411.391245
 30
0.0
 11
255.945983
 21
414.391245
 31
0.0
  0
LINE
  5
1FD
102
{ACAD_REACTORS
330
454
102
}
330
1F
100
AcDbEntity
  8
LC-002-005-----0
 62
     7
370
    25
100
AcDbLine
 10
256.117556
 20
411.391245
 30
0.0
 11
253.117556
 21
414.391245
 31
0.0
  0
LINE
  5
1FE
102
{ACAD_REACTORS
330
454
102
}
330
1F
100
AcDbEntity
  8
LC-002-005-----0
 62
     7
370
    25
100
AcDbLine
 10
253.289129
 20
411.391245
 30
0.0
 11
250.289129
 21
414.391245
 31
0.0
  0
LINE
  5
1FF
102
{ACAD_REACTORS
330
454
102
}
330
1F
100
AcDbEntity
  8
LC-002-005-----0
 62
     7
370
    25
100
AcDbLine
 10
250.460702
 20
411.391245
 30
0.0
 11
247.460702
 21
414.391245
 31
0.0
  0
LINE
  5
200
102
{ACAD_REACTORS
330
454
102
}
330
1F
100
AcDbEntity
  8
LC-002-005-----0
 62
     7
370
    25
100
AcDbLine
 10
247.632275
 20
411.391245
 30
0.0
 11
244.632275
 21
414.391245
 31
0.0
  0
LINE
  5
201
102
{ACAD_REACTORS
330
454
102
}
330
1F
100
AcDbEntity
  8
LC-002-005-----0
 62
     7
370
    25
100
AcDbLine
 10
244.803848
 20
411.391245
 30
0.0
 11
241.803848
 21
414.391245
 31
0.0
  0
LINE
  5
202
102
{ACAD_REACTORS
330
454
102
}
330
1F
100
AcDbEntity
  8
LC-002-005-----0
 62
     7
370
    25
100
AcDbLine
 10
241.975421
 20
411.391245
 30
0.0
 11
238.975421
 21
414.391245
 31
0.0
  0
LINE
  5
203
102
{ACAD_REACTORS
330
454
102
}
330
1F
100
AcDbEntity
  8
LC-002-005-----0
 62
     7
370
    25
100
AcDbLine
 10
239.146993
 20
411.391245
 30
0.0
 11
236.146993
 21
414.391245
 31
0.0
  0
LINE
  5
204
102
{ACAD_REACTORS
330
454
102
}
330
1F
100
AcDbEntity
  8
LC-002-005-----0
 62
     7
370
    25
100
AcDbLine
 10
236.318566
 20
411.391245
 30
0.0
 11
233.318566
 21
414.391245
 31
0.0
  0
LINE
  5
205
102
{ACAD_REACTORS
330
454
102
}
330
1F
100
AcDbEntity
  8
LC-002-005-----0
 62
     7
370
    25
100
AcDbLine
 10
233.490139
 20
411.391245
 30
0.0
 11
230.490139
 21
414.391245
 31
0.0
  0
LINE
  5
206
102
{ACAD_REACTORS
330
454
102
}
330
1F
100
AcDbEntity
  8
LC-002-005-----0
 62
     7
370
    25
100
AcDbLine
 10
230.661712
 20
411.391245
 30
0.0
 11
227.661712
 21
414.391245
 31
0.0
  0
LINE
  5
207
102
{ACAD_REACTORS
330
454
102
}
330
1F
100
AcDbEntity
  8
LC-002-005-----0
 62
     7
370
    25
100
AcDbLine
 10
227.833285
 20
411.391245
 30
0.0
 11
224.833285
 21
414.391245
 31
0.0
  0
LINE
  5
208
102
{ACAD_REACTORS
330
454
102
}
330
1F
100
AcDbEntity
  8
LC-002-005-----0
 62
     7
370
    25
100
AcDbLine
 10
225.004858
 20
411.391245
 30
0.0
 11
222.004858
 21
414.391245
 31
0.0
  0
LINE
  5
209
102
{ACAD_REACTORS
330
454
102
}
330
1F
100
AcDbEntity
  8
LC-002-005-----0
 62
     7
370
    25
100
AcDbLine
 10
222.176431
 20
411.391245
 30
0.0
 11
219.176431
 21
414.391245
 31
0.0
  0
LINE
  5
20A
102
{ACAD_REACTORS
330
454
102
}
330
1F
100
AcDbEntity
  8
LC-002-005-----0
 62
     7
370
    25
100
AcDbLine
 10
219.348004
 20
411.391245
 30
0.0
 11
216.348004
 21
414.391245
 31
0.0
  0
LINE
  5
20B
102
{ACAD_REACTORS
330
454
102
}
330
1F
100
AcDbEntity
  8
LC-002-005-----0
 62
     7
370
    25
100
AcDbLine
 10
216.519576
 20
411.391245
 30
0.0
 11
213.519576
 21
414.391245
 31
0.0
  0
LINE
  5
20C
102
{ACAD_REACTORS
330
454
102
}
330
1F
100
AcDbEntity
  8
LC-002-005-----0
 62
     7
370
    25
100
AcDbLine
 10
213.691149
 20
411.391245
 30
0.0
 11
210.691149
 21
414.391245
 31
0.0
  0
LINE
  5
20D
102
{ACAD_REACTORS
330
454
102
}
330
1F
100
AcDbEntity
  8
LC-002-005-----0
 62
     7
370
    25
100
AcDbLine
 10
210.862722
 20
411.391245
 30
0.0
 11
207.862722
 21
414.391245
 31
0.0
  0
LINE
  5
20E
102
{ACAD_REACTORS
330
454
102
}
330
1F
100
AcDbEntity
  8
LC-002-005-----0
 62
     7
370
    25
100
AcDbLine
 10
208.034295
 20
411.391245
 30
0.0
 11
205.034295
 21
414.391245
 31
0.0
  0
LINE
  5
20F
102
{ACAD_REACTORS
330
454
102
}
330
1F
100
AcDbEntity
  8
LC-002-005-----0
 62
     7
370
    25
100
AcDbLine
 10
205.205868
 20
411.391245
 30
0.0
 11
202.205868
 21
414.391245
 31
0.0
  0
LINE
  5
210
102
{ACAD_REACTORS
330
454
102
}
330
1F
100
AcDbEntity
  8
LC-002-005-----0
 62
     7
370
    25
100
AcDbLine
 10
202.377441
 20
411.391245
 30
0.0
 11
199.377441
 21
414.391245
 31
0.0
  0
LINE
  5
211
102
{ACAD_REACTORS
330
454
102
}
330
1F
100
AcDbEntity
  8
LC-002-005-----0
 62
     7
370
    25
100
AcDbLine
 10
199.549014
 20
411.391245
 30
0.0
 11
196.549014
 21
414.391245
 31
0.0
  0
LINE
  5
212
102
{ACAD_REACTORS
330
454
102
}
330
1F
100
AcDbEntity
  8
LC-002-005-----0
 62
     7
370
    25
100
AcDbLine
 10
196.720587
 20
411.391245
 30
0.0
 11
193.720587
 21
414.391245
 31
0.0
  0
LINE
  5
213
102
{ACAD_REACTORS
330
454
102
}
330
1F
100
AcDbEntity
  8
LC-002-005-----0
 62
     7
370
    25
100
AcDbLine
 10
193.892159
 20
411.391245
 30
0.0
 11
190.892159
 21
414.391245
 31
0.0
  0
LINE
  5
214
102
{ACAD_REACTORS
330
454
102
}
330
1F
100
AcDbEntity
  8
LC-002-005-----0
 62
     7
370
    25
100
AcDbLine
 10
191.063732
 20
411.391245
 30
0.0
 11
188.063732
 21
414.391245
 31
0.0
  0
LINE
  5
215
102
{ACAD_REACTORS
330
454
102
}
330
1F
100
AcDbEntity
  8
LC-002-005-----0
 62
     7
370
    25
100
AcDbLine
 10
188.235305
 20
411.391245
 30
0.0
 11
185.235305
 21
414.391245
 31
0.0
  0
LINE
  5
216
102
{ACAD_REACTORS
330
454
102
}
330
1F
100
AcDbEntity
  8
LC-002-005-----0
 62
     7
370
    25
100
AcDbLine
 10
185.406878
 20
411.391245
 30
0.0
 11
182.406878
 21
414.391245
 31
0.0
  0
LINE
  5
217
102
{ACAD_REACTORS
330
454
102
}
330
1F
100
AcDbEntity
  8
LC-002-005-----0
 62
     7
370
    25
100
AcDbLine
 10
182.578451
 20
411.391245
 30
0.0
 11
179.578451
 21
414.391245
 31
0.0
  0
LINE
  5
218
102
{ACAD_REACTORS
330
454
102
}
330
1F
100
AcDbEntity
  8
LC-002-005-----0
 62
     7
370
    25
100
AcDbLine
 10
179.750024
 20
411.391245
 30
0.0
 11
176.750024
 21
414.391245
 31
0.0
  0
LINE
  5
219
102
{ACAD_REACTORS
330
454
102
}
330
1F
100
AcDbEntity
  8
LC-002-005-----0
 62
     7
370
    25
100
AcDbLine
 10
176.921597
 20
411.391245
 30
0.0
 11
173.921597
 21
414.391245
 31
0.0
  0
LINE
  5
21A
102
{ACAD_REACTORS
330
454
102
}
330
1F
100
AcDbEntity
  8
LC-002-005-----0
 62
     7
370
    25
100
AcDbLine
 10
174.09317
 20
411.391245
 30
0.0
 11
171.09317
 21
414.391245
 31
0.0
  0
LINE
  5
21B
102
{ACAD_REACTORS
330
454
102
}
330
1F
100
AcDbEntity
  8
LC-002-005-----0
 62
     7
370
    25
100
AcDbLine
 10
171.264742
 20
411.391245
 30
0.0
 11
168.264742
 21
414.391245
 31
0.0
  0
LINE
  5
21C
102
{ACAD_REACTORS
330
454
102
}
330
1F
100
AcDbEntity
  8
LC-002-005-----0
 62
     7
370
    25
100
AcDbLine
 10
168.436315
 20
411.391245
 30
0.0
 11
165.436315
 21
414.391245
 31
0.0
  0
ARC
  5
21D
102
{ACAD_REACTORS
330
457
102
}
330
1F
100
AcDbEntity
  8
LC-001-002-----0
 62
     7
370
    50
100
AcDbCircle
 10
325.459023
 20
452.877151
 30
0.0
 40
32.5
100
AcDbArc
 50
270.0
 51
300.510237
  0
LINE
  5
21E
102
{ACAD_REACTORS
330
457
102
}
330
1F
100
AcDbEntity
  8
LC-001-002-----0
 62
     7
370
    50
100
AcDbLine
 10
346.938023
 20
429.200083
 30
0.0
 11
346.938023
 21
429.753688
 31
0.0
  0
LINE
  5
21F
102
{ACAD_REACTORS
330
457
102
}
330
1F
100
AcDbEntity
  8
LC-001-002-----0
 62
     7
370
    50
100
AcDbLine
 10
346.938023
 20
476.000615
 30
0.0
 11
346.938023
 21
476.554219
 31
0.0
  0
INSERT
  5
24B
102
{ACAD_REACTORS
330
457
102
}
330
1F
100
AcDbEntity
  8
LC-002-005-----0
 62
     7
370
    25
100
AcDbBlockReference
  2
*X711
 10
0.0
 20
0.0
 30
0.0
  0
LINE
  5
24C
102
{ACAD_REACTORS
330
454
102
}
330
1F
100
AcDbEntity
  8
LC-002-005-----0
 62
     7
370
    25
100
AcDbLine
 10
165.607888
 20
411.391245
 30
0.0
 11
161.991064
 21
415.00807
 31
0.0
  0
LINE
  5
24D
102
{ACAD_REACTORS
330
457
102
}
330
1F
100
AcDbEntity
  8
LC-001-002-----0
 62
     7
370
    50
100
AcDbLine
 10
316.959023
 20
482.543799
 30
0.0
 11
316.959023
 21
485.377151
 31
0.0
  0
ARC
  5
24E
102
{ACAD_REACTORS
330
457
102
}
330
1F
100
AcDbEntity
  8
LC-001-002-----0
 62
     7
370
    50
100
AcDbCircle
 10
325.459023
 20
452.877151
 30
0.0
 40
29.60000000000003
100
AcDbArc
 50
51.370402
 51
69.268737
  0
LINE
  5
24F
102
{ACAD_REACTORS
330
457
102
}
330
1F
100
AcDbEntity
  8
LC-001-002-----0
 62
     7
370
    50
100
AcDbLine
 10
343.937806
 20
476.000615
 30
0.0
 11
346.938023
 21
476.000615
 31
0.0
  0
ARC
  5
250
102
{ACAD_REACTORS
330
457
102
}
330
1F
100
AcDbEntity
  8
LC-006-002-RND-0
 62
     7
370
    50
100
AcDbCircle
 10
317.959023
 20
482.543799
 30
0.0
 40
1.0
100
AcDbArc
 50
180.0
 51
284.187628
  0
ARC
  5
251
102
{ACAD_REACTORS
330
457
102
}
330
1F
100
AcDbEntity
  8
LC-001-002-----0
 62
     7
370
    50
100
AcDbCircle
 10
325.459023
 20
452.877151
 30
0.0
 40
29.59999999999999
100
AcDbArc
 50
255.812372
 51
290.717092
  0
LINE
  5
252
102
{ACAD_REACTORS
330
457
102
}
330
1F
100
AcDbEntity
  8
LC-001-002-----0
 62
     7
370
    50
100
AcDbLine
 10
343.937806
 20
429.753688
 30
0.0
 11
343.937806
 21
476.000615
 31
0.0
  0
LINE
  5
253
102
{ACAD_REACTORS
330
457
102
}
330
1F
100
AcDbEntity
  8
LC-001-002-----0
 62
     7
370
    50
100
AcDbLine
 10
343.937806
 20
429.753688
 30
0.0
 11
346.938023
 21
429.753688
 31
0.0
  0
LINE
  5
254
102
{ACAD_REACTORS
330
457
102
}
330
1F
100
AcDbEntity
  8
LC-001-002-----0
 62
     7
370
    50
100
AcDbLine
 10
384.959023
 20
486.877151
 30
0.0
 11
384.959023
 21
484.377151
 31
0.0
  0
LINE
  5
255
102
{ACAD_REACTORS
330
454
102
}
330
1F
100
AcDbEntity
  8
LC-002-005-----0
 62
     7
370
    25
100
AcDbLine
 10
162.779461
 20
411.391245
 30
0.0
 11
161.991064
 21
412.179643
 31
0.0
  0
LINE
  5
257
330
1F
100
AcDbEntity
  8
LC-007-007-KH--0
 62
     7
370
    13
100
AcDbLine
 10
274.823031
 20
480.567571
 30
0.0
 11
274.823031
 21
479.998136
 31
0.0
  0
LINE
  5
258
330
1F
100
AcDbEntity
  8
LC-001-002-----0
 62
     7
370
    50
100
AcDbLine
 10
336.054452
 20
427.800715
 30
0.0
 11
336.054452
 21
425.885251
 31
0.0
  0
LINE
  5
25A
330
1F
100
AcDbEntity
  8
LC-008-207-----0
 62
     7
370
    50
100
AcDbLine
 10
198.230458
 20
414.391245
 30
0.0
 11
268.991064
 21
414.391245
 31
0.0
  0
LINE
  5
25B
330
1F
100
AcDbEntity
  8
LC-001-002-----0
 62
     7
370
    50
100
AcDbLine
 10
270.991064
 20
428.608933
 30
0.0
 11
270.991064
 21
411.391245
 31
0.0
  0
LINE
  5
25C
330
1F
100
AcDbEntity
  8
LC-001-002-----0
 62
     7
370
    50
100
AcDbLine
 10
287.971092
 20
430.584376
 30
0.0
 11
270.991064
 21
431.110265
 31
0.0
  0
LINE
  5
25D
330
1F
100
AcDbEntity
  8
LC-001-002-----0
 62
     7
370
    50
100
AcDbLine
 10
290.991064
 20
478.079108
 30
0.0
 11
290.991064
 21
477.869051
 31
0.0
  0
ARC
  5
25E
330
1F
100
AcDbEntity
  8
LC-001-002-----0
 62
     7
370
    50
100
AcDbCircle
 10
285.991064
 20
426.143408
 30
0.0
 40
2.0
100
AcDbArc
 50
0.0
 51
88.226057
  0
ARC
  5
25F
330
1F
100
AcDbEntity
  8
LC-006-002-RND-0
 62
     7
370
    50
100
AcDbCircle
 10
307.392819
 20
490.579108
 30
0.0
 40
3.0
100
AcDbArc
 50
270.0
 51
335.025313
  0
LINE
  5
260
330
1F
100
AcDbEntity
  8
LC-001-002-----0
 62
     7
370
    50
100
AcDbLine
 10
286.052976
 20
428.14245
 30
0.0
 11
270.991064
 21
428.608933
 31
0.0
  0
LINE
  5
261
330
1F
100
AcDbEntity
  8
LC-001-002-----0
 62
     7
370
    50
100
AcDbLine
 10
287.991064
 20
480.387697
 30
0.0
 11
287.991064
 21
475.169926
 31
0.0
  0
LINE
  5
262
330
1F
100
AcDbEntity
  8
LC-001-002-----0
 62
     7
370
    50
100
AcDbLine
 10
164.991064
 20
480.387697
 30
0.0
 11
164.991064
 21
414.391245
 31
0.0
  0
LINE
  5
263
330
1F
100
AcDbEntity
  8
LC-001-002-----0
 62
     7
370
    50
100
AcDbLine
 10
161.991064
 20
478.079108
 30
0.0
 11
161.991064
 21
411.391245
 31
0.0
  0
ARC
  5
264
330
1F
100
AcDbEntity
  8
LC-006-002-RND-0
 62
     7
370
    50
100
AcDbCircle
 10
131.741064
 20
516.627388
 30
0.0
 40
0.5
100
AcDbArc
 50
0.0
 51
86.000003
  0
LINE
  5
265
330
1F
100
AcDbEntity
  8
LC-001-002-----0
 62
     7
370
    50
100
AcDbLine
 10
377.491064
 20
526.081716
 30
0.0
 11
226.491064
 21
526.081716
 31
0.0
  0
ARC
  5
266
330
1F
100
AcDbEntity
  8
LC-006-002-RND-0
 62
     7
370
    50
100
AcDbCircle
 10
161.991064
 20
481.079108
 30
0.0
 40
3.0
100
AcDbArc
 50
180.0
 51
270.0
  0
LINE
  5
267
330
1F
100
AcDbEntity
  8
LC-001-002-----0
 62
     7
370
    50
100
AcDbLine
 10
287.971089
 20
480.387697
 30
0.0
 11
290.670047
 21
480.387697
 31
0.0
  0
LINE
  5
268
330
1F
100
AcDbEntity
  8
LC-001-002-----0
 62
     7
370
    50
100
AcDbLine
 10
160.812547
 20
490.583459
 30
0.0
 11
150.633887
 21
490.583459
 31
0.0
  0
ARC
  5
269
330
1F
100
AcDbEntity
  8
LC-006-002-RND-0
 62
     7
370
    50
100
AcDbCircle
 10
150.633887
 20
492.572814
 30
0.0
 40
1.999352000000499
100
AcDbArc
 50
180.0
 51
270.0
  0
LINE
  5
26A
330
1F
100
AcDbEntity
  8
LC-001-002-----0
 62
     7
370
    50
100
AcDbLine
 10
148.634535
 20
496.478476
 30
0.0
 11
148.634535
 21
494.978476
 31
0.0
  0
LINE
  5
26B
330
1F
100
AcDbEntity
  8
LC-001-002-----0
 62
     7
370
    50
100
AcDbLine
 10
145.585224
 20
487.579108
 30
0.0
 11
155.491064
 21
487.579108
 31
0.0
  0
ARC
  5
26C
330
1F
100
AcDbEntity
  8
LC-006-002-RND-0
 62
     7
370
    50
100
AcDbCircle
 10
145.585224
 20
490.578136
 30
0.0
 40
2.999028000000568
100
AcDbArc
 50
202.352488
 51
270.0
  0
LINE
  5
26D
330
1F
100
AcDbEntity
  8
LC-001-002-----0
 62
     7
370
    50
100
AcDbLine
 10
137.491064
 20
500.860562
 30
0.0
 11
142.927399
 21
489.188842
 31
0.0
  0
LINE
  5
26E
330
1F
100
AcDbEntity
  8
LC-001-002-----0
 62
     7
370
    50
100
AcDbLine
 10
305.147592
 20
499.27765
 30
0.0
 11
285.587774
 21
499.27765
 31
0.0
  0
LINE
  5
26F
330
1F
100
AcDbEntity
  8
LC-001-002-----0
 62
     7
370
    50
100
AcDbLine
 10
162.611964
 20
480.387697
 30
0.0
 11
165.011038
 21
480.387697
 31
0.0
  0
LINE
  5
270
330
1F
100
AcDbEntity
  8
LC-001-002-----0
 62
     7
370
    50
100
AcDbLine
 10
162.312061
 20
480.6876
 30
0.0
 11
162.312061
 21
482.217257
 31
0.0
  0
LINE
  5
271
330
1F
100
AcDbEntity
  8
LC-001-002-----0
 62
     7
370
    50
100
AcDbLine
 10
75.491064
 20
526.081716
 30
0.0
 11
75.491064
 21
523.074518
 31
0.0
  0
LINE
  5
272
330
1F
100
AcDbEntity
  8
LC-001-002-----0
 62
     7
370
    50
100
AcDbLine
 10
309.78564
 20
477.869051
 30
0.0
 11
290.991064
 21
477.869051
 31
0.0
  0
ARC
  5
273
330
1F
100
AcDbEntity
  8
LC-001-002-----0
 62
     7
370
    50
100
AcDbCircle
 10
162.611964
 20
480.6876
 30
0.0
 40
0.2999028000000408
100
AcDbArc
 50
180.0
 51
270.0
  0
ARC
  5
274
330
1F
100
AcDbEntity
  8
LC-001-002-----0
 62
     7
370
    50
100
AcDbCircle
 10
160.812547
 20
489.083945
 30
0.0
 40
1.499514000000318
100
AcDbArc
 50
0.0
 51
90.0
  0
LINE
  5
275
330
1F
100
AcDbEntity
  8
LC-001-002-----0
 62
     7
370
    50
100
AcDbLine
 10
162.312061
 20
488.058137
 30
0.0
 11
162.312061
 21
489.083945
 31
0.0
  0
LINE
  5
276
330
1F
100
AcDbEntity
  8
LC-001-002-----0
 62
     7
370
    50
100
AcDbLine
 10
331.55591
 20
477.868954
 30
0.0
 11
336.054452
 21
477.869828
 31
0.0
  0
LINE
  5
277
330
1F
100
AcDbEntity
  8
LC-001-002-----0
 62
     7
370
    50
100
AcDbLine
 10
343.052184
 20
476.556903
 30
0.0
 11
343.052184
 21
475.169926
 31
0.0
  0
LINE
  5
278
330
1F
100
AcDbEntity
  8
LC-001-002-----0
 62
     7
370
    50
100
AcDbLine
 10
336.054452
 20
480.408713
 30
0.0
 11
336.054452
 21
477.869828
 31
0.0
  0
LINE
  5
279
330
1F
100
AcDbEntity
  8
LC-001-002-----0
 62
     7
370
    50
100
AcDbLine
 10
331.55591
 20
481.740241
 30
0.0
 11
331.55591
 21
477.868954
 31
0.0
  0
LINE
  5
27A
330
1F
100
AcDbEntity
  8
LC-001-002-----0
 62
     7
370
    50
100
AcDbLine
 10
343.052184
 20
475.169926
 30
0.0
 11
287.971092
 21
475.169926
 31
0.0
  0
LINE
  5
27B
330
1F
100
AcDbEntity
  8
LC-001-002-----0
 62
     7
370
    50
100
AcDbLine
 10
132.241064
 20
510.922468
 30
0.0
 11
132.241064
 21
510.654519
 31
0.0
  0
ARC
  5
27C
330
1F
100
AcDbEntity
  8
LC-001-002-----0
 62
     7
370
    50
100
AcDbCircle
 10
305.331812
 20
454.898825
 30
0.0
 40
26.6891763948014
100
AcDbArc
 50
130.577646
 51
245.647084
  0
LINE
  5
27D
330
1F
100
AcDbEntity
  8
LC-001-002-----0
 62
     7
370
    50
100
AcDbLine
 10
309.78564
 20
427.885251
 30
0.0
 11
292.991064
 21
427.885251
 31
0.0
  0
LINE
  5
27E
330
1F
100
AcDbEntity
  8
LC-001-002-----0
 62
     7
370
    50
100
AcDbLine
 10
343.052184
 20
430.584376
 30
0.0
 11
287.971092
 21
430.584376
 31
0.0
  0
LINE
  5
27F
330
1F
100
AcDbEntity
  8
LC-001-002-----0
 62
     7
370
    50
100
AcDbLine
 10
75.491064
 20
526.081716
 30
0.0
 11
226.491064
 21
526.081716
 31
0.0
  0
ARC
  5
280
330
1F
100
AcDbEntity
  8
LC-006-002-RND-0
 62
     7
370
    50
100
AcDbCircle
 10
148.834535
 20
497.278476
 30
0.0
 40
0.7999999999999545
100
AcDbArc
 50
270.0
 51
0.0
  0
LINE
  5
281
330
1F
100
AcDbEntity
  8
LC-001-002-----0
 62
     7
370
    50
100
AcDbLine
 10
158.991064
 20
484.079108
 30
0.0
 11
158.991064
 21
481.079108
 31
0.0
  0
LINE
  5
282
330
1F
100
AcDbEntity
  8
LC-001-002-----0
 62
     7
370
    50
100
AcDbLine
 10
115.491064
 20
518.264919
 30
0.0
 11
131.775942
 21
517.12617
 31
0.0
  0
ARC
  5
283
330
1F
100
AcDbEntity
  8
LC-006-002-RND-0
 62
     7
370
    50
100
AcDbCircle
 10
134.741064
 20
510.654519
 30
0.0
 40
2.5
100
AcDbArc
 50
180.0
 51
270.0
  0
ARC
  5
284
330
1F
100
AcDbEntity
  8
LC-006-002-RND-0
 62
     7
370
    50
100
AcDbCircle
 10
321.241064
 20
516.627388
 30
0.0
 40
0.4999999999999862
100
AcDbArc
 50
93.999997
 51
180.0
  0
LINE
  5
285
330
1F
100
AcDbEntity
  8
LC-001-002-----0
 62
     7
370
    50
100
AcDbLine
 10
132.241064
 20
516.627388
 30
0.0
 11
132.241064
 21
514.654519
 31
0.0
  0
LINE
  5
286
330
1F
100
AcDbEntity
  8
LC-001-002-----0
 62
     7
370
    50
100
AcDbLine
 10
134.741064
 20
508.154519
 30
0.0
 11
136.491064
 21
508.154519
 31
0.0
  0
ARC
  5
287
330
1F
100
AcDbEntity
  8
LC-001-002-----0
 62
     7
370
    50
100
AcDbCircle
 10
126.230738
 20
543.823765
 30
0.0
 40
23.36150376404853
100
AcDbArc
 50
241.241457
 51
259.497843
  0
LINE
  5
288
330
1F
100
AcDbEntity
  8
LC-001-002-----0
 62
     7
370
    50
100
AcDbLine
 10
75.491064
 20
526.081716
 30
0.0
 11
114.991064
 21
523.343785
 31
0.0
  0
LINE
  5
289
330
1F
100
AcDbEntity
  8
LC-001-002-----0
 62
     7
370
    50
100
AcDbLine
 10
134.643152
 20
519.932849
 30
0.0
 11
121.972578
 21
520.853612
 31
0.0
  0
LINE
  5
28A
330
1F
100
AcDbEntity
  8
LC-001-002-----0
 62
     7
370
    50
100
AcDbLine
 10
75.491064
 20
523.074518
 30
0.0
 11
107.491064
 21
520.856447
 31
0.0
  0
LINE
  5
28B
330
1F
100
AcDbEntity
  8
LC-001-002-----0
 62
     7
370
    50
100
AcDbLine
 10
377.491064
 20
523.074518
 30
0.0
 11
345.491064
 21
520.856447
 31
0.0
  0
LINE
  5
28C
330
1F
100
AcDbEntity
  8
LC-001-002-----0
 62
     7
370
    50
100
AcDbLine
 10
377.491064
 20
526.081716
 30
0.0
 11
337.991064
 21
523.343785
 31
0.0
  0
LINE
  5
28D
330
1F
100
AcDbEntity
  8
LC-001-002-----0
 62
     7
370
    50
100
AcDbLine
 10
377.491064
 20
526.081716
 30
0.0
 11
377.491064
 21
523.074518
 31
0.0
  0
ARC
  5
28E
330
1F
100
AcDbEntity
  8
LC-001-002-----0
 62
     7
370
    50
100
AcDbCircle
 10
326.751389
 20
543.823765
 30
0.0
 40
23.36150376404855
100
AcDbArc
 50
280.502157
 51
298.758543
  0
LINE
  5
28F
330
1F
100
AcDbEntity
  8
LC-001-002-----0
 62
     7
370
    50
100
AcDbLine
 10
318.338975
 20
519.932849
 30
0.0
 11
331.00955
 21
520.853612
 31
0.0
  0
LINE
  5
290
330
1F
100
AcDbEntity
  8
LC-001-002-----0
 62
     7
370
    50
100
AcDbLine
 10
345.491064
 20
520.856447
 30
0.0
 11
337.491064
 21
518.264919
 31
0.0
  0
LINE
  5
291
330
1F
100
AcDbEntity
  8
LC-001-002-----0
 62
     7
370
    50
100
AcDbLine
 10
337.491064
 20
518.264919
 30
0.0
 11
321.206185
 21
517.12617
 31
0.0
  0
LINE
  5
292
330
1F
100
AcDbEntity
  8
LC-001-002-----0
 62
     7
370
    50
100
AcDbLine
 10
318.338975
 20
519.932849
 30
0.0
 11
318.338975
 21
512.247948
 31
0.0
  0
LINE
  5
293
330
1F
100
AcDbEntity
  8
LC-001-002-----0
 62
     7
370
    50
100
AcDbLine
 10
315.240357
 20
511.098756
 30
0.0
 11
315.240357
 21
517.204282
 31
0.0
  0
LINE
  5
294
330
1F
100
AcDbEntity
  8
LC-001-002-----0
 62
     7
370
    50
100
AcDbLine
 10
139.241771
 20
517.095278
 30
0.0
 11
139.241771
 21
515.878503
 31
0.0
  0
LINE
  5
295
330
1F
100
AcDbEntity
  8
LC-001-002-----0
 62
     7
370
    50
100
AcDbLine
 10
343.052184
 20
476.556903
 30
0.0
 11
343.052184
 21
429.197399
 31
0.0
  0
INSERT
  5
2D5
330
1F
100
AcDbEntity
  8
LC-002-005-----0
 62
     7
370
    25
100
AcDbBlockReference
  2
*X812
 10
0.0
 20
0.0
 30
0.0
  0
LINE
  5
2D6
330
1F
100
AcDbEntity
  8
LC-001-002-----0
 62
     7
370
    50
100
AcDbLine
 10
331.55591
 20
424.014061
 30
0.0
 11
331.55591
 21
427.885348
 31
0.0
  0
LINE
  5
2D7
330
1F
100
AcDbEntity
  8
LC-001-002-----0
 62
     7
370
    50
100
AcDbLine
 10
331.55591
 20
427.885348
 30
0.0
 11
336.054452
 21
427.884474
 31
0.0
  0
LINE
  5
2D8
330
1F
100
AcDbEntity
  8
LC-001-002-----0
 62
     7
370
    50
100
AcDbLine
 10
336.054452
 20
425.34559
 30
0.0
 11
336.054452
 21
427.884474
 31
0.0
  0
ARC
  5
2D9
330
1F
100
AcDbEntity
  8
LC-006-002-RND-0
 62
     7
370
    50
100
AcDbCircle
 10
135.643152
 20
512.247948
 30
0.0
 40
1.0
100
AcDbArc
 50
180.0
 51
266.0
  0
LINE
  5
2DA
330
1F
100
AcDbEntity
  8
LC-001-002-----0
 62
     7
370
    50
100
AcDbLine
 10
290.670058
 20
489.078622
 30
0.0
 11
290.670058
 21
488.058135
 31
0.0
  0
LINE
  5
2DB
330
1F
100
AcDbEntity
  8
LC-001-002-----0
 62
     7
370
    50
100
AcDbLine
 10
139.241771
 20
515.878503
 30
0.0
 11
139.741771
 21
515.012477
 31
0.0
  0
LINE
  5
2DC
330
1F
100
AcDbEntity
  8
LC-001-002-----0
 62
     7
370
    50
100
AcDbLine
 10
313.240357
 20
515.012477
 30
0.0
 11
313.240357
 21
500.77765
 31
0.0
  0
ARC
  5
2DD
330
1F
100
AcDbEntity
  8
LC-006-002-RND-0
 62
     7
370
    50
100
AcDbCircle
 10
311.740357
 20
500.77765
 30
0.0
 40
1.5
100
AcDbArc
 50
270.0
 51
0.0
  0
LINE
  5
2DE
330
1F
100
AcDbEntity
  8
LC-001-002-----0
 62
     7
370
    50
100
AcDbLine
 10
137.741771
 20
511.098756
 30
0.0
 11
137.741771
 21
517.204282
 31
0.0
  0
LINE
  5
2DF
330
1F
100
AcDbEntity
  8
LC-001-002-----0
 62
     7
370
    50
100
AcDbLine
 10
311.740357
 20
499.27765
 30
0.0
 11
305.147592
 21
499.27765
 31
0.0
  0
LINE
  5
2E0
330
1F
100
AcDbEntity
  8
LC-001-002-----0
 62
     7
370
    50
100
AcDbLine
 10
315.491064
 20
500.860562
 30
0.0
 11
310.112303
 21
489.312454
 31
0.0
  0
ARC
  5
2E1
330
1F
100
AcDbEntity
  8
LC-006-002-RND-0
 62
     7
370
    50
100
AcDbCircle
 10
148.834535
 20
497.678476
 30
0.0
 40
0.7999999999999545
100
AcDbArc
 50
0.0
 51
90.0
  0
LINE
  5
2E2
330
1F
100
AcDbEntity
  8
LC-001-002-----0
 62
     7
370
    50
100
AcDbLine
 10
149.634535
 20
497.278476
 30
0.0
 11
149.634535
 21
497.678476
 31
0.0
  0
ARC
  5
2E3
330
1F
100
AcDbEntity
  8
LC-006-002-RND-0
 62
     7
370
    50
100
AcDbCircle
 10
148.834535
 20
494.178476
 30
0.0
 40
0.7999999999999545
100
AcDbArc
 50
0.0
 51
90.0
  0
LINE
  5
2E4
330
1F
100
AcDbEntity
  8
LC-001-002-----0
 62
     7
370
    50
100
AcDbLine
 10
149.634535
 20
493.778476
 30
0.0
 11
149.634535
 21
494.178476
 31
0.0
  0
ARC
  5
2E5
330
1F
100
AcDbEntity
  8
LC-006-002-RND-0
 62
     7
370
    50
100
AcDbCircle
 10
148.834535
 20
493.778476
 30
0.0
 40
0.7999999999999545
100
AcDbArc
 50
270.0
 51
0.0
  0
LINE
  5
2E6
330
1F
100
AcDbEntity
  8
LC-001-002-----0
 62
     7
370
    50
100
AcDbLine
 10
148.634535
 20
494.978476
 30
0.0
 11
148.834535
 21
494.978476
 31
0.0
  0
LINE
  5
2E7
330
1F
100
AcDbEntity
  8
LC-001-002-----0
 62
     7
370
    50
100
AcDbLine
 10
148.634535
 20
492.978476
 30
0.0
 11
148.834535
 21
492.978476
 31
0.0
  0
LINE
  5
2E8
330
1F
100
AcDbEntity
  8
LC-001-002-----0
 62
     7
370
    50
100
AcDbLine
 10
148.634535
 20
492.978476
 30
0.0
 11
148.634535
 21
492.572814
 31
0.0
  0
LINE
  5
2E9
330
1F
100
AcDbEntity
  8
LC-001-002-----0
 62
     7
370
    50
100
AcDbLine
 10
315.491064
 20
507.154519
 30
0.0
 11
315.491064
 21
500.860562
 31
0.0
  0
LINE
  5
2EA
330
1F
100
AcDbEntity
  8
LC-001-002-----0
 62
     7
370
    50
100
AcDbLine
 10
318.241064
 20
508.154519
 30
0.0
 11
316.491064
 21
508.154519
 31
0.0
  0
ARC
  5
2EB
330
1F
100
AcDbEntity
  8
LC-006-002-RND-0
 62
     7
370
    50
100
AcDbCircle
 10
318.241064
 20
510.654519
 30
0.0
 40
2.5
100
AcDbArc
 50
270.0
 51
0.0
  0
ARC
  5
2EC
330
1F
100
AcDbEntity
  8
LC-006-002-RND-0
 62
     7
370
    50
100
AcDbCircle
 10
316.491064
 20
507.154519
 30
0.0
 40
1.0
100
AcDbArc
 50
90.0
 51
180.0
  0
ARC
  5
2ED
330
1F
100
AcDbEntity
  8
LC-006-002-RND-0
 62
     7
370
    50
100
AcDbCircle
 10
136.491064
 20
507.154519
 30
0.0
 40
1.0
100
AcDbArc
 50
0.0
 51
90.0
  0
LINE
  5
2EE
330
1F
100
AcDbEntity
  8
LC-001-002-----0
 62
     7
370
    50
100
AcDbLine
 10
321.741064
 20
512.654519
 30
0.0
 11
320.741064
 21
510.922468
 31
0.0
  0
LINE
  5
2EF
330
1F
100
AcDbEntity
  8
LC-001-002-----0
 62
     7
370
    50
100
AcDbLine
 10
321.741064
 20
513.654519
 30
0.0
 11
321.741064
 21
512.654519
 31
0.0
  0
LINE
  5
2F0
330
1F
100
AcDbEntity
  8
LC-001-002-----0
 62
     7
370
    50
100
AcDbLine
 10
320.741064
 20
516.627388
 30
0.0
 11
320.741064
 21
514.654519
 31
0.0
  0
LINE
  5
2F1
330
1F
100
AcDbEntity
  8
LC-001-002-----0
 62
     7
370
    50
100
AcDbLine
 10
134.643152
 20
519.932849
 30
0.0
 11
134.643152
 21
512.247948
 31
0.0
  0
LINE
  5
2F2
330
1F
100
AcDbEntity
  8
LC-001-002-----0
 62
     7
370
    50
100
AcDbLine
 10
139.741771
 20
515.012477
 30
0.0
 11
139.741771
 21
500.77765
 31
0.0
  0
LINE
  5
2F3
330
1F
100
AcDbEntity
  8
LC-001-002-----0
 62
     7
370
    50
100
AcDbLine
 10
141.241771
 20
499.27765
 30
0.0
 11
147.834535
 21
499.27765
 31
0.0
  0
ARC
  5
2F4
330
1F
100
AcDbEntity
  8
LC-006-002-RND-0
 62
     7
370
    50
100
AcDbCircle
 10
141.241771
 20
500.77765
 30
0.0
 40
1.5
100
AcDbArc
 50
180.0
 51
270.0
  0
LINE
  5
2F5
330
1F
100
AcDbEntity
  8
LC-001-002-----0
 62
     7
370
    50
100
AcDbLine
 10
137.741771
 20
511.098756
 30
0.0
 11
135.573396
 21
511.250383
 31
0.0
  0
ARC
  5
2F6
330
1F
100
AcDbEntity
  8
LC-006-002-RND-0
 62
     7
370
    50
100
AcDbCircle
 10
147.834535
 20
498.47765
 30
0.0
 40
0.7999999999999732
100
AcDbArc
 50
0.059159
 51
90.0
  0
LINE
  5
2F7
330
1F
100
AcDbEntity
  8
LC-001-002-----0
 62
     7
370
    50
100
AcDbLine
 10
148.834535
 20
498.478476
 30
0.0
 11
148.634535
 21
498.478476
 31
0.0
  0
LINE
  5
2F8
330
1F
100
AcDbEntity
  8
LC-001-002-----0
 62
     7
370
    50
100
AcDbLine
 10
148.834535
 20
496.478476
 30
0.0
 11
148.634535
 21
496.478476
 31
0.0
  0
LINE
  5
2F9
330
1F
100
AcDbEntity
  8
LC-001-002-----0
 62
     7
370
    50
100
AcDbLine
 10
320.741064
 20
514.654519
 30
0.0
 11
321.741064
 21
513.654519
 31
0.0
  0
LINE
  5
2FA
330
1F
100
AcDbEntity
  8
LC-001-002-----0
 62
     7
370
    50
100
AcDbLine
 10
315.240357
 20
511.098756
 30
0.0
 11
317.408731
 21
511.250383
 31
0.0
  0
LINE
  5
2FB
330
1F
100
AcDbEntity
  8
LC-001-002-----0
 62
     7
370
    50
100
AcDbLine
 10
307.392819
 20
487.579108
 30
0.0
 11
297.491064
 21
487.579108
 31
0.0
  0
ARC
  5
2FC
330
1F
100
AcDbEntity
  8
LC-001-002-----0
 62
     7
370
    50
100
AcDbCircle
 10
292.169581
 20
489.083945
 30
0.0
 40
1.499514000000772
100
AcDbArc
 50
90.0
 51
180.0
  0
LINE
  5
2FD
330
1F
100
AcDbEntity
  8
LC-001-002-----0
 62
     7
370
    50
100
AcDbLine
 10
292.169581
 20
490.583459
 30
0.0
 11
302.34824
 21
490.583459
 31
0.0
  0
LINE
  5
2FE
330
1F
100
AcDbEntity
  8
LC-001-002-----0
 62
     7
370
    50
100
AcDbLine
 10
297.491064
 20
487.579108
 30
0.0
 11
293.991064
 21
484.079108
 31
0.0
  0
LINE
  5
2FF
330
1F
100
AcDbEntity
  8
LC-001-002-----0
 62
     7
370
    50
100
AcDbLine
 10
293.991064
 20
484.079108
 30
0.0
 11
293.991064
 21
481.079108
 31
0.0
  0
ARC
  5
300
330
1F
100
AcDbEntity
  8
LC-006-002-RND-0
 62
     7
370
    50
100
AcDbCircle
 10
290.991064
 20
481.079108
 30
0.0
 40
3.0
100
AcDbArc
 50
270.0
 51
0.0
  0
ARC
  5
301
330
1F
100
AcDbEntity
  8
LC-001-002-----0
 62
     7
370
    50
100
AcDbCircle
 10
325.459023
 20
452.877151
 30
0.0
 40
29.49999999999992
100
AcDbArc
 50
78.07248
 51
122.093408
  0
ARC
  5
302
330
1F
100
AcDbEntity
  8
LC-001-002-----0
 62
     7
370
    50
100
AcDbCircle
 10
325.459023
 20
452.877151
 30
0.0
 40
29.50000000000004
100
AcDbArc
 50
291.049054
 51
306.610955
  0
ARC
  5
303
330
1F
100
AcDbEntity
  8
LC-001-002-----0
 62
     7
370
    50
100
AcDbCircle
 10
325.459023
 20
452.877151
 30
0.0
 40
29.50000000000003
100
AcDbArc
 50
237.906592
 51
281.92752
  0
ARC
  5
304
330
1F
100
AcDbEntity
  8
LC-001-002-----0
 62
     7
370
    50
100
AcDbCircle
 10
325.459023
 20
452.877151
 30
0.0
 40
29.49999999999998
100
AcDbArc
 50
53.389045
 51
68.950946
  0
LINE
  5
305
330
1F
100
AcDbEntity
  8
LC-001-002-----0
 62
     7
370
    50
100
AcDbLine
 10
268.991064
 20
480.387697
 30
0.0
 11
287.971089
 21
480.387697
 31
0.0
  0
ARC
  5
306
330
1F
100
AcDbEntity
  8
LC-006-002-RND-0
 62
     7
370
    50
100
AcDbCircle
 10
317.338975
 20
512.247948
 30
0.0
 40
1.000000000000005
100
AcDbArc
 50
274.0
 51
0.0
  0
LINE
  5
307
330
1F
100
AcDbEntity
  8
LC-001-002-----0
 62
     7
370
    50
100
AcDbLine
 10
270.991064
 20
480.387697
 30
0.0
 11
270.991064
 21
431.110265
 31
0.0
  0
LINE
  5
308
330
1F
100
AcDbEntity
  8
LC-001-002-----0
 62
     7
370
    50
100
AcDbLine
 10
287.991064
 20
426.143408
 30
0.0
 11
287.991064
 21
411.391245
 31
0.0
  0
LINE
  5
309
330
1F
100
AcDbEntity
  8
LC-001-002-----0
 62
     7
370
    50
100
AcDbLine
 10
290.991064
 20
425.885251
 30
0.0
 11
290.991064
 21
412.391245
 31
0.0
  0
LINE
  5
30A
330
1F
100
AcDbEntity
  8
LC-001-002-----0
 62
     7
370
    50
100
AcDbLine
 10
268.991064
 20
480.387697
 30
0.0
 11
268.991064
 21
414.391245
 31
0.0
  0
LINE
  5
30B
330
1F
100
AcDbEntity
  8
LC-001-002-----0
 62
     7
370
    50
100
AcDbLine
 10
320.741064
 20
510.922468
 30
0.0
 11
320.741064
 21
510.654519
 31
0.0
  0
ARC
  5
30C
330
1F
100
AcDbEntity
  8
LC-006-002-RND-0
 62
     7
370
    50
100
AcDbCircle
 10
292.991064
 20
425.885251
 30
0.0
 40
2.0
100
AcDbArc
 50
90.0
 51
180.0
  0
LINE
  5
30D
330
1F
100
AcDbEntity
  8
LC-008-207-----0
 62
     7
370
    50
100
AcDbLine
 10
270.991064
 20
411.391245
 30
0.0
 11
289.991064
 21
411.391245
 31
0.0
  0
LINE
  5
30E
330
1F
100
AcDbEntity
  8
LC-001-002-----0
 62
     7
370
    50
100
AcDbLine
 10
114.991064
 20
523.343785
 30
0.0
 11
337.991064
 21
523.343785
 31
0.0
  0
LINE
  5
30F
330
1F
100
AcDbEntity
  8
LC-001-002-----0
 62
     7
370
    50
100
AcDbLine
 10
107.491064
 20
520.856447
 30
0.0
 11
115.491064
 21
518.264919
 31
0.0
  0
LINE
  5
310
330
1F
100
AcDbEntity
  8
LC-001-002-----0
 62
     7
370
    50
100
AcDbLine
 10
137.491064
 20
507.154519
 30
0.0
 11
137.491064
 21
500.860562
 31
0.0
  0
LINE
  5
311
330
1F
100
AcDbEntity
  8
LC-001-002-----0
 62
     7
370
    50
100
AcDbLine
 10
131.241064
 20
513.654519
 30
0.0
 11
131.241064
 21
512.654519
 31
0.0
  0
LINE
  5
312
330
1F
100
AcDbEntity
  8
LC-001-002-----0
 62
     7
370
    50
100
AcDbLine
 10
132.241064
 20
514.654519
 30
0.0
 11
131.241064
 21
513.654519
 31
0.0
  0
LINE
  5
313
330
1F
100
AcDbEntity
  8
LC-001-002-----0
 62
     7
370
    50
100
AcDbLine
 10
313.740357
 20
517.095278
 30
0.0
 11
313.740357
 21
515.878503
 31
0.0
  0
LINE
  5
314
330
1F
100
AcDbEntity
  8
LC-001-002-----0
 62
     7
370
    50
100
AcDbLine
 10
155.491064
 20
487.579108
 30
0.0
 11
158.991064
 21
484.079108
 31
0.0
  0
LINE
  5
315
330
1F
100
AcDbEntity
  8
LC-001-002-----0
 62
     7
370
    50
100
AcDbLine
 10
131.241064
 20
512.654519
 30
0.0
 11
132.241064
 21
510.922468
 31
0.0
  0
LINE
  5
316
330
1F
100
AcDbEntity
  8
LC-001-002-----0
 62
     7
370
    50
100
AcDbLine
 10
313.740357
 20
515.878503
 30
0.0
 11
313.240357
 21
515.012477
 31
0.0
  0
ARC
  5
317
330
1F
100
AcDbEntity
  8
LC-006-002-RND-0
 62
     7
370
    50
100
AcDbCircle
 10
302.34824
 20
492.572814
 30
0.0
 40
1.999352000000499
100
AcDbArc
 50
270.0
 51
0.0
  0
LINE
  5
318
330
1F
100
AcDbEntity
  8
LC-001-002-----0
 62
     7
370
    50
100
AcDbLine
 10
304.347592
 20
492.978476
 30
0.0
 11
304.347592
 21
492.572814
 31
0.0
  0
ARC
  5
319
330
1F
100
AcDbEntity
  8
LC-006-002-RND-0
 62
     7
370
    50
100
AcDbCircle
 10
304.147592
 20
493.778476
 30
0.0
 40
0.7999999999999545
100
AcDbArc
 50
180.0
 51
270.0
  0
LINE
  5
31A
330
1F
100
AcDbEntity
  8
LC-001-002-----0
 62
     7
370
    50
100
AcDbLine
 10
303.347592
 20
493.778476
 30
0.0
 11
303.347592
 21
494.178476
 31
0.0
  0
ARC
  5
31B
330
1F
100
AcDbEntity
  8
LC-006-002-RND-0
 62
     7
370
    50
100
AcDbCircle
 10
304.147592
 20
494.178476
 30
0.0
 40
0.7999999999999545
100
AcDbArc
 50
90.0
 51
180.0
  0
LINE
  5
31C
330
1F
100
AcDbEntity
  8
LC-001-002-----0
 62
     7
370
    50
100
AcDbLine
 10
304.347592
 20
496.478476
 30
0.0
 11
304.347592
 21
494.978476
 31
0.0
  0
ARC
  5
31D
330
1F
100
AcDbEntity
  8
LC-006-002-RND-0
 62
     7
370
    50
100
AcDbCircle
 10
304.147592
 20
497.278476
 30
0.0
 40
0.7999999999999545
100
AcDbArc
 50
180.0
 51
270.0
  0
LINE
  5
31E
330
1F
100
AcDbEntity
  8
LC-001-002-----0
 62
     7
370
    50
100
AcDbLine
 10
303.347592
 20
497.278476
 30
0.0
 11
303.347592
 21
497.678476
 31
0.0
  0
ARC
  5
31F
330
1F
100
AcDbEntity
  8
LC-006-002-RND-0
 62
     7
370
    50
100
AcDbCircle
 10
304.147592
 20
497.678476
 30
0.0
 40
0.8000000000001819
100
AcDbArc
 50
90.0
 51
180.0
  0
ARC
  5
320
330
1F
100
AcDbEntity
  8
LC-006-002-RND-0
 62
     7
370
    50
100
AcDbCircle
 10
305.147592
 20
498.47765
 30
0.0
 40
0.7999999999999545
100
AcDbArc
 50
90.0
 51
179.940841
  0
ARC
  5
322
330
1F
100
AcDbEntity
  8
LC-009-207-RND-0
 62
     7
370
    50
100
AcDbCircle
 10
289.991064
 20
412.391245
 30
0.0
 40
1.0
100
AcDbArc
 50
270.0
 51
0.0
  0
LINE
  5
323
330
1F
100
AcDbEntity
  8
LC-008-207-----0
 62
     7
370
    50
100
AcDbLine
 10
161.991064
 20
411.391245
 30
0.0
 11
270.991064
 21
411.391245
 31
0.0
  0
LINE
  5
324
330
1F
100
AcDbEntity
  8
LC-008-207-----0
 62
     7
370
    50
100
AcDbLine
 10
164.991064
 20
414.391245
 30
0.0
 11
198.230458
 21
414.391245
 31
0.0
  0
CIRCLE
  5
325
330
1F
100
AcDbEntity
  8
LC-001-002-----0
 62
     7
370
    50
100
AcDbCircle
 10
164.241058
 20
485.137697
 30
0.0
 40
3.5
  0
CIRCLE
  5
326
330
1F
100
AcDbEntity
  8
LC-001-002-----0
 62
     7
370
    50
100
AcDbCircle
 10
288.741058
 20
485.137697
 30
0.0
 40
3.5
  0
INSERT
  5
32F
330
1F
100
AcDbEntity
  8
LC-002-005-----0
 62
     7
370
    25
100
AcDbBlockReference
  2
*X913
 10
0.0
 20
0.0
 30
0.0
  0
INSERT
  5
337
330
1F
100
AcDbEntity
  8
LC-002-005-----0
 62
     7
370
    25
100
AcDbBlockReference
  2
*X1014
 10
0.0
 20
0.0
 30
0.0
  0
LINE
  5
338
102
{ACAD_REACTORS
330
459
102
}
330
1F
100
AcDbEntity
  8
LC-001-002-----0
 62
     7
370
    50
100
AcDbLine
 10
227.616817
 20
505.309975
 30
0.0
 11
230.165263
 21
505.220981
 31
0.0
  0
LINE
  5
339
102
{ACAD_REACTORS
330
459
102
}
330
1F
100
AcDbEntity
  8
LC-001-002-----0
 62
     7
370
    50
100
AcDbLine
 10
264.844125
 20
504.009968
 30
0.0
 11
267.392571
 21
503.920975
 31
0.0
  0
LINE
  5
33A
102
{ACAD_REACTORS
330
459
102
}
330
1F
100
AcDbEntity
  8
LC-001-002-----0
 62
     7
370
    50
100
AcDbLine
 10
226.234032
 20
511.558129
 30
0.0
 11
269.207837
 21
510.057451
 31
0.0
  0
LINE
  5
33B
102
{ACAD_REACTORS
330
459
102
}
330
1F
100
AcDbEntity
  8
LC-001-002-----0
 62
     7
370
    50
100
AcDbLine
 10
226.234032
 20
511.558129
 30
0.0
 11
226.129333
 21
508.559957
 31
0.0
  0
LINE
  5
33C
102
{ACAD_REACTORS
330
459
102
}
330
1F
100
AcDbEntity
  8
LC-001-002-----0
 62
     7
370
    50
100
AcDbLine
 10
269.207837
 20
510.057451
 30
0.0
 11
269.103139
 21
507.059278
 31
0.0
  0
LINE
  5
33D
102
{ACAD_REACTORS
330
459
102
}
330
1F
100
AcDbEntity
  8
LC-001-002-----0
 62
     7
370
    50
100
AcDbLine
 10
264.955667
 20
507.204111
 30
0.0
 11
264.914136
 21
506.014836
 31
0.0
  0
LINE
  5
33E
102
{ACAD_REACTORS
330
459
102
}
330
1F
100
AcDbEntity
  8
LC-001-002-----0
 62
     7
370
    50
100
AcDbLine
 10
230.276805
 20
508.415124
 30
0.0
 11
230.235275
 21
507.225849
 31
0.0
  0
LINE
  5
33F
102
{ACAD_REACTORS
330
459
102
}
330
1F
100
AcDbEntity
  8
LC-001-002-----0
 62
     7
370
    50
100
AcDbLine
 10
267.392435
 20
503.917067
 30
0.0
 11
267.277267
 21
500.619077
 31
0.0
  0
LINE
  5
340
102
{ACAD_REACTORS
330
459
102
}
330
1F
100
AcDbEntity
  8
LC-001-002-----0
 62
     7
370
    50
100
AcDbLine
 10
267.277267
 20
500.619077
 30
0.0
 11
227.501512
 21
502.008077
 31
0.0
  0
LINE
  5
341
102
{ACAD_REACTORS
330
459
102
}
330
1F
100
AcDbEntity
  8
LC-001-002-----0
 62
     7
370
    50
100
AcDbLine
 10
227.61668
 20
505.306067
 30
0.0
 11
227.501512
 21
502.008077
 31
0.0
  0
LINE
  5
342
102
{ACAD_REACTORS
330
459
102
}
330
1F
100
AcDbEntity
  8
LC-001-002-----0
 62
     7
370
    50
100
AcDbLine
 10
226.129333
 20
508.559957
 30
0.0
 11
230.276805
 21
508.415124
 31
0.0
  0
LINE
  5
343
102
{ACAD_REACTORS
330
459
102
}
330
1F
100
AcDbEntity
  8
LC-001-002-----0
 62
     7
370
    50
100
AcDbLine
 10
264.955667
 20
507.204111
 30
0.0
 11
269.103139
 21
507.059278
 31
0.0
  0
LINE
  5
344
102
{ACAD_REACTORS
330
459
102
}
330
1F
100
AcDbEntity
  8
LC-001-002-----0
 62
     7
370
    50
100
AcDbLine
 10
262.987901
 20
508.162077
 30
0.0
 11
262.730038
 21
500.77787
 31
0.0
  0
LINE
  5
345
102
{ACAD_REACTORS
330
459
102
}
330
1F
100
AcDbEntity
  8
LC-001-002-----0
 62
     7
370
    50
100
AcDbLine
 10
232.306602
 20
509.233492
 30
0.0
 11
232.04874
 21
501.849284
 31
0.0
  0
ARC
  5
346
102
{ACAD_REACTORS
330
459
102
}
330
1F
100
AcDbEntity
  8
LC-001-002-----0
 62
     7
370
    50
100
AcDbCircle
 10
249.232987
 20
554.107305
 30
0.0
 40
45.9647340523235
100
AcDbArc
 50
248.491197
 51
287.508803
  0
ARC
  5
347
102
{ACAD_REACTORS
330
459
102
}
330
1F
100
AcDbEntity
  8
LC-001-002-----0
 62
     7
370
    50
100
AcDbCircle
 10
249.232987
 20
554.107305
 30
0.0
 40
47.96000000000026
100
AcDbArc
 50
249.333544
 51
286.666456
  0
INSERT
  5
357
102
{ACAD_REACTORS
330
459
102
}
330
1F
100
AcDbEntity
  8
LC-002-005-----0
 62
     7
370
    25
100
AcDbBlockReference
  2
*X1115
 10
0.0
 20
0.0
 30
0.0
  0
INSERT
  5
368
102
{ACAD_REACTORS
330
459
102
}
330
1F
100
AcDbEntity
  8
LC-002-005-----0
 62
     7
370
    25
100
AcDbBlockReference
  2
*X1216
 10
0.0
 20
0.0
 30
0.0
  0
LINE
  5
369
102
{ACAD_REACTORS
330
459
102
}
330
1F
100
AcDbEntity
  8
LC-001-002-----0
 62
     7
370
    50
100
AcDbLine
 10
230.235275
 20
507.225849
 30
0.0
 11
230.165127
 21
505.217073
 31
0.0
  0
LINE
  5
36A
102
{ACAD_REACTORS
330
459
102
}
330
1F
100
AcDbEntity
  8
LC-001-002-----0
 62
     7
370
    50
100
AcDbLine
 10
264.914136
 20
506.014836
 30
0.0
 11
264.843988
 21
504.006061
 31
0.0
  0
LINE
  5
36B
102
{ACAD_REACTORS
330
45A
102
}
330
1F
100
AcDbEntity
  8
LC-001-002-----0
 62
     7
370
    50
100
AcDbLine
 10
226.129333
 20
508.559957
 30
0.0
 11
226.087803
 21
507.370682
 31
0.0
  0
LINE
  5
36C
102
{ACAD_REACTORS
330
45A
102
}
330
1F
100
AcDbEntity
  8
LC-001-002-----0
 62
     7
370
    50
100
AcDbLine
 10
226.087803
 20
507.370682
 30
0.0
 11
230.235275
 21
507.225849
 31
0.0
  0
INSERT
  5
374
102
{ACAD_REACTORS
330
45A
102
}
330
1F
100
AcDbEntity
  8
LC-002-005-----0
 62
     7
370
    25
100
AcDbBlockReference
  2
*X1317
 10
0.0
 20
0.0
 30
0.0
  0
INSERT
  5
37C
102
{ACAD_REACTORS
330
45A
102
}
330
1F
100
AcDbEntity
  8
LC-002-005-----0
 62
     7
370
    25
100
AcDbBlockReference
  2
*X1418
 10
0.0
 20
0.0
 30
0.0
  0
LINE
  5
37D
102
{ACAD_REACTORS
330
45A
102
}
330
1F
100
AcDbEntity
  8
LC-001-002-----0
 62
     7
370
    50
100
AcDbLine
 10
264.914136
 20
506.014836
 30
0.0
 11
269.061608
 21
505.870003
 31
0.0
  0
LINE
  5
37E
102
{ACAD_REACTORS
330
45A
102
}
330
1F
100
AcDbEntity
  8
LC-001-002-----0
 62
     7
370
    50
100
AcDbLine
 10
269.103139
 20
507.059278
 30
0.0
 11
269.061608
 21
505.870003
 31
0.0
  0
LINE
  5
37F
102
{ACAD_REACTORS
330
45A
102
}
330
1F
100
AcDbEntity
  8
LC-001-002-----0
 62
     7
370
    50
100
AcDbLine
 10
264.955667
 20
507.204111
 30
0.0
 11
269.103139
 21
507.059278
 31
0.0
  0
LINE
  5
380
102
{ACAD_REACTORS
330
45A
102
}
330
1F
100
AcDbEntity
  8
LC-001-002-----0
 62
     7
370
    50
100
AcDbLine
 10
230.276805
 20
508.415124
 30
0.0
 11
230.235275
 21
507.225849
 31
0.0
  0
LINE
  5
381
102
{ACAD_REACTORS
330
45A
102
}
330
1F
100
AcDbEntity
  8
LC-001-002-----0
 62
     7
370
    50
100
AcDbLine
 10
264.955667
 20
507.204111
 30
0.0
 11
264.914136
 21
506.014836
 31
0.0
  0
DIMENSION
  5
382
330
1F
100
AcDbEntity
  8
LC-005-003-----0
 62
     7
370
    25
100
AcDbDimension
  2
*D19
 10
161.991064
 20
352.8
 30
0.0
 11
118.741064
 21
383.6
 31
0.0
 70
   160
  1
86
 71
     5
 42
86.5
  3
LC-DIM-L-0140-02-02
100
AcDbAlignedDimension
 13
75.491064
 23
523.074518
 33
0.0
 14
161.991064
 24
411.391245
 34
0.0
100
AcDbRotatedDimension
  0
DIMENSION
  5
38F
330
1F
100
AcDbEntity
  8
LC-005-003-----0
 62
     7
370
    25
100
AcDbDimension
  2
*D20
 10
226.491064
 20
352.8
 30
0.0
 11
194.241064
 21
383.6
 31
0.0
 70
   160
  1
64
 71
     5
 42
64.5
  3
LC-DIM-L-0140-02-02
100
AcDbAlignedDimension
 13
161.991064
 23
411.391245
 33
0.0
 14
226.491064
 24
411.391245
 34
0.0
100
AcDbRotatedDimension
  0
CIRCLE
  5
39C
102
{ACAD_REACTORS
330
455
102
}
330
1F
100
AcDbEntity
  8
LC-001-002-----0
 62
     7
370
    50
100
AcDbCircle
 10
333.337169
 20
496.377129
 30
0.0
 40
1.75
  0
LINE
  5
39D
102
{ACAD_REACTORS
330
455
102
}
330
1F
100
AcDbEntity
  8
LC-001-002-----0
 62
     7
370
    50
100
AcDbLine
 10
308.208282
 20
480.869051
 30
0.0
 11
302.208282
 21
480.869051
 31
0.0
  0
LINE
  5
39E
102
{ACAD_REACTORS
330
455
102
}
330
1F
100
AcDbEntity
  8
LC-001-002-----0
 62
     7
370
    50
100
AcDbLine
 10
302.208282
 20
480.869051
 30
0.0
 11
302.208282
 21
478.169051
 31
0.0
  0
LINE
  5
39F
102
{ACAD_REACTORS
330
455
102
}
330
1F
100
AcDbEntity
  8
LC-001-002-----0
 62
     7
370
    50
100
AcDbLine
 10
317.71636
 20
490.377129
 30
0.0
 11
308.208282
 21
480.869051
 31
0.0
  0
LINE
  5
3A0
102
{ACAD_REACTORS
330
455
102
}
330
1F
100
AcDbEntity
  8
LC-001-002-----0
 62
     7
370
    50
100
AcDbLine
 10
317.716404
 20
415.377129
 30
0.0
 11
308.216404
 21
424.877129
 31
0.0
  0
LINE
  5
3A1
102
{ACAD_REACTORS
330
455
102
}
330
1F
100
AcDbEntity
  8
LC-001-002-----0
 62
     7
370
    50
100
AcDbLine
 10
317.716465
 20
490.377235
 30
0.0
 11
324.933283
 21
502.877129
 31
0.0
  0
LINE
  5
3A2
102
{ACAD_REACTORS
330
455
102
}
330
1F
100
AcDbEntity
  8
LC-001-002-----0
 62
     7
370
    50
100
AcDbLine
 10
341.837169
 20
490.377129
 30
0.0
 11
341.837169
 21
502.877129
 31
0.0
  0
LINE
  5
3A3
102
{ACAD_REACTORS
330
455
102
}
330
1F
100
AcDbEntity
  8
LC-001-002-----0
 62
     7
370
    50
100
AcDbLine
 10
302.208282
 20
480.869051
 30
0.0
 11
302.208282
 21
478.169051
 31
0.0
  0
LINE
  5
3A4
102
{ACAD_REACTORS
330
455
102
}
330
1F
100
AcDbEntity
  8
LC-001-002-----0
 62
     7
370
    50
100
AcDbLine
 10
341.837169
 20
490.377129
 30
0.0
 11
345.208282
 21
487.006015
 31
0.0
  0
LINE
  5
3A5
102
{ACAD_REACTORS
330
455
102
}
330
1F
100
AcDbEntity
  8
LC-001-002-----0
 62
     7
370
    50
100
AcDbLine
 10
340.594528
 20
418.377129
 30
0.0
 11
318.959
 21
418.377129
 31
0.0
  0
LINE
  5
3A6
102
{ACAD_REACTORS
330
455
102
}
330
1F
100
AcDbEntity
  8
LC-001-002-----0
 62
     7
370
    50
100
AcDbLine
 10
340.594528
 20
487.377129
 30
0.0
 11
340.594528
 21
481.637653
 31
0.0
  0
LINE
  5
3A7
102
{ACAD_REACTORS
330
455
102
}
330
1F
100
AcDbEntity
  8
LC-001-002-----0
 62
     7
370
    50
100
AcDbLine
 10
340.594528
 20
487.377129
 30
0.0
 11
318.959
 21
487.377129
 31
0.0
  0
LINE
  5
3A8
102
{ACAD_REACTORS
330
455
102
}
330
1F
100
AcDbEntity
  8
LC-001-002-----0
 62
     7
370
    50
100
AcDbLine
 10
308.216404
 20
424.877129
 30
0.0
 11
302.208282
 21
424.877129
 31
0.0
  0
LINE
  5
3A9
102
{ACAD_REACTORS
330
455
102
}
330
1F
100
AcDbEntity
  8
LC-001-002-----0
 62
     7
370
    50
100
AcDbLine
 10
309.709
 20
478.127129
 30
0.0
 11
302.208282
 21
478.127129
 31
0.0
  0
LINE
  5
3AA
102
{ACAD_REACTORS
330
455
102
}
330
1F
100
AcDbEntity
  8
LC-001-002-----0
 62
     7
370
    50
100
AcDbLine
 10
341.837169
 20
490.377129
 30
0.0
 11
317.71636
 21
490.377129
 31
0.0
  0
LINE
  5
3AB
102
{ACAD_REACTORS
330
455
102
}
330
1F
100
AcDbEntity
  8
LC-001-002-----0
 62
     7
370
    50
100
AcDbLine
 10
340.594528
 20
487.377129
 30
0.0
 11
345.208282
 21
482.763375
 31
0.0
  0
LINE
  5
3AC
102
{ACAD_REACTORS
330
455
102
}
330
1F
100
AcDbEntity
  8
LC-001-002-----0
 62
     7
370
    50
100
AcDbLine
 10
345.208282
 20
487.006015
 30
0.0
 11
345.208282
 21
480.877151
 31
0.0
  0
LINE
  5
3AD
102
{ACAD_REACTORS
330
455
102
}
330
1F
100
AcDbEntity
  8
LC-001-002-----0
 62
     7
370
    50
100
AcDbLine
 10
340.594528
 20
418.377129
 30
0.0
 11
345.208282
 21
422.990883
 31
0.0
  0
LINE
  5
3AE
102
{ACAD_REACTORS
330
455
102
}
330
1F
100
AcDbEntity
  8
LC-001-002-----0
 62
     7
370
    50
100
AcDbLine
 10
341.837169
 20
415.377129
 30
0.0
 11
345.208282
 21
418.748242
 31
0.0
  0
LINE
  5
3AF
102
{ACAD_REACTORS
330
455
102
}
330
1F
100
AcDbEntity
  8
LC-001-002-----0
 62
     7
370
    50
100
AcDbLine
 10
341.837169
 20
502.877129
 30
0.0
 11
324.933283
 21
502.877129
 31
0.0
  0
LINE
  5
3B0
102
{ACAD_REACTORS
330
455
102
}
330
1F
100
AcDbEntity
  8
LC-001-002-----0
 62
     7
370
    50
100
AcDbLine
 10
318.959
 20
487.377129
 30
0.0
 11
309.709
 21
478.127129
 31
0.0
  0
LINE
  5
3B1
102
{ACAD_REACTORS
330
455
102
}
330
1F
100
AcDbEntity
  8
LC-001-002-----0
 62
     7
370
    50
100
AcDbLine
 10
318.959
 20
418.377129
 30
0.0
 11
309.709
 21
427.627129
 31
0.0
  0
LINE
  5
3B2
102
{ACAD_REACTORS
330
455
102
}
330
1F
100
AcDbEntity
  8
LC-001-002-----0
 62
     7
370
    50
100
AcDbLine
 10
309.709
 20
427.627129
 30
0.0
 11
302.208282
 21
427.627129
 31
0.0
  0
LINE
  5
3B3
102
{ACAD_REACTORS
330
455
102
}
330
1F
100
AcDbEntity
  8
LC-001-002-----0
 62
     7
370
    50
100
AcDbLine
 10
341.837169
 20
415.077129
 30
0.0
 11
341.837169
 21
415.377129
 31
0.0
  0
LINE
  5
3B4
102
{ACAD_REACTORS
330
455
102
}
330
1F
100
AcDbEntity
  8
LC-001-002-----0
 62
     7
370
    50
100
AcDbLine
 10
317.716404
 20
415.077129
 30
0.0
 11
317.716404
 21
415.377129
 31
0.0
  0
LINE
  5
3B5
102
{ACAD_REACTORS
330
455
102
}
330
1F
100
AcDbEntity
  8
LC-001-002-----0
 62
     7
370
    50
100
AcDbLine
 10
311.208282
 20
426.127847
 30
0.0
 11
311.208282
 21
421.885251
 31
0.0
  0
LINE
  5
3B6
102
{ACAD_REACTORS
330
455
102
}
330
1F
100
AcDbEntity
  8
LC-001-002-----0
 62
     7
370
    50
100
AcDbLine
 10
340.594528
 20
424.116649
 30
0.0
 11
340.594528
 21
418.377129
 31
0.0
  0
LINE
  5
3B7
102
{ACAD_REACTORS
330
455
102
}
330
1F
100
AcDbEntity
  8
LC-001-002-----0
 62
     7
370
    50
100
AcDbLine
 10
302.208282
 20
427.627129
 30
0.0
 11
302.208282
 21
424.885251
 31
0.0
  0
LINE
  5
3B8
330
1F
100
AcDbEntity
  8
LC-001-002-----0
 62
     7
370
    50
100
AcDbLine
 10
317.716404
 20
415.377129
 30
0.0
 11
341.837169
 21
415.377129
 31
0.0
  0
LINE
  5
3B9
330
1F
100
AcDbEntity
  8
LC-001-002-----0
 62
     7
370
    50
100
AcDbLine
 10
317.716404
 20
415.077129
 30
0.0
 11
341.837169
 21
415.077129
 31
0.0
  0
DIMENSION
  5
3BA
330
1F
100
AcDbEntity
  8
LC-005-003-----0
 62
     7
370
    25
100
AcDbDimension
  2
*D21
 10
424.959023
 20
320.0
 30
0.0
 11
250.225043
 21
350.8
 31
0.0
 70
   160
  1
350
 71
     5
 42
349.467959
  3
LC-DIM-L-0140-02-02
100
AcDbAlignedDimension
 13
75.491064
 23
523.074518
 33
0.0
 14
424.959023
 24
421.377151
 34
0.0
100
AcDbRotatedDimension
  0
LINE
  5
3C7
330
1F
100
AcDbEntity
  8
LC-001-002-----0
 62
     7
370
    25
100
AcDbLine
 10
490.223066
 20
480.877151
 30
0.0
 11
479.198273
 21
480.877151
 31
0.0
  0
LINE
  5
3C8
330
1F
100
AcDbEntity
  8
LC-001-002-----0
 62
     7
370
    25
100
AcDbLine
 10
490.223066
 20
424.877151
 30
0.0
 11
381.459023
 21
424.877151
 31
0.0
  0
LINE
  5
3C9
330
1F
100
AcDbEntity
  8
LC-001-002-----0
 62
     7
370
    25
100
AcDbLine
 10
424.959023
 20
421.377151
 30
0.0
 11
561.892726
 21
421.377151
 31
0.0
  0
LINE
  5
3CA
330
1F
100
AcDbEntity
  8
LC-001-002-----0
 62
     7
370
    25
100
AcDbLine
 10
424.959023
 20
484.377151
 30
0.0
 11
432.747737
 21
484.377151
 31
0.0
  0
LINE
  5
3CB
330
1F
100
AcDbEntity
  8
LC-001-002-----0
 62
     7
370
    25
100
AcDbLine
 10
479.198273
 20
484.377151
 30
0.0
 11
561.892726
 21
484.377151
 31
0.0
  0
LINE
  5
3CC
330
1F
100
AcDbEntity
  8
LC-001-002-----0
 62
     7
370
    25
100
AcDbLine
 10
432.747737
 20
480.877151
 30
0.0
 11
381.459023
 21
480.877151
 31
0.0
  0
DIMENSION
  5
3CD
330
1F
100
AcDbEntity
  8
LC-005-003-----0
 62
     7
370
    25
100
AcDbDimension
  2
*D22
 10
548.8
 20
421.377151
 30
0.0
 11
518.0
 21
452.877151
 31
0.0
 70
   160
  1
%%c<>
 71
     5
 42
63.0
 53
90.0
  3
LC-DIM-L-0140-02-02
100
AcDbAlignedDimension
 13
561.892726
 23
484.377151
 33
0.0
 14
561.892726
 24
421.377151
 34
0.0
 50
90.0
100
AcDbRotatedDimension
  0
LINE
  5
3DA
102
{ACAD_REACTORS
330
455
102
}
330
1F
100
AcDbEntity
  8
LC-001-002-----0
 62
     7
370
    50
100
AcDbLine
 10
345.208282
 20
424.877151
 30
0.0
 11
345.208282
 21
418.748242
 31
0.0
  0
DIMENSION
  5
3DB
330
1F
100
AcDbEntity
  8
LC-005-003-----0
 62
     7
370
    25
100
AcDbDimension
  2
*D23
 10
509.6
 20
480.877151
 30
0.0
 11
478.8
 21
452.877151
 31
0.0
 70
   160
  1
%%c<>
 71
     5
 42
56.0
 53
90.0
  3
LC-DIM-L-0140-02-02
100
AcDbAlignedDimension
 13
490.223066
 23
424.877151
 33
0.0
 14
490.223066
 24
480.877151
 34
0.0
 50
90.0
100
AcDbRotatedDimension
  0
LINE
  5
3EA
102
{ACAD_REACTORS
330
452
102
}
330
1F
100
AcDbEntity
  8
LC-001-002-----0
  6
DASHED
 62
     7
370
    25
100
AcDbLine
 10
414.1923
 20
399.59577
 30
0.0
 11
429.721442
 21
457.55132
 31
0.0
  0
ARC
  5
3EB
102
{ACAD_REACTORS
330
452
102
}
330
1F
100
AcDbEntity
  8
LC-001-002-----0
 62
     7
370
    50
100
AcDbCircle
 10
325.459023
 20
452.877151
 30
0.0
 40
29.60000000000014
100
AcDbArc
 50
275.717092
 51
293.629598
  0
LINE
  5
3EC
102
{ACAD_REACTORS
330
452
102
}
330
1F
100
AcDbEntity
  8
LC-001-002-----0
  6
DASHED
 62
     7
370
    25
100
AcDbLine
 10
413.415842
 20
396.697993
 30
0.0
 11
414.1923
 21
399.59577
 31
0.0
  0
ARC
  5
3ED
102
{ACAD_REACTORS
330
452
102
}
330
1F
100
AcDbEntity
  8
LC-001-002-----0
  6
DASHED
 62
     7
370
    25
100
AcDbCircle
 10
391.248494
 20
470.448306
 30
0.0
 40
0.5000000000000152
100
AcDbArc
 50
345.0
 51
75.0
  0
ARC
  5
3EE
102
{ACAD_REACTORS
330
452
102
}
330
1F
100
AcDbEntity
  8
LC-001-002-----0
  6
DASHED
 62
     7
370
    25
100
AcDbCircle
 10
372.174526
 20
410.854399
 30
0.0
 40
0.5000000000000152
100
AcDbArc
 50
345.0
 51
75.0
  0
LINE
  5
3EF
102
{ACAD_REACTORS
330
452
102
}
330
1F
100
AcDbEntity
  8
LC-001-002-----0
  6
DASHED
 62
     7
370
    25
100
AcDbLine
 10
389.446052
 20
471.448907
 30
0.0
 11
391.377903
 21
470.931269
 31
0.0
  0
ARC
  5
3F0
102
{ACAD_REACTORS
330
452
102
}
330
1F
100
AcDbEntity
  8
LC-006-002-RND-0
  6
DASHED
 62
     7
370
    25
100
AcDbCircle
 10
386.927212
 20
465.912171
 30
0.0
 40
0.5000000000000152
100
AcDbArc
 50
255.0
 51
345.0
  0
ARC
  5
3F1
102
{ACAD_REACTORS
330
452
102
}
330
1F
100
AcDbEntity
  8
LC-001-002-----0
  6
DASHED
 62
     7
370
    25
100
AcDbCircle
 10
372.493404
 20
408.180765
 30
0.0
 40
0.5000000000000152
100
AcDbArc
 50
165.0
 51
255.0
  0
LINE
  5
3F2
102
{ACAD_REACTORS
330
452
102
}
330
1F
100
AcDbEntity
  8
LC-001-002-----0
  6
DASHED
 62
     7
370
    25
100
AcDbLine
 10
391.084409
 20
467.904082
 30
0.0
 11
429.721442
 21
457.55132
 31
0.0
  0
ARC
  5
3F3
102
{ACAD_REACTORS
330
452
102
}
330
1F
100
AcDbEntity
  8
LC-001-002-----0
  6
DASHED
 62
     7
370
    25
100
AcDbCircle
 10
389.316642
 20
470.965944
 30
0.0
 40
0.4999999999999603
100
AcDbArc
 50
75.0
 51
165.0
  0
LINE
  5
3F4
102
{ACAD_REACTORS
330
452
102
}
330
1F
100
AcDbEntity
  8
LC-001-002-----0
  6
DASHED
 62
     7
370
    25
100
AcDbLine
 10
347.759881
 20
475.889387
 30
0.0
 11
386.797802
 21
465.429208
 31
0.0
  0
LINE
  5
3F5
102
{ACAD_REACTORS
330
452
102
}
330
1F
100
AcDbEntity
  8
LC-001-002-----0
  6
DASHED
 62
     7
370
    25
100
AcDbLine
 10
388.833679
 20
471.095353
 30
0.0
 11
387.410175
 21
465.782761
 31
0.0
  0
LINE
  5
3F6
102
{ACAD_REACTORS
330
452
102
}
330
1F
100
AcDbEntity
  8
LC-001-002-----0
  6
DASHED
 62
     7
370
    25
100
AcDbLine
 10
372.363995
 20
407.697802
 30
0.0
 11
413.415842
 21
396.697993
 31
0.0
  0
LINE
  5
3F7
102
{ACAD_REACTORS
330
452
102
}
330
1F
100
AcDbEntity
  8
LC-001-002-----0
  6
DASHED
 62
     7
370
    25
100
AcDbLine
 10
372.303936
 20
411.337362
 30
0.0
 11
345.08949
 21
418.62945
 31
0.0
  0
LINE
  5
3F8
102
{ACAD_REACTORS
330
452
102
}
330
1F
100
AcDbEntity
  8
LC-001-002-----0
  6
DASHED
 62
     7
370
    25
100
AcDbLine
 10
372.010441
 20
408.310175
 30
0.0
 11
372.657489
 21
410.724989
 31
0.0
  0
LINE
  5
3F9
102
{ACAD_REACTORS
330
452
102
}
330
1F
100
AcDbEntity
  8
LC-001-002-----0
  6
DASHED
 62
     7
370
    25
100
AcDbLine
 10
391.731457
 20
470.318896
 30
0.0
 11
391.084409
 21
467.904082
 31
0.0
  0
LINE
  5
3FA
330
1F
100
AcDbEntity
  8
LC-001-002-----0
  6
DASHDOT
 62
     7
370
    25
100
AcDbLine
 10
421.568642
 20
427.124656
 30
0.0
 11
309.661125
 21
457.110185
 31
0.0
  0
INSERT
  5
417
330
1F
100
AcDbEntity
  8
LC-005-003-----0
 62
     7
370
    25
100
AcDbBlockReference
  2
LCDIM1
 10
0.0
 20
0.0
 30
0.0
  0
INSERT
  5
423
330
1F
100
AcDbEntity
  8
LC-002-005-----0
 62
     7
370
    25
100
AcDbBlockReference
  2
*X1525
 10
0.0
 20
0.0
 30
0.0
  0
LINE
  5
424
102
{ACAD_REACTORS
330
456
102
}
330
1F
100
AcDbEntity
  8
LC-001-002-----0
 62
     7
370
    50
100
AcDbLine
 10
139.491064
 20
499.604282
 30
0.0
 11
219.617319
 21
499.604282
 31
0.0
  0
LINE
  5
425
102
{ACAD_REACTORS
330
456
102
}
330
1F
100
AcDbEntity
  8
LC-001-002-----0
 62
     7
370
    50
100
AcDbLine
 10
313.491064
 20
499.604282
 30
0.0
 11
313.491064
 21
517.204282
 31
0.0
  0
LINE
  5
426
102
{ACAD_REACTORS
330
456
102
}
330
1F
100
AcDbEntity
  8
LC-001-002-----0
 62
     7
370
    50
100
AcDbLine
 10
318.491064
 20
517.204282
 30
0.0
 11
318.491064
 21
520.004282
 31
0.0
  0
LINE
  5
427
102
{ACAD_REACTORS
330
456
102
}
330
1F
100
AcDbEntity
  8
LC-001-002-----0
 62
     7
370
    50
100
AcDbLine
 10
313.491064
 20
517.204282
 30
0.0
 11
318.491064
 21
517.204282
 31
0.0
  0
LINE
  5
428
102
{ACAD_REACTORS
330
456
102
}
330
1F
100
AcDbEntity
  8
LC-001-002-----0
 62
     7
370
    50
100
AcDbLine
 10
226.491064
 20
520.004282
 30
0.0
 11
318.491064
 21
520.004282
 31
0.0
  0
LINE
  5
429
102
{ACAD_REACTORS
330
456
102
}
330
1F
100
AcDbEntity
  8
LC-001-002-----0
 62
     7
370
    50
100
AcDbLine
 10
226.491064
 20
520.004282
 30
0.0
 11
134.491064
 21
520.004282
 31
0.0
  0
LINE
  5
42A
102
{ACAD_REACTORS
330
456
102
}
330
1F
100
AcDbEntity
  8
LC-001-002-----0
 62
     7
370
    50
100
AcDbLine
 10
139.491064
 20
499.604282
 30
0.0
 11
139.491064
 21
517.204282
 31
0.0
  0
LINE
  5
42B
102
{ACAD_REACTORS
330
456
102
}
330
1F
100
AcDbEntity
  8
LC-001-002-----0
 62
     7
370
    50
100
AcDbLine
 10
134.491064
 20
517.204282
 30
0.0
 11
134.491064
 21
520.004282
 31
0.0
  0
LINE
  5
42C
102
{ACAD_REACTORS
330
456
102
}
330
1F
100
AcDbEntity
  8
LC-001-002-----0
 62
     7
370
    50
100
AcDbLine
 10
139.491064
 20
517.204282
 30
0.0
 11
134.491064
 21
517.204282
 31
0.0
  0
LINE
  5
42D
102
{ACAD_REACTORS
330
456
102
}
330
1F
100
AcDbEntity
  8
LC-001-002-----0
 62
     7
370
    50
100
AcDbLine
 10
308.491064
 20
499.604282
 30
0.0
 11
308.491064
 21
509.604282
 31
0.0
  0
LINE
  5
42E
102
{ACAD_REACTORS
330
456
102
}
330
1F
100
AcDbEntity
  8
LC-001-002-----0
 62
     7
370
    50
100
AcDbLine
 10
297.491064
 20
509.604282
 30
0.0
 11
297.491064
 21
510.300402
 31
0.0
  0
LINE
  5
42F
102
{ACAD_REACTORS
330
456
102
}
330
1F
100
AcDbEntity
  8
LC-001-002-----0
 62
     7
370
    50
100
AcDbLine
 10
144.491064
 20
509.604282
 30
0.0
 11
226.165802
 21
509.604282
 31
0.0
  0
LINE
  5
430
102
{ACAD_REACTORS
330
456
102
}
330
1F
100
AcDbEntity
  8
LC-001-002-----0
 62
     7
370
    50
100
AcDbLine
 10
269.192012
 20
509.604282
 30
0.0
 11
308.491064
 21
509.604282
 31
0.0
  0
LINE
  5
431
102
{ACAD_REACTORS
330
456
102
}
330
1F
100
AcDbEntity
  8
LC-001-002-----0
 62
     7
370
    50
100
AcDbLine
 10
144.491064
 20
515.004282
 30
0.0
 11
308.491064
 21
515.004282
 31
0.0
  0
ARC
  5
432
102
{ACAD_REACTORS
330
456
102
}
330
1F
100
AcDbEntity
  8
LC-006-002-RND-0
 62
     7
370
    50
100
AcDbCircle
 10
298.491064
 20
510.300402
 30
0.0
 40
1.000000000000058
100
AcDbArc
 50
110.0
 51
180.0
  0
LINE
  5
433
102
{ACAD_REACTORS
330
456
102
}
330
1F
100
AcDbEntity
  8
LC-001-002-----0
 62
     7
370
    50
100
AcDbLine
 10
308.491064
 20
515.004282
 30
0.0
 11
298.149044
 21
511.240095
 31
0.0
  0
LINE
  5
434
102
{ACAD_REACTORS
330
456
102
}
330
1F
100
AcDbEntity
  8
LC-001-002-----0
 62
     7
370
    50
100
AcDbLine
 10
308.491064
 20
515.004282
 30
0.0
 11
308.491064
 21
518.004282
 31
0.0
  0
ARC
  5
435
102
{ACAD_REACTORS
330
456
102
}
330
1F
100
AcDbEntity
  8
LC-006-002-RND-0
 62
     7
370
    50
100
AcDbCircle
 10
310.491064
 20
518.004282
 30
0.0
 40
2.0
100
AcDbArc
 50
90.0
 51
180.0
  0
LINE
  5
436
102
{ACAD_REACTORS
330
456
102
}
330
1F
100
AcDbEntity
  8
LC-001-002-----0
 62
     7
370
    50
100
AcDbLine
 10
155.491064
 20
509.604282
 30
0.0
 11
155.491064
 21
510.300402
 31
0.0
  0
ARC
  5
437
102
{ACAD_REACTORS
330
456
102
}
330
1F
100
AcDbEntity
  8
LC-006-002-RND-0
 62
     7
370
    50
100
AcDbCircle
 10
154.491064
 20
510.300402
 30
0.0
 40
1.000000000000085
100
AcDbArc
 50
0.0
 51
70.0
  0
LINE
  5
438
102
{ACAD_REACTORS
330
456
102
}
330
1F
100
AcDbEntity
  8
LC-001-002-----0
 62
     7
370
    50
100
AcDbLine
 10
144.491064
 20
515.004282
 30
0.0
 11
154.833084
 21
511.240095
 31
0.0
  0
LINE
  5
439
102
{ACAD_REACTORS
330
456
102
}
330
1F
100
AcDbEntity
  8
LC-001-002-----0
 62
     7
370
    50
100
AcDbLine
 10
144.491064
 20
499.604282
 30
0.0
 11
144.491064
 21
509.604282
 31
0.0
  0
ARC
  5
43A
102
{ACAD_REACTORS
330
456
102
}
330
1F
100
AcDbEntity
  8
LC-006-002-RND-0
 62
     7
370
    50
100
AcDbCircle
 10
142.491064
 20
518.004282
 30
0.0
 40
2.0
100
AcDbArc
 50
0.0
 51
90.0
  0
LINE
  5
43B
102
{ACAD_REACTORS
330
456
102
}
330
1F
100
AcDbEntity
  8
LC-001-002-----0
 62
     7
370
    50
100
AcDbLine
 10
144.491064
 20
515.004282
 30
0.0
 11
144.491064
 21
518.004282
 31
0.0
  0
INSERT
  5
450
102
{ACAD_REACTORS
330
456
102
}
330
1F
100
AcDbEntity
  8
LC-002-005-----0
 62
     7
370
    25
100
AcDbBlockReference
  2
*X1626
 10
0.0
 20
0.0
 30
0.0
  0
LINE
  5
451
102
{ACAD_REACTORS
330
456
102
}
330
1F
100
AcDbEntity
  8
LC-001-002-----0
 62
     7
370
    50
100
AcDbLine
 10
285.478552
 20
499.604282
 30
0.0
 11
313.491064
 21
499.604282
 31
0.0
  0
ENDSEC
  0
SECTION
  2
OBJECTS
  0
DICTIONARY
  5
C
330
0
100
AcDbDictionary
281
     1
  3
ACAD_GROUP
350
D
  3
ACAD_LAYOUT
350
1A
  3
ACAD_MLINESTYLE
350
17
  3
ACAD_PLOTSETTINGS
350
19
  3
ACAD_PLOTSTYLENAME
350
E
  0
DICTIONARY
  5
D
102
{ACAD_REACTORS
330
C
102
}
330
C
100
AcDbDictionary
281
     1
  3
LCGROUP115
350
456
  3
LCGROUP116
350
457
  3
LCGROUP14
350
453
  3
LCGROUP15
350
454
  3
LCGROUP1576
350
459
  3
LCGROUP1593
350
45A
  3
LCGROUP170
350
458
  3
LCGROUP1960
350
455
  3
LCGROUP2182
350
452
  0
DICTIONARY
  5
1A
102
{ACAD_REACTORS
330
C
102
}
330
C
100
AcDbDictionary
281
     1
  3
Layout1
350
1E
  3
Layout2
350
26
  3
Model
350
22
  0
DICTIONARY
  5
17
102
{ACAD_REACTORS
330
C
102
}
330
C
100
AcDbDictionary
281
     1
  3
Standard
350
18
  0
DICTIONARY
  5
19
102
{ACAD_REACTORS
330
C
102
}
330
C
100
AcDbDictionary
281
     1
  0
ACDBDICTIONARYWDFLT
  5
E
102
{ACAD_REACTORS
330
C
102
}
330
C
100
AcDbDictionary
281
     1
  3
Normal
350
F
100
AcDbDictionaryWithDefault
340
F
  0
GROUP
  5
456
102
{ACAD_REACTORS
330
D
102
}
330
D
100
AcDbGroup
300
Dichtung
 70
     1
 71
     1
340
424
340
425
340
426
340
427
340
428
340
429
340
42A
340
42B
340
42C
340
42D
340
42E
340
42F
340
430
340
431
340
432
340
433
340
434
340
435
340
436
340
437
340
438
340
439
340
43A
340
43B
340
450
340
451
  0
GROUP
  5
457
102
{ACAD_REACTORS
330
D
102
}
330
D
100
AcDbGroup
300
GRP116
 70
     1
 71
     1
340
39
340
CC
340
CD
340
14F
340
190
340
191
340
1BF
340
1C0
340
1C1
340
1C2
340
1C3
340
1C4
340
1C6
340
1C7
340
1C8
340
1C9
340
1CA
340
1CB
340
1CC
340
1CD
340
1CE
340
1CF
340
1D0
340
1D1
340
1D2
340
1D3
340
1D4
340
1D5
340
1D7
340
1D8
340
1D9
340
1DA
340
1DB
340
1DD
340
1DE
340
1F7
340
21D
340
21E
340
21F
340
24B
340
24D
340
24E
340
24F
340
250
340
251
340
252
340
253
340
254
  0
GROUP
  5
453
102
{ACAD_REACTORS
330
D
102
}
330
D
100
AcDbGroup
300
GRP14
 70
     1
 71
     1
340
38
340
4D
340
4E
340
66
340
73
340
74
340
76
340
77
340
78
340
79
340
147
340
148
340
149
340
14A
340
14B
340
14C
340
14E
340
150
340
151
340
152
340
153
340
154
340
156
340
157
340
158
340
159
340
15B
340
15C
340
15D
340
15F
340
160
340
161
340
163
340
164
340
166
340
167
340
169
340
16A
340
16C
340
16D
340
16F
340
170
340
172
340
173
340
175
340
176
340
178
340
179
340
17B
340
17C
340
17E
340
17F
340
180
340
181
340
182
340
183
340
184
340
185
340
186
  0
GROUP
  5
454
102
{ACAD_REACTORS
330
D
102
}
330
D
100
AcDbGroup
300
GRP15
 70
     1
 71
     1
340
35
340
36
340
37
340
3A
340
41
340
44
340
50
340
65
340
75
340
7A
340
A7
340
B5
340
14D
340
155
340
15A
340
15E
340
162
340
165
340
168
340
16B
340
16E
340
171
340
174
340
177
340
17A
340
17D
340
187
340
188
340
189
340
18A
340
18B
340
18C
340
18D
340
18E
340
1C5
340
1D6
340
1DC
340
1DF
340
1E0
340
1E1
340
1E2
340
1E3
340
1E4
340
1E5
340
1E6
340
1E7
340
1E8
340
1E9
340
1EA
340
1EB
340
1EC
340
1ED
340
1EE
340
1EF
340
1F0
340
1F1
340
1F2
340
1F3
340
1F4
340
1F5
340
1F6
340
1F8
340
1F9
340
1FA
340
1FB
340
1FC
340
1FD
340
1FE
340
1FF
340
200
340
201
340
202
340
203
340
204
340
205
340
206
340
207
340
208
340
209
340
20A
340
20B
340
20C
340
20D
340
20E
340
20F
340
210
340
211
340
212
340
213
340
214
340
215
340
216
340
217
340
218
340
219
340
21A
340
21B
340
21C
340
24C
340
255
  0
GROUP
  5
459
102
{ACAD_REACTORS
330
D
102
}
330
D
100
AcDbGroup
300
GRP1576
 70
     1
 71
     1
340
338
340
339
340
33A
340
33B
340
33C
340
33D
340
33E
340
33F
340
340
340
341
340
342
340
343
340
344
340
345
340
346
340
347
340
357
340
368
340
369
340
36A
  0
GROUP
  5
45A
102
{ACAD_REACTORS
330
D
102
}
330
D
100
AcDbGroup
300
GRP1593
 70
     1
 71
     1
340
36B
340
36C
340
374
340
37C
340
37D
340
37E
340
37F
340
380
340
381
  0
GROUP
  5
458
102
{ACAD_REACTORS
330
D
102
}
330
D
100
AcDbGroup
300
GRP170
 70
     1
 71
     1
340
3B
340
3C
340
3E
340
3F
340
40
340
42
340
43
340
45
340
46
340
47
340
48
340
49
340
4B
340
4C
340
4F
340
51
340
52
340
53
340
54
340
55
340
56
340
57
340
58
340
59
340
5A
340
5B
340
5C
340
5D
340
5E
340
5F
340
60
340
61
340
62
340
63
340
64
340
68
340
69
340
6A
340
6B
340
6C
340
6D
340
6E
340
6F
340
70
340
7D
340
7E
340
EF
340
F0
340
F1
340
F2
340
F3
340
F4
  0
GROUP
  5
455
102
{ACAD_REACTORS
330
D
102
}
330
D
100
AcDbGroup
300
GRP1960
 70
     1
 71
     1
340
39C
340
39D
340
39E
340
39F
340
3A0
340
3A1
340
3A2
340
3A3
340
3A4
340
3A5
340
3A6
340
3A7
340
3A8
340
3A9
340
3AA
340
3AB
340
3AC
340
3AD
340
3AE
340
3AF
340
3B0
340
3B1
340
3B2
340
3B3
340
3B4
340
3B5
340
3B6
340
3B7
340
3DA
  0
GROUP
  5
452
102
{ACAD_REACTORS
330
D
102
}
330
D
100
AcDbGroup
300
GRP2182
 70
     1
 71
     1
340
3EA
340
3EB
340
3EC
340
3ED
340
3EE
340
3EF
340
3F0
340
3F1
340
3F2
340
3F3
340
3F4
340
3F5
340
3F6
340
3F7
340
3F8
340
3F9
  0
LAYOUT
  5
1E
102
{ACAD_REACTORS
330
1A
102
}
330
1A
100
AcDbPlotSettings
  1

  2

  4

  6

 40
0.0
 41
0.0
 42
0.0
 43
0.0
 44
0.0
 45
0.0
 46
0.0
 47
0.0
 48
0.0
 49
0.0
140
0.0
141
0.0
142
1.0
143
1.0
 70
   688
 72
     0
 73
     0
 74
     5
  7

 75
    16
147
1.0
148
0.0
149
0.0
100
AcDbLayout
  1
Layout1
 70
     1
 71
     1
 10
-155.805722
 20
224.12296
 11
684.194278
 21
818.12296
 12
0.0
 22
0.0
 32
0.0
 14
-155.805722
 24
224.12296
 34
0.0
 15
684.194278
 25
818.12296
 35
0.0
146
0.0
 13
0.0
 23
0.0
 33
0.0
 16
1.0
 26
0.0
 36
0.0
 17
0.0
 27
1.0
 37
0.0
 76
     0
330
1B
  0
LAYOUT
  5
26
102
{ACAD_REACTORS
330
1A
102
}
330
1A
100
AcDbPlotSettings
  1

  2

  4

  6

 40
0.0
 41
0.0
 42
0.0
 43
0.0
 44
0.0
 45
0.0
 46
0.0
 47
0.0
 48
0.0
 49
0.0
140
0.0
141
0.0
142
1.0
143
1.0
 70
   688
 72
     0
 73
     0
 74
     5
  7

 75
    16
147
1.0
148
0.0
149
0.0
100
AcDbLayout
  1
Layout2
 70
     1
 71
     2
 10
0.0
 20
0.0
 11
0.0
 21
0.0
 12
0.0
 22
0.0
 32
0.0
 14
0.0
 24
0.0
 34
0.0
 15
0.0
 25
0.0
 35
0.0
146
0.0
 13
0.0
 23
0.0
 33
0.0
 16
1.0
 26
0.0
 36
0.0
 17
0.0
 27
1.0
 37
0.0
 76
     0
330
23
  0
LAYOUT
  5
22
102
{ACAD_REACTORS
330
1A
102
}
330
1A
100
AcDbPlotSettings
  1

  2

  4

  6

 40
0.0
 41
0.0
 42
0.0
 43
0.0
 44
0.0
 45
0.0
 46
0.0
 47
0.0
 48
0.0
 49
0.0
140
0.0
141
0.0
142
1.0
143
1.0
 70
  1776
 72
     0
 73
     0
 74
     0
  7

 75
     0
147
1.0
148
0.0
149
0.0
100
AcDbLayout
  1
Model
 70
     1
 71
     0
 10
-155.805722
 20
224.12296
 11
684.194278
 21
818.12296
 12
-155.805722
 22
224.12296
 32
0.0
 14
-155.805722
 24
224.12296
 34
0.0
 15
684.194278
 25
818.12296
 35
0.0
146
0.0
 13
0.0
 23
0.0
 33
0.0
 16
1.0
 26
0.0
 36
0.0
 17
0.0
 27
1.0
 37
0.0
 76
     0
330
1F
  0
MLINESTYLE
  5
18
102
{ACAD_REACTORS
330
17
102
}
330
17
100
AcDbMlineStyle
  2
Standard
 70
     0
  3

 62
   256
 51
90.0
 52
90.0
 71
     2
 49
0.5
 62
   256
  6
BYLAYER
 49
-0.5
 62
   256
  6
BYLAYER
  0
ACDBPLACEHOLDER
  5
F
102
{ACAD_REACTORS
330
E
102
}
330
E
  0
ENDSEC
  0
EOF
