  0
SECTION
  2
HEADER
  9
$ACADVER
  1
AC1015
  9
$ACADMAINTVER
 70
     6
  9
$DWGCODEPAGE
  3
ANSI_1252
  9
$INSBASE
 10
0.0
 20
0.0
 30
0.0
  9
$EXTMIN
 10
-856.178896
 20
-611.031554
 30
0.0
  9
$EXTMAX
 10
1243.821104
 20
873.968446
 30
0.0
  9
$LIMMIN
 10
-856.178896
 20
-611.031554
  9
$LIMMAX
 10
1243.821104
 20
873.968446
  9
$ORTHOMODE
 70
     0
  9
$REGENMODE
 70
     1
  9
$FILLMODE
 70
     1
  9
$QTEXTMODE
 70
     0
  9
$MIRRTEXT
 70
     1
  9
$LTSCALE
 40
5.0
  9
$ATTMODE
 70
     1
  9
$TEXTSIZE
 40
2.5
  9
$TRACEWID
 40
1.0
  9
$TEXTSTYLE
  7
Standard
  9
$CLAYER
  8
0
  9
$CELTYPE
  6
ByLayer
  9
$CECOLOR
 62
     7
  9
$CELTSCALE
 40
1.0
  9
$DISPSILH
 70
     0
  9
$DIMSCALE
 40
5.0
  9
$DIMASZ
 40
3.5
  9
$DIMEXO
 40
0.625
  9
$DIMDLI
 40
3.75
  9
$DIMRND
 40
0.0
  9
$DIMDLE
 40
0.0
  9
$DIMEXE
 40
1.25
  9
$DIMTP
 40
0.0
  9
$DIMTM
 40
0.0
  9
$DIMTXT
 40
3.5
  9
$DIMCEN
 40
2.5
  9
$DIMTSZ
 40
0.0
  9
$DIMTOL
 70
     0
  9
$DIMLIM
 70
     0
  9
$DIMTIH
 70
     0
  9
$DIMTOH
 70
     0
  9
$DIMSE1
 70
     0
  9
$DIMSE2
 70
     0
  9
$DIMTAD
 70
     1
  9
$DIMZIN
 70
     8
  9
$DIMBLK
  1

  9
$DIMASO
 70
     1
  9
$DIMSHO
 70
     1
  9
$DIMPOST
  1

  9
$DIMAPOST
  1

  9
$DIMALT
 70
     0
  9
$DIMALTD
 70
     3
  9
$DIMALTF
 40
0.03937
  9
$DIMLFAC
 40
1.0
  9
$DIMTOFL
 70
     1
  9
$DIMTVP
 40
0.0
  9
$DIMTIX
 70
     0
  9
$DIMSOXD
 70
     0
  9
$DIMSAH
 70
     0
  9
$DIMBLK1
  1

  9
$DIMBLK2
  1

  9
$DIMSTYLE
  2
ISO-25
  9
$DIMCLRD
 70
     0
  9
$DIMCLRE
 70
     0
  9
$DIMCLRT
 70
     0
  9
$DIMTFAC
 40
1.0
  9
$DIMGAP
 40
0.625
  9
$DIMJUST
 70
     0
  9
$DIMSD1
 70
     0
  9
$DIMSD2
 70
     0
  9
$DIMTOLJ
 70
     0
  9
$DIMTZIN
 70
     8
  9
$DIMALTZ
 70
     0
  9
$DIMALTTZ
 70
     0
  9
$DIMUPT
 70
     0
  9
$DIMDEC
 70
     2
  9
$DIMTDEC
 70
     2
  9
$DIMALTU
 70
     2
  9
$DIMALTTD
 70
     3
  9
$DIMTXSTY
  7
Standard
  9
$DIMAUNIT
 70
     0
  9
$DIMADEC
 70
     0
  9
$DIMALTRND
 40
0.0
  9
$DIMAZIN
 70
     0
  9
$DIMDSEP
 70
    44
  9
$DIMATFIT
 70
     3
  9
$DIMFRAC
 70
     0
  9
$DIMLDRBLK
  1

  9
$DIMLUNIT
 70
     2
  9
$DIMLWD
 70
    -2
  9
$DIMLWE
 70
    -2
  9
$DIMTMOVE
 70
     0
  9
$LUNITS
 70
     2
  9
$LUPREC
 70
     4
  9
$SKETCHINC
 40
1.0
  9
$FILLETRAD
 40
10.0
  9
$AUNITS
 70
     0
  9
$AUPREC
 70
     0
  9
$MENU
  1
.
  9
$ELEVATION
 40
0.0
  9
$PELEVATION
 40
0.0
  9
$THICKNESS
 40
0.0
  9
$LIMCHECK
 70
     0
  9
$CHAMFERA
 40
10.0
  9
$CHAMFERB
 40
10.0
  9
$CHAMFERC
 40
20.0
  9
$CHAMFERD
 40
0.0
  9
$SKPOLY
 70
     0
  9
$TDCREATE
 40
2456031.490096065
  9
$TDUCREATE
 40
2456031.406762731
  9
$TDUPDATE
 40
2456031.490096076
  9
$TDUUPDATE
 40
2456031.406762743
  9
$TDINDWG
 40
0.0000000116
  9
$TDUSRTIMER
 40
0.0000000116
  9
$USRTIMER
 70
     1
  9
$ANGBASE
 50
0.0
  9
$ANGDIR
 70
     0
  9
$PDMODE
 70
     0
  9
$PDSIZE
 40
0.0
  9
$PLINEWID
 40
0.0
  9
$SPLFRAME
 70
     0
  9
$SPLINETYPE
 70
     6
  9
$SPLINESEGS
 70
     8
  9
$HANDSEED
  5
782
  9
$SURFTAB1
 70
     6
  9
$SURFTAB2
 70
     6
  9
$SURFTYPE
 70
     6
  9
$SURFU
 70
     6
  9
$SURFV
 70
     6
  9
$UCSBASE
  2

  9
$UCSNAME
  2

  9
$UCSORG
 10
0.0
 20
0.0
 30
0.0
  9
$UCSXDIR
 10
1.0
 20
0.0
 30
0.0
  9
$UCSYDIR
 10
0.0
 20
1.0
 30
0.0
  9
$UCSORTHOREF
  2

  9
$UCSORTHOVIEW
 70
     0
  9
$UCSORGTOP
 10
0.0
 20
0.0
 30
0.0
  9
$UCSORGBOTTOM
 10
0.0
 20
0.0
 30
0.0
  9
$UCSORGLEFT
 10
0.0
 20
0.0
 30
0.0
  9
$UCSORGRIGHT
 10
0.0
 20
0.0
 30
0.0
  9
$UCSORGFRONT
 10
0.0
 20
0.0
 30
0.0
  9
$UCSORGBACK
 10
0.0
 20
0.0
 30
0.0
  9
$PUCSBASE
  2

  9
$PUCSNAME
  2

  9
$PUCSORG
 10
0.0
 20
0.0
 30
0.0
  9
$PUCSXDIR
 10
1.0
 20
0.0
 30
0.0
  9
$PUCSYDIR
 10
0.0
 20
1.0
 30
0.0
  9
$PUCSORTHOREF
  2

  9
$PUCSORTHOVIEW
 70
     0
  9
$PUCSORGTOP
 10
0.0
 20
0.0
 30
0.0
  9
$PUCSORGBOTTOM
 10
0.0
 20
0.0
 30
0.0
  9
$PUCSORGLEFT
 10
0.0
 20
0.0
 30
0.0
  9
$PUCSORGRIGHT
 10
0.0
 20
0.0
 30
0.0
  9
$PUCSORGFRONT
 10
0.0
 20
0.0
 30
0.0
  9
$PUCSORGBACK
 10
0.0
 20
0.0
 30
0.0
  9
$USERI1
 70
     0
  9
$USERI2
 70
     0
  9
$USERI3
 70
     0
  9
$USERI4
 70
     0
  9
$USERI5
 70
     0
  9
$USERR1
 40
0.0
  9
$USERR2
 40
0.0
  9
$USERR3
 40
0.0
  9
$USERR4
 40
0.0
  9
$USERR5
 40
0.0
  9
$WORLDVIEW
 70
     1
  9
$SHADEDGE
 70
     3
  9
$SHADEDIF
 70
    70
  9
$TILEMODE
 70
     1
  9
$MAXACTVP
 70
    64
  9
$PINSBASE
 10
0.0
 20
0.0
 30
0.0
  9
$PLIMCHECK
 70
     0
  9
$PEXTMIN
 10
-856.178896
 20
-611.031554
 30
0.0
  9
$PEXTMAX
 10
1243.821104
 20
873.968446
 30
0.0
  9
$PLIMMIN
 10
-856.178896
 20
-611.031554
  9
$PLIMMAX
 10
1243.821104
 20
873.968446
  9
$UNITMODE
 70
     0
  9
$VISRETAIN
 70
     1
  9
$PLINEGEN
 70
     0
  9
$PSLTSCALE
 70
     1
  9
$TREEDEPTH
 70
  3020
  9
$CMLSTYLE
  2
Standard
  9
$CMLJUST
 70
     0
  9
$CMLSCALE
 40
20.0
  9
$PROXYGRAPHICS
 70
     1
  9
$MEASUREMENT
 70
     1
  9
$CELWEIGHT
370
    -1
  9
$ENDCAPS
280
     0
  9
$JOINSTYLE
280
     0
  9
$LWDISPLAY
290
     0
  9
$INSUNITS
 70
     4
  9
$HYPERLINKBASE
  1

  9
$STYLESHEET
  1

  9
$XEDIT
290
     1
  9
$CEPSNTYPE
380
     0
  9
$PSTYLEMODE
290
     1
  9
$FINGERPRINTGUID
  2
{FAEB1C30-E019-11D5-929B-00C0DF256EC4}
  9
$VERSIONGUID
  2
{FAEB1C32-E019-11D5-929B-00C0DF256EC4}
  9
$EXTNAMES
290
     1
  9
$PSVPSCALE
 40
0.0
  9
$OLESTARTUP
290
     0
  0
ENDSEC
  0
SECTION
  2
CLASSES
  0
CLASS
  1
ACDBDICTIONARYWDFLT
  2
AcDbDictionaryWithDefault
  3
ObjectDBX Classes
 90
        0
280
     0
281
     0
  0
CLASS
  1
ACDBPLACEHOLDER
  2
AcDbPlaceHolder
  3
ObjectDBX Classes
 90
        0
280
     0
281
     0
  0
CLASS
  1
LAYOUT
  2
AcDbLayout
  3
ObjectDBX Classes
 90
        0
280
     0
281
     0
  0
ENDSEC
  0
SECTION
  2
TABLES
  0
TABLE
  2
VPORT
  5
8
330
0
100
AcDbSymbolTable
 70
     2
  0
VPORT
  5
29
330
8
100
AcDbSymbolTableRecord
100
AcDbViewportTableRecord
  2
*ACTIVE
 70
     0
 10
0.0
 20
0.0
 11
1.0
 21
1.0
 12
193.821104
 22
131.468446
 13
0.0
 23
0.0
 14
1.0
 24
1.0
 15
0.0
 25
0.0
 16
0.0
 26
0.0
 36
1.0
 17
0.0
 27
0.0
 37
0.0
 40
1485.0
 41
1.414141
 42
50.0
 43
0.0
 44
0.0
 50
0.0
 51
0.0
 71
    16
 72
   100
 73
     1
 74
     0
 75
     0
 76
     0
 77
     0
 78
     0
281
     0
 65
     0
110
0.0
120
0.0
130
0.0
111
1.0
121
0.0
131
0.0
112
0.0
122
1.0
132
0.0
 79
     0
146
0.0
  0
ENDTAB
  0
TABLE
  2
LTYPE
  5
5
330
0
100
AcDbSymbolTable
 70
     3
  0
LTYPE
  5
14
330
5
100
AcDbSymbolTableRecord
100
AcDbLinetypeTableRecord
  2
ByBlock
 70
     0
  3

 72
    65
 73
     0
 40
0.0
  0
LTYPE
  5
15
330
5
100
AcDbSymbolTableRecord
100
AcDbLinetypeTableRecord
  2
ByLayer
 70
     0
  3

 72
    65
 73
     0
 40
0.0
  0
LTYPE
  5
16
330
5
100
AcDbSymbolTableRecord
100
AcDbLinetypeTableRecord
  2
Continuous
 70
     0
  3
Solid line
 72
    65
 73
     0
 40
0.0
  0
LTYPE
  5
2A
330
5
100
AcDbSymbolTableRecord
100
AcDbLinetypeTableRecord
  2
DASHED
 70
     0
  3
__ __ __ __ __
 72
    65
 73
     2
 40
6.25
 49
5.0
 74
     4
 75
     0
340
0
 46
1.0
 50
0.0
 44
0.0
 45
0.0
 49
-1.25
 74
     4
 75
     0
340
0
 46
1.0
 50
0.0
 44
0.0
 45
0.0
  0
LTYPE
  5
12E
330
5
100
AcDbSymbolTableRecord
100
AcDbLinetypeTableRecord
  2
DASHDOT
 70
     0
  3
__ . __ . __ . __ . __
 72
    65
 73
     4
 40
7.5
 49
5.0
 74
     4
 75
     0
340
0
 46
1.0
 50
0.0
 44
0.0
 45
0.0
 49
-1.25
 74
     4
 75
     0
340
0
 46
1.0
 50
0.0
 44
0.0
 45
0.0
 49
0.0
 74
     4
 75
     0
340
0
 46
1.0
 50
0.0
 44
0.0
 45
0.0
 49
-1.25
 74
     4
 75
     0
340
0
 46
1.0
 50
0.0
 44
0.0
 45
0.0
  0
ENDTAB
  0
TABLE
  2
LAYER
  5
2
330
0
100
AcDbSymbolTable
 70
     8
  0
LAYER
  5
10
330
2
100
AcDbSymbolTableRecord
100
AcDbLayerTableRecord
  2
0
 70
     0
 62
     7
  6
Continuous
370
    -3
390
F
  0
LAYER
  5
2B
330
2
100
AcDbSymbolTableRecord
100
AcDbLayerTableRecord
  2
LC-INFO-1-5-mm-A3-0
 70
     1
 62
     7
  6
ByBlock
370
    -3
390
F
  0
LAYER
  5
2C
330
2
100
AcDbSymbolTableRecord
100
AcDbLayerTableRecord
  2
LC-CUT-HIDDEN
 70
     0
 62
     7
  6
DASHED
370
    -3
390
F
  0
LAYER
  5
2D
330
2
100
AcDbSymbolTableRecord
100
AcDbLayerTableRecord
  2
LC-VIEWPORT
 70
     0
 62
     7
  6
ByBlock
370
    -3
390
F
  0
LAYER
  5
2E
330
2
100
AcDbSymbolTableRecord
100
AcDbLayerTableRecord
  2
LC-3D-HIDDEN
 70
     0
 62
     9
  6
DASHED
370
    -3
390
F
  0
LAYER
  5
30
330
2
100
AcDbSymbolTableRecord
100
AcDbLayerTableRecord
  2
LC-001-100-D00-0
 70
     0
 62
     1
  6
ByBlock
370
    -3
390
F
  0
LAYER
  5
105
330
2
100
AcDbSymbolTableRecord
100
AcDbLayerTableRecord
  2
Defpoints
 70
     0
 62
     7
  6
Continuous
290
     0
370
    -3
390
F
  0
LAYER
  5
40A
330
2
100
AcDbSymbolTableRecord
100
AcDbLayerTableRecord
  2
LC-002-003-----0
 70
     0
 62
     2
  6
ByBlock
370
    -3
390
F
  0
ENDTAB
  0
TABLE
  2
STYLE
  5
3
330
0
100
AcDbSymbolTable
 70
     3
  0
STYLE
  5
11
330
3
100
AcDbSymbolTableRecord
100
AcDbTextStyleTableRecord
  2
Standard
 70
     0
 40
0.0
 41
1.0
 50
0.0
 71
     0
 42
2.5
  3
txt
  4

  0
STYLE
  5
2F
330
3
100
AcDbSymbolTableRecord
100
AcDbTextStyleTableRecord
  2
LCTX15-400-0-0-Arial
 70
     0
 40
0.0
 41
0.8
 50
0.0
 71
     0
 42
3.5
  3

  4

1001
ACAD
1000
Arial
1071
 16777218
  0
STYLE
  5
102
330
3
100
AcDbSymbolTableRecord
100
AcDbTextStyleTableRecord
  2
LCTX15-400-0-0pDIN-Schrift
 70
     0
 40
2.5
 41
0.8
 50
15.0
 71
     0
 42
3.5
  3
STANDARD
  4

  0
ENDTAB
  0
TABLE
  2
VIEW
  5
6
330
0
100
AcDbSymbolTable
 70
     0
  0
ENDTAB
  0
TABLE
  2
UCS
  5
7
330
0
100
AcDbSymbolTable
 70
     0
  0
ENDTAB
  0
TABLE
  2
APPID
  5
9
330
0
100
AcDbSymbolTable
 70
     1
  0
APPID
  5
12
330
9
100
AcDbSymbolTableRecord
100
AcDbRegAppTableRecord
  2
ACAD
 70
     0
  0
ENDTAB
  0
TABLE
  2
DIMSTYLE
  5
A
330
0
100
AcDbSymbolTable
 70
     3
100
AcDbDimStyleTable
  0
DIMSTYLE
105
27
330
A
100
AcDbSymbolTableRecord
100
AcDbDimStyleTableRecord
  2
ISO-25
 70
     0
 41
2.5
 42
0.625
 43
3.75
 44
1.25
 73
     0
 74
     0
 77
     1
 78
     8
140
2.5
141
2.5
143
0.03937
147
0.625
171
     3
172
     1
271
     2
272
     2
274
     3
278
    44
283
     0
284
     8
340
11
  0
DIMSTYLE
105
103
102
{ACAD_REACTORS
330
104
330
113
330
121
330
38E
330
40B
330
418
330
4AB
330
4B9
330
738
330
746
330
766
330
774
102
}
330
A
100
AcDbSymbolTableRecord
100
AcDbDimStyleTableRecord
  2
LC-DIM-L-0100-02-02
 70
     0
 40
5.0
 41
10.0
 42
0.0
 43
7.5
 44
1.8
 73
     0
 74
     0
 77
     1
 78
     8
 79
     2
140
10.0
141
0.0
146
0.71
147
1.5
176
     2
177
     2
178
     2
179
     2
271
     2
278
    44
289
     1
340
102
  0
DIMSTYLE
105
754
102
{ACAD_REACTORS
330
755
102
}
330
A
100
AcDbSymbolTableRecord
100
AcDbDimStyleTableRecord
  2
LC-DIM-L-0100-01-02
 70
     0
 40
5.0
 41
10.0
 42
0.0
 43
7.5
 44
1.8
 73
     0
 74
     0
 77
     1
 78
     8
 79
     2
140
10.0
141
0.0
146
0.71
147
1.5
176
     2
177
     2
178
     2
179
     1
271
     1
278
    44
289
     1
340
102
  0
ENDTAB
  0
TABLE
  2
BLOCK_RECORD
  5
1
330
0
100
AcDbSymbolTable
 70
    69
  0
BLOCK_RECORD
  5
1F
330
1
100
AcDbSymbolTableRecord
100
AcDbBlockTableRecord
  2
*Model_Space
340
22
  0
BLOCK_RECORD
  5
1B
330
1
100
AcDbSymbolTableRecord
100
AcDbBlockTableRecord
  2
*Paper_Space
340
1E
  0
BLOCK_RECORD
  5
23
330
1
100
AcDbSymbolTableRecord
100
AcDbBlockTableRecord
  2
*Paper_Space0
340
26
  0
BLOCK_RECORD
  5
50
330
1
100
AcDbSymbolTableRecord
100
AcDbBlockTableRecord
  2
KLON1
340
0
102
{BLKREFS
331
57
102
}
  0
BLOCK_RECORD
  5
59
330
1
100
AcDbSymbolTableRecord
100
AcDbBlockTableRecord
  2
KLON2
340
0
102
{BLKREFS
331
5E
102
}
  0
BLOCK_RECORD
  5
5F
330
1
100
AcDbSymbolTableRecord
100
AcDbBlockTableRecord
  2
KLON3
340
0
102
{BLKREFS
331
64
102
}
  0
BLOCK_RECORD
  5
65
330
1
100
AcDbSymbolTableRecord
100
AcDbBlockTableRecord
  2
KLON4
340
0
102
{BLKREFS
331
6A
102
}
  0
BLOCK_RECORD
  5
6C
330
1
100
AcDbSymbolTableRecord
100
AcDbBlockTableRecord
  2
KLON5
340
0
102
{BLKREFS
331
73
102
}
  0
BLOCK_RECORD
  5
76
330
1
100
AcDbSymbolTableRecord
100
AcDbBlockTableRecord
  2
KLON6
340
0
102
{BLKREFS
331
7B
102
}
  0
BLOCK_RECORD
  5
89
330
1
100
AcDbSymbolTableRecord
100
AcDbBlockTableRecord
  2
KLON7
340
0
102
{BLKREFS
331
8E
102
}
  0
BLOCK_RECORD
  5
8F
330
1
100
AcDbSymbolTableRecord
100
AcDbBlockTableRecord
  2
KLON8
340
0
102
{BLKREFS
331
94
102
}
  0
BLOCK_RECORD
  5
96
330
1
100
AcDbSymbolTableRecord
100
AcDbBlockTableRecord
  2
KLON9
340
0
102
{BLKREFS
331
9C
102
}
  0
BLOCK_RECORD
  5
9D
330
1
100
AcDbSymbolTableRecord
100
AcDbBlockTableRecord
  2
KLON10
340
0
102
{BLKREFS
331
A3
102
}
  0
BLOCK_RECORD
  5
A4
330
1
100
AcDbSymbolTableRecord
100
AcDbBlockTableRecord
  2
KLON11
340
0
102
{BLKREFS
331
A9
102
}
  0
BLOCK_RECORD
  5
AA
330
1
100
AcDbSymbolTableRecord
100
AcDbBlockTableRecord
  2
KLON12
340
0
102
{BLKREFS
331
B0
102
}
  0
BLOCK_RECORD
  5
B1
330
1
100
AcDbSymbolTableRecord
100
AcDbBlockTableRecord
  2
KLON13
340
0
102
{BLKREFS
331
B7
102
}
  0
BLOCK_RECORD
  5
B8
330
1
100
AcDbSymbolTableRecord
100
AcDbBlockTableRecord
  2
KLON14
340
0
102
{BLKREFS
331
BD
102
}
  0
BLOCK_RECORD
  5
106
330
1
100
AcDbSymbolTableRecord
100
AcDbBlockTableRecord
  2
*D15
340
0
  0
BLOCK_RECORD
  5
114
330
1
100
AcDbSymbolTableRecord
100
AcDbBlockTableRecord
  2
*D16
340
0
  0
BLOCK_RECORD
  5
122
330
1
100
AcDbSymbolTableRecord
100
AcDbBlockTableRecord
  2
*D17
340
0
  0
BLOCK_RECORD
  5
348
330
1
100
AcDbSymbolTableRecord
100
AcDbBlockTableRecord
  2
KLON15
340
0
102
{BLKREFS
331
351
102
}
  0
BLOCK_RECORD
  5
352
330
1
100
AcDbSymbolTableRecord
100
AcDbBlockTableRecord
  2
KLON16
340
0
102
{BLKREFS
331
35B
102
}
  0
BLOCK_RECORD
  5
364
330
1
100
AcDbSymbolTableRecord
100
AcDbBlockTableRecord
  2
KLON17
340
0
102
{BLKREFS
331
370
102
}
  0
BLOCK_RECORD
  5
371
330
1
100
AcDbSymbolTableRecord
100
AcDbBlockTableRecord
  2
KLON18
340
0
102
{BLKREFS
331
37D
102
}
  0
BLOCK_RECORD
  5
38F
330
1
100
AcDbSymbolTableRecord
100
AcDbBlockTableRecord
  2
*D22
340
0
  0
BLOCK_RECORD
  5
39C
330
1
100
AcDbSymbolTableRecord
100
AcDbBlockTableRecord
  2
KLON19
340
0
102
{BLKREFS
331
3B8
102
}
  0
BLOCK_RECORD
  5
3B9
330
1
100
AcDbSymbolTableRecord
100
AcDbBlockTableRecord
  2
KLON20
340
0
102
{BLKREFS
331
3D5
102
}
  0
BLOCK_RECORD
  5
3D7
330
1
100
AcDbSymbolTableRecord
100
AcDbBlockTableRecord
  2
KLON21
340
0
102
{BLKREFS
331
3DC
102
}
  0
BLOCK_RECORD
  5
3DF
330
1
100
AcDbSymbolTableRecord
100
AcDbBlockTableRecord
  2
KLON22
340
0
102
{BLKREFS
331
3E4
102
}
  0
BLOCK_RECORD
  5
3E7
330
1
100
AcDbSymbolTableRecord
100
AcDbBlockTableRecord
  2
KLON23
340
0
102
{BLKREFS
331
3EC
102
}
  0
BLOCK_RECORD
  5
3EE
330
1
100
AcDbSymbolTableRecord
100
AcDbBlockTableRecord
  2
KLON24
340
0
102
{BLKREFS
331
3F3
102
}
  0
BLOCK_RECORD
  5
3F6
330
1
100
AcDbSymbolTableRecord
100
AcDbBlockTableRecord
  2
KLON25
340
0
102
{BLKREFS
331
3FB
102
}
  0
BLOCK_RECORD
  5
3FE
330
1
100
AcDbSymbolTableRecord
100
AcDbBlockTableRecord
  2
KLON26
340
0
102
{BLKREFS
331
403
102
}
  0
BLOCK_RECORD
  5
40C
330
1
100
AcDbSymbolTableRecord
100
AcDbBlockTableRecord
  2
*D31
340
0
  0
BLOCK_RECORD
  5
419
330
1
100
AcDbSymbolTableRecord
100
AcDbBlockTableRecord
  2
*D32
340
0
  0
BLOCK_RECORD
  5
491
330
1
100
AcDbSymbolTableRecord
100
AcDbBlockTableRecord
  2
KLON27
340
0
102
{BLKREFS
331
49D
102
}
  0
BLOCK_RECORD
  5
49F
330
1
100
AcDbSymbolTableRecord
100
AcDbBlockTableRecord
  2
KLON28
340
0
102
{BLKREFS
331
4AA
102
}
  0
BLOCK_RECORD
  5
4AC
330
1
100
AcDbSymbolTableRecord
100
AcDbBlockTableRecord
  2
*D35
340
0
  0
BLOCK_RECORD
  5
4BA
330
1
100
AcDbSymbolTableRecord
100
AcDbBlockTableRecord
  2
*D36
340
0
  0
BLOCK_RECORD
  5
4C8
330
1
100
AcDbSymbolTableRecord
100
AcDbBlockTableRecord
  2
KLON29
340
0
102
{BLKREFS
331
4CD
102
}
  0
BLOCK_RECORD
  5
4D1
330
1
100
AcDbSymbolTableRecord
100
AcDbBlockTableRecord
  2
KLON30
340
0
102
{BLKREFS
331
4D6
102
}
  0
BLOCK_RECORD
  5
4DA
330
1
100
AcDbSymbolTableRecord
100
AcDbBlockTableRecord
  2
POLY1
340
0
102
{BLKREFS
331
4E9
102
}
  0
BLOCK_RECORD
  5
4EA
330
1
100
AcDbSymbolTableRecord
100
AcDbBlockTableRecord
  2
POLY2
340
0
102
{BLKREFS
331
4F9
102
}
  0
BLOCK_RECORD
  5
4FA
330
1
100
AcDbSymbolTableRecord
100
AcDbBlockTableRecord
  2
POLY3
340
0
102
{BLKREFS
331
509
102
}
  0
BLOCK_RECORD
  5
50A
330
1
100
AcDbSymbolTableRecord
100
AcDbBlockTableRecord
  2
POLY4
340
0
102
{BLKREFS
331
519
102
}
  0
BLOCK_RECORD
  5
524
330
1
100
AcDbSymbolTableRecord
100
AcDbBlockTableRecord
  2
POLY5
340
0
102
{BLKREFS
331
533
102
}
  0
BLOCK_RECORD
  5
536
330
1
100
AcDbSymbolTableRecord
100
AcDbBlockTableRecord
  2
POLY6
340
0
102
{BLKREFS
331
545
102
}
  0
BLOCK_RECORD
  5
59F
330
1
100
AcDbSymbolTableRecord
100
AcDbBlockTableRecord
  2
POLY7
340
0
102
{BLKREFS
331
5AE
102
}
  0
BLOCK_RECORD
  5
5AF
330
1
100
AcDbSymbolTableRecord
100
AcDbBlockTableRecord
  2
POLY8
340
0
102
{BLKREFS
331
5BE
102
}
  0
BLOCK_RECORD
  5
5C3
330
1
100
AcDbSymbolTableRecord
100
AcDbBlockTableRecord
  2
POLY9
340
0
102
{BLKREFS
331
5D4
102
}
  0
BLOCK_RECORD
  5
5D5
330
1
100
AcDbSymbolTableRecord
100
AcDbBlockTableRecord
  2
POLY10
340
0
102
{BLKREFS
331
5E6
102
}
  0
BLOCK_RECORD
  5
5F0
330
1
100
AcDbSymbolTableRecord
100
AcDbBlockTableRecord
  2
POLY11
340
0
102
{BLKREFS
331
5FB
102
}
  0
BLOCK_RECORD
  5
661
330
1
100
AcDbSymbolTableRecord
100
AcDbBlockTableRecord
  2
POLY12
340
0
102
{BLKREFS
331
66E
102
}
  0
BLOCK_RECORD
  5
682
330
1
100
AcDbSymbolTableRecord
100
AcDbBlockTableRecord
  2
KLON31
340
0
102
{BLKREFS
331
687
102
}
  0
BLOCK_RECORD
  5
68D
330
1
100
AcDbSymbolTableRecord
100
AcDbBlockTableRecord
  2
POLY13
340
0
102
{BLKREFS
331
6A0
102
}
  0
BLOCK_RECORD
  5
6A3
330
1
100
AcDbSymbolTableRecord
100
AcDbBlockTableRecord
  2
KLON32
340
0
102
{BLKREFS
331
6A8
102
}
  0
BLOCK_RECORD
  5
6B1
330
1
100
AcDbSymbolTableRecord
100
AcDbBlockTableRecord
  2
POLY14
340
0
102
{BLKREFS
331
6BE
102
}
  0
BLOCK_RECORD
  5
6CF
330
1
100
AcDbSymbolTableRecord
100
AcDbBlockTableRecord
  2
POLY15
340
0
102
{BLKREFS
331
6F0
102
}
  0
BLOCK_RECORD
  5
6F9
330
1
100
AcDbSymbolTableRecord
100
AcDbBlockTableRecord
  2
KLON33
340
0
102
{BLKREFS
331
700
102
}
  0
BLOCK_RECORD
  5
701
330
1
100
AcDbSymbolTableRecord
100
AcDbBlockTableRecord
  2
KLON34
340
0
102
{BLKREFS
331
70D
102
}
  0
BLOCK_RECORD
  5
70E
330
1
100
AcDbSymbolTableRecord
100
AcDbBlockTableRecord
  2
KLON35
340
0
102
{BLKREFS
331
713
102
}
  0
BLOCK_RECORD
  5
714
330
1
100
AcDbSymbolTableRecord
100
AcDbBlockTableRecord
  2
KLON36
340
0
102
{BLKREFS
331
719
102
}
  0
BLOCK_RECORD
  5
71B
330
1
100
AcDbSymbolTableRecord
100
AcDbBlockTableRecord
  2
KLON37
340
0
102
{BLKREFS
331
722
102
}
  0
BLOCK_RECORD
  5
723
330
1
100
AcDbSymbolTableRecord
100
AcDbBlockTableRecord
  2
KLON38
340
0
102
{BLKREFS
331
728
102
}
  0
BLOCK_RECORD
  5
729
330
1
100
AcDbSymbolTableRecord
100
AcDbBlockTableRecord
  2
KLON39
340
0
102
{BLKREFS
331
72F
102
}
  0
BLOCK_RECORD
  5
730
330
1
100
AcDbSymbolTableRecord
100
AcDbBlockTableRecord
  2
KLON40
340
0
102
{BLKREFS
331
737
102
}
  0
BLOCK_RECORD
  5
739
330
1
100
AcDbSymbolTableRecord
100
AcDbBlockTableRecord
  2
*D64
340
0
  0
BLOCK_RECORD
  5
747
330
1
100
AcDbSymbolTableRecord
100
AcDbBlockTableRecord
  2
*D65
340
0
  0
BLOCK_RECORD
  5
756
330
1
100
AcDbSymbolTableRecord
100
AcDbBlockTableRecord
  2
*D66
340
0
  0
BLOCK_RECORD
  5
767
330
1
100
AcDbSymbolTableRecord
100
AcDbBlockTableRecord
  2
*D67
340
0
  0
BLOCK_RECORD
  5
775
330
1
100
AcDbSymbolTableRecord
100
AcDbBlockTableRecord
  2
*D68
340
0
  0
ENDTAB
  0
ENDSEC
  0
SECTION
  2
BLOCKS
  0
BLOCK
  5
20
330
1F
100
AcDbEntity
  8
0
100
AcDbBlockBegin
  2
*Model_Space
 70
     0
 71
     0
 10
0.0
 20
0.0
 30
0.0
  3
*Model_Space
  1

  0
ENDBLK
  5
21
330
1F
100
AcDbEntity
  8
0
100
AcDbBlockEnd
  0
BLOCK
  5
1C
330
1B
100
AcDbEntity
 67
     1
  8
0
100
AcDbBlockBegin
  2
*Paper_Space
 70
     0
 71
     0
 10
0.0
 20
0.0
 30
0.0
  3
*Paper_Space
  1

  0
ENDBLK
  5
1D
330
1B
100
AcDbEntity
 67
     1
  8
0
100
AcDbBlockEnd
  0
BLOCK
  5
24
330
23
100
AcDbEntity
  8
0
100
AcDbBlockBegin
  2
*Paper_Space0
 70
     0
 71
     0
 10
0.0
 20
0.0
 30
0.0
  3
*Paper_Space0
  1

  0
ENDBLK
  5
25
330
23
100
AcDbEntity
  8
0
100
AcDbBlockEnd
  0
BLOCK
  5
51
330
50
100
AcDbEntity
  8
0
100
AcDbBlockBegin
  2
KLON1
 70
     0
 71
     0
 10
0.0
 20
0.0
 30
0.0
  3
KLON1
  1

  4
KLON1
  0
LINE
  5
53
330
50
100
AcDbEntity
  8
LC-001-100-D00-0
 62
     7
370
    15
100
AcDbLine
 10
860.451566
 20
48.878687
 30
0.0
 11
860.464203
 21
48.797806
 31
0.0
  0
LINE
  5
54
330
50
100
AcDbEntity
  8
LC-001-100-D00-0
 62
     7
370
    15
100
AcDbLine
 10
860.464203
 20
48.797806
 30
0.0
 11
860.472994
 21
48.741597
 31
0.0
  0
LINE
  5
55
330
50
100
AcDbEntity
  8
LC-001-100-D00-0
 62
     7
370
    15
100
AcDbLine
 10
860.472994
 20
48.741597
 30
0.0
 11
860.475528
 21
48.725498
 31
0.0
  0
LINE
  5
56
330
50
100
AcDbEntity
  8
LC-001-100-D00-0
 62
     7
370
    15
100
AcDbLine
 10
860.475528
 20
48.725498
 30
0.0
 11
860.477763
 21
48.711213
 31
0.0
  0
ENDBLK
  5
52
330
50
100
AcDbEntity
  8
0
100
AcDbBlockEnd
  0
BLOCK
  5
5A
330
59
100
AcDbEntity
  8
0
100
AcDbBlockBegin
  2
KLON2
 70
     0
 71
     0
 10
0.0
 20
0.0
 30
0.0
  3
KLON2
  1

  4
KLON2
  0
LINE
  5
5C
330
59
100
AcDbEntity
  8
LC-001-100-D00-0
 62
     7
370
    15
100
AcDbLine
 10
860.451566
 20
60.041379
 30
0.0
 11
860.462146
 21
60.047289
 31
0.0
  0
LINE
  5
5D
330
59
100
AcDbEntity
  8
LC-001-100-D00-0
 62
     7
370
    15
100
AcDbLine
 10
860.462146
 20
60.047289
 30
0.0
 11
860.477763
 21
60.056017
 31
0.0
  0
ENDBLK
  5
5B
330
59
100
AcDbEntity
  8
0
100
AcDbBlockEnd
  0
BLOCK
  5
60
330
5F
100
AcDbEntity
  8
0
100
AcDbBlockBegin
  2
KLON3
 70
     0
 71
     0
 10
0.0
 20
0.0
 30
0.0
  3
KLON3
  1

  4
KLON3
  0
LINE
  5
62
330
5F
100
AcDbEntity
  8
LC-001-100-D00-0
 62
     7
370
    15
100
AcDbLine
 10
860.451566
 20
13.056019
 30
0.0
 11
860.458987
 21
13.017846
 31
0.0
  0
LINE
  5
63
330
5F
100
AcDbEntity
  8
LC-001-100-D00-0
 62
     7
370
    15
100
AcDbLine
 10
860.458987
 20
13.017846
 30
0.0
 11
860.477763
 21
12.985361
 31
0.0
  0
ENDBLK
  5
61
330
5F
100
AcDbEntity
  8
0
100
AcDbBlockEnd
  0
BLOCK
  5
66
330
65
100
AcDbEntity
  8
0
100
AcDbBlockBegin
  2
KLON4
 70
     0
 71
     0
 10
0.0
 20
0.0
 30
0.0
  3
KLON4
  1

  4
KLON4
  0
LINE
  5
68
330
65
100
AcDbEntity
  8
LC-001-100-D00-0
 62
     7
370
    15
100
AcDbLine
 10
-123.496068
 20
60.041379
 30
0.0
 11
-123.506648
 21
60.047289
 31
0.0
  0
LINE
  5
69
330
65
100
AcDbEntity
  8
LC-001-100-D00-0
 62
     7
370
    15
100
AcDbLine
 10
-123.506648
 20
60.047289
 30
0.0
 11
-123.522264
 21
60.056017
 31
0.0
  0
ENDBLK
  5
67
330
65
100
AcDbEntity
  8
0
100
AcDbBlockEnd
  0
BLOCK
  5
6D
330
6C
100
AcDbEntity
  8
0
100
AcDbBlockBegin
  2
KLON5
 70
     0
 71
     0
 10
0.0
 20
0.0
 30
0.0
  3
KLON5
  1

  4
KLON5
  0
LINE
  5
6F
330
6C
100
AcDbEntity
  8
LC-001-100-D00-0
 62
     7
370
    15
100
AcDbLine
 10
-123.496068
 20
48.878687
 30
0.0
 11
-123.508704
 21
48.797806
 31
0.0
  0
LINE
  5
70
330
6C
100
AcDbEntity
  8
LC-001-100-D00-0
 62
     7
370
    15
100
AcDbLine
 10
-123.508704
 20
48.797806
 30
0.0
 11
-123.517496
 21
48.741597
 31
0.0
  0
LINE
  5
71
330
6C
100
AcDbEntity
  8
LC-001-100-D00-0
 62
     7
370
    15
100
AcDbLine
 10
-123.517496
 20
48.741597
 30
0.0
 11
-123.520029
 21
48.725498
 31
0.0
  0
LINE
  5
72
330
6C
100
AcDbEntity
  8
LC-001-100-D00-0
 62
     7
370
    15
100
AcDbLine
 10
-123.520029
 20
48.725498
 30
0.0
 11
-123.522264
 21
48.711213
 31
0.0
  0
ENDBLK
  5
6E
330
6C
100
AcDbEntity
  8
0
100
AcDbBlockEnd
  0
BLOCK
  5
77
330
76
100
AcDbEntity
  8
0
100
AcDbBlockBegin
  2
KLON6
 70
     0
 71
     0
 10
0.0
 20
0.0
 30
0.0
  3
KLON6
  1

  4
KLON6
  0
LINE
  5
79
330
76
100
AcDbEntity
  8
LC-001-100-D00-0
 62
     7
370
    15
100
AcDbLine
 10
-123.496068
 20
13.056019
 30
0.0
 11
-123.503489
 21
13.017846
 31
0.0
  0
LINE
  5
7A
330
76
100
AcDbEntity
  8
LC-001-100-D00-0
 62
     7
370
    15
100
AcDbLine
 10
-123.503489
 20
13.017846
 30
0.0
 11
-123.522264
 21
12.985361
 31
0.0
  0
ENDBLK
  5
78
330
76
100
AcDbEntity
  8
0
100
AcDbBlockEnd
  0
BLOCK
  5
8A
330
89
100
AcDbEntity
  8
0
100
AcDbBlockBegin
  2
KLON7
 70
     0
 71
     0
 10
0.0
 20
0.0
 30
0.0
  3
KLON7
  1

  4
KLON7
  0
LINE
  5
8C
330
89
100
AcDbEntity
  8
LC-001-100-D00-0
 62
     7
370
    15
100
AcDbLine
 10
860.423046
 20
24.222609
 30
0.0
 11
860.439199
 21
24.228694
 31
0.0
  0
LINE
  5
8D
330
89
100
AcDbEntity
  8
LC-001-100-D00-0
 62
     7
370
    15
100
AcDbLine
 10
860.439199
 20
24.228694
 30
0.0
 11
860.451566
 21
24.233349
 31
0.0
  0
ENDBLK
  5
8B
330
89
100
AcDbEntity
  8
0
100
AcDbBlockEnd
  0
BLOCK
  5
90
330
8F
100
AcDbEntity
  8
0
100
AcDbBlockBegin
  2
KLON8
 70
     0
 71
     0
 10
0.0
 20
0.0
 30
0.0
  3
KLON8
  1

  4
KLON8
  0
LINE
  5
92
330
8F
100
AcDbEntity
  8
LC-001-100-D00-0
 62
     7
370
    15
100
AcDbLine
 10
-123.467547
 20
24.222609
 30
0.0
 11
-123.4837
 21
24.228694
 31
0.0
  0
LINE
  5
93
330
8F
100
AcDbEntity
  8
LC-001-100-D00-0
 62
     7
370
    15
100
AcDbLine
 10
-123.4837
 20
24.228694
 30
0.0
 11
-123.496068
 21
24.233349
 31
0.0
  0
ENDBLK
  5
91
330
8F
100
AcDbEntity
  8
0
100
AcDbBlockEnd
  0
BLOCK
  5
97
330
96
100
AcDbEntity
  8
0
100
AcDbBlockBegin
  2
KLON9
 70
     0
 71
     0
 10
0.0
 20
0.0
 30
0.0
  3
KLON9
  1

  4
KLON9
  0
LINE
  5
99
330
96
100
AcDbEntity
  8
LC-001-100-D00-0
 62
     7
370
    15
100
AcDbLine
 10
723.464685
 20
30.696801
 30
0.0
 11
723.476099
 21
31.110275
 31
0.0
  0
LINE
  5
9A
330
96
100
AcDbEntity
  8
LC-001-100-D00-0
 62
     7
370
    15
100
AcDbLine
 10
723.476099
 20
31.110275
 30
0.0
 11
723.487752
 21
31.533533
 31
0.0
  0
LINE
  5
9B
330
96
100
AcDbEntity
  8
LC-001-100-D00-0
 62
     7
370
    15
100
AcDbLine
 10
723.487752
 20
31.533533
 30
0.0
 11
723.499554
 21
31.961712
 31
0.0
  0
ENDBLK
  5
98
330
96
100
AcDbEntity
  8
0
100
AcDbBlockEnd
  0
BLOCK
  5
9E
330
9D
100
AcDbEntity
  8
0
100
AcDbBlockBegin
  2
KLON10
 70
     0
 71
     0
 10
0.0
 20
0.0
 30
0.0
  3
KLON10
  1

  4
KLON10
  0
LINE
  5
A0
330
9D
100
AcDbEntity
  8
LC-001-100-D00-0
 62
     7
370
    15
100
AcDbLine
 10
723.499554
 20
41.150324
 30
0.0
 11
723.487752
 21
41.578503
 31
0.0
  0
LINE
  5
A1
330
9D
100
AcDbEntity
  8
LC-001-100-D00-0
 62
     7
370
    15
100
AcDbLine
 10
723.487752
 20
41.578503
 30
0.0
 11
723.476099
 21
42.001761
 31
0.0
  0
LINE
  5
A2
330
9D
100
AcDbEntity
  8
LC-001-100-D00-0
 62
     7
370
    15
100
AcDbLine
 10
723.476099
 20
42.001761
 30
0.0
 11
723.464685
 21
42.415235
 31
0.0
  0
ENDBLK
  5
9F
330
9D
100
AcDbEntity
  8
0
100
AcDbBlockEnd
  0
BLOCK
  5
A5
330
A4
100
AcDbEntity
  8
0
100
AcDbBlockBegin
  2
KLON11
 70
     0
 71
     0
 10
0.0
 20
0.0
 30
0.0
  3
KLON11
  1

  4
KLON11
  0
LINE
  5
A7
330
A4
100
AcDbEntity
  8
LC-001-100-D00-0
 62
     7
370
    15
100
AcDbLine
 10
860.423046
 20
48.889427
 30
0.0
 11
860.439199
 21
48.883343
 31
0.0
  0
LINE
  5
A8
330
A4
100
AcDbEntity
  8
LC-001-100-D00-0
 62
     7
370
    15
100
AcDbLine
 10
860.439199
 20
48.883343
 30
0.0
 11
860.451566
 21
48.878687
 31
0.0
  0
ENDBLK
  5
A6
330
A4
100
AcDbEntity
  8
0
100
AcDbBlockEnd
  0
BLOCK
  5
AB
330
AA
100
AcDbEntity
  8
0
100
AcDbBlockBegin
  2
KLON12
 70
     0
 71
     0
 10
0.0
 20
0.0
 30
0.0
  3
KLON12
  1

  4
KLON12
  0
LINE
  5
AD
330
AA
100
AcDbEntity
  8
LC-001-100-D00-0
 62
     7
370
    15
100
AcDbLine
 10
13.490813
 20
30.696801
 30
0.0
 11
13.479399
 21
31.110275
 31
0.0
  0
LINE
  5
AE
330
AA
100
AcDbEntity
  8
LC-001-100-D00-0
 62
     7
370
    15
100
AcDbLine
 10
13.479399
 20
31.110275
 30
0.0
 11
13.467746
 21
31.533533
 31
0.0
  0
LINE
  5
AF
330
AA
100
AcDbEntity
  8
LC-001-100-D00-0
 62
     7
370
    15
100
AcDbLine
 10
13.467746
 20
31.533533
 30
0.0
 11
13.455945
 21
31.961712
 31
0.0
  0
ENDBLK
  5
AC
330
AA
100
AcDbEntity
  8
0
100
AcDbBlockEnd
  0
BLOCK
  5
B2
330
B1
100
AcDbEntity
  8
0
100
AcDbBlockBegin
  2
KLON13
 70
     0
 71
     0
 10
0.0
 20
0.0
 30
0.0
  3
KLON13
  1

  4
KLON13
  0
LINE
  5
B4
330
B1
100
AcDbEntity
  8
LC-001-100-D00-0
 62
     7
370
    15
100
AcDbLine
 10
13.455945
 20
41.150324
 30
0.0
 11
13.467746
 21
41.578503
 31
0.0
  0
LINE
  5
B5
330
B1
100
AcDbEntity
  8
LC-001-100-D00-0
 62
     7
370
    15
100
AcDbLine
 10
13.467746
 20
41.578503
 30
0.0
 11
13.479399
 21
42.001761
 31
0.0
  0
LINE
  5
B6
330
B1
100
AcDbEntity
  8
LC-001-100-D00-0
 62
     7
370
    15
100
AcDbLine
 10
13.479399
 20
42.001761
 30
0.0
 11
13.490813
 21
42.415235
 31
0.0
  0
ENDBLK
  5
B3
330
B1
100
AcDbEntity
  8
0
100
AcDbBlockEnd
  0
BLOCK
  5
B9
330
B8
100
AcDbEntity
  8
0
100
AcDbBlockBegin
  2
KLON14
 70
     0
 71
     0
 10
0.0
 20
0.0
 30
0.0
  3
KLON14
  1

  4
KLON14
  0
LINE
  5
BB
330
B8
100
AcDbEntity
  8
LC-001-100-D00-0
 62
     7
370
    15
100
AcDbLine
 10
-123.467547
 20
48.889427
 30
0.0
 11
-123.4837
 21
48.883343
 31
0.0
  0
LINE
  5
BC
330
B8
100
AcDbEntity
  8
LC-001-100-D00-0
 62
     7
370
    15
100
AcDbLine
 10
-123.4837
 20
48.883343
 30
0.0
 11
-123.496068
 21
48.878687
 31
0.0
  0
ENDBLK
  5
BA
330
B8
100
AcDbEntity
  8
0
100
AcDbBlockEnd
  0
BLOCK
  5
111
330
106
100
AcDbEntity
  8
0
100
AcDbBlockBegin
  2
*D15
 70
     1
 71
     0
 10
0.0
 20
0.0
 30
0.0
  3
*D15
  1

  0
LINE
  5
107
330
106
100
AcDbEntity
  8
LC-001-100-D00-0
 62
     2
370
    -2
100
AcDbLine
 10
913.477749
 20
82.556018
 30
0.0
 11
1012.988593
 21
82.556018
 31
0.0
  0
LINE
  5
108
330
106
100
AcDbEntity
  8
LC-001-100-D00-0
 62
     2
370
    -2
100
AcDbLine
 10
913.477749
 20
81.056018
 30
0.0
 11
1012.988593
 21
81.056018
 31
0.0
  0
LINE
  5
109
330
106
100
AcDbEntity
  8
LC-001-100-D00-0
 62
     2
370
    -2
100
AcDbLine
 10
1003.988593
 20
132.556018
 30
0.0
 11
1003.988593
 21
182.556018
 31
0.0
  0
LINE
  5
10A
330
106
100
AcDbEntity
  8
LC-001-100-D00-0
 62
     2
370
    -2
100
AcDbLine
 10
1003.988593
 20
31.056018
 30
0.0
 11
1003.988593
 21
12.123763
 31
0.0
  0
SOLID
  5
10B
330
106
100
AcDbEntity
  8
LC-001-100-D00-0
 62
     2
100
AcDbTrace
 10
995.65526
 20
132.556018
 30
0.0
 11
1012.321927
 21
132.556018
 31
0.0
 12
1003.988593
 22
82.556018
 32
0.0
 13
1003.988593
 23
82.556018
 33
0.0
  0
SOLID
  5
10C
330
106
100
AcDbEntity
  8
LC-001-100-D00-0
 62
     2
100
AcDbTrace
 10
1012.321927
 20
31.056018
 30
0.0
 11
995.65526
 21
31.056018
 31
0.0
 12
1003.988593
 22
81.056018
 32
0.0
 13
1003.988593
 23
81.056018
 33
0.0
  0
MTEXT
  5
10D
330
106
100
AcDbEntity
  8
LC-001-100-D00-0
 62
     2
100
AcDbMText
 10
948.988593
 20
58.703446
 30
0.0
 40
50.0
 41
0.0
 71
     5
 72
     1
  1
\A1;1,5
  7
LCTX15-400-0-0pDIN-Schrift
 11
6.123031769111886E-17
 21
1.0
 31
0.0
 73
     1
 44
1.0
  0
POINT
  5
10E
330
106
100
AcDbEntity
  8
Defpoints
 62
     0
100
AcDbPoint
 10
913.477749
 20
82.556018
 30
0.0
  0
POINT
  5
10F
330
106
100
AcDbEntity
  8
Defpoints
 62
     0
100
AcDbPoint
 10
913.477749
 20
81.056018
 30
0.0
  0
POINT
  5
110
330
106
100
AcDbEntity
  8
Defpoints
 62
     0
100
AcDbPoint
 10
1003.988593
 20
81.056018
 30
0.0
  0
ENDBLK
  5
112
330
106
100
AcDbEntity
  8
0
100
AcDbBlockEnd
  0
BLOCK
  5
11F
330
114
100
AcDbEntity
  8
0
100
AcDbBlockBegin
  2
*D16
 70
     1
 71
     0
 10
0.0
 20
0.0
 30
0.0
  3
*D16
  1

  0
LINE
  5
115
330
114
100
AcDbEntity
  8
LC-001-100-D00-0
 62
     2
370
    -2
100
AcDbLine
 10
913.477749
 20
81.056018
 30
0.0
 11
1087.794635
 21
81.056018
 31
0.0
  0
LINE
  5
116
330
114
100
AcDbEntity
  8
LC-001-100-D00-0
 62
     2
370
    -2
100
AcDbLine
 10
865.977749
 20
62.556018
 30
0.0
 11
1087.794635
 21
62.556018
 31
0.0
  0
LINE
  5
117
330
114
100
AcDbEntity
  8
LC-001-100-D00-0
 62
     2
370
    -2
100
AcDbLine
 10
1078.794635
 20
131.056018
 30
0.0
 11
1078.794635
 21
181.056018
 31
0.0
  0
LINE
  5
118
330
114
100
AcDbEntity
  8
LC-001-100-D00-0
 62
     2
370
    -2
100
AcDbLine
 10
1078.794635
 20
12.556018
 30
0.0
 11
1078.794635
 21
-15.833856
 31
0.0
  0
SOLID
  5
119
330
114
100
AcDbEntity
  8
LC-001-100-D00-0
 62
     2
100
AcDbTrace
 10
1070.461302
 20
131.056018
 30
0.0
 11
1087.127968
 21
131.056018
 31
0.0
 12
1078.794635
 22
81.056018
 32
0.0
 13
1078.794635
 23
81.056018
 33
0.0
  0
SOLID
  5
11A
330
114
100
AcDbEntity
  8
LC-001-100-D00-0
 62
     2
100
AcDbTrace
 10
1087.127968
 20
12.556018
 30
0.0
 11
1070.461302
 21
12.556018
 31
0.0
 12
1078.794635
 22
62.556018
 32
0.0
 13
1078.794635
 23
62.556018
 33
0.0
  0
MTEXT
  5
11B
330
114
100
AcDbEntity
  8
LC-001-100-D00-0
 62
     2
100
AcDbMText
 10
1023.794635
 20
49.793446
 30
0.0
 40
50.0
 41
0.0
 71
     5
 72
     1
  1
\A1;18,5
  7
LCTX15-400-0-0pDIN-Schrift
 11
6.123031769111886E-17
 21
1.0
 31
0.0
 73
     1
 44
1.0
  0
POINT
  5
11C
330
114
100
AcDbEntity
  8
Defpoints
 62
     0
100
AcDbPoint
 10
913.477749
 20
81.056018
 30
0.0
  0
POINT
  5
11D
330
114
100
AcDbEntity
  8
Defpoints
 62
     0
100
AcDbPoint
 10
865.977749
 20
62.556018
 30
0.0
  0
POINT
  5
11E
330
114
100
AcDbEntity
  8
Defpoints
 62
     0
100
AcDbPoint
 10
1078.794635
 20
62.556018
 30
0.0
  0
ENDBLK
  5
120
330
114
100
AcDbEntity
  8
0
100
AcDbBlockEnd
  0
BLOCK
  5
12C
330
122
100
AcDbEntity
  8
0
100
AcDbBlockBegin
  2
*D17
 70
     1
 71
     0
 10
0.0
 20
0.0
 30
0.0
  3
*D17
  1

  0
LINE
  5
123
330
122
100
AcDbEntity
  8
LC-001-100-D00-0
 62
     2
370
    -2
100
AcDbLine
 10
913.477749
 20
82.556018
 30
0.0
 11
1157.44164
 21
82.556018
 31
0.0
  0
LINE
  5
124
330
122
100
AcDbEntity
  8
LC-001-100-D00-0
 62
     2
370
    -2
100
AcDbLine
 10
913.477749
 20
-40.943982
 30
0.0
 11
1157.44164
 21
-40.943982
 31
0.0
  0
LINE
  5
125
330
122
100
AcDbEntity
  8
LC-001-100-D00-0
 62
     2
370
    -2
100
AcDbLine
 10
1148.44164
 20
32.556018
 30
0.0
 11
1148.44164
 21
9.056018
 31
0.0
  0
SOLID
  5
126
330
122
100
AcDbEntity
  8
LC-001-100-D00-0
 62
     2
100
AcDbTrace
 10
1156.774973
 20
32.556018
 30
0.0
 11
1140.108306
 21
32.556018
 31
0.0
 12
1148.44164
 22
82.556018
 32
0.0
 13
1148.44164
 23
82.556018
 33
0.0
  0
SOLID
  5
127
330
122
100
AcDbEntity
  8
LC-001-100-D00-0
 62
     2
100
AcDbTrace
 10
1140.108306
 20
9.056018
 30
0.0
 11
1156.774973
 21
9.056018
 31
0.0
 12
1148.44164
 22
-40.943982
 32
0.0
 13
1148.44164
 23
-40.943982
 33
0.0
  0
MTEXT
  5
128
330
122
100
AcDbEntity
  8
LC-001-100-D00-0
 62
     2
100
AcDbMText
 10
1093.44164
 20
3.758446
 30
0.0
 40
50.0
 41
0.0
 71
     5
 72
     1
  1
\A1;123,5
  7
LCTX15-400-0-0pDIN-Schrift
 11
6.123031769111886E-17
 21
1.0
 31
0.0
 73
     1
 44
1.0
  0
POINT
  5
129
330
122
100
AcDbEntity
  8
Defpoints
 62
     0
100
AcDbPoint
 10
913.477749
 20
82.556018
 30
0.0
  0
POINT
  5
12A
330
122
100
AcDbEntity
  8
Defpoints
 62
     0
100
AcDbPoint
 10
913.477749
 20
-40.943982
 30
0.0
  0
POINT
  5
12B
330
122
100
AcDbEntity
  8
Defpoints
 62
     0
100
AcDbPoint
 10
1148.44164
 20
-40.943982
 30
0.0
  0
ENDBLK
  5
12D
330
122
100
AcDbEntity
  8
0
100
AcDbBlockEnd
  0
BLOCK
  5
349
330
348
100
AcDbEntity
  8
0
100
AcDbBlockBegin
  2
KLON15
 70
     0
 71
     0
 10
0.0
 20
0.0
 30
0.0
  3
KLON15
  1

  4
KLON15
  0
LINE
  5
34B
330
348
100
AcDbEntity
  8
LC-001-100-D00-0
 62
     7
370
    15
100
AcDbLine
 10
851.385444
 20
442.26661
 30
0.0
 11
853.941768
 21
442.359906
 31
0.0
  0
LINE
  5
34C
330
348
100
AcDbEntity
  8
LC-001-100-D00-0
 62
     7
370
    15
100
AcDbLine
 10
853.941768
 20
442.359906
 30
0.0
 11
856.087565
 21
442.438219
 31
0.0
  0
LINE
  5
34D
330
348
100
AcDbEntity
  8
LC-001-100-D00-0
 62
     7
370
    15
100
AcDbLine
 10
856.087565
 20
442.438219
 30
0.0
 11
857.817679
 21
442.501363
 31
0.0
  0
LINE
  5
34E
330
348
100
AcDbEntity
  8
LC-001-100-D00-0
 62
     7
370
    15
100
AcDbLine
 10
857.817679
 20
442.501363
 30
0.0
 11
859.128027
 21
442.549184
 31
0.0
  0
LINE
  5
34F
330
348
100
AcDbEntity
  8
LC-001-100-D00-0
 62
     7
370
    15
100
AcDbLine
 10
859.128027
 20
442.549184
 30
0.0
 11
860.015421
 21
442.581572
 31
0.0
  0
LINE
  5
350
330
348
100
AcDbEntity
  8
LC-001-100-D00-0
 62
     7
370
    15
100
AcDbLine
 10
860.015421
 20
442.581572
 30
0.0
 11
860.477775
 21
442.598446
 31
0.0
  0
ENDBLK
  5
34A
330
348
100
AcDbEntity
  8
0
100
AcDbBlockEnd
  0
BLOCK
  5
353
330
352
100
AcDbEntity
  8
0
100
AcDbBlockBegin
  2
KLON16
 70
     0
 71
     0
 10
0.0
 20
0.0
 30
0.0
  3
KLON16
  1

  4
KLON16
  0
LINE
  5
355
330
352
100
AcDbEntity
  8
LC-001-100-D00-0
 62
     7
370
    15
100
AcDbLine
 10
-114.429922
 20
442.26661
 30
0.0
 11
-116.986246
 21
442.359906
 31
0.0
  0
LINE
  5
356
330
352
100
AcDbEntity
  8
LC-001-100-D00-0
 62
     7
370
    15
100
AcDbLine
 10
-116.986246
 20
442.359906
 30
0.0
 11
-119.132043
 21
442.438219
 31
0.0
  0
LINE
  5
357
330
352
100
AcDbEntity
  8
LC-001-100-D00-0
 62
     7
370
    15
100
AcDbLine
 10
-119.132043
 20
442.438219
 30
0.0
 11
-120.862157
 21
442.501363
 31
0.0
  0
LINE
  5
358
330
352
100
AcDbEntity
  8
LC-001-100-D00-0
 62
     7
370
    15
100
AcDbLine
 10
-120.862157
 20
442.501363
 30
0.0
 11
-122.172505
 21
442.549184
 31
0.0
  0
LINE
  5
359
330
352
100
AcDbEntity
  8
LC-001-100-D00-0
 62
     7
370
    15
100
AcDbLine
 10
-122.172505
 20
442.549184
 30
0.0
 11
-123.059899
 21
442.581572
 31
0.0
  0
LINE
  5
35A
330
352
100
AcDbEntity
  8
LC-001-100-D00-0
 62
     7
370
    15
100
AcDbLine
 10
-123.059899
 20
442.581572
 30
0.0
 11
-123.522253
 21
442.598446
 31
0.0
  0
ENDBLK
  5
354
330
352
100
AcDbEntity
  8
0
100
AcDbBlockEnd
  0
BLOCK
  5
365
330
364
100
AcDbEntity
  8
0
100
AcDbBlockBegin
  2
KLON17
 70
     0
 71
     0
 10
0.0
 20
0.0
 30
0.0
  3
KLON17
  1

  4
KLON17
  0
LINE
  5
367
330
364
100
AcDbEntity
  8
LC-001-100-D00-0
 62
     7
370
    15
100
AcDbLine
 10
860.450386
 20
444.098445
 30
0.0
 11
860.449701
 21
444.136426
 31
0.0
  0
LINE
  5
368
330
364
100
AcDbEntity
  8
LC-001-100-D00-0
 62
     7
370
    15
100
AcDbLine
 10
860.449701
 20
444.136426
 30
0.0
 11
860.447645
 21
444.249213
 31
0.0
  0
LINE
  5
369
330
364
100
AcDbEntity
  8
LC-001-100-D00-0
 62
     7
370
    15
100
AcDbLine
 10
860.447645
 20
444.249213
 30
0.0
 11
860.444277
 21
444.433382
 31
0.0
  0
LINE
  5
36A
330
364
100
AcDbEntity
  8
LC-001-100-D00-0
 62
     7
370
    15
100
AcDbLine
 10
860.444277
 20
444.433382
 30
0.0
 11
860.439717
 21
444.683334
 31
0.0
  0
LINE
  5
36B
330
364
100
AcDbEntity
  8
LC-001-100-D00-0
 62
     7
370
    15
100
AcDbLine
 10
860.439717
 20
444.683334
 30
0.0
 11
860.434114
 21
444.991477
 31
0.0
  0
LINE
  5
36C
330
364
100
AcDbEntity
  8
LC-001-100-D00-0
 62
     7
370
    15
100
AcDbLine
 10
860.434114
 20
444.991477
 30
0.0
 11
860.427588
 21
445.348446
 31
0.0
  0
LINE
  5
36D
330
364
100
AcDbEntity
  8
LC-001-100-D00-0
 62
     7
370
    15
100
AcDbLine
 10
860.427588
 20
445.348446
 30
0.0
 11
860.420405
 21
445.743395
 31
0.0
  0
LINE
  5
36E
330
364
100
AcDbEntity
  8
LC-001-100-D00-0
 62
     7
370
    15
100
AcDbLine
 10
860.420405
 20
445.743395
 30
0.0
 11
860.412716
 21
446.164325
 31
0.0
  0
LINE
  5
36F
330
364
100
AcDbEntity
  8
LC-001-100-D00-0
 62
     7
370
    15
100
AcDbLine
 10
860.412716
 20
446.164325
 30
0.0
 11
860.404789
 21
446.598446
 31
0.0
  0
ENDBLK
  5
366
330
364
100
AcDbEntity
  8
0
100
AcDbBlockEnd
  0
BLOCK
  5
372
330
371
100
AcDbEntity
  8
0
100
AcDbBlockBegin
  2
KLON18
 70
     0
 71
     0
 10
0.0
 20
0.0
 30
0.0
  3
KLON18
  1

  4
KLON18
  0
LINE
  5
374
330
371
100
AcDbEntity
  8
LC-001-100-D00-0
 62
     7
370
    15
100
AcDbLine
 10
-123.494864
 20
444.098445
 30
0.0
 11
-123.494179
 21
444.136426
 31
0.0
  0
LINE
  5
375
330
371
100
AcDbEntity
  8
LC-001-100-D00-0
 62
     7
370
    15
100
AcDbLine
 10
-123.494179
 20
444.136426
 30
0.0
 11
-123.492122
 21
444.249213
 31
0.0
  0
LINE
  5
376
330
371
100
AcDbEntity
  8
LC-001-100-D00-0
 62
     7
370
    15
100
AcDbLine
 10
-123.492122
 20
444.249213
 30
0.0
 11
-123.488755
 21
444.433382
 31
0.0
  0
LINE
  5
377
330
371
100
AcDbEntity
  8
LC-001-100-D00-0
 62
     7
370
    15
100
AcDbLine
 10
-123.488755
 20
444.433382
 30
0.0
 11
-123.484195
 21
444.683334
 31
0.0
  0
LINE
  5
378
330
371
100
AcDbEntity
  8
LC-001-100-D00-0
 62
     7
370
    15
100
AcDbLine
 10
-123.484195
 20
444.683334
 30
0.0
 11
-123.478592
 21
444.991477
 31
0.0
  0
LINE
  5
379
330
371
100
AcDbEntity
  8
LC-001-100-D00-0
 62
     7
370
    15
100
AcDbLine
 10
-123.478592
 20
444.991477
 30
0.0
 11
-123.472065
 21
445.348446
 31
0.0
  0
LINE
  5
37A
330
371
100
AcDbEntity
  8
LC-001-100-D00-0
 62
     7
370
    15
100
AcDbLine
 10
-123.472065
 20
445.348446
 30
0.0
 11
-123.464883
 21
445.743395
 31
0.0
  0
LINE
  5
37B
330
371
100
AcDbEntity
  8
LC-001-100-D00-0
 62
     7
370
    15
100
AcDbLine
 10
-123.464883
 20
445.743395
 30
0.0
 11
-123.457194
 21
446.164325
 31
0.0
  0
LINE
  5
37C
330
371
100
AcDbEntity
  8
LC-001-100-D00-0
 62
     7
370
    15
100
AcDbLine
 10
-123.457194
 20
446.164325
 30
0.0
 11
-123.449267
 21
446.598446
 31
0.0
  0
ENDBLK
  5
373
330
371
100
AcDbEntity
  8
0
100
AcDbBlockEnd
  0
BLOCK
  5
39A
330
38F
100
AcDbEntity
  8
0
100
AcDbBlockBegin
  2
*D22
 70
     1
 71
     0
 10
0.0
 20
0.0
 30
0.0
  3
*D22
  1

  0
LINE
  5
390
330
38F
100
AcDbEntity
  8
LC-001-100-D00-0
 62
     2
370
    -2
100
AcDbLine
 10
-181.522239
 20
464.598446
 30
0.0
 11
-225.157332
 21
464.598446
 31
0.0
  0
LINE
  5
391
330
38F
100
AcDbEntity
  8
LC-001-100-D00-0
 62
     2
370
    -2
100
AcDbLine
 10
-176.522239
 20
510.598446
 30
0.0
 11
-225.157332
 21
510.598446
 31
0.0
  0
LINE
  5
392
330
38F
100
AcDbEntity
  8
LC-001-100-D00-0
 62
     2
370
    -2
100
AcDbLine
 10
-216.157332
 20
414.598446
 30
0.0
 11
-216.157332
 21
364.598446
 31
0.0
  0
LINE
  5
393
330
38F
100
AcDbEntity
  8
LC-001-100-D00-0
 62
     2
370
    -2
100
AcDbLine
 10
-216.157332
 20
560.598446
 30
0.0
 11
-216.157332
 21
607.525875
 31
0.0
  0
SOLID
  5
394
330
38F
100
AcDbEntity
  8
LC-001-100-D00-0
 62
     2
100
AcDbTrace
 10
-207.823998
 20
414.598446
 30
0.0
 11
-224.490665
 21
414.598446
 31
0.0
 12
-216.157332
 22
464.598446
 32
0.0
 13
-216.157332
 23
464.598446
 33
0.0
  0
SOLID
  5
395
330
38F
100
AcDbEntity
  8
LC-001-100-D00-0
 62
     2
100
AcDbTrace
 10
-224.490665
 20
560.598446
 30
0.0
 11
-207.823998
 21
560.598446
 31
0.0
 12
-216.157332
 22
510.598446
 32
0.0
 13
-216.157332
 23
510.598446
 33
0.0
  0
MTEXT
  5
396
330
38F
100
AcDbEntity
  8
LC-001-100-D00-0
 62
     2
100
AcDbMText
 10
-271.157332
 20
565.088446
 30
0.0
 40
50.0
 41
0.0
 71
     5
 72
     1
  1
\A1;46
  7
LCTX15-400-0-0pDIN-Schrift
 11
6.123031769111886E-17
 21
1.0
 31
0.0
 73
     1
 44
1.0
  0
POINT
  5
397
330
38F
100
AcDbEntity
  8
Defpoints
 62
     0
100
AcDbPoint
 10
-181.522239
 20
464.598446
 30
0.0
  0
POINT
  5
398
330
38F
100
AcDbEntity
  8
Defpoints
 62
     0
100
AcDbPoint
 10
-176.522239
 20
510.598446
 30
0.0
  0
POINT
  5
399
330
38F
100
AcDbEntity
  8
Defpoints
 62
     0
100
AcDbPoint
 10
-216.157332
 20
510.598446
 30
0.0
  0
ENDBLK
  5
39B
330
38F
100
AcDbEntity
  8
0
100
AcDbBlockEnd
  0
BLOCK
  5
39D
330
39C
100
AcDbEntity
  8
0
100
AcDbBlockBegin
  2
KLON19
 70
     0
 71
     0
 10
0.0
 20
0.0
 30
0.0
  3
KLON19
  1

  4
KLON19
  0
LINE
  5
39F
330
39C
100
AcDbEntity
  8
LC-001-100-D00-0
 62
     7
370
    25
100
AcDbLine
 10
908.412599
 20
463.098446
 30
0.0
 11
909.912599
 21
464.598446
 31
0.0
  0
LINE
  5
3A0
330
39C
100
AcDbEntity
  8
LC-001-100-D00-0
 62
     7
370
    25
100
AcDbLine
 10
885.96196
 20
463.098446
 30
0.0
 11
887.46196
 21
464.598446
 31
0.0
  0
LINE
  5
3A1
330
39C
100
AcDbEntity
  8
LC-001-100-D00-0
 62
     7
370
    25
100
AcDbLine
 10
843.011322
 20
442.598446
 30
0.0
 11
844.511322
 21
444.098446
 31
0.0
  0
LINE
  5
3A2
330
39C
100
AcDbEntity
  8
LC-001-100-D00-0
 62
     7
370
    25
100
AcDbLine
 10
820.560682
 20
442.598446
 30
0.0
 11
822.060682
 21
444.098446
 31
0.0
  0
LINE
  5
3A3
330
39C
100
AcDbEntity
  8
LC-001-100-D00-0
 62
     7
370
    25
100
AcDbLine
 10
834.477761
 20
456.515525
 30
0.0
 11
841.769221
 21
463.806986
 31
0.0
  0
LINE
  5
3A4
330
39C
100
AcDbEntity
  8
LC-001-100-D00-0
 62
     7
370
    25
100
AcDbLine
 10
798.110043
 20
442.598446
 30
0.0
 11
799.610043
 21
444.098446
 31
0.0
  0
LINE
  5
3A5
330
39C
100
AcDbEntity
  8
LC-001-100-D00-0
 62
     7
370
    25
100
AcDbLine
 10
775.659403
 20
442.598446
 30
0.0
 11
777.159403
 21
444.098446
 31
0.0
  0
LINE
  5
3A6
330
39C
100
AcDbEntity
  8
LC-001-100-D00-0
 62
     7
370
    25
100
AcDbLine
 10
753.208764
 20
442.598446
 30
0.0
 11
754.708764
 21
444.098446
 31
0.0
  0
LINE
  5
3A7
330
39C
100
AcDbEntity
  8
LC-001-100-D00-0
 62
     7
370
    25
100
AcDbLine
 10
730.758124
 20
442.598446
 30
0.0
 11
732.258124
 21
444.098446
 31
0.0
  0
LINE
  5
3A8
330
39C
100
AcDbEntity
  8
LC-001-100-D00-0
 62
     7
370
    25
100
AcDbLine
 10
708.307485
 20
442.598446
 30
0.0
 11
709.807485
 21
444.098446
 31
0.0
  0
LINE
  5
3A9
330
39C
100
AcDbEntity
  8
LC-001-100-D00-0
 62
     7
370
    25
100
AcDbLine
 10
685.856845
 20
442.598446
 30
0.0
 11
687.356845
 21
444.098446
 31
0.0
  0
LINE
  5
3AA
330
39C
100
AcDbEntity
  8
LC-001-100-D00-0
 62
     7
370
    25
100
AcDbLine
 10
663.406206
 20
442.598446
 30
0.0
 11
664.906206
 21
444.098446
 31
0.0
  0
LINE
  5
3AB
330
39C
100
AcDbEntity
  8
LC-001-100-D00-0
 62
     7
370
    25
100
AcDbLine
 10
640.955566
 20
442.598446
 30
0.0
 11
642.455566
 21
444.098446
 31
0.0
  0
LINE
  5
3AC
330
39C
100
AcDbEntity
  8
LC-001-100-D00-0
 62
     7
370
    25
100
AcDbLine
 10
649.477761
 20
451.120641
 30
0.0
 11
657.477761
 21
459.120641
 31
0.0
  0
LINE
  5
3AD
330
39C
100
AcDbEntity
  8
LC-001-100-D00-0
 62
     7
370
    25
100
AcDbLine
 10
618.504927
 20
442.598446
 30
0.0
 11
620.004927
 21
444.098446
 31
0.0
  0
LINE
  5
3AE
330
39C
100
AcDbEntity
  8
LC-001-100-D00-0
 62
     7
370
    25
100
AcDbLine
 10
596.054287
 20
442.598446
 30
0.0
 11
597.554287
 21
444.098446
 31
0.0
  0
LINE
  5
3AF
330
39C
100
AcDbEntity
  8
LC-001-100-D00-0
 62
     7
370
    25
100
AcDbLine
 10
573.603648
 20
442.598446
 30
0.0
 11
575.103648
 21
444.098446
 31
0.0
  0
LINE
  5
3B0
330
39C
100
AcDbEntity
  8
LC-001-100-D00-0
 62
     7
370
    25
100
AcDbLine
 10
551.153008
 20
442.598446
 30
0.0
 11
552.653008
 21
444.098446
 31
0.0
  0
LINE
  5
3B1
330
39C
100
AcDbEntity
  8
LC-001-100-D00-0
 62
     7
370
    25
100
AcDbLine
 10
528.702369
 20
442.598446
 30
0.0
 11
530.202369
 21
444.098446
 31
0.0
  0
LINE
  5
3B2
330
39C
100
AcDbEntity
  8
LC-001-100-D00-0
 62
     7
370
    25
100
AcDbLine
 10
506.25173
 20
442.598446
 30
0.0
 11
507.751729
 21
444.098446
 31
0.0
  0
LINE
  5
3B3
330
39C
100
AcDbEntity
  8
LC-001-100-D00-0
 62
     7
370
    25
100
AcDbLine
 10
483.80109
 20
442.598446
 30
0.0
 11
485.30109
 21
444.098446
 31
0.0
  0
LINE
  5
3B4
330
39C
100
AcDbEntity
  8
LC-001-100-D00-0
 62
     7
370
    25
100
AcDbLine
 10
461.062182
 20
442.310177
 30
0.0
 11
462.85045
 21
444.098446
 31
0.0
  0
LINE
  5
3B5
330
39C
100
AcDbEntity
  8
LC-001-100-D00-0
 62
     7
370
    25
100
AcDbLine
 10
463.977761
 20
445.225756
 30
0.0
 11
464.25045
 21
445.498446
 31
0.0
  0
LINE
  5
3B6
330
39C
100
AcDbEntity
  8
LC-001-100-D00-0
 62
     7
370
    25
100
AcDbLine
 10
465.191792
 20
446.439787
 30
0.0
 11
472.477761
 21
453.725757
 31
0.0
  0
LINE
  5
3B7
330
39C
100
AcDbEntity
  8
LC-001-100-D00-0
 62
     7
370
    25
100
AcDbLine
 10
433.899811
 20
437.598446
 30
0.0
 11
435.399811
 21
439.098446
 31
0.0
  0
ENDBLK
  5
39E
330
39C
100
AcDbEntity
  8
0
100
AcDbBlockEnd
  0
BLOCK
  5
3BA
330
3B9
100
AcDbEntity
  8
0
100
AcDbBlockBegin
  2
KLON20
 70
     0
 71
     0
 10
0.0
 20
0.0
 30
0.0
  3
KLON20
  1

  4
KLON20
  0
LINE
  5
3BC
330
3B9
100
AcDbEntity
  8
LC-001-100-D00-0
 62
     7
370
    25
100
AcDbLine
 10
299.195975
 20
437.598446
 30
0.0
 11
300.618632
 21
439.021103
 31
0.0
  0
LINE
  5
3BD
330
3B9
100
AcDbEntity
  8
LC-001-100-D00-0
 62
     7
370
    25
100
AcDbLine
 10
280.281313
 20
441.134423
 30
0.0
 11
281.506057
 21
442.359168
 31
0.0
  0
LINE
  5
3BE
330
3B9
100
AcDbEntity
  8
LC-001-100-D00-0
 62
     7
370
    25
100
AcDbLine
 10
259.294695
 20
442.598446
 30
0.0
 11
260.794695
 21
444.098446
 31
0.0
  0
LINE
  5
3BF
330
3B9
100
AcDbEntity
  8
LC-001-100-D00-0
 62
     7
370
    25
100
AcDbLine
 10
264.85636
 20
448.160111
 30
0.0
 11
272.477761
 21
455.781512
 31
0.0
  0
LINE
  5
3C0
330
3B9
100
AcDbEntity
  8
LC-001-100-D00-0
 62
     7
370
    25
100
AcDbLine
 10
236.844056
 20
442.598446
 30
0.0
 11
238.344056
 21
444.098446
 31
0.0
  0
LINE
  5
3C1
330
3B9
100
AcDbEntity
  8
LC-001-100-D00-0
 62
     7
370
    25
100
AcDbLine
 10
214.393416
 20
442.598446
 30
0.0
 11
215.893416
 21
444.098446
 31
0.0
  0
LINE
  5
3C2
330
3B9
100
AcDbEntity
  8
LC-001-100-D00-0
 62
     7
370
    25
100
AcDbLine
 10
191.942777
 20
442.598446
 30
0.0
 11
193.442777
 21
444.098446
 31
0.0
  0
LINE
  5
3C3
330
3B9
100
AcDbEntity
  8
LC-001-100-D00-0
 62
     7
370
    25
100
AcDbLine
 10
169.492137
 20
442.598446
 30
0.0
 11
170.992137
 21
444.098446
 31
0.0
  0
LINE
  5
3C4
330
3B9
100
AcDbEntity
  8
LC-001-100-D00-0
 62
     7
370
    25
100
AcDbLine
 10
147.041498
 20
442.598446
 30
0.0
 11
148.541498
 21
444.098446
 31
0.0
  0
LINE
  5
3C5
330
3B9
100
AcDbEntity
  8
LC-001-100-D00-0
 62
     7
370
    25
100
AcDbLine
 10
124.590858
 20
442.598446
 30
0.0
 11
126.090858
 21
444.098446
 31
0.0
  0
LINE
  5
3C6
330
3B9
100
AcDbEntity
  8
LC-001-100-D00-0
 62
     7
370
    25
100
AcDbLine
 10
102.140219
 20
442.598446
 30
0.0
 11
103.640219
 21
444.098446
 31
0.0
  0
LINE
  5
3C7
330
3B9
100
AcDbEntity
  8
LC-001-100-D00-0
 62
     7
370
    25
100
AcDbLine
 10
79.689579
 20
442.598446
 30
0.0
 11
87.477761
 21
450.386628
 31
0.0
  0
LINE
  5
3C8
330
3B9
100
AcDbEntity
  8
LC-001-100-D00-0
 62
     7
370
    25
100
AcDbLine
 10
57.23894
 20
442.598446
 30
0.0
 11
58.73894
 21
444.098446
 31
0.0
  0
LINE
  5
3C9
330
3B9
100
AcDbEntity
  8
LC-001-100-D00-0
 62
     7
370
    25
100
AcDbLine
 10
34.7883
 20
442.598446
 30
0.0
 11
36.2883
 21
444.098446
 31
0.0
  0
LINE
  5
3CA
330
3B9
100
AcDbEntity
  8
LC-001-100-D00-0
 62
     7
370
    25
100
AcDbLine
 10
12.337661
 20
442.598446
 30
0.0
 11
13.837661
 21
444.098446
 31
0.0
  0
LINE
  5
3CB
330
3B9
100
AcDbEntity
  8
LC-001-100-D00-0
 62
     7
370
    25
100
AcDbLine
 10
-10.112979
 20
442.598446
 30
0.0
 11
-8.612979
 21
444.098446
 31
0.0
  0
LINE
  5
3CC
330
3B9
100
AcDbEntity
  8
LC-001-100-D00-0
 62
     7
370
    25
100
AcDbLine
 10
-32.563618
 20
442.598446
 30
0.0
 11
-31.063618
 21
444.098446
 31
0.0
  0
LINE
  5
3CD
330
3B9
100
AcDbEntity
  8
LC-001-100-D00-0
 62
     7
370
    25
100
AcDbLine
 10
-55.014258
 20
442.598446
 30
0.0
 11
-53.514258
 21
444.098446
 31
0.0
  0
LINE
  5
3CE
330
3B9
100
AcDbEntity
  8
LC-001-100-D00-0
 62
     7
370
    25
100
AcDbLine
 10
-77.464897
 20
442.598446
 30
0.0
 11
-75.964897
 21
444.098446
 31
0.0
  0
LINE
  5
3CF
330
3B9
100
AcDbEntity
  8
LC-001-100-D00-0
 62
     7
370
    25
100
AcDbLine
 10
-99.915536
 20
442.598446
 30
0.0
 11
-97.022239
 21
445.491743
 31
0.0
  0
LINE
  5
3D0
330
3B9
100
AcDbEntity
  8
LC-001-100-D00-0
 62
     7
370
    25
100
AcDbLine
 10
-122.366176
 20
442.598446
 30
0.0
 11
-120.866176
 21
444.098446
 31
0.0
  0
LINE
  5
3D1
330
3B9
100
AcDbEntity
  8
LC-001-100-D00-0
 62
     7
370
    25
100
AcDbLine
 10
-105.522239
 20
459.442384
 30
0.0
 11
-100.866178
 21
464.098446
 31
0.0
  0
LINE
  5
3D2
330
3B9
100
AcDbEntity
  8
LC-001-100-D00-0
 62
     7
370
    25
100
AcDbLine
 10
-133.022239
 20
454.393023
 30
0.0
 11
-131.522239
 21
455.893023
 31
0.0
  0
LINE
  5
3D3
330
3B9
100
AcDbEntity
  8
LC-001-100-D00-0
 62
     7
370
    25
100
AcDbLine
 10
-146.767456
 20
463.098446
 30
0.0
 11
-145.267457
 21
464.598446
 31
0.0
  0
LINE
  5
3D4
330
3B9
100
AcDbEntity
  8
LC-001-100-D00-0
 62
     7
370
    25
100
AcDbLine
 10
-169.218096
 20
463.098446
 30
0.0
 11
-167.718096
 21
464.598446
 31
0.0
  0
ENDBLK
  5
3BB
330
3B9
100
AcDbEntity
  8
0
100
AcDbBlockEnd
  0
BLOCK
  5
3D8
330
3D7
100
AcDbEntity
  8
0
100
AcDbBlockBegin
  2
KLON21
 70
     0
 71
     0
 10
0.0
 20
0.0
 30
0.0
  3
KLON21
  1

  4
KLON21
  0
LINE
  5
3DA
330
3D7
100
AcDbEntity
  8
LC-001-100-D00-0
 62
     7
370
    25
100
AcDbLine
 10
846.011322
 20
445.598446
 30
0.0
 11
848.227761
 21
447.814885
 31
0.0
  0
LINE
  5
3DB
330
3D7
100
AcDbEntity
  8
LC-001-100-D00-0
 62
     7
370
    25
100
AcDbLine
 10
842.377761
 20
464.415526
 30
0.0
 11
842.560681
 21
464.598446
 31
0.0
  0
ENDBLK
  5
3D9
330
3D7
100
AcDbEntity
  8
0
100
AcDbBlockEnd
  0
BLOCK
  5
3E0
330
3DF
100
AcDbEntity
  8
0
100
AcDbBlockBegin
  2
KLON22
 70
     0
 71
     0
 10
0.0
 20
0.0
 30
0.0
  3
KLON22
  1

  4
KLON22
  0
LINE
  5
3E2
330
3DF
100
AcDbEntity
  8
LC-001-100-D00-0
 62
     7
370
    25
100
AcDbLine
 10
-95.171386
 20
447.342596
 30
0.0
 11
-91.772239
 21
450.741744
 31
0.0
  0
LINE
  5
3E3
330
3DF
100
AcDbEntity
  8
LC-001-100-D00-0
 62
     7
370
    25
100
AcDbLine
 10
-84.915538
 20
457.598446
 30
0.0
 11
-83.272239
 21
459.241744
 31
0.0
  0
ENDBLK
  5
3E1
330
3DF
100
AcDbEntity
  8
0
100
AcDbBlockEnd
  0
BLOCK
  5
3E8
330
3E7
100
AcDbEntity
  8
0
100
AcDbBlockBegin
  2
KLON23
 70
     0
 71
     0
 10
0.0
 20
0.0
 30
0.0
  3
KLON23
  1

  4
KLON23
  0
LINE
  5
3EA
330
3E7
100
AcDbEntity
  8
LC-001-100-D00-0
 62
     7
370
    25
100
AcDbLine
 10
89.828614
 20
452.737481
 30
0.0
 11
93.227761
 21
456.136628
 31
0.0
  0
LINE
  5
3EB
330
3E7
100
AcDbEntity
  8
LC-001-100-D00-0
 62
     7
370
    25
100
AcDbLine
 10
98.689578
 20
461.598446
 30
0.0
 11
101.415518
 21
464.324386
 31
0.0
  0
ENDBLK
  5
3E9
330
3E7
100
AcDbEntity
  8
0
100
AcDbBlockEnd
  0
BLOCK
  5
3EF
330
3EE
100
AcDbEntity
  8
0
100
AcDbBlockBegin
  2
KLON24
 70
     0
 71
     0
 10
0.0
 20
0.0
 30
0.0
  3
KLON24
  1

  4
KLON24
  0
LINE
  5
3F1
330
3EE
100
AcDbEntity
  8
LC-001-100-D00-0
 62
     7
370
    25
100
AcDbLine
 10
644.143791
 20
445.78667
 30
0.0
 11
648.277761
 21
449.920641
 31
0.0
  0
LINE
  5
3F2
330
3EE
100
AcDbEntity
  8
LC-001-100-D00-0
 62
     7
370
    25
100
AcDbLine
 10
635.227761
 20
459.321281
 30
0.0
 11
640.504925
 21
464.598446
 31
0.0
  0
ENDBLK
  5
3F0
330
3EE
100
AcDbEntity
  8
0
100
AcDbBlockEnd
  0
BLOCK
  5
3F7
330
3F6
100
AcDbEntity
  8
0
100
AcDbBlockBegin
  2
KLON25
 70
     0
 71
     0
 10
0.0
 20
0.0
 30
0.0
  3
KLON25
  1

  4
KLON25
  0
LINE
  5
3F9
330
3F6
100
AcDbEntity
  8
LC-001-100-D00-0
 62
     7
370
    25
100
AcDbLine
 10
251.844055
 20
457.598446
 30
0.0
 11
253.227761
 21
458.982152
 31
0.0
  0
LINE
  5
3FA
330
3F6
100
AcDbEntity
  8
LC-001-100-D00-0
 62
     7
370
    25
100
AcDbLine
 10
255.844054
 20
461.598446
 30
0.0
 11
258.844054
 21
464.598446
 31
0.0
  0
ENDBLK
  5
3F8
330
3F6
100
AcDbEntity
  8
0
100
AcDbBlockEnd
  0
BLOCK
  5
3FF
330
3FE
100
AcDbEntity
  8
0
100
AcDbBlockBegin
  2
KLON26
 70
     0
 71
     0
 10
0.0
 20
0.0
 30
0.0
  3
KLON26
  1

  4
KLON26
  0
LINE
  5
401
330
3FE
100
AcDbEntity
  8
LC-001-100-D00-0
 62
     7
370
    25
100
AcDbLine
 10
472.377761
 20
453.625757
 30
0.0
 11
478.227761
 21
459.475757
 31
0.0
  0
LINE
  5
402
330
3FE
100
AcDbEntity
  8
LC-001-100-D00-0
 62
     7
370
    25
100
AcDbLine
 10
480.350449
 20
461.598446
 30
0.0
 11
483.350449
 21
464.598446
 31
0.0
  0
ENDBLK
  5
400
330
3FE
100
AcDbEntity
  8
0
100
AcDbBlockEnd
  0
BLOCK
  5
416
330
40C
100
AcDbEntity
  8
0
100
AcDbBlockBegin
  2
*D31
 70
     1
 71
     0
 10
0.0
 20
0.0
 30
0.0
  3
*D31
  1

  0
LINE
  5
40D
330
40C
100
AcDbEntity
  8
LC-002-003-----0
 62
     2
370
    -2
100
AcDbLine
 10
-181.522239
 20
505.598446
 30
0.0
 11
-181.522239
 21
657.703446
 31
0.0
  0
LINE
  5
40E
330
40C
100
AcDbEntity
  8
LC-002-003-----0
 62
     2
370
    -2
100
AcDbLine
 10
918.477761
 20
505.598446
 30
0.0
 11
918.477761
 21
657.703446
 31
0.0
  0
LINE
  5
40F
330
40C
100
AcDbEntity
  8
LC-002-003-----0
 62
     2
370
    -2
100
AcDbLine
 10
-131.522239
 20
648.703446
 30
0.0
 11
868.477761
 21
648.703446
 31
0.0
  0
SOLID
  5
410
330
40C
100
AcDbEntity
  8
LC-002-003-----0
 62
     2
100
AcDbTrace
 10
-131.522239
 20
657.036779
 30
0.0
 11
-131.522239
 21
640.370112
 31
0.0
 12
-181.522239
 22
648.703446
 32
0.0
 13
-181.522239
 23
648.703446
 33
0.0
  0
SOLID
  5
411
330
40C
100
AcDbEntity
  8
LC-002-003-----0
 62
     2
100
AcDbTrace
 10
868.477761
 20
640.370112
 30
0.0
 11
868.477761
 21
657.036779
 31
0.0
 12
918.477761
 22
648.703446
 32
0.0
 13
918.477761
 23
648.703446
 33
0.0
  0
MTEXT
  5
412
330
40C
100
AcDbEntity
  8
LC-002-003-----0
 62
     2
100
AcDbMText
 10
359.108923
 20
703.703446
 30
0.0
 40
50.0
 41
0.0
 71
     5
 72
     1
  1
\A1;1100
  7
LCTX15-400-0-0pDIN-Schrift
 73
     1
 44
1.0
  0
POINT
  5
413
330
40C
100
AcDbEntity
  8
Defpoints
 62
     0
100
AcDbPoint
 10
-181.522239
 20
505.598446
 30
0.0
  0
POINT
  5
414
330
40C
100
AcDbEntity
  8
Defpoints
 62
     0
100
AcDbPoint
 10
918.477761
 20
505.598446
 30
0.0
  0
POINT
  5
415
330
40C
100
AcDbEntity
  8
Defpoints
 62
     0
100
AcDbPoint
 10
918.477761
 20
648.703446
 30
0.0
  0
ENDBLK
  5
417
330
40C
100
AcDbEntity
  8
0
100
AcDbBlockEnd
  0
BLOCK
  5
423
330
419
100
AcDbEntity
  8
0
100
AcDbBlockBegin
  2
*D32
 70
     1
 71
     0
 10
0.0
 20
0.0
 30
0.0
  3
*D32
  1

  0
LINE
  5
41A
330
419
100
AcDbEntity
  8
LC-002-003-----0
 62
     2
370
    -2
100
AcDbLine
 10
-131.522239
 20
461.598446
 30
0.0
 11
-131.522239
 21
576.028446
 31
0.0
  0
LINE
  5
41B
330
419
100
AcDbEntity
  8
LC-002-003-----0
 62
     2
370
    -2
100
AcDbLine
 10
868.477761
 20
461.598446
 30
0.0
 11
868.477761
 21
576.028446
 31
0.0
  0
LINE
  5
41C
330
419
100
AcDbEntity
  8
LC-002-003-----0
 62
     2
370
    -2
100
AcDbLine
 10
-81.522239
 20
567.028446
 30
0.0
 11
818.477761
 21
567.028446
 31
0.0
  0
SOLID
  5
41D
330
419
100
AcDbEntity
  8
LC-002-003-----0
 62
     2
100
AcDbTrace
 10
-81.522239
 20
575.361779
 30
0.0
 11
-81.522239
 21
558.695112
 31
0.0
 12
-131.522239
 22
567.028446
 32
0.0
 13
-131.522239
 23
567.028446
 33
0.0
  0
SOLID
  5
41E
330
419
100
AcDbEntity
  8
LC-002-003-----0
 62
     2
100
AcDbTrace
 10
818.477761
 20
558.695112
 30
0.0
 11
818.477761
 21
575.361779
 31
0.0
 12
868.477761
 22
567.028446
 32
0.0
 13
868.477761
 23
567.028446
 33
0.0
  0
MTEXT
  5
41F
330
419
100
AcDbEntity
  8
LC-002-003-----0
 62
     2
100
AcDbMText
 10
364.26796
 20
622.028446
 30
0.0
 40
50.0
 41
0.0
 71
     5
 72
     1
  1
\A1;1000
  7
LCTX15-400-0-0pDIN-Schrift
 73
     1
 44
1.0
  0
POINT
  5
420
330
419
100
AcDbEntity
  8
Defpoints
 62
     0
100
AcDbPoint
 10
-131.522239
 20
461.598446
 30
0.0
  0
POINT
  5
421
330
419
100
AcDbEntity
  8
Defpoints
 62
     0
100
AcDbPoint
 10
868.477761
 20
461.598446
 30
0.0
  0
POINT
  5
422
330
419
100
AcDbEntity
  8
Defpoints
 62
     0
100
AcDbPoint
 10
868.477761
 20
567.028446
 30
0.0
  0
ENDBLK
  5
424
330
419
100
AcDbEntity
  8
0
100
AcDbBlockEnd
  0
BLOCK
  5
492
330
491
100
AcDbEntity
  8
0
100
AcDbBlockBegin
  2
KLON27
 70
     0
 71
     0
 10
0.0
 20
0.0
 30
0.0
  3
KLON27
  1

  4
KLON27
  0
LINE
  5
494
330
491
100
AcDbEntity
  8
LC-001-100-D00-0
 62
     7
370
    25
100
AcDbLine
 10
433.441745
 20
396.706188
 30
0.0
 11
441.870018
 21
405.134462
 31
0.0
  0
LINE
  5
495
330
491
100
AcDbEntity
  8
LC-001-100-D00-0
 62
     7
370
    25
100
AcDbLine
 10
410.883362
 20
396.598446
 30
0.0
 11
413.883362
 21
399.598446
 31
0.0
  0
LINE
  5
496
330
491
100
AcDbEntity
  8
LC-001-100-D00-0
 62
     7
370
    25
100
AcDbLine
 10
438.977761
 20
424.692845
 30
0.0
 11
441.977761
 21
427.692845
 31
0.0
  0
LINE
  5
497
330
491
100
AcDbEntity
  8
LC-001-100-D00-0
 62
     7
370
    25
100
AcDbLine
 10
388.432721
 20
396.598446
 30
0.0
 11
391.432721
 21
399.598446
 31
0.0
  0
LINE
  5
498
330
491
100
AcDbEntity
  8
LC-001-100-D00-0
 62
     7
370
    25
100
AcDbLine
 10
365.982081
 20
396.598446
 30
0.0
 11
368.982081
 21
399.598446
 31
0.0
  0
LINE
  5
499
330
491
100
AcDbEntity
  8
LC-001-100-D00-0
 62
     7
370
    25
100
AcDbLine
 10
343.531441
 20
396.598446
 30
0.0
 11
346.531441
 21
399.598446
 31
0.0
  0
LINE
  5
49A
330
491
100
AcDbEntity
  8
LC-001-100-D00-0
 62
     7
370
    25
100
AcDbLine
 10
321.0808
 20
396.598446
 30
0.0
 11
324.0808
 21
399.598446
 31
0.0
  0
LINE
  5
49B
330
491
100
AcDbEntity
  8
LC-001-100-D00-0
 62
     7
370
    25
100
AcDbLine
 10
299.972782
 20
397.941068
 30
0.0
 11
302.203418
 21
400.171703
 31
0.0
  0
LINE
  5
49C
330
491
100
AcDbEntity
  8
LC-001-100-D00-0
 62
     7
370
    25
100
AcDbLine
 10
294.977761
 20
415.396687
 30
0.0
 11
297.977761
 21
418.396687
 31
0.0
  0
ENDBLK
  5
493
330
491
100
AcDbEntity
  8
0
100
AcDbBlockEnd
  0
BLOCK
  5
4A0
330
49F
100
AcDbEntity
  8
0
100
AcDbBlockBegin
  2
KLON28
 70
     0
 71
     0
 10
0.0
 20
0.0
 30
0.0
  3
KLON28
  1

  4
KLON28
  0
LINE
  5
4A2
330
49F
100
AcDbEntity
  8
LC-001-100-D00-0
 62
     7
370
    25
100
AcDbLine
 10
422.432721
 20
430.598446
 30
0.0
 11
422.977761
 21
431.143485
 31
0.0
  0
LINE
  5
4A3
330
49F
100
AcDbEntity
  8
LC-001-100-D00-0
 62
     7
370
    25
100
AcDbLine
 10
414.768207
 20
445.384571
 30
0.0
 11
415.913383
 21
446.529748
 31
0.0
  0
LINE
  5
4A4
330
49F
100
AcDbEntity
  8
LC-001-100-D00-0
 62
     7
370
    25
100
AcDbLine
 10
392.531441
 20
445.598446
 30
0.0
 11
394.031441
 21
447.098446
 31
0.0
  0
LINE
  5
4A5
330
49F
100
AcDbEntity
  8
LC-001-100-D00-0
 62
     7
370
    25
100
AcDbLine
 10
370.0808
 20
445.598446
 30
0.0
 11
371.5808
 21
447.098446
 31
0.0
  0
LINE
  5
4A6
330
49F
100
AcDbEntity
  8
LC-001-100-D00-0
 62
     7
370
    25
100
AcDbLine
 10
347.63016
 20
445.598446
 30
0.0
 11
349.13016
 21
447.098446
 31
0.0
  0
LINE
  5
4A7
330
49F
100
AcDbEntity
  8
LC-001-100-D00-0
 62
     7
370
    25
100
AcDbLine
 10
315.17952
 20
435.598446
 30
0.0
 11
316.67952
 21
437.098446
 31
0.0
  0
LINE
  5
4A8
330
49F
100
AcDbEntity
  8
LC-001-100-D00-0
 62
     7
370
    25
100
AcDbLine
 10
317.977761
 20
438.396687
 30
0.0
 11
319.477761
 21
439.896687
 31
0.0
  0
LINE
  5
4A9
330
49F
100
AcDbEntity
  8
LC-001-100-D00-0
 62
     7
370
    25
100
AcDbLine
 10
325.17952
 20
445.598446
 30
0.0
 11
326.67952
 21
447.098446
 31
0.0
  0
ENDBLK
  5
4A1
330
49F
100
AcDbEntity
  8
0
100
AcDbBlockEnd
  0
BLOCK
  5
4B6
330
4AC
100
AcDbEntity
  8
0
100
AcDbBlockBegin
  2
*D35
 70
     1
 71
     0
 10
0.0
 20
0.0
 30
0.0
  3
*D35
  1

  0
LINE
  5
4AD
330
4AC
100
AcDbEntity
  8
LC-001-100-D00-0
 62
     2
370
    -2
100
AcDbLine
 10
294.977761
 20
406.598446
 30
0.0
 11
294.977761
 21
288.788446
 31
0.0
  0
LINE
  5
4AE
330
4AC
100
AcDbEntity
  8
LC-001-100-D00-0
 62
     2
370
    -2
100
AcDbLine
 10
441.977761
 20
406.598446
 30
0.0
 11
441.977761
 21
288.788446
 31
0.0
  0
LINE
  5
4AF
330
4AC
100
AcDbEntity
  8
LC-001-100-D00-0
 62
     2
370
    -2
100
AcDbLine
 10
344.977761
 20
297.788446
 30
0.0
 11
391.977761
 21
297.788446
 31
0.0
  0
SOLID
  5
4B0
330
4AC
100
AcDbEntity
  8
LC-001-100-D00-0
 62
     2
100
AcDbTrace
 10
344.977761
 20
306.121779
 30
0.0
 11
344.977761
 21
289.455112
 31
0.0
 12
294.977761
 22
297.788446
 32
0.0
 13
294.977761
 23
297.788446
 33
0.0
  0
SOLID
  5
4B1
330
4AC
100
AcDbEntity
  8
LC-001-100-D00-0
 62
     2
100
AcDbTrace
 10
391.977761
 20
289.455112
 30
0.0
 11
391.977761
 21
306.121779
 31
0.0
 12
441.977761
 22
297.788446
 32
0.0
 13
441.977761
 23
297.788446
 33
0.0
  0
MTEXT
  5
4B2
330
4AC
100
AcDbEntity
  8
LC-001-100-D00-0
 62
     2
100
AcDbMText
 10
358.877357
 20
352.788446
 30
0.0
 40
50.0
 41
0.0
 71
     5
 72
     1
  1
\A1;147
  7
LCTX15-400-0-0pDIN-Schrift
 73
     1
 44
1.0
  0
POINT
  5
4B3
330
4AC
100
AcDbEntity
  8
Defpoints
 62
     0
100
AcDbPoint
 10
294.977761
 20
406.598446
 30
0.0
  0
POINT
  5
4B4
330
4AC
100
AcDbEntity
  8
Defpoints
 62
     0
100
AcDbPoint
 10
441.977761
 20
406.598446
 30
0.0
  0
POINT
  5
4B5
330
4AC
100
AcDbEntity
  8
Defpoints
 62
     0
100
AcDbPoint
 10
441.977761
 20
297.788446
 30
0.0
  0
ENDBLK
  5
4B7
330
4AC
100
AcDbEntity
  8
0
100
AcDbBlockEnd
  0
BLOCK
  5
4C6
330
4BA
100
AcDbEntity
  8
0
100
AcDbBlockBegin
  2
*D36
 70
     1
 71
     0
 10
0.0
 20
0.0
 30
0.0
  3
*D36
  1

  0
LINE
  5
4BB
330
4BA
100
AcDbEntity
  8
LC-001-100-D00-0
 62
     2
370
    -2
100
AcDbLine
 10
668.477761
 20
464.598446
 30
0.0
 11
726.385092
 21
464.598446
 31
0.0
  0
LINE
  5
4BC
330
4BA
100
AcDbEntity
  8
LC-001-100-D00-0
 62
     2
370
    -2
100
AcDbLine
 10
431.977761
 20
396.598446
 30
0.0
 11
726.385092
 21
396.598446
 31
0.0
  0
LINE
  5
4BD
330
4BA
100
AcDbEntity
  8
LC-001-100-D00-0
 62
     2
370
    -2
100
AcDbLine
 10
717.385092
 20
514.598446
 30
0.0
 11
717.385092
 21
564.598446
 31
0.0
  0
LINE
  5
4BE
330
4BA
100
AcDbEntity
  8
LC-001-100-D00-0
 62
     2
370
    -2
100
AcDbLine
 10
717.385092
 20
346.598446
 30
0.0
 11
717.385092
 21
296.598446
 31
0.0
  0
LINE
  5
4BF
330
4BA
100
AcDbEntity
  8
LC-001-100-D00-0
 62
     2
370
    -2
100
AcDbLine
 10
717.385092
 20
464.598446
 30
0.0
 11
717.385092
 21
396.598446
 31
0.0
  0
SOLID
  5
4C0
330
4BA
100
AcDbEntity
  8
LC-001-100-D00-0
 62
     2
100
AcDbTrace
 10
709.051758
 20
514.598446
 30
0.0
 11
725.718425
 21
514.598446
 31
0.0
 12
717.385092
 22
464.598446
 32
0.0
 13
717.385092
 23
464.598446
 33
0.0
  0
SOLID
  5
4C1
330
4BA
100
AcDbEntity
  8
LC-001-100-D00-0
 62
     2
100
AcDbTrace
 10
725.718425
 20
346.598446
 30
0.0
 11
709.051758
 21
346.598446
 31
0.0
 12
717.385092
 22
396.598446
 32
0.0
 13
717.385092
 23
396.598446
 33
0.0
  0
MTEXT
  5
4C2
330
4BA
100
AcDbEntity
  8
LC-001-100-D00-0
 62
     2
100
AcDbMText
 10
662.385092
 20
430.294115
 30
0.0
 40
50.0
 41
0.0
 71
     5
 72
     1
  1
\A1;68
  7
LCTX15-400-0-0pDIN-Schrift
 11
6.123031769111886E-17
 21
1.0
 31
0.0
 73
     1
 44
1.0
  0
POINT
  5
4C3
330
4BA
100
AcDbEntity
  8
Defpoints
 62
     0
100
AcDbPoint
 10
668.477761
 20
464.598446
 30
0.0
  0
POINT
  5
4C4
330
4BA
100
AcDbEntity
  8
Defpoints
 62
     0
100
AcDbPoint
 10
431.977761
 20
396.598446
 30
0.0
  0
POINT
  5
4C5
330
4BA
100
AcDbEntity
  8
Defpoints
 62
     0
100
AcDbPoint
 10
717.385092
 20
396.598446
 30
0.0
  0
ENDBLK
  5
4C7
330
4BA
100
AcDbEntity
  8
0
100
AcDbBlockEnd
  0
BLOCK
  5
4C9
330
4C8
100
AcDbEntity
  8
0
100
AcDbBlockBegin
  2
KLON29
 70
     0
 71
     0
 10
0.0
 20
0.0
 30
0.0
  3
KLON29
  1

  4
KLON29
  0
LINE
  5
4CB
330
4C8
100
AcDbEntity
  8
LC-001-100-D00-0
 62
     7
370
    15
100
AcDbLine
 10
398.977751
 20
61.319075
 30
0.0
 11
401.962607
 21
61.138525
 31
0.0
  0
LINE
  5
4CC
330
4C8
100
AcDbEntity
  8
LC-001-100-D00-0
 62
     7
370
    15
100
AcDbLine
 10
401.962607
 20
61.138525
 30
0.0
 11
404.665476
 21
60.65703
 31
0.0
  0
ENDBLK
  5
4CA
330
4C8
100
AcDbEntity
  8
0
100
AcDbBlockEnd
  0
BLOCK
  5
4D2
330
4D1
100
AcDbEntity
  8
0
100
AcDbBlockBegin
  2
KLON30
 70
     0
 71
     0
 10
0.0
 20
0.0
 30
0.0
  3
KLON30
  1

  4
KLON30
  0
LINE
  5
4D4
330
4D1
100
AcDbEntity
  8
LC-001-100-D00-0
 62
     7
370
    15
100
AcDbLine
 10
337.977751
 20
11.792961
 30
0.0
 11
334.992895
 21
11.973511
 31
0.0
  0
LINE
  5
4D5
330
4D1
100
AcDbEntity
  8
LC-001-100-D00-0
 62
     7
370
    15
100
AcDbLine
 10
334.992895
 20
11.973511
 30
0.0
 11
333.428903
 21
12.214347
 31
0.0
  0
ENDBLK
  5
4D3
330
4D1
100
AcDbEntity
  8
0
100
AcDbBlockEnd
  0
BLOCK
  5
4DB
330
4DA
100
AcDbEntity
  8
0
100
AcDbBlockBegin
  2
POLY1
 70
     0
 71
     0
 10
0.0
 20
0.0
 30
0.0
  3
POLY1
  1

  4
POLY1
  0
LINE
  5
4DD
330
4DA
100
AcDbEntity
  8
LC-001-100-D00-0
 62
     7
370
    50
100
AcDbLine
 10
398.977751
 20
11.756017
 30
0.0
 11
398.977751
 21
11.756017
 31
0.0
  0
LINE
  5
4DE
330
4DA
100
AcDbEntity
  8
LC-001-100-D00-0
 62
     7
370
    50
100
AcDbLine
 10
398.977751
 20
11.756017
 30
0.0
 11
400.013475
 21
11.793583
 31
0.0
  0
LINE
  5
4DF
330
4DA
100
AcDbEntity
  8
LC-001-100-D00-0
 62
     7
370
    50
100
AcDbLine
 10
400.013475
 20
11.793583
 30
0.0
 11
400.013475
 21
11.793583
 31
0.0
  0
LINE
  5
4E0
330
4DA
100
AcDbEntity
  8
LC-001-100-D00-0
 62
     7
370
    50
100
AcDbLine
 10
400.013475
 20
11.793583
 30
0.0
 11
402.115156
 21
11.86981
 31
0.0
  0
LINE
  5
4E1
330
4DA
100
AcDbEntity
  8
LC-001-100-D00-0
 62
     7
370
    50
100
AcDbLine
 10
402.115156
 20
11.86981
 30
0.0
 11
402.115156
 21
11.86981
 31
0.0
  0
LINE
  5
4E2
330
4DA
100
AcDbEntity
  8
LC-001-100-D00-0
 62
     7
370
    50
100
AcDbLine
 10
402.115156
 20
11.86981
 30
0.0
 11
405.265026
 21
12.502929
 31
0.0
  0
LINE
  5
4E3
330
4DA
100
AcDbEntity
  8
LC-001-100-D00-0
 62
     7
370
    50
100
AcDbLine
 10
405.265026
 20
12.502929
 30
0.0
 11
405.265026
 21
12.502929
 31
0.0
  0
LINE
  5
4E4
330
4DA
100
AcDbEntity
  8
LC-001-100-D00-0
 62
     7
370
    50
100
AcDbLine
 10
405.265026
 20
12.502929
 30
0.0
 11
408.468646
 21
13.5291
 31
0.0
  0
LINE
  5
4E5
330
4DA
100
AcDbEntity
  8
LC-001-100-D00-0
 62
     7
370
    50
100
AcDbLine
 10
408.468646
 20
13.5291
 30
0.0
 11
408.468646
 21
13.5291
 31
0.0
  0
LINE
  5
4E6
330
4DA
100
AcDbEntity
  8
LC-001-100-D00-0
 62
     7
370
    50
100
AcDbLine
 10
408.468646
 20
13.5291
 30
0.0
 11
410.54696
 21
14.643676
 31
0.0
  0
LINE
  5
4E7
330
4DA
100
AcDbEntity
  8
LC-001-100-D00-0
 62
     7
370
    50
100
AcDbLine
 10
410.54696
 20
14.643676
 30
0.0
 11
410.54696
 21
14.643676
 31
0.0
  0
LINE
  5
4E8
330
4DA
100
AcDbEntity
  8
LC-001-100-D00-0
 62
     7
370
    50
100
AcDbLine
 10
410.54696
 20
14.643676
 30
0.0
 11
411.599299
 21
15.208033
 31
0.0
  0
ENDBLK
  5
4DC
330
4DA
100
AcDbEntity
  8
0
100
AcDbBlockEnd
  0
BLOCK
  5
4EB
330
4EA
100
AcDbEntity
  8
0
100
AcDbBlockBegin
  2
POLY2
 70
     0
 71
     0
 10
0.0
 20
0.0
 30
0.0
  3
POLY2
  1

  4
POLY2
  0
LINE
  5
4ED
330
4EA
100
AcDbEntity
  8
LC-001-100-D00-0
 62
     7
370
    50
100
AcDbLine
 10
337.977751
 20
11.756017
 30
0.0
 11
337.977751
 21
11.756017
 31
0.0
  0
LINE
  5
4EE
330
4EA
100
AcDbEntity
  8
LC-001-100-D00-0
 62
     7
370
    50
100
AcDbLine
 10
337.977751
 20
11.756017
 30
0.0
 11
336.942027
 21
11.793583
 31
0.0
  0
LINE
  5
4EF
330
4EA
100
AcDbEntity
  8
LC-001-100-D00-0
 62
     7
370
    50
100
AcDbLine
 10
336.942027
 20
11.793583
 30
0.0
 11
336.942027
 21
11.793583
 31
0.0
  0
LINE
  5
4F0
330
4EA
100
AcDbEntity
  8
LC-001-100-D00-0
 62
     7
370
    50
100
AcDbLine
 10
336.942027
 20
11.793583
 30
0.0
 11
334.840346
 21
11.86981
 31
0.0
  0
LINE
  5
4F1
330
4EA
100
AcDbEntity
  8
LC-001-100-D00-0
 62
     7
370
    50
100
AcDbLine
 10
334.840346
 20
11.86981
 30
0.0
 11
334.840346
 21
11.86981
 31
0.0
  0
LINE
  5
4F2
330
4EA
100
AcDbEntity
  8
LC-001-100-D00-0
 62
     7
370
    50
100
AcDbLine
 10
334.840346
 20
11.86981
 30
0.0
 11
331.690476
 21
12.502929
 31
0.0
  0
LINE
  5
4F3
330
4EA
100
AcDbEntity
  8
LC-001-100-D00-0
 62
     7
370
    50
100
AcDbLine
 10
331.690476
 20
12.502929
 30
0.0
 11
331.690476
 21
12.502929
 31
0.0
  0
LINE
  5
4F4
330
4EA
100
AcDbEntity
  8
LC-001-100-D00-0
 62
     7
370
    50
100
AcDbLine
 10
331.690476
 20
12.502929
 30
0.0
 11
328.486856
 21
13.5291
 31
0.0
  0
LINE
  5
4F5
330
4EA
100
AcDbEntity
  8
LC-001-100-D00-0
 62
     7
370
    50
100
AcDbLine
 10
328.486856
 20
13.5291
 30
0.0
 11
328.486856
 21
13.5291
 31
0.0
  0
LINE
  5
4F6
330
4EA
100
AcDbEntity
  8
LC-001-100-D00-0
 62
     7
370
    50
100
AcDbLine
 10
328.486856
 20
13.5291
 30
0.0
 11
326.408542
 21
14.643676
 31
0.0
  0
LINE
  5
4F7
330
4EA
100
AcDbEntity
  8
LC-001-100-D00-0
 62
     7
370
    50
100
AcDbLine
 10
326.408542
 20
14.643676
 30
0.0
 11
326.408542
 21
14.643676
 31
0.0
  0
LINE
  5
4F8
330
4EA
100
AcDbEntity
  8
LC-001-100-D00-0
 62
     7
370
    50
100
AcDbLine
 10
326.408542
 20
14.643676
 30
0.0
 11
325.356203
 21
15.208033
 31
0.0
  0
ENDBLK
  5
4EC
330
4EA
100
AcDbEntity
  8
0
100
AcDbBlockEnd
  0
BLOCK
  5
4FB
330
4FA
100
AcDbEntity
  8
0
100
AcDbBlockBegin
  2
POLY3
 70
     0
 71
     0
 10
0.0
 20
0.0
 30
0.0
  3
POLY3
  1

  4
POLY3
  0
LINE
  5
4FD
330
4FA
100
AcDbEntity
  8
LC-001-100-D00-0
 62
     7
370
    50
100
AcDbLine
 10
325.356203
 20
57.904003
 30
0.0
 11
325.356203
 21
57.904003
 31
0.0
  0
LINE
  5
4FE
330
4FA
100
AcDbEntity
  8
LC-001-100-D00-0
 62
     7
370
    50
100
AcDbLine
 10
325.356203
 20
57.904003
 30
0.0
 11
326.26849
 21
58.39961
 31
0.0
  0
LINE
  5
4FF
330
4FA
100
AcDbEntity
  8
LC-001-100-D00-0
 62
     7
370
    50
100
AcDbLine
 10
326.26849
 20
58.39961
 30
0.0
 11
326.26849
 21
58.39961
 31
0.0
  0
LINE
  5
500
330
4FA
100
AcDbEntity
  8
LC-001-100-D00-0
 62
     7
370
    50
100
AcDbLine
 10
326.26849
 20
58.39961
 30
0.0
 11
328.119344
 21
59.405102
 31
0.0
  0
LINE
  5
501
330
4FA
100
AcDbEntity
  8
LC-001-100-D00-0
 62
     7
370
    50
100
AcDbLine
 10
328.119344
 20
59.405102
 30
0.0
 11
328.119344
 21
59.405102
 31
0.0
  0
LINE
  5
502
330
4FA
100
AcDbEntity
  8
LC-001-100-D00-0
 62
     7
370
    50
100
AcDbLine
 10
328.119344
 20
59.405102
 30
0.0
 11
331.156441
 21
60.463117
 31
0.0
  0
LINE
  5
503
330
4FA
100
AcDbEntity
  8
LC-001-100-D00-0
 62
     7
370
    50
100
AcDbLine
 10
331.156441
 20
60.463117
 30
0.0
 11
331.156441
 21
60.463117
 31
0.0
  0
LINE
  5
504
330
4FA
100
AcDbEntity
  8
LC-001-100-D00-0
 62
     7
370
    50
100
AcDbLine
 10
331.156441
 20
60.463117
 30
0.0
 11
334.43298
 21
61.208237
 31
0.0
  0
LINE
  5
505
330
4FA
100
AcDbEntity
  8
LC-001-100-D00-0
 62
     7
370
    50
100
AcDbLine
 10
334.43298
 20
61.208237
 30
0.0
 11
334.43298
 21
61.208237
 31
0.0
  0
LINE
  5
506
330
4FA
100
AcDbEntity
  8
LC-001-100-D00-0
 62
     7
370
    50
100
AcDbLine
 10
334.43298
 20
61.208237
 30
0.0
 11
336.78609
 21
61.306338
 31
0.0
  0
LINE
  5
507
330
4FA
100
AcDbEntity
  8
LC-001-100-D00-0
 62
     7
370
    50
100
AcDbLine
 10
336.78609
 20
61.306338
 30
0.0
 11
336.78609
 21
61.306338
 31
0.0
  0
LINE
  5
508
330
4FA
100
AcDbEntity
  8
LC-001-100-D00-0
 62
     7
370
    50
100
AcDbLine
 10
336.78609
 20
61.306338
 30
0.0
 11
337.977751
 21
61.356019
 31
0.0
  0
ENDBLK
  5
4FC
330
4FA
100
AcDbEntity
  8
0
100
AcDbBlockEnd
  0
BLOCK
  5
50B
330
50A
100
AcDbEntity
  8
0
100
AcDbBlockBegin
  2
POLY4
 70
     0
 71
     0
 10
0.0
 20
0.0
 30
0.0
  3
POLY4
  1

  4
POLY4
  0
LINE
  5
50D
330
50A
100
AcDbEntity
  8
LC-001-100-D00-0
 62
     7
370
    50
100
AcDbLine
 10
411.599299
 20
57.904003
 30
0.0
 11
411.599299
 21
57.904003
 31
0.0
  0
LINE
  5
50E
330
50A
100
AcDbEntity
  8
LC-001-100-D00-0
 62
     7
370
    50
100
AcDbLine
 10
411.599299
 20
57.904003
 30
0.0
 11
410.687012
 21
58.39961
 31
0.0
  0
LINE
  5
50F
330
50A
100
AcDbEntity
  8
LC-001-100-D00-0
 62
     7
370
    50
100
AcDbLine
 10
410.687012
 20
58.39961
 30
0.0
 11
410.687012
 21
58.39961
 31
0.0
  0
LINE
  5
510
330
50A
100
AcDbEntity
  8
LC-001-100-D00-0
 62
     7
370
    50
100
AcDbLine
 10
410.687012
 20
58.39961
 30
0.0
 11
408.836158
 21
59.405102
 31
0.0
  0
LINE
  5
511
330
50A
100
AcDbEntity
  8
LC-001-100-D00-0
 62
     7
370
    50
100
AcDbLine
 10
408.836158
 20
59.405102
 30
0.0
 11
408.836158
 21
59.405102
 31
0.0
  0
LINE
  5
512
330
50A
100
AcDbEntity
  8
LC-001-100-D00-0
 62
     7
370
    50
100
AcDbLine
 10
408.836158
 20
59.405102
 30
0.0
 11
405.799061
 21
60.463117
 31
0.0
  0
LINE
  5
513
330
50A
100
AcDbEntity
  8
LC-001-100-D00-0
 62
     7
370
    50
100
AcDbLine
 10
405.799061
 20
60.463117
 30
0.0
 11
405.799061
 21
60.463117
 31
0.0
  0
LINE
  5
514
330
50A
100
AcDbEntity
  8
LC-001-100-D00-0
 62
     7
370
    50
100
AcDbLine
 10
405.799061
 20
60.463117
 30
0.0
 11
402.522522
 21
61.208237
 31
0.0
  0
LINE
  5
515
330
50A
100
AcDbEntity
  8
LC-001-100-D00-0
 62
     7
370
    50
100
AcDbLine
 10
402.522522
 20
61.208237
 30
0.0
 11
402.522522
 21
61.208237
 31
0.0
  0
LINE
  5
516
330
50A
100
AcDbEntity
  8
LC-001-100-D00-0
 62
     7
370
    50
100
AcDbLine
 10
402.522522
 20
61.208237
 30
0.0
 11
400.169412
 21
61.306338
 31
0.0
  0
LINE
  5
517
330
50A
100
AcDbEntity
  8
LC-001-100-D00-0
 62
     7
370
    50
100
AcDbLine
 10
400.169412
 20
61.306338
 30
0.0
 11
400.169412
 21
61.306338
 31
0.0
  0
LINE
  5
518
330
50A
100
AcDbEntity
  8
LC-001-100-D00-0
 62
     7
370
    50
100
AcDbLine
 10
400.169412
 20
61.306338
 30
0.0
 11
398.977751
 21
61.356019
 31
0.0
  0
ENDBLK
  5
50C
330
50A
100
AcDbEntity
  8
0
100
AcDbBlockEnd
  0
BLOCK
  5
525
330
524
100
AcDbEntity
  8
0
100
AcDbBlockBegin
  2
POLY5
 70
     0
 71
     0
 10
0.0
 20
0.0
 30
0.0
  3
POLY5
  1

  4
POLY5
  0
LINE
  5
527
330
524
100
AcDbEntity
  8
LC-001-100-D00-0
 62
     7
370
    50
100
AcDbLine
 10
328.428401
 20
14.016056
 30
0.0
 11
328.428401
 21
14.016056
 31
0.0
  0
LINE
  5
528
330
524
100
AcDbEntity
  8
LC-001-100-D00-0
 62
     7
370
    50
100
AcDbLine
 10
328.428401
 20
14.016056
 30
0.0
 11
328.402912
 21
13.971911
 31
0.0
  0
LINE
  5
529
330
524
100
AcDbEntity
  8
LC-001-100-D00-0
 62
     7
370
    50
100
AcDbLine
 10
328.402912
 20
13.971911
 30
0.0
 11
328.402912
 21
13.971911
 31
0.0
  0
LINE
  5
52A
330
524
100
AcDbEntity
  8
LC-001-100-D00-0
 62
     7
370
    50
100
AcDbLine
 10
328.402912
 20
13.971911
 30
0.0
 11
328.351929
 21
13.883613
 31
0.0
  0
LINE
  5
52B
330
524
100
AcDbEntity
  8
LC-001-100-D00-0
 62
     7
370
    50
100
AcDbLine
 10
328.351929
 20
13.883613
 30
0.0
 11
328.351929
 21
13.883613
 31
0.0
  0
LINE
  5
52C
330
524
100
AcDbEntity
  8
LC-001-100-D00-0
 62
     7
370
    50
100
AcDbLine
 10
328.351929
 20
13.883613
 30
0.0
 11
328.297357
 21
13.78908
 31
0.0
  0
LINE
  5
52D
330
524
100
AcDbEntity
  8
LC-001-100-D00-0
 62
     7
370
    50
100
AcDbLine
 10
328.297357
 20
13.78908
 30
0.0
 11
328.297357
 21
13.78908
 31
0.0
  0
LINE
  5
52E
330
524
100
AcDbEntity
  8
LC-001-100-D00-0
 62
     7
370
    50
100
AcDbLine
 10
328.297357
 20
13.78908
 30
0.0
 11
328.270284
 21
13.742188
 31
0.0
  0
LINE
  5
52F
330
524
100
AcDbEntity
  8
LC-001-100-D00-0
 62
     7
370
    50
100
AcDbLine
 10
328.270284
 20
13.742188
 30
0.0
 11
328.270284
 21
13.742188
 31
0.0
  0
LINE
  5
530
330
524
100
AcDbEntity
  8
LC-001-100-D00-0
 62
     7
370
    50
100
AcDbLine
 10
328.270284
 20
13.742188
 30
0.0
 11
328.267786
 21
13.737865
 31
0.0
  0
LINE
  5
531
330
524
100
AcDbEntity
  8
LC-001-100-D00-0
 62
     7
370
    50
100
AcDbLine
 10
328.267786
 20
13.737865
 30
0.0
 11
328.267786
 21
13.737865
 31
0.0
  0
LINE
  5
532
330
524
100
AcDbEntity
  8
LC-001-100-D00-0
 62
     7
370
    50
100
AcDbLine
 10
328.267786
 20
13.737865
 30
0.0
 11
328.266887
 21
13.736309
 31
0.0
  0
ENDBLK
  5
526
330
524
100
AcDbEntity
  8
0
100
AcDbBlockEnd
  0
BLOCK
  5
537
330
536
100
AcDbEntity
  8
0
100
AcDbBlockBegin
  2
POLY6
 70
     0
 71
     0
 10
0.0
 20
0.0
 30
0.0
  3
POLY6
  1

  4
POLY6
  0
LINE
  5
539
330
536
100
AcDbEntity
  8
LC-001-100-D00-0
 62
     7
370
    50
100
AcDbLine
 10
408.688615
 20
13.736309
 30
0.0
 11
408.688615
 21
13.736309
 31
0.0
  0
LINE
  5
53A
330
536
100
AcDbEntity
  8
LC-001-100-D00-0
 62
     7
370
    50
100
AcDbLine
 10
408.688615
 20
13.736309
 30
0.0
 11
408.685864
 21
13.741072
 31
0.0
  0
LINE
  5
53B
330
536
100
AcDbEntity
  8
LC-001-100-D00-0
 62
     7
370
    50
100
AcDbLine
 10
408.685864
 20
13.741072
 30
0.0
 11
408.685864
 21
13.741072
 31
0.0
  0
LINE
  5
53C
330
536
100
AcDbEntity
  8
LC-001-100-D00-0
 62
     7
370
    50
100
AcDbLine
 10
408.685864
 20
13.741072
 30
0.0
 11
408.680364
 21
13.750596
 31
0.0
  0
LINE
  5
53D
330
536
100
AcDbEntity
  8
LC-001-100-D00-0
 62
     7
370
    50
100
AcDbLine
 10
408.680364
 20
13.750596
 30
0.0
 11
408.680364
 21
13.750596
 31
0.0
  0
LINE
  5
53E
330
536
100
AcDbEntity
  8
LC-001-100-D00-0
 62
     7
370
    50
100
AcDbLine
 10
408.680364
 20
13.750596
 30
0.0
 11
408.637354
 21
13.825098
 31
0.0
  0
LINE
  5
53F
330
536
100
AcDbEntity
  8
LC-001-100-D00-0
 62
     7
370
    50
100
AcDbLine
 10
408.637354
 20
13.825098
 30
0.0
 11
408.637354
 21
13.825098
 31
0.0
  0
LINE
  5
540
330
536
100
AcDbEntity
  8
LC-001-100-D00-0
 62
     7
370
    50
100
AcDbLine
 10
408.637354
 20
13.825098
 30
0.0
 11
408.583036
 21
13.919171
 31
0.0
  0
LINE
  5
541
330
536
100
AcDbEntity
  8
LC-001-100-D00-0
 62
     7
370
    50
100
AcDbLine
 10
408.583036
 20
13.919171
 30
0.0
 11
408.583036
 21
13.919171
 31
0.0
  0
LINE
  5
542
330
536
100
AcDbEntity
  8
LC-001-100-D00-0
 62
     7
370
    50
100
AcDbLine
 10
408.583036
 20
13.919171
 30
0.0
 11
408.542296
 21
13.989736
 31
0.0
  0
LINE
  5
543
330
536
100
AcDbEntity
  8
LC-001-100-D00-0
 62
     7
370
    50
100
AcDbLine
 10
408.542296
 20
13.989736
 30
0.0
 11
408.542296
 21
13.989736
 31
0.0
  0
LINE
  5
544
330
536
100
AcDbEntity
  8
LC-001-100-D00-0
 62
     7
370
    50
100
AcDbLine
 10
408.542296
 20
13.989736
 30
0.0
 11
408.527101
 21
14.016056
 31
0.0
  0
ENDBLK
  5
538
330
536
100
AcDbEntity
  8
0
100
AcDbBlockEnd
  0
BLOCK
  5
5A0
330
59F
100
AcDbEntity
  8
0
100
AcDbBlockBegin
  2
POLY7
 70
     0
 71
     0
 10
0.0
 20
0.0
 30
0.0
  3
POLY7
  1

  4
POLY7
  0
LINE
  5
5A2
330
59F
100
AcDbEntity
  8
LC-001-100-D00-0
 62
     7
370
    50
100
AcDbLine
 10
-305.246333
 20
439.973637
 30
0.0
 11
-305.246333
 21
439.973637
 31
0.0
  0
LINE
  5
5A3
330
59F
100
AcDbEntity
  8
LC-001-100-D00-0
 62
     7
370
    50
100
AcDbLine
 10
-305.246333
 20
439.973637
 30
0.0
 11
-305.271439
 21
439.94124
 31
0.0
  0
LINE
  5
5A4
330
59F
100
AcDbEntity
  8
LC-001-100-D00-0
 62
     7
370
    50
100
AcDbLine
 10
-305.271439
 20
439.94124
 30
0.0
 11
-305.271439
 21
439.94124
 31
0.0
  0
LINE
  5
5A5
330
59F
100
AcDbEntity
  8
LC-001-100-D00-0
 62
     7
370
    50
100
AcDbLine
 10
-305.271439
 20
439.94124
 30
0.0
 11
-305.321853
 21
439.876186
 31
0.0
  0
LINE
  5
5A6
330
59F
100
AcDbEntity
  8
LC-001-100-D00-0
 62
     7
370
    50
100
AcDbLine
 10
-305.321853
 20
439.876186
 30
0.0
 11
-305.321853
 21
439.876186
 31
0.0
  0
LINE
  5
5A7
330
59F
100
AcDbEntity
  8
LC-001-100-D00-0
 62
     7
370
    50
100
AcDbLine
 10
-305.321853
 20
439.876186
 30
0.0
 11
-305.721542
 21
439.519602
 31
0.0
  0
LINE
  5
5A8
330
59F
100
AcDbEntity
  8
LC-001-100-D00-0
 62
     7
370
    50
100
AcDbLine
 10
-305.721542
 20
439.519602
 30
0.0
 11
-305.721542
 21
439.519602
 31
0.0
  0
LINE
  5
5A9
330
59F
100
AcDbEntity
  8
LC-001-100-D00-0
 62
     7
370
    50
100
AcDbLine
 10
-305.721542
 20
439.519602
 30
0.0
 11
-306.301227
 21
439.192831
 31
0.0
  0
LINE
  5
5AA
330
59F
100
AcDbEntity
  8
LC-001-100-D00-0
 62
     7
370
    50
100
AcDbLine
 10
-306.301227
 20
439.192831
 30
0.0
 11
-306.301227
 21
439.192831
 31
0.0
  0
LINE
  5
5AB
330
59F
100
AcDbEntity
  8
LC-001-100-D00-0
 62
     7
370
    50
100
AcDbLine
 10
-306.301227
 20
439.192831
 30
0.0
 11
-306.864043
 21
439.129973
 31
0.0
  0
LINE
  5
5AC
330
59F
100
AcDbEntity
  8
LC-001-100-D00-0
 62
     7
370
    50
100
AcDbLine
 10
-306.864043
 20
439.129973
 30
0.0
 11
-306.864043
 21
439.129973
 31
0.0
  0
LINE
  5
5AD
330
59F
100
AcDbEntity
  8
LC-001-100-D00-0
 62
     7
370
    50
100
AcDbLine
 10
-306.864043
 20
439.129973
 30
0.0
 11
-307.146333
 21
439.098445
 31
0.0
  0
ENDBLK
  5
5A1
330
59F
100
AcDbEntity
  8
0
100
AcDbBlockEnd
  0
BLOCK
  5
5B0
330
5AF
100
AcDbEntity
  8
0
100
AcDbBlockBegin
  2
POLY8
 70
     0
 71
     0
 10
0.0
 20
0.0
 30
0.0
  3
POLY8
  1

  4
POLY8
  0
LINE
  5
5B2
330
5AF
100
AcDbEntity
  8
LC-001-100-D00-0
 62
     7
370
    50
100
AcDbLine
 10
-354.146332
 20
439.098445
 30
0.0
 11
-354.146332
 21
439.098445
 31
0.0
  0
LINE
  5
5B3
330
5AF
100
AcDbEntity
  8
LC-001-100-D00-0
 62
     7
370
    50
100
AcDbLine
 10
-354.146332
 20
439.098445
 30
0.0
 11
-354.45783
 21
439.137245
 31
0.0
  0
LINE
  5
5B4
330
5AF
100
AcDbEntity
  8
LC-001-100-D00-0
 62
     7
370
    50
100
AcDbLine
 10
-354.45783
 20
439.137245
 30
0.0
 11
-354.45783
 21
439.137245
 31
0.0
  0
LINE
  5
5B5
330
5AF
100
AcDbEntity
  8
LC-001-100-D00-0
 62
     7
370
    50
100
AcDbLine
 10
-354.45783
 20
439.137245
 30
0.0
 11
-355.083805
 21
439.215215
 31
0.0
  0
LINE
  5
5B6
330
5AF
100
AcDbEntity
  8
LC-001-100-D00-0
 62
     7
370
    50
100
AcDbLine
 10
-355.083805
 20
439.215215
 30
0.0
 11
-355.083805
 21
439.215215
 31
0.0
  0
LINE
  5
5B7
330
5AF
100
AcDbEntity
  8
LC-001-100-D00-0
 62
     7
370
    50
100
AcDbLine
 10
-355.083805
 20
439.215215
 30
0.0
 11
-355.639157
 21
439.57306
 31
0.0
  0
LINE
  5
5B8
330
5AF
100
AcDbEntity
  8
LC-001-100-D00-0
 62
     7
370
    50
100
AcDbLine
 10
-355.639157
 20
439.57306
 30
0.0
 11
-355.639157
 21
439.57306
 31
0.0
  0
LINE
  5
5B9
330
5AF
100
AcDbEntity
  8
LC-001-100-D00-0
 62
     7
370
    50
100
AcDbLine
 10
-355.639157
 20
439.57306
 30
0.0
 11
-355.985298
 21
439.89551
 31
0.0
  0
LINE
  5
5BA
330
5AF
100
AcDbEntity
  8
LC-001-100-D00-0
 62
     7
370
    50
100
AcDbLine
 10
-355.985298
 20
439.89551
 30
0.0
 11
-355.985298
 21
439.89551
 31
0.0
  0
LINE
  5
5BB
330
5AF
100
AcDbEntity
  8
LC-001-100-D00-0
 62
     7
370
    50
100
AcDbLine
 10
-355.985298
 20
439.89551
 30
0.0
 11
-356.025949
 21
439.947545
 31
0.0
  0
LINE
  5
5BC
330
5AF
100
AcDbEntity
  8
LC-001-100-D00-0
 62
     7
370
    50
100
AcDbLine
 10
-356.025949
 20
439.947545
 30
0.0
 11
-356.025949
 21
439.947545
 31
0.0
  0
LINE
  5
5BD
330
5AF
100
AcDbEntity
  8
LC-001-100-D00-0
 62
     7
370
    50
100
AcDbLine
 10
-356.025949
 20
439.947545
 30
0.0
 11
-356.046332
 21
439.973637
 31
0.0
  0
ENDBLK
  5
5B1
330
5AF
100
AcDbEntity
  8
0
100
AcDbBlockEnd
  0
BLOCK
  5
5C4
330
5C3
100
AcDbEntity
  8
0
100
AcDbBlockBegin
  2
POLY9
 70
     0
 71
     0
 10
0.0
 20
0.0
 30
0.0
  3
POLY9
  1

  4
POLY9
  0
LINE
  5
5C6
330
5C3
100
AcDbEntity
  8
LC-001-100-D00-0
 62
     7
370
    50
100
AcDbLine
 10
-308.10637
 20
429.106506
 30
0.0
 11
-308.10637
 21
429.106506
 31
0.0
  0
LINE
  5
5C7
330
5C3
100
AcDbEntity
  8
LC-001-100-D00-0
 62
     7
370
    50
100
AcDbLine
 10
-308.10637
 20
429.106506
 30
0.0
 11
-307.911903
 21
429.148936
 31
0.0
  0
LINE
  5
5C8
330
5C3
100
AcDbEntity
  8
LC-001-100-D00-0
 62
     7
370
    50
100
AcDbLine
 10
-307.911903
 20
429.148936
 30
0.0
 11
-307.911903
 21
429.148936
 31
0.0
  0
LINE
  5
5C9
330
5C3
100
AcDbEntity
  8
LC-001-100-D00-0
 62
     7
370
    50
100
AcDbLine
 10
-307.911903
 20
429.148936
 30
0.0
 11
-307.522937
 21
429.233805
 31
0.0
  0
LINE
  5
5CA
330
5C3
100
AcDbEntity
  8
LC-001-100-D00-0
 62
     7
370
    50
100
AcDbLine
 10
-307.522937
 20
429.233805
 30
0.0
 11
-307.522937
 21
429.233805
 31
0.0
  0
LINE
  5
5CB
330
5C3
100
AcDbEntity
  8
LC-001-100-D00-0
 62
     7
370
    50
100
AcDbLine
 10
-307.522937
 20
429.233805
 30
0.0
 11
-307.027571
 21
429.634432
 31
0.0
  0
LINE
  5
5CC
330
5C3
100
AcDbEntity
  8
LC-001-100-D00-0
 62
     7
370
    50
100
AcDbLine
 10
-307.027571
 20
429.634432
 30
0.0
 11
-307.027571
 21
429.634432
 31
0.0
  0
LINE
  5
5CD
330
5C3
100
AcDbEntity
  8
LC-001-100-D00-0
 62
     7
370
    50
100
AcDbLine
 10
-307.027571
 20
429.634432
 30
0.0
 11
-306.674345
 21
430.184588
 31
0.0
  0
LINE
  5
5CE
330
5C3
100
AcDbEntity
  8
LC-001-100-D00-0
 62
     7
370
    50
100
AcDbLine
 10
-306.674345
 20
430.184588
 30
0.0
 11
-306.674345
 21
430.184588
 31
0.0
  0
LINE
  5
5CF
330
5C3
100
AcDbEntity
  8
LC-001-100-D00-0
 62
     7
370
    50
100
AcDbLine
 10
-306.674345
 20
430.184588
 30
0.0
 11
-306.531731
 21
430.706471
 31
0.0
  0
LINE
  5
5D0
330
5C3
100
AcDbEntity
  8
LC-001-100-D00-0
 62
     7
370
    50
100
AcDbLine
 10
-306.531731
 20
430.706471
 30
0.0
 11
-306.531731
 21
430.706471
 31
0.0
  0
LINE
  5
5D1
330
5C3
100
AcDbEntity
  8
LC-001-100-D00-0
 62
     7
370
    50
100
AcDbLine
 10
-306.531731
 20
430.706471
 30
0.0
 11
-306.521359
 21
431.014411
 31
0.0
  0
LINE
  5
5D2
330
5C3
100
AcDbEntity
  8
LC-001-100-D00-0
 62
     7
370
    50
100
AcDbLine
 10
-306.521359
 20
431.014411
 30
0.0
 11
-306.521359
 21
431.014411
 31
0.0
  0
LINE
  5
5D3
330
5C3
100
AcDbEntity
  8
LC-001-100-D00-0
 62
     7
370
    50
100
AcDbLine
 10
-306.521359
 20
431.014411
 30
0.0
 11
-306.518529
 21
431.098444
 31
0.0
  0
ENDBLK
  5
5C5
330
5C3
100
AcDbEntity
  8
0
100
AcDbBlockEnd
  0
BLOCK
  5
5D6
330
5D5
100
AcDbEntity
  8
0
100
AcDbBlockBegin
  2
POLY10
 70
     0
 71
     0
 10
0.0
 20
0.0
 30
0.0
  3
POLY10
  1

  4
POLY10
  0
LINE
  5
5D8
330
5D5
100
AcDbEntity
  8
LC-001-100-D00-0
 62
     7
370
    50
100
AcDbLine
 10
-354.774136
 20
431.098444
 30
0.0
 11
-354.774136
 21
431.098444
 31
0.0
  0
LINE
  5
5D9
330
5D5
100
AcDbEntity
  8
LC-001-100-D00-0
 62
     7
370
    50
100
AcDbLine
 10
-354.774136
 20
431.098444
 30
0.0
 11
-354.755045
 21
430.874698
 31
0.0
  0
LINE
  5
5DA
330
5D5
100
AcDbEntity
  8
LC-001-100-D00-0
 62
     7
370
    50
100
AcDbLine
 10
-354.755045
 20
430.874698
 30
0.0
 11
-354.755045
 21
430.874698
 31
0.0
  0
LINE
  5
5DB
330
5D5
100
AcDbEntity
  8
LC-001-100-D00-0
 62
     7
370
    50
100
AcDbLine
 10
-354.755045
 20
430.874698
 30
0.0
 11
-354.716863
 21
430.427226
 31
0.0
  0
LINE
  5
5DC
330
5D5
100
AcDbEntity
  8
LC-001-100-D00-0
 62
     7
370
    50
100
AcDbLine
 10
-354.716863
 20
430.427226
 30
0.0
 11
-354.716863
 21
430.427226
 31
0.0
  0
LINE
  5
5DD
330
5D5
100
AcDbEntity
  8
LC-001-100-D00-0
 62
     7
370
    50
100
AcDbLine
 10
-354.716863
 20
430.427226
 30
0.0
 11
-354.419342
 21
429.830671
 31
0.0
  0
LINE
  5
5DE
330
5D5
100
AcDbEntity
  8
LC-001-100-D00-0
 62
     7
370
    50
100
AcDbLine
 10
-354.419342
 20
429.830671
 30
0.0
 11
-354.419342
 21
429.830671
 31
0.0
  0
LINE
  5
5DF
330
5D5
100
AcDbEntity
  8
LC-001-100-D00-0
 62
     7
370
    50
100
AcDbLine
 10
-354.419342
 20
429.830671
 30
0.0
 11
-353.980896
 21
429.377652
 31
0.0
  0
LINE
  5
5E0
330
5D5
100
AcDbEntity
  8
LC-001-100-D00-0
 62
     7
370
    50
100
AcDbLine
 10
-353.980896
 20
429.377652
 30
0.0
 11
-353.980896
 21
429.377652
 31
0.0
  0
LINE
  5
5E1
330
5D5
100
AcDbEntity
  8
LC-001-100-D00-0
 62
     7
370
    50
100
AcDbLine
 10
-353.980896
 20
429.377652
 30
0.0
 11
-353.538962
 21
429.160142
 31
0.0
  0
LINE
  5
5E2
330
5D5
100
AcDbEntity
  8
LC-001-100-D00-0
 62
     7
370
    50
100
AcDbLine
 10
-353.538962
 20
429.160142
 30
0.0
 11
-353.538962
 21
429.160142
 31
0.0
  0
LINE
  5
5E3
330
5D5
100
AcDbEntity
  8
LC-001-100-D00-0
 62
     7
370
    50
100
AcDbLine
 10
-353.538962
 20
429.160142
 30
0.0
 11
-353.266058
 21
429.118637
 31
0.0
  0
LINE
  5
5E4
330
5D5
100
AcDbEntity
  8
LC-001-100-D00-0
 62
     7
370
    50
100
AcDbLine
 10
-353.266058
 20
429.118637
 30
0.0
 11
-353.266058
 21
429.118637
 31
0.0
  0
LINE
  5
5E5
330
5D5
100
AcDbEntity
  8
LC-001-100-D00-0
 62
     7
370
    50
100
AcDbLine
 10
-353.266058
 20
429.118637
 30
0.0
 11
-353.186295
 21
429.106506
 31
0.0
  0
ENDBLK
  5
5D7
330
5D5
100
AcDbEntity
  8
0
100
AcDbBlockEnd
  0
BLOCK
  5
5F1
330
5F0
100
AcDbEntity
  8
0
100
AcDbBlockBegin
  2
POLY11
 70
     0
 71
     0
 10
0.0
 20
0.0
 30
0.0
  3
POLY11
  1

  4
POLY11
  0
LINE
  5
5F3
330
5F0
100
AcDbEntity
  8
LC-001-100-D00-0
 62
     7
370
    50
100
AcDbLine
 10
-354.146332
 20
444.098489
 30
0.0
 11
-354.146332
 21
444.098489
 31
0.0
  0
LINE
  5
5F4
330
5F0
100
AcDbEntity
  8
LC-001-100-D00-0
 62
     7
370
    50
100
AcDbLine
 10
-354.146332
 20
444.098489
 30
0.0
 11
-354.159439
 21
444.098541
 31
0.0
  0
LINE
  5
5F5
330
5F0
100
AcDbEntity
  8
LC-001-100-D00-0
 62
     7
370
    50
100
AcDbLine
 10
-354.159439
 20
444.098541
 30
0.0
 11
-354.159439
 21
444.098541
 31
0.0
  0
LINE
  5
5F6
330
5F0
100
AcDbEntity
  8
LC-001-100-D00-0
 62
     7
370
    50
100
AcDbLine
 10
-354.159439
 20
444.098541
 30
0.0
 11
-354.185193
 21
444.098645
 31
0.0
  0
LINE
  5
5F7
330
5F0
100
AcDbEntity
  8
LC-001-100-D00-0
 62
     7
370
    50
100
AcDbLine
 10
-354.185193
 20
444.098645
 30
0.0
 11
-354.185193
 21
444.098645
 31
0.0
  0
LINE
  5
5F8
330
5F0
100
AcDbEntity
  8
LC-001-100-D00-0
 62
     7
370
    50
100
AcDbLine
 10
-354.185193
 20
444.098645
 30
0.0
 11
-354.206517
 21
444.099181
 31
0.0
  0
LINE
  5
5F9
330
5F0
100
AcDbEntity
  8
LC-001-100-D00-0
 62
     7
370
    50
100
AcDbLine
 10
-354.206517
 20
444.099181
 30
0.0
 11
-354.206517
 21
444.099181
 31
0.0
  0
LINE
  5
5FA
330
5F0
100
AcDbEntity
  8
LC-001-100-D00-0
 62
     7
370
    50
100
AcDbLine
 10
-354.206517
 20
444.099181
 30
0.0
 11
-354.216989
 21
444.099444
 31
0.0
  0
ENDBLK
  5
5F2
330
5F0
100
AcDbEntity
  8
0
100
AcDbBlockEnd
  0
BLOCK
  5
662
330
661
100
AcDbEntity
  8
0
100
AcDbBlockBegin
  2
POLY12
 70
     0
 71
     0
 10
0.0
 20
0.0
 30
0.0
  3
POLY12
  1

  4
POLY12
  0
LINE
  5
664
330
661
100
AcDbEntity
  8
LC-001-100-D00-0
 62
     7
370
    50
100
AcDbLine
 10
-355.591722
 20
438.018282
 30
0.0
 11
-355.591722
 21
438.018282
 31
0.0
  0
LINE
  5
665
330
661
100
AcDbEntity
  8
LC-001-100-D00-0
 62
     7
370
    50
100
AcDbLine
 10
-355.591722
 20
438.018282
 30
0.0
 11
-355.321361
 21
437.898951
 31
0.0
  0
LINE
  5
666
330
661
100
AcDbEntity
  8
LC-001-100-D00-0
 62
     7
370
    50
100
AcDbLine
 10
-355.321361
 20
437.898951
 30
0.0
 11
-355.321361
 21
437.898951
 31
0.0
  0
LINE
  5
667
330
661
100
AcDbEntity
  8
LC-001-100-D00-0
 62
     7
370
    50
100
AcDbLine
 10
-355.321361
 20
437.898951
 30
0.0
 11
-354.779319
 21
437.659707
 31
0.0
  0
LINE
  5
668
330
661
100
AcDbEntity
  8
LC-001-100-D00-0
 62
     7
370
    50
100
AcDbLine
 10
-354.779319
 20
437.659707
 30
0.0
 11
-354.779319
 21
437.659707
 31
0.0
  0
LINE
  5
669
330
661
100
AcDbEntity
  8
LC-001-100-D00-0
 62
     7
370
    50
100
AcDbLine
 10
-354.779319
 20
437.659707
 30
0.0
 11
-354.159614
 21
437.598865
 31
0.0
  0
LINE
  5
66A
330
661
100
AcDbEntity
  8
LC-001-100-D00-0
 62
     7
370
    50
100
AcDbLine
 10
-354.159614
 20
437.598865
 30
0.0
 11
-354.159614
 21
437.598865
 31
0.0
  0
LINE
  5
66B
330
661
100
AcDbEntity
  8
LC-001-100-D00-0
 62
     7
370
    50
100
AcDbLine
 10
-354.159614
 20
437.598865
 30
0.0
 11
-353.851318
 21
437.598452
 31
0.0
  0
LINE
  5
66C
330
661
100
AcDbEntity
  8
LC-001-100-D00-0
 62
     7
370
    50
100
AcDbLine
 10
-353.851318
 20
437.598452
 30
0.0
 11
-353.851318
 21
437.598452
 31
0.0
  0
LINE
  5
66D
330
661
100
AcDbEntity
  8
LC-001-100-D00-0
 62
     7
370
    50
100
AcDbLine
 10
-353.851318
 20
437.598452
 30
0.0
 11
-353.846332
 21
437.598446
 31
0.0
  0
ENDBLK
  5
663
330
661
100
AcDbEntity
  8
0
100
AcDbBlockEnd
  0
BLOCK
  5
683
330
682
100
AcDbEntity
  8
0
100
AcDbBlockBegin
  2
KLON31
 70
     0
 71
     0
 10
0.0
 20
0.0
 30
0.0
  3
KLON31
  1

  4
KLON31
  0
LINE
  5
685
330
682
100
AcDbEntity
  8
LC-001-100-D00-0
 62
     7
370
    15
100
AcDbLine
 10
-433.646333
 20
396.647605
 30
0.0
 11
-436.600302
 21
397.440729
 31
0.0
  0
LINE
  5
686
330
682
100
AcDbEntity
  8
LC-001-100-D00-0
 62
     7
370
    15
100
AcDbLine
 10
-436.600302
 20
397.440729
 30
0.0
 11
-436.646331
 21
397.453089
 31
0.0
  0
ENDBLK
  5
684
330
682
100
AcDbEntity
  8
0
100
AcDbBlockEnd
  0
BLOCK
  5
68E
330
68D
100
AcDbEntity
  8
0
100
AcDbBlockBegin
  2
POLY13
 70
     0
 71
     0
 10
0.0
 20
0.0
 30
0.0
  3
POLY13
  1

  4
POLY13
  0
LINE
  5
690
330
68D
100
AcDbEntity
  8
LC-001-100-D00-0
 62
     7
370
    50
100
AcDbLine
 10
-361.762349
 20
399.766485
 30
0.0
 11
-361.762349
 21
399.766485
 31
0.0
  0
LINE
  5
691
330
68D
100
AcDbEntity
  8
LC-001-100-D00-0
 62
     7
370
    50
100
AcDbLine
 10
-361.762349
 20
399.766485
 30
0.0
 11
-362.08341
 21
399.801793
 31
0.0
  0
LINE
  5
692
330
68D
100
AcDbEntity
  8
LC-001-100-D00-0
 62
     7
370
    50
100
AcDbLine
 10
-362.08341
 20
399.801793
 30
0.0
 11
-362.08341
 21
399.801793
 31
0.0
  0
LINE
  5
693
330
68D
100
AcDbEntity
  8
LC-001-100-D00-0
 62
     7
370
    50
100
AcDbLine
 10
-362.08341
 20
399.801793
 30
0.0
 11
-363.11144
 21
399.914847
 31
0.0
  0
LINE
  5
694
330
68D
100
AcDbEntity
  8
LC-001-100-D00-0
 62
     7
370
    50
100
AcDbLine
 10
-363.11144
 20
399.914847
 30
0.0
 11
-363.11144
 21
399.914847
 31
0.0
  0
LINE
  5
695
330
68D
100
AcDbEntity
  8
LC-001-100-D00-0
 62
     7
370
    50
100
AcDbLine
 10
-363.11144
 20
399.914847
 30
0.0
 11
-364.572973
 21
400.707345
 31
0.0
  0
LINE
  5
696
330
68D
100
AcDbEntity
  8
LC-001-100-D00-0
 62
     7
370
    50
100
AcDbLine
 10
-364.572973
 20
400.707345
 30
0.0
 11
-364.572973
 21
400.707345
 31
0.0
  0
LINE
  5
697
330
68D
100
AcDbEntity
  8
LC-001-100-D00-0
 62
     7
370
    50
100
AcDbLine
 10
-364.572973
 20
400.707345
 30
0.0
 11
-366.041503
 21
402.006517
 31
0.0
  0
LINE
  5
698
330
68D
100
AcDbEntity
  8
LC-001-100-D00-0
 62
     7
370
    50
100
AcDbLine
 10
-366.041503
 20
402.006517
 30
0.0
 11
-366.041503
 21
402.006517
 31
0.0
  0
LINE
  5
699
330
68D
100
AcDbEntity
  8
LC-001-100-D00-0
 62
     7
370
    50
100
AcDbLine
 10
-366.041503
 20
402.006517
 30
0.0
 11
-366.969785
 21
403.454056
 31
0.0
  0
LINE
  5
69A
330
68D
100
AcDbEntity
  8
LC-001-100-D00-0
 62
     7
370
    50
100
AcDbLine
 10
-366.969785
 20
403.454056
 30
0.0
 11
-366.969785
 21
403.454056
 31
0.0
  0
LINE
  5
69B
330
68D
100
AcDbEntity
  8
LC-001-100-D00-0
 62
     7
370
    50
100
AcDbLine
 10
-366.969785
 20
403.454056
 30
0.0
 11
-367.535951
 21
405.011923
 31
0.0
  0
LINE
  5
69C
330
68D
100
AcDbEntity
  8
LC-001-100-D00-0
 62
     7
370
    50
100
AcDbLine
 10
-367.535951
 20
405.011923
 30
0.0
 11
-367.535951
 21
405.011923
 31
0.0
  0
LINE
  5
69D
330
68D
100
AcDbEntity
  8
LC-001-100-D00-0
 62
     7
370
    50
100
AcDbLine
 10
-367.535951
 20
405.011923
 30
0.0
 11
-367.609238
 21
406.065284
 31
0.0
  0
LINE
  5
69E
330
68D
100
AcDbEntity
  8
LC-001-100-D00-0
 62
     7
370
    50
100
AcDbLine
 10
-367.609238
 20
406.065284
 30
0.0
 11
-367.609238
 21
406.065284
 31
0.0
  0
LINE
  5
69F
330
68D
100
AcDbEntity
  8
LC-001-100-D00-0
 62
     7
370
    50
100
AcDbLine
 10
-367.609238
 20
406.065284
 30
0.0
 11
-367.646333
 21
406.598445
 31
0.0
  0
ENDBLK
  5
68F
330
68D
100
AcDbEntity
  8
0
100
AcDbBlockEnd
  0
BLOCK
  5
6A4
330
6A3
100
AcDbEntity
  8
0
100
AcDbBlockBegin
  2
KLON32
 70
     0
 71
     0
 10
0.0
 20
0.0
 30
0.0
  3
KLON32
  1

  4
KLON32
  0
LINE
  5
6A6
330
6A3
100
AcDbEntity
  8
LC-001-100-D00-0
 62
     7
370
    15
100
AcDbLine
 10
-436.646331
 20
445.7438
 30
0.0
 11
-436.600302
 21
445.756161
 31
0.0
  0
LINE
  5
6A7
330
6A3
100
AcDbEntity
  8
LC-001-100-D00-0
 62
     7
370
    15
100
AcDbLine
 10
-436.600302
 20
445.756161
 30
0.0
 11
-433.646333
 21
446.549284
 31
0.0
  0
ENDBLK
  5
6A5
330
6A3
100
AcDbEntity
  8
0
100
AcDbBlockEnd
  0
BLOCK
  5
6B2
330
6B1
100
AcDbEntity
  8
0
100
AcDbBlockBegin
  2
POLY14
 70
     0
 71
     0
 10
0.0
 20
0.0
 30
0.0
  3
POLY14
  1

  4
POLY14
  0
LINE
  5
6B4
330
6B1
100
AcDbEntity
  8
LC-001-100-D00-0
 62
     7
370
    50
100
AcDbLine
 10
-386.353407
 20
446.549284
 30
0.0
 11
-386.353407
 21
446.549284
 31
0.0
  0
LINE
  5
6B5
330
6B1
100
AcDbEntity
  8
LC-001-100-D00-0
 62
     7
370
    50
100
AcDbLine
 10
-386.353407
 20
446.549284
 30
0.0
 11
-386.016833
 21
446.515275
 31
0.0
  0
LINE
  5
6B6
330
6B1
100
AcDbEntity
  8
LC-001-100-D00-0
 62
     7
370
    50
100
AcDbLine
 10
-386.016833
 20
446.515275
 30
0.0
 11
-386.016833
 21
446.515275
 31
0.0
  0
LINE
  5
6B7
330
6B1
100
AcDbEntity
  8
LC-001-100-D00-0
 62
     7
370
    50
100
AcDbLine
 10
-386.016833
 20
446.515275
 30
0.0
 11
-385.343713
 21
446.447259
 31
0.0
  0
LINE
  5
6B8
330
6B1
100
AcDbEntity
  8
LC-001-100-D00-0
 62
     7
370
    50
100
AcDbLine
 10
-385.343713
 20
446.447259
 30
0.0
 11
-385.343713
 21
446.447259
 31
0.0
  0
LINE
  5
6B9
330
6B1
100
AcDbEntity
  8
LC-001-100-D00-0
 62
     7
370
    50
100
AcDbLine
 10
-385.343713
 20
446.447259
 30
0.0
 11
-384.394309
 21
445.92194
 31
0.0
  0
LINE
  5
6BA
330
6B1
100
AcDbEntity
  8
LC-001-100-D00-0
 62
     7
370
    50
100
AcDbLine
 10
-384.394309
 20
445.92194
 30
0.0
 11
-384.394309
 21
445.92194
 31
0.0
  0
LINE
  5
6BB
330
6B1
100
AcDbEntity
  8
LC-001-100-D00-0
 62
     7
370
    50
100
AcDbLine
 10
-384.394309
 20
445.92194
 30
0.0
 11
-383.970794
 21
445.345662
 31
0.0
  0
LINE
  5
6BC
330
6B1
100
AcDbEntity
  8
LC-001-100-D00-0
 62
     7
370
    50
100
AcDbLine
 10
-383.970794
 20
445.345662
 30
0.0
 11
-383.970794
 21
445.345662
 31
0.0
  0
LINE
  5
6BD
330
6B1
100
AcDbEntity
  8
LC-001-100-D00-0
 62
     7
370
    50
100
AcDbLine
 10
-383.970794
 20
445.345662
 30
0.0
 11
-383.748044
 21
445.042565
 31
0.0
  0
ENDBLK
  5
6B3
330
6B1
100
AcDbEntity
  8
0
100
AcDbBlockEnd
  0
BLOCK
  5
6D0
330
6CF
100
AcDbEntity
  8
0
100
AcDbBlockBegin
  2
POLY15
 70
     0
 71
     0
 10
0.0
 20
0.0
 30
0.0
  3
POLY15
  1

  4
POLY15
  0
LINE
  5
6D2
330
6CF
100
AcDbEntity
  8
LC-001-100-D00-0
 62
     7
370
    50
100
AcDbLine
 10
-386.304408
 20
343.098444
 30
0.0
 11
-386.304408
 21
343.098444
 31
0.0
  0
LINE
  5
6D3
330
6CF
100
AcDbEntity
  8
LC-001-100-D00-0
 62
     7
370
    50
100
AcDbLine
 10
-386.304408
 20
343.098444
 30
0.0
 11
-386.264745
 21
343.098444
 31
0.0
  0
LINE
  5
6D4
330
6CF
100
AcDbEntity
  8
LC-001-100-D00-0
 62
     7
370
    50
100
AcDbLine
 10
-386.264745
 20
343.098444
 30
0.0
 11
-386.264745
 21
343.098444
 31
0.0
  0
LINE
  5
6D5
330
6CF
100
AcDbEntity
  8
LC-001-100-D00-0
 62
     7
370
    50
100
AcDbLine
 10
-386.264745
 20
343.098444
 30
0.0
 11
-386.178135
 21
343.098444
 31
0.0
  0
LINE
  5
6D6
330
6CF
100
AcDbEntity
  8
LC-001-100-D00-0
 62
     7
370
    50
100
AcDbLine
 10
-386.178135
 20
343.098444
 30
0.0
 11
-386.178135
 21
343.098444
 31
0.0
  0
LINE
  5
6D7
330
6CF
100
AcDbEntity
  8
LC-001-100-D00-0
 62
     7
370
    50
100
AcDbLine
 10
-386.178135
 20
343.098444
 30
0.0
 11
-386.732611
 21
343.098444
 31
0.0
  0
LINE
  5
6D8
330
6CF
100
AcDbEntity
  8
LC-001-100-D00-0
 62
     7
370
    50
100
AcDbLine
 10
-386.732611
 20
343.098444
 30
0.0
 11
-386.732611
 21
343.098444
 31
0.0
  0
LINE
  5
6D9
330
6CF
100
AcDbEntity
  8
LC-001-100-D00-0
 62
     7
370
    50
100
AcDbLine
 10
-386.732611
 20
343.098444
 30
0.0
 11
-387.559186
 21
343.098444
 31
0.0
  0
LINE
  5
6DA
330
6CF
100
AcDbEntity
  8
LC-001-100-D00-0
 62
     7
370
    50
100
AcDbLine
 10
-387.559186
 20
343.098444
 30
0.0
 11
-387.559186
 21
343.098444
 31
0.0
  0
LINE
  5
6DB
330
6CF
100
AcDbEntity
  8
LC-001-100-D00-0
 62
     7
370
    50
100
AcDbLine
 10
-387.559186
 20
343.098444
 30
0.0
 11
-388.736803
 21
343.098444
 31
0.0
  0
LINE
  5
6DC
330
6CF
100
AcDbEntity
  8
LC-001-100-D00-0
 62
     7
370
    50
100
AcDbLine
 10
-388.736803
 20
343.098444
 30
0.0
 11
-388.736803
 21
343.098444
 31
0.0
  0
LINE
  5
6DD
330
6CF
100
AcDbEntity
  8
LC-001-100-D00-0
 62
     7
370
    50
100
AcDbLine
 10
-388.736803
 20
343.098444
 30
0.0
 11
-390.564917
 21
343.098444
 31
0.0
  0
LINE
  5
6DE
330
6CF
100
AcDbEntity
  8
LC-001-100-D00-0
 62
     7
370
    50
100
AcDbLine
 10
-390.564917
 20
343.098444
 30
0.0
 11
-390.564917
 21
343.098444
 31
0.0
  0
LINE
  5
6DF
330
6CF
100
AcDbEntity
  8
LC-001-100-D00-0
 62
     7
370
    50
100
AcDbLine
 10
-390.564917
 20
343.098444
 30
0.0
 11
-393.266544
 21
343.098444
 31
0.0
  0
LINE
  5
6E0
330
6CF
100
AcDbEntity
  8
LC-001-100-D00-0
 62
     7
370
    50
100
AcDbLine
 10
-393.266544
 20
343.098444
 30
0.0
 11
-393.266544
 21
343.098444
 31
0.0
  0
LINE
  5
6E1
330
6CF
100
AcDbEntity
  8
LC-001-100-D00-0
 62
     7
370
    50
100
AcDbLine
 10
-393.266544
 20
343.098444
 30
0.0
 11
-396.191808
 21
343.098444
 31
0.0
  0
LINE
  5
6E2
330
6CF
100
AcDbEntity
  8
LC-001-100-D00-0
 62
     7
370
    50
100
AcDbLine
 10
-396.191808
 20
343.098444
 30
0.0
 11
-396.191808
 21
343.098444
 31
0.0
  0
LINE
  5
6E3
330
6CF
100
AcDbEntity
  8
LC-001-100-D00-0
 62
     7
370
    50
100
AcDbLine
 10
-396.191808
 20
343.098444
 30
0.0
 11
-398.465912
 21
343.098444
 31
0.0
  0
LINE
  5
6E4
330
6CF
100
AcDbEntity
  8
LC-001-100-D00-0
 62
     7
370
    50
100
AcDbLine
 10
-398.465912
 20
343.098444
 30
0.0
 11
-398.465912
 21
343.098444
 31
0.0
  0
LINE
  5
6E5
330
6CF
100
AcDbEntity
  8
LC-001-100-D00-0
 62
     7
370
    50
100
AcDbLine
 10
-398.465912
 20
343.098444
 30
0.0
 11
-400.112588
 21
343.098444
 31
0.0
  0
LINE
  5
6E6
330
6CF
100
AcDbEntity
  8
LC-001-100-D00-0
 62
     7
370
    50
100
AcDbLine
 10
-400.112588
 20
343.098444
 30
0.0
 11
-400.112588
 21
343.098444
 31
0.0
  0
LINE
  5
6E7
330
6CF
100
AcDbEntity
  8
LC-001-100-D00-0
 62
     7
370
    50
100
AcDbLine
 10
-400.112588
 20
343.098444
 30
0.0
 11
-401.555801
 21
343.098444
 31
0.0
  0
LINE
  5
6E8
330
6CF
100
AcDbEntity
  8
LC-001-100-D00-0
 62
     7
370
    50
100
AcDbLine
 10
-401.555801
 20
343.098444
 30
0.0
 11
-401.555801
 21
343.098444
 31
0.0
  0
LINE
  5
6E9
330
6CF
100
AcDbEntity
  8
LC-001-100-D00-0
 62
     7
370
    50
100
AcDbLine
 10
-401.555801
 20
343.098444
 30
0.0
 11
-403.023885
 21
343.098444
 31
0.0
  0
LINE
  5
6EA
330
6CF
100
AcDbEntity
  8
LC-001-100-D00-0
 62
     7
370
    50
100
AcDbLine
 10
-403.023885
 20
343.098444
 30
0.0
 11
-403.023885
 21
343.098444
 31
0.0
  0
LINE
  5
6EB
330
6CF
100
AcDbEntity
  8
LC-001-100-D00-0
 62
     7
370
    50
100
AcDbLine
 10
-403.023885
 20
343.098444
 30
0.0
 11
-404.085067
 21
343.098444
 31
0.0
  0
LINE
  5
6EC
330
6CF
100
AcDbEntity
  8
LC-001-100-D00-0
 62
     7
370
    50
100
AcDbLine
 10
-404.085067
 20
343.098444
 30
0.0
 11
-404.085067
 21
343.098444
 31
0.0
  0
LINE
  5
6ED
330
6CF
100
AcDbEntity
  8
LC-001-100-D00-0
 62
     7
370
    50
100
AcDbLine
 10
-404.085067
 20
343.098444
 30
0.0
 11
-404.013509
 21
343.098444
 31
0.0
  0
LINE
  5
6EE
330
6CF
100
AcDbEntity
  8
LC-001-100-D00-0
 62
     7
370
    50
100
AcDbLine
 10
-404.013509
 20
343.098444
 30
0.0
 11
-404.013509
 21
343.098444
 31
0.0
  0
LINE
  5
6EF
330
6CF
100
AcDbEntity
  8
LC-001-100-D00-0
 62
     7
370
    50
100
AcDbLine
 10
-404.013509
 20
343.098444
 30
0.0
 11
-403.988261
 21
343.098444
 31
0.0
  0
ENDBLK
  5
6D1
330
6CF
100
AcDbEntity
  8
0
100
AcDbBlockEnd
  0
BLOCK
  5
6FA
330
6F9
100
AcDbEntity
  8
0
100
AcDbBlockBegin
  2
KLON33
 70
     0
 71
     0
 10
0.0
 20
0.0
 30
0.0
  3
KLON33
  1

  4
KLON33
  0
LINE
  5
6FC
330
6F9
100
AcDbEntity
  8
LC-001-100-D00-0
 62
     7
370
    25
100
AcDbLine
 10
-380.688483
 20
433.743249
 30
0.0
 11
-378.492331
 21
435.939402
 31
0.0
  0
LINE
  5
6FD
330
6F9
100
AcDbEntity
  8
LC-001-100-D00-0
 62
     7
370
    25
100
AcDbLine
 10
-393.339808
 20
443.542565
 30
0.0
 11
-390.333088
 21
446.549285
 31
0.0
  0
LINE
  5
6FE
330
6F9
100
AcDbEntity
  8
LC-001-100-D00-0
 62
     7
370
    25
100
AcDbLine
 10
-415.790448
 20
443.542565
 30
0.0
 11
-412.783728
 21
446.549285
 31
0.0
  0
LINE
  5
6FF
330
6F9
100
AcDbEntity
  8
LC-001-100-D00-0
 62
     7
370
    25
100
AcDbLine
 10
-436.646333
 20
445.137321
 30
0.0
 11
-435.817248
 21
445.966405
 31
0.0
  0
ENDBLK
  5
6FB
330
6F9
100
AcDbEntity
  8
0
100
AcDbBlockEnd
  0
BLOCK
  5
702
330
701
100
AcDbEntity
  8
0
100
AcDbBlockBegin
  2
KLON34
 70
     0
 71
     0
 10
0.0
 20
0.0
 30
0.0
  3
KLON34
  1

  4
KLON34
  0
LINE
  5
704
330
701
100
AcDbEntity
  8
LC-001-100-D00-0
 62
     7
370
    25
100
AcDbLine
 10
-305.580086
 20
396.598445
 30
0.0
 11
-302.580086
 21
399.598445
 31
0.0
  0
LINE
  5
705
330
701
100
AcDbEntity
  8
LC-001-100-D00-0
 62
     7
370
    25
100
AcDbLine
 10
-293.646333
 20
408.532198
 30
0.0
 11
-290.646333
 21
411.532198
 31
0.0
  0
LINE
  5
706
330
701
100
AcDbEntity
  8
LC-001-100-D00-0
 62
     7
370
    25
100
AcDbLine
 10
-328.030726
 20
396.598445
 30
0.0
 11
-325.030726
 21
399.598445
 31
0.0
  0
LINE
  5
707
330
701
100
AcDbEntity
  8
LC-001-100-D00-0
 62
     7
370
    25
100
AcDbLine
 10
-293.646333
 20
430.982839
 30
0.0
 11
-290.646333
 21
433.982839
 31
0.0
  0
LINE
  5
708
330
701
100
AcDbEntity
  8
LC-001-100-D00-0
 62
     7
370
    25
100
AcDbLine
 10
-350.481367
 20
396.598445
 30
0.0
 11
-347.481367
 21
399.598445
 31
0.0
  0
LINE
  5
709
330
701
100
AcDbEntity
  8
LC-001-100-D00-0
 62
     7
370
    25
100
AcDbLine
 10
-338.658435
 20
408.421377
 30
0.0
 11
-335.931824
 21
411.147988
 31
0.0
  0
LINE
  5
70A
330
701
100
AcDbEntity
  8
LC-001-100-D00-0
 62
     7
370
    25
100
AcDbLine
 10
-372.882847
 20
396.647605
 30
0.0
 11
-369.876127
 21
399.654325
 31
0.0
  0
LINE
  5
70B
330
701
100
AcDbEntity
  8
LC-001-100-D00-0
 62
     7
370
    25
100
AcDbLine
 10
-395.333487
 20
396.647605
 30
0.0
 11
-392.326767
 21
399.654325
 31
0.0
  0
LINE
  5
70C
330
701
100
AcDbEntity
  8
LC-001-100-D00-0
 62
     7
370
    25
100
AcDbLine
 10
-417.784127
 20
396.647605
 30
0.0
 11
-414.777408
 21
399.654325
 31
0.0
  0
ENDBLK
  5
703
330
701
100
AcDbEntity
  8
0
100
AcDbBlockEnd
  0
BLOCK
  5
70F
330
70E
100
AcDbEntity
  8
0
100
AcDbBlockBegin
  2
KLON35
 70
     0
 71
     0
 10
0.0
 20
0.0
 30
0.0
  3
KLON35
  1

  4
KLON35
  0
LINE
  5
711
330
70E
100
AcDbEntity
  8
LC-001-100-D00-0
 62
     7
370
    25
100
AcDbLine
 10
-291.530726
 20
433.098445
 30
0.0
 11
-290.646333
 21
433.982839
 31
0.0
  0
LINE
  5
712
330
70E
100
AcDbEntity
  8
LC-001-100-D00-0
 62
     7
370
    25
100
AcDbLine
 10
-293.646333
 20
453.433479
 30
0.0
 11
-290.646333
 21
456.433479
 31
0.0
  0
ENDBLK
  5
710
330
70E
100
AcDbEntity
  8
0
100
AcDbBlockEnd
  0
BLOCK
  5
715
330
714
100
AcDbEntity
  8
0
100
AcDbBlockBegin
  2
KLON36
 70
     0
 71
     0
 10
0.0
 20
0.0
 30
0.0
  3
KLON36
  1

  4
KLON36
  0
LINE
  5
717
330
714
100
AcDbEntity
  8
LC-001-100-D00-0
 62
     7
370
    25
100
AcDbLine
 10
-361.382647
 20
430.598445
 30
0.0
 11
-358.646333
 21
433.33476
 31
0.0
  0
LINE
  5
718
330
714
100
AcDbEntity
  8
LC-001-100-D00-0
 62
     7
370
    25
100
AcDbLine
 10
-370.646333
 20
443.7854
 30
0.0
 11
-367.646333
 21
446.7854
 31
0.0
  0
ENDBLK
  5
716
330
714
100
AcDbEntity
  8
0
100
AcDbBlockEnd
  0
BLOCK
  5
71C
330
71B
100
AcDbEntity
  8
0
100
AcDbBlockBegin
  2
KLON37
 70
     0
 71
     0
 10
0.0
 20
0.0
 30
0.0
  3
KLON37
  1

  4
KLON37
  0
LINE
  5
71E
330
71B
100
AcDbEntity
  8
LC-001-100-D00-0
 62
     7
370
    25
100
AcDbLine
 10
-325.396333
 20
421.683479
 30
0.0
 11
-323.896333
 21
423.183479
 31
0.0
  0
LINE
  5
71F
330
71B
100
AcDbEntity
  8
LC-001-100-D00-0
 62
     7
370
    25
100
AcDbLine
 10
-325.932149
 20
443.598303
 30
0.0
 11
-324.844623
 21
444.685829
 31
0.0
  0
LINE
  5
720
330
71B
100
AcDbEntity
  8
LC-001-100-D00-0
 62
     7
370
    25
100
AcDbLine
 10
-350.646333
 20
441.33476
 30
0.0
 11
-348.834654
 21
443.146438
 31
0.0
  0
LINE
  5
721
330
71B
100
AcDbEntity
  8
LC-001-100-D00-0
 62
     7
370
    25
100
AcDbLine
 10
-346.694325
 20
445.286767
 30
0.0
 11
-344.882647
 21
447.098445
 31
0.0
  0
ENDBLK
  5
71D
330
71B
100
AcDbEntity
  8
0
100
AcDbBlockEnd
  0
BLOCK
  5
724
330
723
100
AcDbEntity
  8
0
100
AcDbBlockBegin
  2
KLON38
 70
     0
 71
     0
 10
0.0
 20
0.0
 30
0.0
  3
KLON38
  1

  4
KLON38
  0
LINE
  5
726
330
723
100
AcDbEntity
  8
LC-001-100-D00-0
 62
     7
370
    25
100
AcDbLine
 10
-312.146333
 20
412.482839
 30
0.0
 11
-310.646333
 21
413.982839
 31
0.0
  0
LINE
  5
727
330
723
100
AcDbEntity
  8
LC-001-100-D00-0
 62
     7
370
    25
100
AcDbLine
 10
-312.146333
 20
434.933479
 30
0.0
 11
-309.981367
 21
437.098445
 31
0.0
  0
ENDBLK
  5
725
330
723
100
AcDbEntity
  8
0
100
AcDbBlockEnd
  0
BLOCK
  5
72A
330
729
100
AcDbEntity
  8
0
100
AcDbBlockBegin
  2
KLON39
 70
     0
 71
     0
 10
0.0
 20
0.0
 30
0.0
  3
KLON39
  1

  4
KLON39
  0
LINE
  5
72C
330
729
100
AcDbEntity
  8
LC-001-100-D00-0
 62
     7
370
    25
100
AcDbLine
 10
-304.646333
 20
442.433479
 30
0.0
 11
-303.146333
 21
443.933479
 31
0.0
  0
LINE
  5
72D
330
729
100
AcDbEntity
  8
LC-001-100-D00-0
 62
     7
370
    25
100
AcDbLine
 10
-286.146333
 20
483.384119
 30
0.0
 11
-284.646333
 21
484.884119
 31
0.0
  0
LINE
  5
72E
330
729
100
AcDbEntity
  8
LC-001-100-D00-0
 62
     7
370
    25
100
AcDbLine
 10
-286.146333
 20
505.83476
 30
0.0
 11
-284.646333
 21
507.33476
 31
0.0
  0
ENDBLK
  5
72B
330
729
100
AcDbEntity
  8
0
100
AcDbBlockEnd
  0
BLOCK
  5
731
330
730
100
AcDbEntity
  8
0
100
AcDbBlockBegin
  2
KLON40
 70
     0
 71
     0
 10
0.0
 20
0.0
 30
0.0
  3
KLON40
  1

  4
KLON40
  0
LINE
  5
733
330
730
100
AcDbEntity
  8
LC-001-100-D00-0
 62
     7
370
    25
100
AcDbLine
 10
-356.946333
 20
435.03476
 30
0.0
 11
-355.446333
 21
436.53476
 31
0.0
  0
LINE
  5
734
330
730
100
AcDbEntity
  8
LC-001-100-D00-0
 62
     7
370
    25
100
AcDbLine
 10
-358.146333
 20
456.2854
 30
0.0
 11
-356.646333
 21
457.7854
 31
0.0
  0
LINE
  5
735
330
730
100
AcDbEntity
  8
LC-001-100-D00-0
 62
     7
370
    25
100
AcDbLine
 10
-373.783928
 20
463.098445
 30
0.0
 11
-372.283928
 21
464.598445
 31
0.0
  0
LINE
  5
736
330
730
100
AcDbEntity
  8
LC-001-100-D00-0
 62
     7
370
    25
100
AcDbLine
 10
-396.234568
 20
463.098445
 30
0.0
 11
-394.734568
 21
464.598445
 31
0.0
  0
ENDBLK
  5
732
330
730
100
AcDbEntity
  8
0
100
AcDbBlockEnd
  0
BLOCK
  5
744
330
739
100
AcDbEntity
  8
0
100
AcDbBlockBegin
  2
*D64
 70
     1
 71
     0
 10
0.0
 20
0.0
 30
0.0
  3
*D64
  1

  0
LINE
  5
73A
330
739
100
AcDbEntity
  8
LC-001-100-D00-0
 62
     2
370
    -2
100
AcDbLine
 10
-310.646333
 20
406.598445
 30
0.0
 11
-243.243737
 21
406.598445
 31
0.0
  0
LINE
  5
73B
330
739
100
AcDbEntity
  8
LC-001-100-D00-0
 62
     2
370
    -2
100
AcDbLine
 10
-326.153475
 20
430.598445
 30
0.0
 11
-243.243737
 21
430.598445
 31
0.0
  0
LINE
  5
73C
330
739
100
AcDbEntity
  8
LC-001-100-D00-0
 62
     2
370
    -2
100
AcDbLine
 10
-252.243737
 20
480.598445
 30
0.0
 11
-252.243737
 21
530.598445
 31
0.0
  0
LINE
  5
73D
330
739
100
AcDbEntity
  8
LC-001-100-D00-0
 62
     2
370
    -2
100
AcDbLine
 10
-252.243737
 20
356.598445
 30
0.0
 11
-252.243737
 21
328.724202
 31
0.0
  0
SOLID
  5
73E
330
739
100
AcDbEntity
  8
LC-001-100-D00-0
 62
     2
100
AcDbTrace
 10
-243.910403
 20
356.598445
 30
0.0
 11
-260.57707
 21
356.598445
 31
0.0
 12
-252.243737
 22
406.598445
 32
0.0
 13
-252.243737
 23
406.598445
 33
0.0
  0
SOLID
  5
73F
330
739
100
AcDbEntity
  8
LC-001-100-D00-0
 62
     2
100
AcDbTrace
 10
-260.57707
 20
480.598445
 30
0.0
 11
-243.910403
 21
480.598445
 31
0.0
 12
-252.243737
 22
430.598445
 32
0.0
 13
-252.243737
 23
430.598445
 33
0.0
  0
MTEXT
  5
740
330
739
100
AcDbEntity
  8
LC-001-100-D00-0
 62
     2
100
AcDbMText
 10
-307.243737
 20
371.790445
 30
0.0
 40
50.0
 41
0.0
 71
     5
 72
     1
  1
\A1;24
  7
LCTX15-400-0-0pDIN-Schrift
 11
6.123031769111886E-17
 21
1.0
 31
0.0
 73
     1
 44
1.0
  0
POINT
  5
741
330
739
100
AcDbEntity
  8
Defpoints
 62
     0
100
AcDbPoint
 10
-310.646333
 20
406.598445
 30
0.0
  0
POINT
  5
742
330
739
100
AcDbEntity
  8
Defpoints
 62
     0
100
AcDbPoint
 10
-326.153475
 20
430.598445
 30
0.0
  0
POINT
  5
743
330
739
100
AcDbEntity
  8
Defpoints
 62
     0
100
AcDbPoint
 10
-252.243737
 20
430.598445
 30
0.0
  0
ENDBLK
  5
745
330
739
100
AcDbEntity
  8
0
100
AcDbBlockEnd
  0
BLOCK
  5
752
330
747
100
AcDbEntity
  8
0
100
AcDbBlockBegin
  2
*D65
 70
     1
 71
     0
 10
0.0
 20
0.0
 30
0.0
  3
*D65
  1

  0
LINE
  5
748
330
747
100
AcDbEntity
  8
LC-001-100-D00-0
 62
     2
370
    -2
100
AcDbLine
 10
-433.646333
 20
446.549285
 30
0.0
 11
-499.363688
 21
446.549285
 31
0.0
  0
LINE
  5
749
330
747
100
AcDbEntity
  8
LC-001-100-D00-0
 62
     2
370
    -2
100
AcDbLine
 10
-433.646333
 20
396.647605
 30
0.0
 11
-499.363688
 21
396.647605
 31
0.0
  0
LINE
  5
74A
330
747
100
AcDbEntity
  8
LC-001-100-D00-0
 62
     2
370
    -2
100
AcDbLine
 10
-490.363688
 20
346.647605
 30
0.0
 11
-490.363688
 21
296.647605
 31
0.0
  0
LINE
  5
74B
330
747
100
AcDbEntity
  8
LC-001-100-D00-0
 62
     2
370
    -2
100
AcDbLine
 10
-490.363688
 20
496.549285
 30
0.0
 11
-490.363688
 21
634.589798
 31
0.0
  0
SOLID
  5
74C
330
747
100
AcDbEntity
  8
LC-001-100-D00-0
 62
     2
100
AcDbTrace
 10
-498.697021
 20
496.549285
 30
0.0
 11
-482.030355
 21
496.549285
 31
0.0
 12
-490.363688
 22
446.549285
 32
0.0
 13
-490.363688
 23
446.549285
 33
0.0
  0
SOLID
  5
74D
330
747
100
AcDbEntity
  8
LC-001-100-D00-0
 62
     2
100
AcDbTrace
 10
-482.030355
 20
346.647605
 30
0.0
 11
-498.697021
 21
346.647605
 31
0.0
 12
-490.363688
 22
396.647605
 32
0.0
 13
-490.363688
 23
396.647605
 33
0.0
  0
MTEXT
  5
74E
330
747
100
AcDbEntity
  8
LC-001-100-D00-0
 62
     2
100
AcDbMText
 10
-545.363688
 20
550.238446
 30
0.0
 40
50.0
 41
0.0
 71
     5
 72
     1
  1
\A1;DN50
  7
LCTX15-400-0-0pDIN-Schrift
 11
6.123031769111886E-17
 21
1.0
 31
0.0
 73
     1
 44
1.0
  0
POINT
  5
74F
330
747
100
AcDbEntity
  8
Defpoints
 62
     0
100
AcDbPoint
 10
-433.646333
 20
446.549285
 30
0.0
  0
POINT
  5
750
330
747
100
AcDbEntity
  8
Defpoints
 62
     0
100
AcDbPoint
 10
-433.646333
 20
396.647605
 30
0.0
  0
POINT
  5
751
330
747
100
AcDbEntity
  8
Defpoints
 62
     0
100
AcDbPoint
 10
-490.363688
 20
396.647605
 30
0.0
  0
ENDBLK
  5
753
330
747
100
AcDbEntity
  8
0
100
AcDbBlockEnd
  0
BLOCK
  5
761
330
756
100
AcDbEntity
  8
0
100
AcDbBlockBegin
  2
*D66
 70
     1
 71
     0
 10
0.0
 20
0.0
 30
0.0
  3
*D66
  1

  0
LINE
  5
757
330
756
100
AcDbEntity
  8
LC-001-100-D00-0
 62
     2
370
    -2
100
AcDbLine
 10
-408.146333
 20
464.598445
 30
0.0
 11
-619.162582
 21
464.598445
 31
0.0
  0
LINE
  5
758
330
756
100
AcDbEntity
  8
LC-001-100-D00-0
 62
     2
370
    -2
100
AcDbLine
 10
-404.646333
 20
335.098445
 30
0.0
 11
-619.162582
 21
335.098445
 31
0.0
  0
LINE
  5
759
330
756
100
AcDbEntity
  8
LC-001-100-D00-0
 62
     2
370
    -2
100
AcDbLine
 10
-610.162582
 20
414.598445
 30
0.0
 11
-610.162582
 21
385.098445
 31
0.0
  0
LINE
  5
75A
330
756
100
AcDbEntity
  8
LC-001-100-D00-0
 62
     2
370
    -2
100
AcDbLine
 10
-610.162582
 20
464.598445
 30
0.0
 11
-610.162582
 21
650.552833
 31
0.0
  0
SOLID
  5
75B
330
756
100
AcDbEntity
  8
LC-001-100-D00-0
 62
     2
100
AcDbTrace
 10
-601.829248
 20
414.598445
 30
0.0
 11
-618.495915
 21
414.598445
 31
0.0
 12
-610.162582
 22
464.598445
 32
0.0
 13
-610.162582
 23
464.598445
 33
0.0
  0
SOLID
  5
75C
330
756
100
AcDbEntity
  8
LC-001-100-D00-0
 62
     2
100
AcDbTrace
 10
-618.495915
 20
385.098445
 30
0.0
 11
-601.829248
 21
385.098445
 31
0.0
 12
-610.162582
 22
335.098445
 32
0.0
 13
-610.162582
 23
335.098445
 33
0.0
  0
MTEXT
  5
75D
330
756
100
AcDbEntity
  8
LC-001-100-D00-0
 62
     2
100
AcDbMText
 10
-665.162582
 20
498.263446
 30
0.0
 40
50.0
 41
0.0
 71
     5
 72
     1
  1
\A1;68-129,5
  7
LCTX15-400-0-0pDIN-Schrift
 11
6.123031769111886E-17
 21
1.0
 31
0.0
 73
     1
 44
1.0
  0
POINT
  5
75E
330
756
100
AcDbEntity
  8
Defpoints
 62
     0
100
AcDbPoint
 10
-408.146333
 20
464.598445
 30
0.0
  0
POINT
  5
75F
330
756
100
AcDbEntity
  8
Defpoints
 62
     0
100
AcDbPoint
 10
-404.646333
 20
335.098445
 30
0.0
  0
POINT
  5
760
330
756
100
AcDbEntity
  8
Defpoints
 62
     0
100
AcDbPoint
 10
-610.162582
 20
335.098445
 30
0.0
  0
ENDBLK
  5
762
330
756
100
AcDbEntity
  8
0
100
AcDbBlockEnd
  0
BLOCK
  5
772
330
767
100
AcDbEntity
  8
0
100
AcDbBlockBegin
  2
*D67
 70
     1
 71
     0
 10
0.0
 20
0.0
 30
0.0
  3
*D67
  1

  0
LINE
  5
768
330
767
100
AcDbEntity
  8
LC-002-003-----0
 62
     2
370
    -2
100
AcDbLine
 10
-436.646331
 20
399.654324
 30
0.0
 11
-436.646331
 21
210.440525
 31
0.0
  0
LINE
  5
769
330
767
100
AcDbEntity
  8
LC-002-003-----0
 62
     2
370
    -2
100
AcDbLine
 10
-330.646333
 20
399.598445
 30
0.0
 11
-330.646333
 21
210.440525
 31
0.0
  0
LINE
  5
76A
330
767
100
AcDbEntity
  8
LC-002-003-----0
 62
     2
370
    -2
100
AcDbLine
 10
-280.646333
 20
219.440525
 30
0.0
 11
-230.646333
 21
219.440525
 31
0.0
  0
LINE
  5
76B
330
767
100
AcDbEntity
  8
LC-002-003-----0
 62
     2
370
    -2
100
AcDbLine
 10
-486.646331
 20
219.440525
 30
0.0
 11
-554.936273
 21
219.440525
 31
0.0
  0
SOLID
  5
76C
330
767
100
AcDbEntity
  8
LC-002-003-----0
 62
     2
100
AcDbTrace
 10
-486.646331
 20
211.107191
 30
0.0
 11
-486.646331
 21
227.773858
 31
0.0
 12
-436.646331
 22
219.440525
 32
0.0
 13
-436.646331
 23
219.440525
 33
0.0
  0
SOLID
  5
76D
330
767
100
AcDbEntity
  8
LC-002-003-----0
 62
     2
100
AcDbTrace
 10
-280.646333
 20
227.773858
 30
0.0
 11
-280.646333
 21
211.107191
 31
0.0
 12
-330.646333
 22
219.440525
 32
0.0
 13
-330.646333
 23
219.440525
 33
0.0
  0
MTEXT
  5
76E
330
767
100
AcDbEntity
  8
LC-002-003-----0
 62
     2
100
AcDbMText
 10
-498.837361
 20
274.440525
 30
0.0
 40
50.0
 41
0.0
 71
     5
 72
     1
  1
\A1;106
  7
LCTX15-400-0-0pDIN-Schrift
 73
     1
 44
1.0
  0
POINT
  5
76F
330
767
100
AcDbEntity
  8
Defpoints
 62
     0
100
AcDbPoint
 10
-436.646331
 20
399.654324
 30
0.0
  0
POINT
  5
770
330
767
100
AcDbEntity
  8
Defpoints
 62
     0
100
AcDbPoint
 10
-330.646333
 20
399.598445
 30
0.0
  0
POINT
  5
771
330
767
100
AcDbEntity
  8
Defpoints
 62
     0
100
AcDbPoint
 10
-330.646333
 20
219.440525
 30
0.0
  0
ENDBLK
  5
773
330
767
100
AcDbEntity
  8
0
100
AcDbBlockEnd
  0
BLOCK
  5
77F
330
775
100
AcDbEntity
  8
0
100
AcDbBlockBegin
  2
*D68
 70
     1
 71
     0
 10
0.0
 20
0.0
 30
0.0
  3
*D68
  1

  0
LINE
  5
776
330
775
100
AcDbEntity
  8
LC-002-003-----0
 62
     2
370
    -2
100
AcDbLine
 10
-436.646331
 20
399.654324
 30
0.0
 11
-436.646331
 21
113.033297
 31
0.0
  0
LINE
  5
777
330
775
100
AcDbEntity
  8
LC-002-003-----0
 62
     2
370
    -2
100
AcDbLine
 10
-290.646333
 20
411.532198
 30
0.0
 11
-290.646333
 21
113.033297
 31
0.0
  0
LINE
  5
778
330
775
100
AcDbEntity
  8
LC-002-003-----0
 62
     2
370
    -2
100
AcDbLine
 10
-386.646331
 20
122.033297
 30
0.0
 11
-340.646333
 21
122.033297
 31
0.0
  0
SOLID
  5
779
330
775
100
AcDbEntity
  8
LC-002-003-----0
 62
     2
100
AcDbTrace
 10
-386.646331
 20
130.36663
 30
0.0
 11
-386.646331
 21
113.699964
 31
0.0
 12
-436.646331
 22
122.033297
 32
0.0
 13
-436.646331
 23
122.033297
 33
0.0
  0
SOLID
  5
77A
330
775
100
AcDbEntity
  8
LC-002-003-----0
 62
     2
100
AcDbTrace
 10
-340.646333
 20
113.699964
 30
0.0
 11
-340.646333
 21
130.36663
 31
0.0
 12
-290.646333
 22
122.033297
 32
0.0
 13
-290.646333
 23
122.033297
 33
0.0
  0
MTEXT
  5
77B
330
775
100
AcDbEntity
  8
LC-002-003-----0
 62
     2
100
AcDbMText
 10
-376.267211
 20
177.033297
 30
0.0
 40
50.0
 41
0.0
 71
     5
 72
     1
  1
\A1;146
  7
LCTX15-400-0-0pDIN-Schrift
 73
     1
 44
1.0
  0
POINT
  5
77C
330
775
100
AcDbEntity
  8
Defpoints
 62
     0
100
AcDbPoint
 10
-436.646331
 20
399.654324
 30
0.0
  0
POINT
  5
77D
330
775
100
AcDbEntity
  8
Defpoints
 62
     0
100
AcDbPoint
 10
-290.646333
 20
411.532198
 30
0.0
  0
POINT
  5
77E
330
775
100
AcDbEntity
  8
Defpoints
 62
     0
100
AcDbPoint
 10
-290.646333
 20
122.033297
 30
0.0
  0
ENDBLK
  5
780
330
775
100
AcDbEntity
  8
0
100
AcDbBlockEnd
  0
ENDSEC
  0
SECTION
  2
ENTITIES
  0
LINE
  5
31
330
1F
100
AcDbEntity
  8
LC-001-100-D00-0
 62
     7
370
    50
100
AcDbLine
 10
918.477749
 20
82.556018
 30
0.0
 11
918.477749
 21
81.056018
 31
0.0
  0
LINE
  5
32
330
1F
100
AcDbEntity
  8
LC-001-100-D00-0
 62
     7
370
    50
100
AcDbLine
 10
918.477749
 20
81.056018
 30
0.0
 11
913.477749
 21
81.056018
 31
0.0
  0
LINE
  5
33
330
1F
100
AcDbEntity
  8
LC-001-100-D00-0
 62
     7
370
    50
100
AcDbLine
 10
913.477749
 20
82.556018
 30
0.0
 11
918.477749
 21
82.556018
 31
0.0
  0
LINE
  5
34
330
1F
100
AcDbEntity
  8
LC-001-100-D00-0
 62
     7
370
    50
100
AcDbLine
 10
-176.522251
 20
81.056018
 30
0.0
 11
913.477749
 21
81.056018
 31
0.0
  0
LINE
  5
35
330
1F
100
AcDbEntity
  8
LC-001-100-D00-0
 62
     7
370
    50
100
AcDbLine
 10
-176.522251
 20
82.556018
 30
0.0
 11
913.477749
 21
82.556018
 31
0.0
  0
LINE
  5
36
330
1F
100
AcDbEntity
  8
LC-001-100-D00-0
 62
     7
370
    50
100
AcDbLine
 10
-181.522251
 20
81.056018
 30
0.0
 11
-181.522251
 21
82.556018
 31
0.0
  0
LINE
  5
37
330
1F
100
AcDbEntity
  8
LC-001-100-D00-0
 62
     7
370
    50
100
AcDbLine
 10
-176.522251
 20
81.056018
 30
0.0
 11
-181.522251
 21
81.056018
 31
0.0
  0
LINE
  5
38
330
1F
100
AcDbEntity
  8
LC-001-100-D00-0
 62
     7
370
    50
100
AcDbLine
 10
-181.522251
 20
82.556018
 30
0.0
 11
-176.522251
 21
82.556018
 31
0.0
  0
LINE
  5
39
330
1F
100
AcDbEntity
  8
LC-001-100-D00-0
 62
     7
370
    50
100
AcDbLine
 10
-181.522251
 20
79.556018
 30
0.0
 11
-181.522251
 21
81.056018
 31
0.0
  0
LINE
  5
3A
330
1F
100
AcDbEntity
  8
LC-001-100-D00-0
 62
     7
370
    50
100
AcDbLine
 10
918.477749
 20
81.056018
 30
0.0
 11
918.477749
 21
79.556018
 31
0.0
  0
ARC
  5
3B
330
1F
100
AcDbEntity
  8
LC-001-100-D00-0
 62
     7
370
    50
100
AcDbCircle
 10
865.977749
 20
13.056018
 30
0.0
 40
2.5
100
AcDbArc
 50
270.0
 51
0.0
  0
ARC
  5
3C
330
1F
100
AcDbEntity
  8
LC-001-100-D00-0
 62
     7
370
    50
100
AcDbCircle
 10
865.977749
 20
60.056018
 30
0.0
 40
2.5
100
AcDbArc
 50
0.0
 51
90.0
  0
LINE
  5
3D
330
1F
100
AcDbEntity
  8
LC-001-100-D00-0
 62
     7
370
    50
100
AcDbLine
 10
868.477749
 20
13.056018
 30
0.0
 11
868.477749
 21
60.056018
 31
0.0
  0
LINE
  5
3E
330
1F
100
AcDbEntity
  8
LC-001-100-D00-0
 62
     7
370
    50
100
AcDbLine
 10
865.977749
 20
10.556018
 30
0.0
 11
-129.022251
 21
10.556018
 31
0.0
  0
LINE
  5
3F
330
1F
100
AcDbEntity
  8
LC-001-100-D00-0
 62
     7
370
    50
100
AcDbLine
 10
-129.022251
 20
62.556018
 30
0.0
 11
865.977749
 21
62.556018
 31
0.0
  0
ARC
  5
40
330
1F
100
AcDbEntity
  8
LC-001-100-D00-0
 62
     7
370
    50
100
AcDbCircle
 10
-129.022251
 20
60.056018
 30
0.0
 40
2.5
100
AcDbArc
 50
90.0
 51
180.0
  0
ARC
  5
41
330
1F
100
AcDbEntity
  8
LC-001-100-D00-0
 62
     7
370
    50
100
AcDbCircle
 10
-129.022251
 20
13.056018
 30
0.0
 40
2.500000000000114
100
AcDbArc
 50
180.0
 51
270.0
  0
LINE
  5
42
330
1F
100
AcDbEntity
  8
LC-001-100-D00-0
 62
     7
370
    50
100
AcDbLine
 10
-131.522251
 20
13.056018
 30
0.0
 11
-131.522251
 21
60.056018
 31
0.0
  0
LINE
  5
43
330
1F
100
AcDbEntity
  8
LC-001-100-D00-0
 62
     7
370
    50
100
AcDbLine
 10
-176.522251
 20
-40.943982
 30
0.0
 11
913.477749
 21
-40.943982
 31
0.0
  0
ARC
  5
44
330
1F
100
AcDbEntity
  8
LC-001-100-D00-0
 62
     7
370
    50
100
AcDbCircle
 10
-176.522251
 20
-35.943982
 30
0.0
 40
5.0
100
AcDbArc
 50
180.0
 51
270.0
  0
ARC
  5
45
330
1F
100
AcDbEntity
  8
LC-001-100-D00-0
 62
     7
370
    50
100
AcDbCircle
 10
913.477749
 20
-35.943982
 30
0.0
 40
5.0
100
AcDbArc
 50
270.0
 51
0.0
  0
LINE
  5
46
330
1F
100
AcDbEntity
  8
LC-001-100-D00-0
 62
     7
370
    50
100
AcDbLine
 10
-181.522251
 20
79.556018
 30
0.0
 11
-181.522251
 21
-35.943982
 31
0.0
  0
LINE
  5
47
330
1F
100
AcDbEntity
  8
LC-001-100-D00-0
 62
     7
370
    50
100
AcDbLine
 10
918.477749
 20
79.556018
 30
0.0
 11
918.477749
 21
-35.943982
 31
0.0
  0
CIRCLE
  5
48
330
1F
100
AcDbEntity
  8
LC-001-100-D00-0
 62
     7
370
    50
100
AcDbCircle
 10
838.477749
 20
36.556018
 30
0.0
 40
3.0
  0
CIRCLE
  5
49
330
1F
100
AcDbEntity
  8
LC-001-100-D00-0
 62
     7
370
    50
100
AcDbCircle
 10
653.477749
 20
36.556018
 30
0.0
 40
2.999999999999545
  0
CIRCLE
  5
4A
330
1F
100
AcDbEntity
  8
LC-001-100-D00-0
 62
     7
370
    50
100
AcDbCircle
 10
468.477749
 20
36.556018
 30
0.0
 40
3.0
  0
CIRCLE
  5
4B
330
1F
100
AcDbEntity
  8
LC-001-100-D00-0
 62
     7
370
    50
100
AcDbCircle
 10
268.477749
 20
36.556018
 30
0.0
 40
2.999999999999773
  0
CIRCLE
  5
4C
330
1F
100
AcDbEntity
  8
LC-001-100-D00-0
 62
     7
370
    50
100
AcDbCircle
 10
83.477749
 20
36.556018
 30
0.0
 40
2.999999999999773
  0
CIRCLE
  5
4D
330
1F
100
AcDbEntity
  8
LC-001-100-D00-0
 62
     7
370
    50
100
AcDbCircle
 10
-101.522251
 20
36.556018
 30
0.0
 40
2.999999999999773
  0
LINE
  5
4E
330
1F
100
AcDbEntity
  8
LC-001-100-D00-0
 62
     7
370
    50
100
AcDbLine
 10
860.451566
 20
24.233349
 30
0.0
 11
860.451566
 21
13.056019
 31
0.0
  0
ARC
  5
4F
330
1F
100
AcDbEntity
  8
LC-001-100-D00-0
 62
     7
370
    50
100
AcDbCircle
 10
1864.458238
 20
-132.727197
 30
0.0
 40
1016.201755852241
100
AcDbArc
 50
171.105076
 51
171.114633
  0
INSERT
  5
57
330
1F
100
AcDbEntity
  8
LC-001-100-D00-0
 62
     7
370
    50
100
AcDbBlockReference
  2
KLON1
 10
0.0
 20
0.0
 30
0.0
  0
LINE
  5
58
330
1F
100
AcDbEntity
  8
LC-001-100-D00-0
 62
     7
370
    50
100
AcDbLine
 10
860.451566
 20
60.041379
 30
0.0
 11
860.451566
 21
48.878687
 31
0.0
  0
INSERT
  5
5E
330
1F
100
AcDbEntity
  8
LC-001-100-D00-0
 62
     7
370
    50
100
AcDbBlockReference
  2
KLON2
 10
0.0
 20
0.0
 30
0.0
  0
INSERT
  5
64
330
1F
100
AcDbEntity
  8
LC-001-100-D00-0
 62
     7
370
    50
100
AcDbBlockReference
  2
KLON3
 10
0.0
 20
0.0
 30
0.0
  0
INSERT
  5
6A
330
1F
100
AcDbEntity
  8
LC-001-100-D00-0
 62
     7
370
    50
100
AcDbBlockReference
  2
KLON4
 10
0.0
 20
0.0
 30
0.0
  0
LINE
  5
6B
330
1F
100
AcDbEntity
  8
LC-001-100-D00-0
 62
     7
370
    50
100
AcDbLine
 10
-123.496068
 20
60.041379
 30
0.0
 11
-123.496068
 21
48.878687
 31
0.0
  0
INSERT
  5
73
330
1F
100
AcDbEntity
  8
LC-001-100-D00-0
 62
     7
370
    50
100
AcDbBlockReference
  2
KLON5
 10
0.0
 20
0.0
 30
0.0
  0
ARC
  5
74
330
1F
100
AcDbEntity
  8
LC-001-100-D00-0
 62
     7
370
    50
100
AcDbCircle
 10
-1127.502739
 20
-132.727197
 30
0.0
 40
1016.201755852291
100
AcDbArc
 50
8.885367
 51
8.894924
  0
LINE
  5
75
330
1F
100
AcDbEntity
  8
LC-001-100-D00-0
 62
     7
370
    50
100
AcDbLine
 10
-123.496068
 20
24.233349
 30
0.0
 11
-123.496068
 21
13.056019
 31
0.0
  0
INSERT
  5
7B
330
1F
100
AcDbEntity
  8
LC-001-100-D00-0
 62
     7
370
    50
100
AcDbBlockReference
  2
KLON6
 10
0.0
 20
0.0
 30
0.0
  0
ELLIPSE
  5
7C
330
1F
100
AcDbEntity
  8
LC-001-100-D00-0
 62
     7
370
    50
100
AcDbEllipse
 10
860.404781
 20
13.056018
 30
0.0
 11
0.0
 21
-2.499999633789036
 31
0.0
210
0.0
220
0.0
230
1.0
 40
0.018242
 41
3.141592653597272
 42
4.71238898037764
  0
ELLIPSE
  5
7D
330
1F
100
AcDbEntity
  8
LC-001-100-D00-0
 62
     7
370
    50
100
AcDbEllipse
 10
723.404781
 20
13.056018
 30
0.0
 11
0.0
 21
-2.499999389648363
 31
0.0
210
0.0
220
0.0
230
0.9999999999999999
 40
0.018242
 41
3.1415926535873
 42
4.712388980381052
  0
ELLIPSE
  5
7E
330
1F
100
AcDbEntity
  8
LC-001-100-D00-0
 62
     7
370
    50
100
AcDbEllipse
 10
928.950386
 20
13.056018
 30
0.0
 11
68.49999999346524
 21
0.0
 31
0.0
210
0.0
220
0.0
230
0.9999999999999999
 40
0.036496
 41
3.141592653597524
 42
3.169858841660811
  0
ELLIPSE
  5
7F
330
1F
100
AcDbEntity
  8
LC-001-100-D00-0
 62
     7
370
    50
100
AcDbEllipse
 10
-123.449282
 20
13.056018
 30
0.0
 11
0.0
 21
-2.500000001907349
 31
0.0
210
0.0
220
0.0
230
0.9999999999999999
 40
0.018242
 41
1.570796326802218
 42
3.141592653591351
  0
ELLIPSE
  5
80
330
1F
100
AcDbEntity
  8
LC-001-100-D00-0
 62
     7
370
    50
100
AcDbEllipse
 10
13.550718
 20
13.056018
 30
0.0
 11
0.0
 21
-2.499999877974388
 31
0.0
210
0.0
220
0.0
230
1.0
 40
0.018242
 41
1.570796326798488
 42
3.141592653591546
  0
ELLIPSE
  5
81
330
1F
100
AcDbEntity
  8
LC-001-100-D00-0
 62
     7
370
    50
100
AcDbEllipse
 10
-191.994888
 20
13.056018
 30
0.0
 11
68.4999999902
 21
0.0
 31
0.0
210
0.0
220
0.0
230
1.0
 40
0.036496
 41
6.254919119109631
 42
6.283185307179723
  0
ELLIPSE
  5
82
330
1F
100
AcDbEntity
  8
LC-001-100-D00-0
 62
     7
370
    50
100
AcDbEllipse
 10
928.950386
 20
60.056018
 30
0.0
 11
68.49999999999949
 21
0.0
 31
0.0
210
0.0
220
0.0
230
1.0
 40
0.036496
 41
3.141592653589799
 42
3.147448628039458
  0
ELLIPSE
  5
83
330
1F
100
AcDbEntity
  8
LC-001-100-D00-0
 62
     7
370
    50
100
AcDbEllipse
 10
860.404781
 20
60.056018
 30
0.0
 11
0.0
 21
-2.499999023437309
 31
0.0
210
0.0
220
0.0
230
1.0
 40
0.018242
 41
4.712388980384692
 42
6.283185335732645
  0
ELLIPSE
  5
84
330
1F
100
AcDbEntity
  8
LC-001-100-D00-0
 62
     7
370
    50
100
AcDbEllipse
 10
-191.994888
 20
60.056018
 30
0.0
 11
68.50000000001221
 21
0.0
 31
0.0
210
0.0
220
0.0
230
1.0
 40
0.036496
 41
6.277329332730692
 42
6.283185307179577
  0
ELLIPSE
  5
85
330
1F
100
AcDbEntity
  8
LC-001-100-D00-0
 62
     7
370
    50
100
AcDbEllipse
 10
-123.449282
 20
60.056018
 30
0.0
 11
0.0
 21
-2.499999969482422
 31
0.0
210
0.0
220
0.0
230
1.0
 40
0.018242
 41
6.283185278617191
 42
7.853981633974486
  0
ELLIPSE
  5
86
330
1F
100
AcDbEntity
  8
LC-001-100-D00-0
 62
     7
370
    50
100
AcDbEllipse
 10
723.404781
 20
60.056018
 30
0.0
 11
0.0
 21
-2.499999755859363
 31
0.0
210
0.0
220
0.0
230
0.9999999999999999
 40
0.018242
 41
4.712388980388333
 42
6.283185319349657
  0
ELLIPSE
  5
87
330
1F
100
AcDbEntity
  8
LC-001-100-D00-0
 62
     7
370
    50
100
AcDbEllipse
 10
13.550718
 20
60.056018
 30
0.0
 11
0.0
 21
-2.499999755859363
 31
0.0
210
0.0
220
0.0
230
0.9999999999999999
 40
0.018242
 41
6.283185295017617
 42
7.853981633970842
  0
LINE
  5
88
330
1F
100
AcDbEntity
  8
LC-001-100-D00-0
 62
     7
370
    50
100
AcDbLine
 10
723.45038
 20
13.056019
 30
0.0
 11
723.45038
 21
15.906535
 31
0.0
  0
INSERT
  5
8E
330
1F
100
AcDbEntity
  8
LC-001-100-D00-0
 62
     7
370
    50
100
AcDbBlockReference
  2
KLON7
 10
0.0
 20
0.0
 30
0.0
  0
INSERT
  5
94
330
1F
100
AcDbEntity
  8
LC-001-100-D00-0
 62
     7
370
    50
100
AcDbBlockReference
  2
KLON8
 10
0.0
 20
0.0
 30
0.0
  0
LINE
  5
95
330
1F
100
AcDbEntity
  8
LC-001-100-D00-0
 62
     7
370
    50
100
AcDbLine
 10
13.505118
 20
13.056019
 30
0.0
 11
13.505118
 21
15.906535
 31
0.0
  0
INSERT
  5
9C
330
1F
100
AcDbEntity
  8
LC-001-100-D00-0
 62
     7
370
    50
100
AcDbBlockReference
  2
KLON9
 10
0.0
 20
0.0
 30
0.0
  0
INSERT
  5
A3
330
1F
100
AcDbEntity
  8
LC-001-100-D00-0
 62
     7
370
    50
100
AcDbBlockReference
  2
KLON10
 10
0.0
 20
0.0
 30
0.0
  0
INSERT
  5
A9
330
1F
100
AcDbEntity
  8
LC-001-100-D00-0
 62
     7
370
    50
100
AcDbBlockReference
  2
KLON11
 10
0.0
 20
0.0
 30
0.0
  0
INSERT
  5
B0
330
1F
100
AcDbEntity
  8
LC-001-100-D00-0
 62
     7
370
    50
100
AcDbBlockReference
  2
KLON12
 10
0.0
 20
0.0
 30
0.0
  0
INSERT
  5
B7
330
1F
100
AcDbEntity
  8
LC-001-100-D00-0
 62
     7
370
    50
100
AcDbBlockReference
  2
KLON13
 10
0.0
 20
0.0
 30
0.0
  0
INSERT
  5
BD
330
1F
100
AcDbEntity
  8
LC-001-100-D00-0
 62
     7
370
    50
100
AcDbBlockReference
  2
KLON14
 10
0.0
 20
0.0
 30
0.0
  0
LINE
  5
BE
330
1F
100
AcDbEntity
  8
LC-001-100-D00-0
 62
     7
370
    50
100
AcDbLine
 10
723.45038
 20
57.205502
 30
0.0
 11
723.45038
 21
60.056017
 31
0.0
  0
LINE
  5
BF
330
1F
100
AcDbEntity
  8
LC-001-100-D00-0
 62
     7
370
    50
100
AcDbLine
 10
13.505118
 20
57.205502
 30
0.0
 11
13.505118
 21
60.056017
 31
0.0
  0
LINE
  5
C0
330
1F
100
AcDbEntity
  8
LC-001-100-D00-0
 62
     7
370
    50
100
AcDbLine
 10
723.464655
 20
16.70034
 30
0.0
 11
723.464655
 21
30.695067
 31
0.0
  0
ELLIPSE
  5
C1
330
1F
100
AcDbEntity
  8
LC-001-100-D00-0
 62
     7
370
    15
100
AcDbEllipse
 10
185.29651
 20
182.393455
 30
0.0
 11
28.64933018629679
 21
1.713494940988166
 31
0.0
210
0.0
220
0.0
230
1.0
 40
0.016531
 41
6.280994665934066
 42
6.282196627511634
  0
ELLIPSE
  5
C2
330
1F
100
AcDbEntity
  8
LC-001-100-D00-0
 62
     7
370
    15
100
AcDbEllipse
 10
185.29651
 20
193.761778
 30
0.0
 11
28.64933022557235
 21
-1.713494943337208
 31
0.0
210
0.0
220
0.0
230
1.0
 40
0.016531
 41
0.000988679664139
 42
0.0021906412414867
  0
LINE
  5
C3
330
1F
100
AcDbEntity
  8
LC-001-100-D00-0
 62
     7
370
    50
100
AcDbLine
 10
723.464655
 20
42.416969
 30
0.0
 11
723.464655
 21
56.411696
 31
0.0
  0
ELLIPSE
  5
C4
330
1F
100
AcDbEntity
  8
LC-001-100-D00-0
 62
     7
370
    15
100
AcDbEllipse
 10
100.600435
 20
182.393455
 30
0.0
 11
28.64933024128268
 21
-1.713494944276881
 31
0.0
210
0.0
220
0.0
230
1.0
 40
0.016531
 41
3.142581333258
 42
3.143783294835569
  0
LINE
  5
C5
330
1F
100
AcDbEntity
  8
LC-001-100-D00-0
 62
     7
370
    50
100
AcDbLine
 10
13.490843
 20
16.70034
 30
0.0
 11
13.490843
 21
30.695067
 31
0.0
  0
ELLIPSE
  5
C6
330
1F
100
AcDbEntity
  8
LC-001-100-D00-0
 62
     7
370
    15
100
AcDbEllipse
 10
100.600435
 20
193.761778
 30
0.0
 11
28.64933025460208
 21
1.713494945073454
 31
0.0
210
0.0
220
0.0
230
0.9999999999999999
 40
0.016531
 41
3.139402012346098
 42
3.1406039739235
  0
LINE
  5
C7
330
1F
100
AcDbEntity
  8
LC-001-100-D00-0
 62
     7
370
    50
100
AcDbLine
 10
13.490843
 20
42.416969
 30
0.0
 11
13.490843
 21
56.411696
 31
0.0
  0
LINE
  5
C8
330
1F
100
AcDbEntity
  8
LC-001-100-D00-0
 62
     7
370
    50
100
AcDbLine
 10
723.45038
 20
15.906907
 30
0.0
 11
723.464566
 21
16.697477
 31
0.0
  0
LINE
  5
C9
330
1F
100
AcDbEntity
  8
LC-001-100-D00-0
 62
     7
370
    50
100
AcDbLine
 10
723.45038
 20
57.205129
 30
0.0
 11
723.464566
 21
56.414559
 31
0.0
  0
LINE
  5
CA
330
1F
100
AcDbEntity
  8
LC-001-100-D00-0
 62
     7
370
    50
100
AcDbLine
 10
13.505118
 20
15.906907
 30
0.0
 11
13.490933
 21
16.697477
 31
0.0
  0
LINE
  5
CB
330
1F
100
AcDbEntity
  8
LC-001-100-D00-0
 62
     7
370
    50
100
AcDbLine
 10
13.505118
 20
57.205129
 30
0.0
 11
13.490933
 21
56.414559
 31
0.0
  0
ARC
  5
CC
330
1F
100
AcDbEntity
  8
LC-001-100-D00-0
 62
     7
370
    50
100
AcDbCircle
 10
851.727749
 20
23.306018
 30
0.0
 40
5.0
100
AcDbArc
 50
270.0
 51
0.0
  0
LINE
  5
CD
330
1F
100
AcDbEntity
  8
LC-001-100-D00-0
 62
     7
370
    50
100
AcDbLine
 10
856.727749
 20
49.806018
 30
0.0
 11
856.727749
 21
23.306018
 31
0.0
  0
ARC
  5
CE
330
1F
100
AcDbEntity
  8
LC-001-100-D00-0
 62
     7
370
    50
100
AcDbCircle
 10
851.727749
 20
49.806018
 30
0.0
 40
5.0
100
AcDbArc
 50
0.0
 51
90.0
  0
CIRCLE
  5
CF
330
1F
100
AcDbEntity
  8
LC-001-100-D00-0
 62
     7
370
    50
100
AcDbCircle
 10
838.477749
 20
36.556018
 30
0.0
 40
3.899999999999864
  0
LINE
  5
D0
330
1F
100
AcDbEntity
  8
LC-001-100-D00-0
 62
     7
370
    50
100
AcDbLine
 10
825.227749
 20
54.806018
 30
0.0
 11
851.727749
 21
54.806018
 31
0.0
  0
LINE
  5
D1
330
1F
100
AcDbEntity
  8
LC-001-100-D00-0
 62
     7
370
    50
100
AcDbLine
 10
851.727749
 20
18.306018
 30
0.0
 11
825.227749
 21
18.306018
 31
0.0
  0
ARC
  5
D2
330
1F
100
AcDbEntity
  8
LC-001-100-D00-0
 62
     7
370
    50
100
AcDbCircle
 10
825.227749
 20
49.806018
 30
0.0
 40
5.0
100
AcDbArc
 50
90.0
 51
180.0
  0
ARC
  5
D3
330
1F
100
AcDbEntity
  8
LC-001-100-D00-0
 62
     7
370
    50
100
AcDbCircle
 10
825.227749
 20
23.306018
 30
0.0
 40
5.0
100
AcDbArc
 50
180.0
 51
270.0
  0
LINE
  5
D4
330
1F
100
AcDbEntity
  8
LC-001-100-D00-0
 62
     7
370
    50
100
AcDbLine
 10
820.227749
 20
23.306018
 30
0.0
 11
820.227749
 21
49.806018
 31
0.0
  0
ARC
  5
D5
330
1F
100
AcDbEntity
  8
LC-001-100-D00-0
 62
     7
370
    50
100
AcDbCircle
 10
-88.272251
 20
49.806018
 30
0.0
 40
5.0
100
AcDbArc
 50
0.0
 51
90.0
  0
LINE
  5
D6
330
1F
100
AcDbEntity
  8
LC-001-100-D00-0
 62
     7
370
    50
100
AcDbLine
 10
-83.272251
 20
49.806018
 30
0.0
 11
-83.272251
 21
23.306018
 31
0.0
  0
ARC
  5
D7
330
1F
100
AcDbEntity
  8
LC-001-100-D00-0
 62
     7
370
    50
100
AcDbCircle
 10
-88.272251
 20
23.306018
 30
0.0
 40
5.0
100
AcDbArc
 50
270.0
 51
0.0
  0
CIRCLE
  5
D8
330
1F
100
AcDbEntity
  8
LC-001-100-D00-0
 62
     7
370
    50
100
AcDbCircle
 10
-101.522251
 20
36.556018
 30
0.0
 40
3.899999999999864
  0
LINE
  5
D9
330
1F
100
AcDbEntity
  8
LC-001-100-D00-0
 62
     7
370
    50
100
AcDbLine
 10
-114.772251
 20
54.806018
 30
0.0
 11
-88.272251
 21
54.806018
 31
0.0
  0
LINE
  5
DA
330
1F
100
AcDbEntity
  8
LC-001-100-D00-0
 62
     7
370
    50
100
AcDbLine
 10
-88.272251
 20
18.306018
 30
0.0
 11
-114.772251
 21
18.306018
 31
0.0
  0
ARC
  5
DB
330
1F
100
AcDbEntity
  8
LC-001-100-D00-0
 62
     7
370
    50
100
AcDbCircle
 10
-114.772251
 20
49.806018
 30
0.0
 40
5.0
100
AcDbArc
 50
90.0
 51
180.0
  0
ARC
  5
DC
330
1F
100
AcDbEntity
  8
LC-001-100-D00-0
 62
     7
370
    50
100
AcDbCircle
 10
-114.772251
 20
23.306018
 30
0.0
 40
5.0
100
AcDbArc
 50
180.0
 51
270.0
  0
LINE
  5
DD
330
1F
100
AcDbEntity
  8
LC-001-100-D00-0
 62
     7
370
    50
100
AcDbLine
 10
-119.772251
 20
23.306018
 30
0.0
 11
-119.772251
 21
49.806018
 31
0.0
  0
LINE
  5
DE
330
1F
100
AcDbEntity
  8
LC-001-100-D00-0
 62
     7
370
    50
100
AcDbLine
 10
101.727749
 20
49.806018
 30
0.0
 11
101.727749
 21
23.306018
 31
0.0
  0
ARC
  5
DF
330
1F
100
AcDbEntity
  8
LC-001-100-D00-0
 62
     7
370
    50
100
AcDbCircle
 10
96.727749
 20
49.806018
 30
0.0
 40
5.0
100
AcDbArc
 50
0.0
 51
90.0
  0
ARC
  5
E0
330
1F
100
AcDbEntity
  8
LC-001-100-D00-0
 62
     7
370
    50
100
AcDbCircle
 10
96.727749
 20
23.306018
 30
0.0
 40
5.0
100
AcDbArc
 50
270.0
 51
0.0
  0
CIRCLE
  5
E1
330
1F
100
AcDbEntity
  8
LC-001-100-D00-0
 62
     7
370
    50
100
AcDbCircle
 10
83.477749
 20
36.556018
 30
0.0
 40
3.899999999999864
  0
LINE
  5
E2
330
1F
100
AcDbEntity
  8
LC-001-100-D00-0
 62
     7
370
    50
100
AcDbLine
 10
96.727749
 20
18.306018
 30
0.0
 11
70.227749
 21
18.306018
 31
0.0
  0
LINE
  5
E3
330
1F
100
AcDbEntity
  8
LC-001-100-D00-0
 62
     7
370
    50
100
AcDbLine
 10
70.227749
 20
54.806018
 30
0.0
 11
96.727749
 21
54.806018
 31
0.0
  0
ARC
  5
E4
330
1F
100
AcDbEntity
  8
LC-001-100-D00-0
 62
     7
370
    50
100
AcDbCircle
 10
70.227749
 20
23.306018
 30
0.0
 40
5.000000000000284
100
AcDbArc
 50
180.0
 51
270.0
  0
ARC
  5
E5
330
1F
100
AcDbEntity
  8
LC-001-100-D00-0
 62
     7
370
    50
100
AcDbCircle
 10
70.227749
 20
49.806018
 30
0.0
 40
5.0
100
AcDbArc
 50
90.0
 51
180.0
  0
LINE
  5
E6
330
1F
100
AcDbEntity
  8
LC-001-100-D00-0
 62
     7
370
    50
100
AcDbLine
 10
65.227749
 20
23.306018
 30
0.0
 11
65.227749
 21
49.806018
 31
0.0
  0
LINE
  5
E7
330
1F
100
AcDbEntity
  8
LC-001-100-D00-0
 62
     7
370
    50
100
AcDbLine
 10
486.727749
 20
49.806018
 30
0.0
 11
486.727749
 21
23.306018
 31
0.0
  0
ARC
  5
E8
330
1F
100
AcDbEntity
  8
LC-001-100-D00-0
 62
     7
370
    50
100
AcDbCircle
 10
481.727749
 20
23.306018
 30
0.0
 40
5.0
100
AcDbArc
 50
270.0
 51
0.0
  0
ARC
  5
E9
330
1F
100
AcDbEntity
  8
LC-001-100-D00-0
 62
     7
370
    50
100
AcDbCircle
 10
481.727749
 20
49.806018
 30
0.0
 40
5.0
100
AcDbArc
 50
0.0
 51
90.0
  0
CIRCLE
  5
EA
330
1F
100
AcDbEntity
  8
LC-001-100-D00-0
 62
     7
370
    50
100
AcDbCircle
 10
468.477749
 20
36.556018
 30
0.0
 40
3.899999999999864
  0
LINE
  5
EB
330
1F
100
AcDbEntity
  8
LC-001-100-D00-0
 62
     7
370
    50
100
AcDbLine
 10
481.727749
 20
18.306018
 30
0.0
 11
455.227749
 21
18.306018
 31
0.0
  0
LINE
  5
EC
330
1F
100
AcDbEntity
  8
LC-001-100-D00-0
 62
     7
370
    50
100
AcDbLine
 10
455.227749
 20
54.806018
 30
0.0
 11
481.727749
 21
54.806018
 31
0.0
  0
ARC
  5
ED
330
1F
100
AcDbEntity
  8
LC-001-100-D00-0
 62
     7
370
    50
100
AcDbCircle
 10
455.227749
 20
23.306018
 30
0.0
 40
5.000000000000568
100
AcDbArc
 50
180.0
 51
270.0
  0
ARC
  5
EE
330
1F
100
AcDbEntity
  8
LC-001-100-D00-0
 62
     7
370
    50
100
AcDbCircle
 10
455.227749
 20
49.806018
 30
0.0
 40
5.0
100
AcDbArc
 50
90.0
 51
180.0
  0
LINE
  5
EF
330
1F
100
AcDbEntity
  8
LC-001-100-D00-0
 62
     7
370
    50
100
AcDbLine
 10
450.227749
 20
23.306018
 30
0.0
 11
450.227749
 21
49.806018
 31
0.0
  0
ARC
  5
F0
330
1F
100
AcDbEntity
  8
LC-001-100-D00-0
 62
     7
370
    50
100
AcDbCircle
 10
666.727749
 20
49.806018
 30
0.0
 40
5.0
100
AcDbArc
 50
0.0
 51
90.0
  0
LINE
  5
F1
330
1F
100
AcDbEntity
  8
LC-001-100-D00-0
 62
     7
370
    50
100
AcDbLine
 10
671.727749
 20
49.806018
 30
0.0
 11
671.727749
 21
23.306018
 31
0.0
  0
ARC
  5
F2
330
1F
100
AcDbEntity
  8
LC-001-100-D00-0
 62
     7
370
    50
100
AcDbCircle
 10
666.727749
 20
23.306018
 30
0.0
 40
5.0
100
AcDbArc
 50
270.0
 51
0.0
  0
CIRCLE
  5
F3
330
1F
100
AcDbEntity
  8
LC-001-100-D00-0
 62
     7
370
    50
100
AcDbCircle
 10
653.477749
 20
36.556018
 30
0.0
 40
3.899999999999864
  0
LINE
  5
F4
330
1F
100
AcDbEntity
  8
LC-001-100-D00-0
 62
     7
370
    50
100
AcDbLine
 10
640.227749
 20
54.806018
 30
0.0
 11
666.727749
 21
54.806018
 31
0.0
  0
LINE
  5
F5
330
1F
100
AcDbEntity
  8
LC-001-100-D00-0
 62
     7
370
    50
100
AcDbLine
 10
666.727749
 20
18.306018
 30
0.0
 11
640.227749
 21
18.306018
 31
0.0
  0
ARC
  5
F6
330
1F
100
AcDbEntity
  8
LC-001-100-D00-0
 62
     7
370
    50
100
AcDbCircle
 10
640.227749
 20
49.806018
 30
0.0
 40
5.0
100
AcDbArc
 50
90.0
 51
180.0
  0
ARC
  5
F7
330
1F
100
AcDbEntity
  8
LC-001-100-D00-0
 62
     7
370
    50
100
AcDbCircle
 10
640.227749
 20
23.306018
 30
0.0
 40
5.000000000000568
100
AcDbArc
 50
180.0
 51
270.0
  0
LINE
  5
F8
330
1F
100
AcDbEntity
  8
LC-001-100-D00-0
 62
     7
370
    50
100
AcDbLine
 10
635.227749
 20
23.306018
 30
0.0
 11
635.227749
 21
49.806018
 31
0.0
  0
LINE
  5
F9
330
1F
100
AcDbEntity
  8
LC-001-100-D00-0
 62
     7
370
    50
100
AcDbLine
 10
286.727749
 20
49.806018
 30
0.0
 11
286.727749
 21
23.306018
 31
0.0
  0
ARC
  5
FA
330
1F
100
AcDbEntity
  8
LC-001-100-D00-0
 62
     7
370
    50
100
AcDbCircle
 10
281.727749
 20
23.306018
 30
0.0
 40
5.0
100
AcDbArc
 50
270.0
 51
0.0
  0
ARC
  5
FB
330
1F
100
AcDbEntity
  8
LC-001-100-D00-0
 62
     7
370
    50
100
AcDbCircle
 10
281.727749
 20
49.806018
 30
0.0
 40
5.0
100
AcDbArc
 50
0.0
 51
90.0
  0
CIRCLE
  5
FC
330
1F
100
AcDbEntity
  8
LC-001-100-D00-0
 62
     7
370
    50
100
AcDbCircle
 10
268.477749
 20
36.556018
 30
0.0
 40
3.899999999999864
  0
LINE
  5
FD
330
1F
100
AcDbEntity
  8
LC-001-100-D00-0
 62
     7
370
    50
100
AcDbLine
 10
255.227749
 20
54.806018
 30
0.0
 11
281.727749
 21
54.806018
 31
0.0
  0
LINE
  5
FE
330
1F
100
AcDbEntity
  8
LC-001-100-D00-0
 62
     7
370
    50
100
AcDbLine
 10
281.727749
 20
18.306018
 30
0.0
 11
255.227749
 21
18.306018
 31
0.0
  0
ARC
  5
FF
330
1F
100
AcDbEntity
  8
LC-001-100-D00-0
 62
     7
370
    50
100
AcDbCircle
 10
255.227749
 20
23.306018
 30
0.0
 40
5.000000000000341
100
AcDbArc
 50
180.0
 51
270.0
  0
ARC
  5
100
330
1F
100
AcDbEntity
  8
LC-001-100-D00-0
 62
     7
370
    50
100
AcDbCircle
 10
255.227749
 20
49.806018
 30
0.0
 40
5.0
100
AcDbArc
 50
90.0
 51
180.0
  0
LINE
  5
101
330
1F
100
AcDbEntity
  8
LC-001-100-D00-0
 62
     7
370
    50
100
AcDbLine
 10
250.227749
 20
23.306018
 30
0.0
 11
250.227749
 21
49.806018
 31
0.0
  0
DIMENSION
  5
104
330
1F
100
AcDbEntity
  8
LC-001-100-D00-0
 62
     7
370
    25
100
AcDbDimension
  2
*D15
 10
1003.988593
 20
81.056018
 30
0.0
 11
948.988593
 21
58.703446
 31
0.0
 70
   160
  1
1,5
 71
     5
 42
1.5
 53
90.0
  3
LC-DIM-L-0100-02-02
100
AcDbAlignedDimension
 13
913.477749
 23
82.556018
 33
0.0
 14
913.477749
 24
81.056018
 34
0.0
 50
90.0
100
AcDbRotatedDimension
  0
DIMENSION
  5
113
330
1F
100
AcDbEntity
  8
LC-001-100-D00-0
 62
     7
370
    25
100
AcDbDimension
  2
*D16
 10
1078.794635
 20
62.556018
 30
0.0
 11
1023.794635
 21
49.793446
 31
0.0
 70
   160
  1
18,5
 71
     5
 42
18.5
 53
90.0
  3
LC-DIM-L-0100-02-02
100
AcDbAlignedDimension
 13
913.477749
 23
81.056018
 33
0.0
 14
865.977749
 24
62.556018
 34
0.0
 50
90.0
100
AcDbRotatedDimension
  0
DIMENSION
  5
121
330
1F
100
AcDbEntity
  8
LC-001-100-D00-0
 62
     7
370
    25
100
AcDbDimension
  2
*D17
 10
1148.44164
 20
-40.943982
 30
0.0
 11
1093.44164
 21
3.758446
 31
0.0
 70
   160
  1
123,5
 71
     5
 42
123.5
 53
90.0
  3
LC-DIM-L-0100-02-02
100
AcDbAlignedDimension
 13
913.477749
 23
82.556018
 33
0.0
 14
913.477749
 24
-40.943982
 34
0.0
 50
90.0
100
AcDbRotatedDimension
  0
LINE
  5
12F
330
1F
100
AcDbEntity
  8
LC-001-100-D00-0
  6
DASHDOT
 62
     7
370
    25
100
AcDbLine
 10
875.977749
 20
36.556018
 30
0.0
 11
-139.022251
 21
36.556018
 31
0.0
  0
LINE
  5
130
330
1F
100
AcDbEntity
  8
LC-001-100-D00-0
  6
DASHDOT
 62
     7
370
    25
100
AcDbLine
 10
368.477749
 20
92.556018
 30
0.0
 11
368.477749
 21
-69.443981
 31
0.0
  0
LINE
  5
131
330
1F
100
AcDbEntity
  8
LC-001-100-D00-0
 62
     7
370
    50
100
AcDbLine
 10
835.077762
 20
452.598445
 30
0.0
 11
834.077775
 21
453.598446
 31
0.0
  0
LINE
  5
132
330
1F
100
AcDbEntity
  8
LC-001-100-D00-0
 62
     7
370
    50
100
AcDbLine
 10
835.077762
 20
452.598445
 30
0.0
 11
835.077761
 21
446.598446
 31
0.0
  0
LINE
  5
133
330
1F
100
AcDbEntity
  8
LC-001-100-D00-0
 62
     7
370
    50
100
AcDbLine
 10
834.077761
 20
445.598446
 30
0.0
 11
835.077761
 21
446.598446
 31
0.0
  0
LINE
  5
134
330
1F
100
AcDbEntity
  8
LC-001-100-D00-0
 62
     7
370
    50
100
AcDbLine
 10
832.126915
 20
447.598445
 30
0.0
 11
832.126915
 21
445.598446
 31
0.0
  0
LINE
  5
135
330
1F
100
AcDbEntity
  8
LC-001-100-D00-0
 62
     7
370
    50
100
AcDbLine
 10
832.833052
 20
447.787656
 30
0.0
 11
832.126915
 21
447.598445
 31
0.0
  0
ARC
  5
136
330
1F
100
AcDbEntity
  8
LC-001-100-D00-0
 62
     7
370
    50
100
AcDbCircle
 10
832.677761
 20
448.367212
 30
0.0
 40
0.6000000000000886
100
AcDbArc
 50
285.0
 51
0.0
  0
LINE
  5
137
330
1F
100
AcDbEntity
  8
LC-001-100-D00-0
 62
     7
370
    50
100
AcDbLine
 10
833.277761
 20
450.829679
 30
0.0
 11
833.277761
 21
448.367212
 31
0.0
  0
ARC
  5
138
330
1F
100
AcDbEntity
  8
LC-001-100-D00-0
 62
     7
370
    50
100
AcDbCircle
 10
832.677761
 20
450.829679
 30
0.0
 40
0.5999999999999091
100
AcDbArc
 50
0.0
 51
75.0
  0
LINE
  5
139
330
1F
100
AcDbEntity
  8
LC-001-100-D00-0
 62
     7
370
    50
100
AcDbLine
 10
832.126915
 20
451.598445
 30
0.0
 11
832.833052
 21
451.409235
 31
0.0
  0
LINE
  5
13A
330
1F
100
AcDbEntity
  8
LC-001-100-D00-0
 62
     7
370
    50
100
AcDbLine
 10
832.126915
 20
453.598446
 30
0.0
 11
832.126915
 21
451.598445
 31
0.0
  0
LINE
  5
13B
330
1F
100
AcDbEntity
  8
LC-001-100-D00-0
 62
     7
370
    50
100
AcDbLine
 10
832.126915
 20
445.598446
 30
0.0
 11
834.077761
 21
445.598446
 31
0.0
  0
LINE
  5
13C
330
1F
100
AcDbEntity
  8
LC-001-100-D00-0
 62
     7
370
    50
100
AcDbLine
 10
832.126915
 20
453.598446
 30
0.0
 11
834.077775
 21
453.598446
 31
0.0
  0
LINE
  5
13D
330
1F
100
AcDbEntity
  8
LC-001-100-D00-0
 62
     7
370
    50
100
AcDbLine
 10
843.677761
 20
448.367212
 30
0.0
 11
843.677761
 21
450.829679
 31
0.0
  0
ARC
  5
13E
330
1F
100
AcDbEntity
  8
LC-001-100-D00-0
 62
     7
370
    50
100
AcDbCircle
 10
844.277761
 20
448.367212
 30
0.0
 40
0.6000000000001364
100
AcDbArc
 50
180.0
 51
255.0
  0
LINE
  5
13F
330
1F
100
AcDbEntity
  8
LC-001-100-D00-0
 62
     7
370
    50
100
AcDbLine
 10
844.828605
 20
447.598445
 30
0.0
 11
844.12247
 21
447.787656
 31
0.0
  0
LINE
  5
140
330
1F
100
AcDbEntity
  8
LC-001-100-D00-0
 62
     7
370
    50
100
AcDbLine
 10
844.828605
 20
447.598445
 30
0.0
 11
844.828605
 21
445.598446
 31
0.0
  0
LINE
  5
141
330
1F
100
AcDbEntity
  8
LC-001-100-D00-0
 62
     7
370
    50
100
AcDbLine
 10
841.877761
 20
446.598446
 30
0.0
 11
842.877761
 21
445.598446
 31
0.0
  0
LINE
  5
142
330
1F
100
AcDbEntity
  8
LC-001-100-D00-0
 62
     7
370
    50
100
AcDbLine
 10
841.877761
 20
446.598446
 30
0.0
 11
841.877758
 21
452.598445
 31
0.0
  0
LINE
  5
143
330
1F
100
AcDbEntity
  8
LC-001-100-D00-0
 62
     7
370
    50
100
AcDbLine
 10
842.877775
 20
453.598446
 30
0.0
 11
841.877758
 21
452.598445
 31
0.0
  0
LINE
  5
144
330
1F
100
AcDbEntity
  8
LC-001-100-D00-0
 62
     7
370
    50
100
AcDbLine
 10
844.828605
 20
453.598446
 30
0.0
 11
844.828605
 21
451.598445
 31
0.0
  0
LINE
  5
145
330
1F
100
AcDbEntity
  8
LC-001-100-D00-0
 62
     7
370
    50
100
AcDbLine
 10
844.12247
 20
451.409235
 30
0.0
 11
844.828605
 21
451.598445
 31
0.0
  0
ARC
  5
146
330
1F
100
AcDbEntity
  8
LC-001-100-D00-0
 62
     7
370
    50
100
AcDbCircle
 10
844.277761
 20
450.829679
 30
0.0
 40
0.5999999999999277
100
AcDbArc
 50
105.0
 51
180.0
  0
LINE
  5
147
330
1F
100
AcDbEntity
  8
LC-001-100-D00-0
 62
     7
370
    50
100
AcDbLine
 10
842.877761
 20
445.598446
 30
0.0
 11
844.828605
 21
445.598446
 31
0.0
  0
LINE
  5
148
330
1F
100
AcDbEntity
  8
LC-001-100-D00-0
 62
     7
370
    50
100
AcDbLine
 10
842.877775
 20
453.598446
 30
0.0
 11
844.828605
 21
453.598446
 31
0.0
  0
LINE
  5
149
330
1F
100
AcDbEntity
  8
LC-001-100-D00-0
 62
     7
370
    50
100
AcDbLine
 10
835.077761
 20
446.598446
 30
0.0
 11
835.235601
 21
446.598446
 31
0.0
  0
LINE
  5
14A
330
1F
100
AcDbEntity
  8
LC-001-100-D00-0
 62
     7
370
    50
100
AcDbLine
 10
841.719921
 20
446.598446
 30
0.0
 11
841.877761
 21
446.598446
 31
0.0
  0
LINE
  5
14B
330
1F
100
AcDbEntity
  8
LC-001-100-D00-0
 62
     7
370
    50
100
AcDbLine
 10
842.877761
 20
445.598446
 30
0.0
 11
842.341979
 21
445.598446
 31
0.0
  0
LINE
  5
14C
330
1F
100
AcDbEntity
  8
LC-001-100-D00-0
 62
     7
370
    50
100
AcDbLine
 10
834.613543
 20
445.598446
 30
0.0
 11
834.077761
 21
445.598446
 31
0.0
  0
LINE
  5
14D
330
1F
100
AcDbEntity
  8
LC-001-100-D00-0
 62
     7
370
    50
100
AcDbLine
 10
844.828605
 20
453.598446
 30
0.0
 11
842.377751
 21
453.598446
 31
0.0
  0
LINE
  5
14E
330
1F
100
AcDbEntity
  8
LC-001-100-D00-0
 62
     7
370
    50
100
AcDbLine
 10
842.377751
 20
453.598446
 30
0.0
 11
842.377761
 21
464.598446
 31
0.0
  0
LINE
  5
14F
330
1F
100
AcDbEntity
  8
LC-001-100-D00-0
 62
     7
370
    50
100
AcDbLine
 10
842.377761
 20
464.598446
 30
0.0
 11
855.727761
 21
464.598446
 31
0.0
  0
ARC
  5
150
330
1F
100
AcDbEntity
  8
LC-001-100-D00-0
 62
     7
370
    50
100
AcDbCircle
 10
855.727761
 20
463.598446
 30
0.0
 40
1.000000000000227
100
AcDbArc
 50
0.0
 51
90.0
  0
LINE
  5
151
330
1F
100
AcDbEntity
  8
LC-001-100-D00-0
 62
     7
370
    50
100
AcDbLine
 10
856.727761
 20
463.598446
 30
0.0
 11
856.727748
 21
457.598445
 31
0.0
  0
LINE
  5
152
330
1F
100
AcDbEntity
  8
LC-001-100-D00-0
 62
     7
370
    50
100
AcDbLine
 10
853.727761
 20
457.598446
 30
0.0
 11
856.727748
 21
457.598445
 31
0.0
  0
LINE
  5
153
330
1F
100
AcDbEntity
  8
LC-001-100-D00-0
 62
     7
370
    50
100
AcDbLine
 10
853.727761
 20
457.598446
 30
0.0
 11
853.727757
 21
461.598446
 31
0.0
  0
LINE
  5
154
330
1F
100
AcDbEntity
  8
LC-001-100-D00-0
 62
     7
370
    50
100
AcDbLine
 10
849.227761
 20
461.598446
 30
0.0
 11
853.727757
 21
461.598446
 31
0.0
  0
ARC
  5
155
330
1F
100
AcDbEntity
  8
LC-001-100-D00-0
 62
     7
370
    50
100
AcDbCircle
 10
849.227761
 20
460.598446
 30
0.0
 40
1.000000000000227
100
AcDbArc
 50
90.0
 51
180.0
  0
LINE
  5
156
330
1F
100
AcDbEntity
  8
LC-001-100-D00-0
 62
     7
370
    50
100
AcDbLine
 10
848.227761
 20
446.598446
 30
0.0
 11
848.227761
 21
460.598446
 31
0.0
  0
ARC
  5
157
330
1F
100
AcDbEntity
  8
LC-001-100-D00-0
 62
     7
370
    50
100
AcDbCircle
 10
847.227761
 20
446.598446
 30
0.0
 40
1.0
100
AcDbArc
 50
270.0
 51
0.0
  0
LINE
  5
158
330
1F
100
AcDbEntity
  8
LC-001-100-D00-0
 62
     7
370
    50
100
AcDbLine
 10
847.227761
 20
445.598446
 30
0.0
 11
844.828605
 21
445.598446
 31
0.0
  0
LINE
  5
159
330
1F
100
AcDbEntity
  8
LC-001-100-D00-0
 62
     7
370
    50
100
AcDbLine
 10
844.828605
 20
447.598445
 30
0.0
 11
844.828605
 21
445.598446
 31
0.0
  0
LINE
  5
15A
330
1F
100
AcDbEntity
  8
LC-001-100-D00-0
 62
     7
370
    50
100
AcDbLine
 10
844.177761
 20
447.598446
 30
0.0
 11
844.828605
 21
447.598445
 31
0.0
  0
ARC
  5
15B
330
1F
100
AcDbEntity
  8
LC-001-100-D00-0
 62
     7
370
    50
100
AcDbCircle
 10
844.177761
 20
448.098446
 30
0.0
 40
0.4999999999997726
100
AcDbArc
 50
180.0
 51
270.0
  0
LINE
  5
15C
330
1F
100
AcDbEntity
  8
LC-001-100-D00-0
 62
     7
370
    50
100
AcDbLine
 10
843.677761
 20
451.098446
 30
0.0
 11
843.677761
 21
448.098446
 31
0.0
  0
ARC
  5
15D
330
1F
100
AcDbEntity
  8
LC-001-100-D00-0
 62
     7
370
    50
100
AcDbCircle
 10
844.177761
 20
451.098446
 30
0.0
 40
0.5
100
AcDbArc
 50
90.0
 51
180.0
  0
LINE
  5
15E
330
1F
100
AcDbEntity
  8
LC-001-100-D00-0
 62
     7
370
    50
100
AcDbLine
 10
844.828605
 20
451.598445
 30
0.0
 11
844.177761
 21
451.598446
 31
0.0
  0
LINE
  5
15F
330
1F
100
AcDbEntity
  8
LC-001-100-D00-0
 62
     7
370
    50
100
AcDbLine
 10
844.828605
 20
453.598446
 30
0.0
 11
844.828605
 21
451.598445
 31
0.0
  0
ARC
  5
160
330
1F
100
AcDbEntity
  8
LC-001-100-D00-0
 62
     7
370
    50
100
AcDbCircle
 10
827.727761
 20
460.598446
 30
0.0
 40
0.9999999999997726
100
AcDbArc
 50
0.0
 51
90.0
  0
LINE
  5
161
330
1F
100
AcDbEntity
  8
LC-001-100-D00-0
 62
     7
370
    50
100
AcDbLine
 10
828.727761
 20
460.598446
 30
0.0
 11
828.727761
 21
446.598446
 31
0.0
  0
ARC
  5
162
330
1F
100
AcDbEntity
  8
LC-001-100-D00-0
 62
     7
370
    50
100
AcDbCircle
 10
829.727761
 20
446.598446
 30
0.0
 40
1.0
100
AcDbArc
 50
180.0
 51
270.0
  0
LINE
  5
163
330
1F
100
AcDbEntity
  8
LC-001-100-D00-0
 62
     7
370
    50
100
AcDbLine
 10
833.277761
 20
448.098446
 30
0.0
 11
833.277761
 21
451.098446
 31
0.0
  0
LINE
  5
164
330
1F
100
AcDbEntity
  8
LC-001-100-D00-0
 62
     7
370
    50
100
AcDbLine
 10
834.577761
 20
464.598446
 30
0.0
 11
834.577768
 21
453.598446
 31
0.0
  0
LINE
  5
165
330
1F
100
AcDbEntity
  8
LC-001-100-D00-0
 62
     7
370
    50
100
AcDbLine
 10
834.577761
 20
464.598446
 30
0.0
 11
842.377761
 21
464.598446
 31
0.0
  0
ARC
  5
166
330
1F
100
AcDbEntity
  8
LC-001-100-D00-0
 62
     7
370
    50
100
AcDbCircle
 10
832.777761
 20
448.098446
 30
0.0
 40
0.4999999999997726
100
AcDbArc
 50
270.0
 51
0.0
  0
LINE
  5
167
330
1F
100
AcDbEntity
  8
LC-001-100-D00-0
 62
     7
370
    50
100
AcDbLine
 10
832.126915
 20
447.598445
 30
0.0
 11
832.777761
 21
447.598446
 31
0.0
  0
LINE
  5
168
330
1F
100
AcDbEntity
  8
LC-001-100-D00-0
 62
     7
370
    50
100
AcDbLine
 10
832.126915
 20
447.598445
 30
0.0
 11
832.126915
 21
445.598446
 31
0.0
  0
LINE
  5
169
330
1F
100
AcDbEntity
  8
LC-001-100-D00-0
 62
     7
370
    50
100
AcDbLine
 10
823.227762
 20
461.598446
 30
0.0
 11
823.227761
 21
457.598446
 31
0.0
  0
LINE
  5
16A
330
1F
100
AcDbEntity
  8
LC-001-100-D00-0
 62
     7
370
    50
100
AcDbLine
 10
820.227771
 20
457.598445
 30
0.0
 11
823.227761
 21
457.598446
 31
0.0
  0
LINE
  5
16B
330
1F
100
AcDbEntity
  8
LC-001-100-D00-0
 62
     7
370
    50
100
AcDbLine
 10
820.227771
 20
457.598445
 30
0.0
 11
820.227761
 21
463.598446
 31
0.0
  0
ARC
  5
16C
330
1F
100
AcDbEntity
  8
LC-001-100-D00-0
 62
     7
370
    50
100
AcDbCircle
 10
821.227761
 20
463.598446
 30
0.0
 40
1.000000000000227
100
AcDbArc
 50
90.0
 51
180.0
  0
LINE
  5
16D
330
1F
100
AcDbEntity
  8
LC-001-100-D00-0
 62
     7
370
    50
100
AcDbLine
 10
832.126915
 20
453.598446
 30
0.0
 11
832.126915
 21
451.598445
 31
0.0
  0
LINE
  5
16E
330
1F
100
AcDbEntity
  8
LC-001-100-D00-0
 62
     7
370
    50
100
AcDbLine
 10
832.777761
 20
451.598446
 30
0.0
 11
832.126915
 21
451.598445
 31
0.0
  0
ARC
  5
16F
330
1F
100
AcDbEntity
  8
LC-001-100-D00-0
 62
     7
370
    50
100
AcDbCircle
 10
832.777761
 20
451.098446
 30
0.0
 40
0.5000000000002274
100
AcDbArc
 50
0.0
 51
90.0
  0
LINE
  5
170
330
1F
100
AcDbEntity
  8
LC-001-100-D00-0
 62
     7
370
    50
100
AcDbLine
 10
834.577768
 20
453.598446
 30
0.0
 11
832.126915
 21
453.598446
 31
0.0
  0
LINE
  5
171
330
1F
100
AcDbEntity
  8
LC-001-100-D00-0
 62
     7
370
    50
100
AcDbLine
 10
832.126915
 20
445.598446
 30
0.0
 11
829.727761
 21
445.598446
 31
0.0
  0
LINE
  5
172
330
1F
100
AcDbEntity
  8
LC-001-100-D00-0
 62
     7
370
    50
100
AcDbLine
 10
823.227762
 20
461.598446
 30
0.0
 11
827.727761
 21
461.598446
 31
0.0
  0
LINE
  5
173
330
1F
100
AcDbEntity
  8
LC-001-100-D00-0
 62
     7
370
    50
100
AcDbLine
 10
821.227761
 20
464.598446
 30
0.0
 11
834.577761
 21
464.598446
 31
0.0
  0
LINE
  5
174
330
1F
100
AcDbEntity
  8
LC-001-100-D00-0
 62
     7
370
    50
100
AcDbLine
 10
851.727761
 20
457.598446
 30
0.0
 11
853.727761
 21
457.598446
 31
0.0
  0
LINE
  5
175
330
1F
100
AcDbEntity
  8
LC-001-100-D00-0
 62
     7
370
    50
100
AcDbLine
 10
823.227761
 20
457.598446
 30
0.0
 11
825.227761
 21
457.598446
 31
0.0
  0
LINE
  5
176
330
1F
100
AcDbEntity
  8
LC-001-100-D00-0
 62
     7
370
    50
100
AcDbLine
 10
825.227761
 20
457.598446
 30
0.0
 11
828.727751
 21
457.598445
 31
0.0
  0
LINE
  5
177
330
1F
100
AcDbEntity
  8
LC-001-100-D00-0
 62
     7
370
    50
100
AcDbLine
 10
848.227768
 20
457.598445
 30
0.0
 11
851.727761
 21
457.598446
 31
0.0
  0
LINE
  5
178
330
1F
100
AcDbEntity
  8
LC-001-100-D00-0
 62
     7
370
    50
100
AcDbLine
 10
-104.922236
 20
452.598445
 30
0.0
 11
-105.922253
 21
453.598446
 31
0.0
  0
LINE
  5
179
330
1F
100
AcDbEntity
  8
LC-001-100-D00-0
 62
     7
370
    50
100
AcDbLine
 10
-104.922236
 20
452.598445
 30
0.0
 11
-104.922239
 21
446.598446
 31
0.0
  0
LINE
  5
17A
330
1F
100
AcDbEntity
  8
LC-001-100-D00-0
 62
     7
370
    50
100
AcDbLine
 10
-105.922239
 20
445.598446
 30
0.0
 11
-104.922239
 21
446.598446
 31
0.0
  0
LINE
  5
17B
330
1F
100
AcDbEntity
  8
LC-001-100-D00-0
 62
     7
370
    50
100
AcDbLine
 10
-107.873083
 20
447.598445
 30
0.0
 11
-107.873083
 21
445.598446
 31
0.0
  0
LINE
  5
17C
330
1F
100
AcDbEntity
  8
LC-001-100-D00-0
 62
     7
370
    50
100
AcDbLine
 10
-107.166948
 20
447.787656
 30
0.0
 11
-107.873083
 21
447.598445
 31
0.0
  0
ARC
  5
17D
330
1F
100
AcDbEntity
  8
LC-001-100-D00-0
 62
     7
370
    50
100
AcDbCircle
 10
-107.322239
 20
448.367212
 30
0.0
 40
0.600000000000118
100
AcDbArc
 50
285.0
 51
0.0
  0
LINE
  5
17E
330
1F
100
AcDbEntity
  8
LC-001-100-D00-0
 62
     7
370
    50
100
AcDbLine
 10
-106.722239
 20
450.829679
 30
0.0
 11
-106.722239
 21
448.367212
 31
0.0
  0
ARC
  5
17F
330
1F
100
AcDbEntity
  8
LC-001-100-D00-0
 62
     7
370
    50
100
AcDbCircle
 10
-107.322239
 20
450.829679
 30
0.0
 40
0.600000000000307
100
AcDbArc
 50
0.0
 51
75.0
  0
LINE
  5
180
330
1F
100
AcDbEntity
  8
LC-001-100-D00-0
 62
     7
370
    50
100
AcDbLine
 10
-107.873083
 20
451.598445
 30
0.0
 11
-107.166948
 21
451.409235
 31
0.0
  0
LINE
  5
181
330
1F
100
AcDbEntity
  8
LC-001-100-D00-0
 62
     7
370
    50
100
AcDbLine
 10
-107.873083
 20
453.598446
 30
0.0
 11
-107.873083
 21
451.598445
 31
0.0
  0
LINE
  5
182
330
1F
100
AcDbEntity
  8
LC-001-100-D00-0
 62
     7
370
    50
100
AcDbLine
 10
-107.873083
 20
445.598446
 30
0.0
 11
-105.922239
 21
445.598446
 31
0.0
  0
LINE
  5
183
330
1F
100
AcDbEntity
  8
LC-001-100-D00-0
 62
     7
370
    50
100
AcDbLine
 10
-107.873083
 20
453.598446
 30
0.0
 11
-105.922253
 21
453.598446
 31
0.0
  0
LINE
  5
184
330
1F
100
AcDbEntity
  8
LC-001-100-D00-0
 62
     7
370
    50
100
AcDbLine
 10
-96.322239
 20
448.367212
 30
0.0
 11
-96.322239
 21
450.829679
 31
0.0
  0
ARC
  5
185
330
1F
100
AcDbEntity
  8
LC-001-100-D00-0
 62
     7
370
    50
100
AcDbCircle
 10
-95.722239
 20
448.367212
 30
0.0
 40
0.6000000000000796
100
AcDbArc
 50
180.0
 51
255.0
  0
LINE
  5
186
330
1F
100
AcDbEntity
  8
LC-001-100-D00-0
 62
     7
370
    50
100
AcDbLine
 10
-95.171393
 20
447.598445
 30
0.0
 11
-95.87753
 21
447.787656
 31
0.0
  0
LINE
  5
187
330
1F
100
AcDbEntity
  8
LC-001-100-D00-0
 62
     7
370
    50
100
AcDbLine
 10
-95.171393
 20
447.598445
 30
0.0
 11
-95.171393
 21
445.598446
 31
0.0
  0
LINE
  5
188
330
1F
100
AcDbEntity
  8
LC-001-100-D00-0
 62
     7
370
    50
100
AcDbLine
 10
-98.122239
 20
446.598446
 30
0.0
 11
-97.122239
 21
445.598446
 31
0.0
  0
LINE
  5
189
330
1F
100
AcDbEntity
  8
LC-001-100-D00-0
 62
     7
370
    50
100
AcDbLine
 10
-98.122239
 20
446.598446
 30
0.0
 11
-98.12224
 21
452.598445
 31
0.0
  0
LINE
  5
18A
330
1F
100
AcDbEntity
  8
LC-001-100-D00-0
 62
     7
370
    50
100
AcDbLine
 10
-97.122253
 20
453.598446
 30
0.0
 11
-98.12224
 21
452.598445
 31
0.0
  0
LINE
  5
18B
330
1F
100
AcDbEntity
  8
LC-001-100-D00-0
 62
     7
370
    50
100
AcDbLine
 10
-95.171393
 20
453.598446
 30
0.0
 11
-95.171393
 21
451.598445
 31
0.0
  0
LINE
  5
18C
330
1F
100
AcDbEntity
  8
LC-001-100-D00-0
 62
     7
370
    50
100
AcDbLine
 10
-95.87753
 20
451.409235
 30
0.0
 11
-95.171393
 21
451.598445
 31
0.0
  0
ARC
  5
18D
330
1F
100
AcDbEntity
  8
LC-001-100-D00-0
 62
     7
370
    50
100
AcDbCircle
 10
-95.722239
 20
450.829679
 30
0.0
 40
0.5999999999998983
100
AcDbArc
 50
105.0
 51
180.0
  0
LINE
  5
18E
330
1F
100
AcDbEntity
  8
LC-001-100-D00-0
 62
     7
370
    50
100
AcDbLine
 10
-97.122239
 20
445.598446
 30
0.0
 11
-95.171393
 21
445.598446
 31
0.0
  0
LINE
  5
18F
330
1F
100
AcDbEntity
  8
LC-001-100-D00-0
 62
     7
370
    50
100
AcDbLine
 10
-97.122253
 20
453.598446
 30
0.0
 11
-95.171393
 21
453.598446
 31
0.0
  0
LINE
  5
190
330
1F
100
AcDbEntity
  8
LC-001-100-D00-0
 62
     7
370
    50
100
AcDbLine
 10
-104.922239
 20
446.598446
 30
0.0
 11
-104.764399
 21
446.598446
 31
0.0
  0
LINE
  5
191
330
1F
100
AcDbEntity
  8
LC-001-100-D00-0
 62
     7
370
    50
100
AcDbLine
 10
-98.280079
 20
446.598446
 30
0.0
 11
-98.122239
 21
446.598446
 31
0.0
  0
LINE
  5
192
330
1F
100
AcDbEntity
  8
LC-001-100-D00-0
 62
     7
370
    50
100
AcDbLine
 10
-97.122239
 20
445.598446
 30
0.0
 11
-97.658021
 21
445.598446
 31
0.0
  0
LINE
  5
193
330
1F
100
AcDbEntity
  8
LC-001-100-D00-0
 62
     7
370
    50
100
AcDbLine
 10
-105.386457
 20
445.598446
 30
0.0
 11
-105.922239
 21
445.598446
 31
0.0
  0
LINE
  5
194
330
1F
100
AcDbEntity
  8
LC-001-100-D00-0
 62
     7
370
    50
100
AcDbLine
 10
-95.171393
 20
453.598446
 30
0.0
 11
-97.622246
 21
453.598446
 31
0.0
  0
LINE
  5
195
330
1F
100
AcDbEntity
  8
LC-001-100-D00-0
 62
     7
370
    50
100
AcDbLine
 10
-97.622246
 20
453.598446
 30
0.0
 11
-97.622239
 21
464.598446
 31
0.0
  0
LINE
  5
196
330
1F
100
AcDbEntity
  8
LC-001-100-D00-0
 62
     7
370
    50
100
AcDbLine
 10
-97.622239
 20
464.598446
 30
0.0
 11
-84.272239
 21
464.598446
 31
0.0
  0
ARC
  5
197
330
1F
100
AcDbEntity
  8
LC-001-100-D00-0
 62
     7
370
    50
100
AcDbCircle
 10
-84.272239
 20
463.598446
 30
0.0
 40
1.000000000000227
100
AcDbArc
 50
0.0
 51
90.0
  0
LINE
  5
198
330
1F
100
AcDbEntity
  8
LC-001-100-D00-0
 62
     7
370
    50
100
AcDbLine
 10
-83.272239
 20
463.598446
 30
0.0
 11
-83.272249
 21
457.598445
 31
0.0
  0
LINE
  5
199
330
1F
100
AcDbEntity
  8
LC-001-100-D00-0
 62
     7
370
    50
100
AcDbLine
 10
-86.272239
 20
457.598446
 30
0.0
 11
-83.272249
 21
457.598445
 31
0.0
  0
LINE
  5
19A
330
1F
100
AcDbEntity
  8
LC-001-100-D00-0
 62
     7
370
    50
100
AcDbLine
 10
-86.272239
 20
457.598446
 30
0.0
 11
-86.27224
 21
461.598446
 31
0.0
  0
LINE
  5
19B
330
1F
100
AcDbEntity
  8
LC-001-100-D00-0
 62
     7
370
    50
100
AcDbLine
 10
-90.772239
 20
461.598446
 30
0.0
 11
-86.27224
 21
461.598446
 31
0.0
  0
ARC
  5
19C
330
1F
100
AcDbEntity
  8
LC-001-100-D00-0
 62
     7
370
    50
100
AcDbCircle
 10
-90.772239
 20
460.598446
 30
0.0
 40
1.0
100
AcDbArc
 50
90.0
 51
180.0
  0
LINE
  5
19D
330
1F
100
AcDbEntity
  8
LC-001-100-D00-0
 62
     7
370
    50
100
AcDbLine
 10
-91.772239
 20
446.598446
 30
0.0
 11
-91.772239
 21
460.598446
 31
0.0
  0
ARC
  5
19E
330
1F
100
AcDbEntity
  8
LC-001-100-D00-0
 62
     7
370
    50
100
AcDbCircle
 10
-92.772239
 20
446.598446
 30
0.0
 40
1.0
100
AcDbArc
 50
270.0
 51
0.0
  0
LINE
  5
19F
330
1F
100
AcDbEntity
  8
LC-001-100-D00-0
 62
     7
370
    50
100
AcDbLine
 10
-92.772239
 20
445.598446
 30
0.0
 11
-95.171393
 21
445.598446
 31
0.0
  0
LINE
  5
1A0
330
1F
100
AcDbEntity
  8
LC-001-100-D00-0
 62
     7
370
    50
100
AcDbLine
 10
-95.171393
 20
447.598445
 30
0.0
 11
-95.171393
 21
445.598446
 31
0.0
  0
LINE
  5
1A1
330
1F
100
AcDbEntity
  8
LC-001-100-D00-0
 62
     7
370
    50
100
AcDbLine
 10
-95.822239
 20
447.598446
 30
0.0
 11
-95.171393
 21
447.598445
 31
0.0
  0
ARC
  5
1A2
330
1F
100
AcDbEntity
  8
LC-001-100-D00-0
 62
     7
370
    50
100
AcDbCircle
 10
-95.822239
 20
448.098446
 30
0.0
 40
0.5
100
AcDbArc
 50
180.0
 51
270.0
  0
LINE
  5
1A3
330
1F
100
AcDbEntity
  8
LC-001-100-D00-0
 62
     7
370
    50
100
AcDbLine
 10
-96.322239
 20
451.098446
 30
0.0
 11
-96.322239
 21
448.098446
 31
0.0
  0
ARC
  5
1A4
330
1F
100
AcDbEntity
  8
LC-001-100-D00-0
 62
     7
370
    50
100
AcDbCircle
 10
-95.822239
 20
451.098446
 30
0.0
 40
0.5
100
AcDbArc
 50
90.0
 51
180.0
  0
LINE
  5
1A5
330
1F
100
AcDbEntity
  8
LC-001-100-D00-0
 62
     7
370
    50
100
AcDbLine
 10
-95.171393
 20
451.598445
 30
0.0
 11
-95.822239
 21
451.598446
 31
0.0
  0
LINE
  5
1A6
330
1F
100
AcDbEntity
  8
LC-001-100-D00-0
 62
     7
370
    50
100
AcDbLine
 10
-95.171393
 20
453.598446
 30
0.0
 11
-95.171393
 21
451.598445
 31
0.0
  0
ARC
  5
1A7
330
1F
100
AcDbEntity
  8
LC-001-100-D00-0
 62
     7
370
    50
100
AcDbCircle
 10
-112.272239
 20
460.598446
 30
0.0
 40
1.0
100
AcDbArc
 50
0.0
 51
90.0
  0
LINE
  5
1A8
330
1F
100
AcDbEntity
  8
LC-001-100-D00-0
 62
     7
370
    50
100
AcDbLine
 10
-111.272239
 20
460.598446
 30
0.0
 11
-111.272239
 21
446.598446
 31
0.0
  0
ARC
  5
1A9
330
1F
100
AcDbEntity
  8
LC-001-100-D00-0
 62
     7
370
    50
100
AcDbCircle
 10
-110.272239
 20
446.598446
 30
0.0
 40
1.000000000000057
100
AcDbArc
 50
180.0
 51
270.0
  0
LINE
  5
1AA
330
1F
100
AcDbEntity
  8
LC-001-100-D00-0
 62
     7
370
    50
100
AcDbLine
 10
-106.722239
 20
448.098446
 30
0.0
 11
-106.722239
 21
451.098446
 31
0.0
  0
LINE
  5
1AB
330
1F
100
AcDbEntity
  8
LC-001-100-D00-0
 62
     7
370
    50
100
AcDbLine
 10
-105.422239
 20
464.598446
 30
0.0
 11
-105.422229
 21
453.598446
 31
0.0
  0
LINE
  5
1AC
330
1F
100
AcDbEntity
  8
LC-001-100-D00-0
 62
     7
370
    50
100
AcDbLine
 10
-105.422239
 20
464.598446
 30
0.0
 11
-97.622239
 21
464.598446
 31
0.0
  0
ARC
  5
1AD
330
1F
100
AcDbEntity
  8
LC-001-100-D00-0
 62
     7
370
    50
100
AcDbCircle
 10
-107.222239
 20
448.098446
 30
0.0
 40
0.4999999999997726
100
AcDbArc
 50
270.0
 51
0.0
  0
LINE
  5
1AE
330
1F
100
AcDbEntity
  8
LC-001-100-D00-0
 62
     7
370
    50
100
AcDbLine
 10
-107.873083
 20
447.598445
 30
0.0
 11
-107.222239
 21
447.598446
 31
0.0
  0
LINE
  5
1AF
330
1F
100
AcDbEntity
  8
LC-001-100-D00-0
 62
     7
370
    50
100
AcDbLine
 10
-107.873083
 20
447.598445
 30
0.0
 11
-107.873083
 21
445.598446
 31
0.0
  0
LINE
  5
1B0
330
1F
100
AcDbEntity
  8
LC-001-100-D00-0
 62
     7
370
    50
100
AcDbLine
 10
-116.772235
 20
461.598446
 30
0.0
 11
-116.772239
 21
457.598446
 31
0.0
  0
LINE
  5
1B1
330
1F
100
AcDbEntity
  8
LC-001-100-D00-0
 62
     7
370
    50
100
AcDbLine
 10
-119.772226
 20
457.598445
 30
0.0
 11
-116.772239
 21
457.598446
 31
0.0
  0
LINE
  5
1B2
330
1F
100
AcDbEntity
  8
LC-001-100-D00-0
 62
     7
370
    50
100
AcDbLine
 10
-119.772226
 20
457.598445
 30
0.0
 11
-119.772239
 21
463.598446
 31
0.0
  0
ARC
  5
1B3
330
1F
100
AcDbEntity
  8
LC-001-100-D00-0
 62
     7
370
    50
100
AcDbCircle
 10
-118.772239
 20
463.598446
 30
0.0
 40
1.0
100
AcDbArc
 50
90.0
 51
180.0
  0
LINE
  5
1B4
330
1F
100
AcDbEntity
  8
LC-001-100-D00-0
 62
     7
370
    50
100
AcDbLine
 10
-107.873083
 20
453.598446
 30
0.0
 11
-107.873083
 21
451.598445
 31
0.0
  0
LINE
  5
1B5
330
1F
100
AcDbEntity
  8
LC-001-100-D00-0
 62
     7
370
    50
100
AcDbLine
 10
-107.222239
 20
451.598446
 30
0.0
 11
-107.873083
 21
451.598445
 31
0.0
  0
ARC
  5
1B6
330
1F
100
AcDbEntity
  8
LC-001-100-D00-0
 62
     7
370
    50
100
AcDbCircle
 10
-107.222239
 20
451.098446
 30
0.0
 40
0.5000000000001137
100
AcDbArc
 50
0.0
 51
90.0
  0
LINE
  5
1B7
330
1F
100
AcDbEntity
  8
LC-001-100-D00-0
 62
     7
370
    50
100
AcDbLine
 10
-105.422229
 20
453.598446
 30
0.0
 11
-107.873083
 21
453.598446
 31
0.0
  0
LINE
  5
1B8
330
1F
100
AcDbEntity
  8
LC-001-100-D00-0
 62
     7
370
    50
100
AcDbLine
 10
-107.873083
 20
445.598446
 30
0.0
 11
-110.272239
 21
445.598446
 31
0.0
  0
LINE
  5
1B9
330
1F
100
AcDbEntity
  8
LC-001-100-D00-0
 62
     7
370
    50
100
AcDbLine
 10
-116.772235
 20
461.598446
 30
0.0
 11
-112.272239
 21
461.598446
 31
0.0
  0
LINE
  5
1BA
330
1F
100
AcDbEntity
  8
LC-001-100-D00-0
 62
     7
370
    50
100
AcDbLine
 10
-118.772239
 20
464.598446
 30
0.0
 11
-105.422239
 21
464.598446
 31
0.0
  0
LINE
  5
1BB
330
1F
100
AcDbEntity
  8
LC-001-100-D00-0
 62
     7
370
    50
100
AcDbLine
 10
-88.272239
 20
457.598446
 30
0.0
 11
-86.272239
 21
457.598446
 31
0.0
  0
LINE
  5
1BC
330
1F
100
AcDbEntity
  8
LC-001-100-D00-0
 62
     7
370
    50
100
AcDbLine
 10
-116.772239
 20
457.598446
 30
0.0
 11
-114.772239
 21
457.598446
 31
0.0
  0
LINE
  5
1BD
330
1F
100
AcDbEntity
  8
LC-001-100-D00-0
 62
     7
370
    50
100
AcDbLine
 10
-114.772239
 20
457.598446
 30
0.0
 11
-111.272246
 21
457.598445
 31
0.0
  0
LINE
  5
1BE
330
1F
100
AcDbEntity
  8
LC-001-100-D00-0
 62
     7
370
    50
100
AcDbLine
 10
-91.772229
 20
457.598445
 30
0.0
 11
-88.272239
 21
457.598446
 31
0.0
  0
LINE
  5
1BF
330
1F
100
AcDbEntity
  8
LC-001-100-D00-0
 62
     7
370
    50
100
AcDbLine
 10
80.077767
 20
452.598445
 30
0.0
 11
79.07775
 21
453.598446
 31
0.0
  0
LINE
  5
1C0
330
1F
100
AcDbEntity
  8
LC-001-100-D00-0
 62
     7
370
    50
100
AcDbLine
 10
80.077767
 20
452.598445
 30
0.0
 11
80.077761
 21
446.598446
 31
0.0
  0
LINE
  5
1C1
330
1F
100
AcDbEntity
  8
LC-001-100-D00-0
 62
     7
370
    50
100
AcDbLine
 10
79.077761
 20
445.598446
 30
0.0
 11
80.077761
 21
446.598446
 31
0.0
  0
LINE
  5
1C2
330
1F
100
AcDbEntity
  8
LC-001-100-D00-0
 62
     7
370
    50
100
AcDbLine
 10
77.12692
 20
447.598445
 30
0.0
 11
77.12692
 21
445.598446
 31
0.0
  0
LINE
  5
1C3
330
1F
100
AcDbEntity
  8
LC-001-100-D00-0
 62
     7
370
    50
100
AcDbLine
 10
77.833052
 20
447.787656
 30
0.0
 11
77.12692
 21
447.598445
 31
0.0
  0
ARC
  5
1C4
330
1F
100
AcDbEntity
  8
LC-001-100-D00-0
 62
     7
370
    50
100
AcDbCircle
 10
77.677761
 20
448.367212
 30
0.0
 40
0.6000000000001032
100
AcDbArc
 50
285.0
 51
0.0
  0
LINE
  5
1C5
330
1F
100
AcDbEntity
  8
LC-001-100-D00-0
 62
     7
370
    50
100
AcDbLine
 10
78.277761
 20
450.829679
 30
0.0
 11
78.277761
 21
448.367212
 31
0.0
  0
ARC
  5
1C6
330
1F
100
AcDbEntity
  8
LC-001-100-D00-0
 62
     7
370
    50
100
AcDbCircle
 10
77.677761
 20
450.829679
 30
0.0
 40
0.600000000000307
100
AcDbArc
 50
0.0
 51
75.0
  0
LINE
  5
1C7
330
1F
100
AcDbEntity
  8
LC-001-100-D00-0
 62
     7
370
    50
100
AcDbLine
 10
77.12692
 20
451.598445
 30
0.0
 11
77.833052
 21
451.409235
 31
0.0
  0
LINE
  5
1C8
330
1F
100
AcDbEntity
  8
LC-001-100-D00-0
 62
     7
370
    50
100
AcDbLine
 10
77.12692
 20
453.598446
 30
0.0
 11
77.12692
 21
451.598445
 31
0.0
  0
LINE
  5
1C9
330
1F
100
AcDbEntity
  8
LC-001-100-D00-0
 62
     7
370
    50
100
AcDbLine
 10
77.12692
 20
445.598446
 30
0.0
 11
79.077761
 21
445.598446
 31
0.0
  0
LINE
  5
1CA
330
1F
100
AcDbEntity
  8
LC-001-100-D00-0
 62
     7
370
    50
100
AcDbLine
 10
77.12692
 20
453.598446
 30
0.0
 11
79.07775
 21
453.598446
 31
0.0
  0
LINE
  5
1CB
330
1F
100
AcDbEntity
  8
LC-001-100-D00-0
 62
     7
370
    50
100
AcDbLine
 10
88.677761
 20
448.367212
 30
0.0
 11
88.677761
 21
450.829679
 31
0.0
  0
ARC
  5
1CC
330
1F
100
AcDbEntity
  8
LC-001-100-D00-0
 62
     7
370
    50
100
AcDbCircle
 10
89.277761
 20
448.367212
 30
0.0
 40
0.6000000000000227
100
AcDbArc
 50
180.0
 51
255.0
  0
LINE
  5
1CD
330
1F
100
AcDbEntity
  8
LC-001-100-D00-0
 62
     7
370
    50
100
AcDbLine
 10
89.82861
 20
447.598445
 30
0.0
 11
89.12247
 21
447.787656
 31
0.0
  0
LINE
  5
1CE
330
1F
100
AcDbEntity
  8
LC-001-100-D00-0
 62
     7
370
    50
100
AcDbLine
 10
89.82861
 20
447.598445
 30
0.0
 11
89.82861
 21
445.598446
 31
0.0
  0
LINE
  5
1CF
330
1F
100
AcDbEntity
  8
LC-001-100-D00-0
 62
     7
370
    50
100
AcDbLine
 10
86.877761
 20
446.598446
 30
0.0
 11
87.877761
 21
445.598446
 31
0.0
  0
LINE
  5
1D0
330
1F
100
AcDbEntity
  8
LC-001-100-D00-0
 62
     7
370
    50
100
AcDbLine
 10
86.877761
 20
446.598446
 30
0.0
 11
86.877763
 21
452.598445
 31
0.0
  0
LINE
  5
1D1
330
1F
100
AcDbEntity
  8
LC-001-100-D00-0
 62
     7
370
    50
100
AcDbLine
 10
87.87775
 20
453.598446
 30
0.0
 11
86.877763
 21
452.598445
 31
0.0
  0
LINE
  5
1D2
330
1F
100
AcDbEntity
  8
LC-001-100-D00-0
 62
     7
370
    50
100
AcDbLine
 10
89.82861
 20
453.598446
 30
0.0
 11
89.82861
 21
451.598445
 31
0.0
  0
LINE
  5
1D3
330
1F
100
AcDbEntity
  8
LC-001-100-D00-0
 62
     7
370
    50
100
AcDbLine
 10
89.12247
 20
451.409235
 30
0.0
 11
89.82861
 21
451.598445
 31
0.0
  0
ARC
  5
1D4
330
1F
100
AcDbEntity
  8
LC-001-100-D00-0
 62
     7
370
    50
100
AcDbCircle
 10
89.277761
 20
450.829679
 30
0.0
 40
0.600000000000118
100
AcDbArc
 50
105.0
 51
180.0
  0
LINE
  5
1D5
330
1F
100
AcDbEntity
  8
LC-001-100-D00-0
 62
     7
370
    50
100
AcDbLine
 10
87.877761
 20
445.598446
 30
0.0
 11
89.82861
 21
445.598446
 31
0.0
  0
LINE
  5
1D6
330
1F
100
AcDbEntity
  8
LC-001-100-D00-0
 62
     7
370
    50
100
AcDbLine
 10
87.87775
 20
453.598446
 30
0.0
 11
89.82861
 21
453.598446
 31
0.0
  0
LINE
  5
1D7
330
1F
100
AcDbEntity
  8
LC-001-100-D00-0
 62
     7
370
    50
100
AcDbLine
 10
80.077761
 20
446.598446
 30
0.0
 11
80.235601
 21
446.598446
 31
0.0
  0
LINE
  5
1D8
330
1F
100
AcDbEntity
  8
LC-001-100-D00-0
 62
     7
370
    50
100
AcDbLine
 10
86.719921
 20
446.598446
 30
0.0
 11
86.877761
 21
446.598446
 31
0.0
  0
LINE
  5
1D9
330
1F
100
AcDbEntity
  8
LC-001-100-D00-0
 62
     7
370
    50
100
AcDbLine
 10
87.877761
 20
445.598446
 30
0.0
 11
87.341979
 21
445.598446
 31
0.0
  0
LINE
  5
1DA
330
1F
100
AcDbEntity
  8
LC-001-100-D00-0
 62
     7
370
    50
100
AcDbLine
 10
79.613543
 20
445.598446
 30
0.0
 11
79.077761
 21
445.598446
 31
0.0
  0
LINE
  5
1DB
330
1F
100
AcDbEntity
  8
LC-001-100-D00-0
 62
     7
370
    50
100
AcDbLine
 10
89.82861
 20
453.598446
 30
0.0
 11
87.377756
 21
453.598446
 31
0.0
  0
LINE
  5
1DC
330
1F
100
AcDbEntity
  8
LC-001-100-D00-0
 62
     7
370
    50
100
AcDbLine
 10
87.377756
 20
453.598446
 30
0.0
 11
87.377761
 21
464.598446
 31
0.0
  0
LINE
  5
1DD
330
1F
100
AcDbEntity
  8
LC-001-100-D00-0
 62
     7
370
    50
100
AcDbLine
 10
87.377761
 20
464.598446
 30
0.0
 11
100.727761
 21
464.598446
 31
0.0
  0
ARC
  5
1DE
330
1F
100
AcDbEntity
  8
LC-001-100-D00-0
 62
     7
370
    50
100
AcDbCircle
 10
100.727761
 20
463.598446
 30
0.0
 40
1.000000000000227
100
AcDbArc
 50
0.0
 51
90.0
  0
LINE
  5
1DF
330
1F
100
AcDbEntity
  8
LC-001-100-D00-0
 62
     7
370
    50
100
AcDbLine
 10
101.727761
 20
463.598446
 30
0.0
 11
101.727753
 21
457.598445
 31
0.0
  0
LINE
  5
1E0
330
1F
100
AcDbEntity
  8
LC-001-100-D00-0
 62
     7
370
    50
100
AcDbLine
 10
98.727761
 20
457.598446
 30
0.0
 11
101.727753
 21
457.598445
 31
0.0
  0
LINE
  5
1E1
330
1F
100
AcDbEntity
  8
LC-001-100-D00-0
 62
     7
370
    50
100
AcDbLine
 10
98.727761
 20
457.598446
 30
0.0
 11
98.727762
 21
461.598446
 31
0.0
  0
LINE
  5
1E2
330
1F
100
AcDbEntity
  8
LC-001-100-D00-0
 62
     7
370
    50
100
AcDbLine
 10
94.227761
 20
461.598446
 30
0.0
 11
98.727762
 21
461.598446
 31
0.0
  0
ARC
  5
1E3
330
1F
100
AcDbEntity
  8
LC-001-100-D00-0
 62
     7
370
    50
100
AcDbCircle
 10
94.227761
 20
460.598446
 30
0.0
 40
1.000000000000227
100
AcDbArc
 50
90.0
 51
180.0
  0
LINE
  5
1E4
330
1F
100
AcDbEntity
  8
LC-001-100-D00-0
 62
     7
370
    50
100
AcDbLine
 10
93.227761
 20
446.598446
 30
0.0
 11
93.227761
 21
460.598446
 31
0.0
  0
ARC
  5
1E5
330
1F
100
AcDbEntity
  8
LC-001-100-D00-0
 62
     7
370
    50
100
AcDbCircle
 10
92.227761
 20
446.598446
 30
0.0
 40
1.000000000000227
100
AcDbArc
 50
270.0
 51
0.0
  0
LINE
  5
1E6
330
1F
100
AcDbEntity
  8
LC-001-100-D00-0
 62
     7
370
    50
100
AcDbLine
 10
92.227761
 20
445.598446
 30
0.0
 11
89.82861
 21
445.598446
 31
0.0
  0
LINE
  5
1E7
330
1F
100
AcDbEntity
  8
LC-001-100-D00-0
 62
     7
370
    50
100
AcDbLine
 10
89.82861
 20
447.598445
 30
0.0
 11
89.82861
 21
445.598446
 31
0.0
  0
LINE
  5
1E8
330
1F
100
AcDbEntity
  8
LC-001-100-D00-0
 62
     7
370
    50
100
AcDbLine
 10
89.177761
 20
447.598446
 30
0.0
 11
89.82861
 21
447.598445
 31
0.0
  0
ARC
  5
1E9
330
1F
100
AcDbEntity
  8
LC-001-100-D00-0
 62
     7
370
    50
100
AcDbCircle
 10
89.177761
 20
448.098446
 30
0.0
 40
0.4999999999999432
100
AcDbArc
 50
180.0
 51
270.0
  0
LINE
  5
1EA
330
1F
100
AcDbEntity
  8
LC-001-100-D00-0
 62
     7
370
    50
100
AcDbLine
 10
88.677761
 20
451.098446
 30
0.0
 11
88.677761
 21
448.098446
 31
0.0
  0
ARC
  5
1EB
330
1F
100
AcDbEntity
  8
LC-001-100-D00-0
 62
     7
370
    50
100
AcDbCircle
 10
89.177761
 20
451.098446
 30
0.0
 40
0.5000000000004548
100
AcDbArc
 50
90.0
 51
180.0
  0
LINE
  5
1EC
330
1F
100
AcDbEntity
  8
LC-001-100-D00-0
 62
     7
370
    50
100
AcDbLine
 10
89.82861
 20
451.598445
 30
0.0
 11
89.177761
 21
451.598446
 31
0.0
  0
LINE
  5
1ED
330
1F
100
AcDbEntity
  8
LC-001-100-D00-0
 62
     7
370
    50
100
AcDbLine
 10
89.82861
 20
453.598446
 30
0.0
 11
89.82861
 21
451.598445
 31
0.0
  0
ARC
  5
1EE
330
1F
100
AcDbEntity
  8
LC-001-100-D00-0
 62
     7
370
    50
100
AcDbCircle
 10
72.727761
 20
460.598446
 30
0.0
 40
1.000000000000057
100
AcDbArc
 50
0.0
 51
90.0
  0
LINE
  5
1EF
330
1F
100
AcDbEntity
  8
LC-001-100-D00-0
 62
     7
370
    50
100
AcDbLine
 10
73.727761
 20
460.598446
 30
0.0
 11
73.727761
 21
446.598446
 31
0.0
  0
ARC
  5
1F0
330
1F
100
AcDbEntity
  8
LC-001-100-D00-0
 62
     7
370
    50
100
AcDbCircle
 10
74.727761
 20
446.598446
 30
0.0
 40
1.000000000000227
100
AcDbArc
 50
180.0
 51
270.0
  0
LINE
  5
1F1
330
1F
100
AcDbEntity
  8
LC-001-100-D00-0
 62
     7
370
    50
100
AcDbLine
 10
78.277761
 20
448.098446
 30
0.0
 11
78.277761
 21
451.098446
 31
0.0
  0
LINE
  5
1F2
330
1F
100
AcDbEntity
  8
LC-001-100-D00-0
 62
     7
370
    50
100
AcDbLine
 10
79.577761
 20
464.598446
 30
0.0
 11
79.577773
 21
453.598446
 31
0.0
  0
LINE
  5
1F3
330
1F
100
AcDbEntity
  8
LC-001-100-D00-0
 62
     7
370
    50
100
AcDbLine
 10
79.577761
 20
464.598446
 30
0.0
 11
87.377761
 21
464.598446
 31
0.0
  0
ARC
  5
1F4
330
1F
100
AcDbEntity
  8
LC-001-100-D00-0
 62
     7
370
    50
100
AcDbCircle
 10
77.777761
 20
448.098446
 30
0.0
 40
0.4999999999997726
100
AcDbArc
 50
270.0
 51
0.0
  0
LINE
  5
1F5
330
1F
100
AcDbEntity
  8
LC-001-100-D00-0
 62
     7
370
    50
100
AcDbLine
 10
77.12692
 20
447.598445
 30
0.0
 11
77.777761
 21
447.598446
 31
0.0
  0
LINE
  5
1F6
330
1F
100
AcDbEntity
  8
LC-001-100-D00-0
 62
     7
370
    50
100
AcDbLine
 10
77.12692
 20
447.598445
 30
0.0
 11
77.12692
 21
445.598446
 31
0.0
  0
LINE
  5
1F7
330
1F
100
AcDbEntity
  8
LC-001-100-D00-0
 62
     7
370
    50
100
AcDbLine
 10
68.227767
 20
461.598446
 30
0.0
 11
68.227761
 21
457.598446
 31
0.0
  0
LINE
  5
1F8
330
1F
100
AcDbEntity
  8
LC-001-100-D00-0
 62
     7
370
    50
100
AcDbLine
 10
65.227746
 20
457.598445
 30
0.0
 11
65.227761
 21
463.598446
 31
0.0
  0
ARC
  5
1F9
330
1F
100
AcDbEntity
  8
LC-001-100-D00-0
 62
     7
370
    50
100
AcDbCircle
 10
66.227761
 20
463.598446
 30
0.0
 40
1.000000000000227
100
AcDbArc
 50
90.0
 51
180.0
  0
LINE
  5
1FA
330
1F
100
AcDbEntity
  8
LC-001-100-D00-0
 62
     7
370
    50
100
AcDbLine
 10
77.12692
 20
453.598446
 30
0.0
 11
77.12692
 21
451.598445
 31
0.0
  0
LINE
  5
1FB
330
1F
100
AcDbEntity
  8
LC-001-100-D00-0
 62
     7
370
    50
100
AcDbLine
 10
77.777761
 20
451.598446
 30
0.0
 11
77.12692
 21
451.598445
 31
0.0
  0
ARC
  5
1FC
330
1F
100
AcDbEntity
  8
LC-001-100-D00-0
 62
     7
370
    50
100
AcDbCircle
 10
77.777761
 20
451.098446
 30
0.0
 40
0.5000000000003979
100
AcDbArc
 50
0.0
 51
90.0
  0
LINE
  5
1FD
330
1F
100
AcDbEntity
  8
LC-001-100-D00-0
 62
     7
370
    50
100
AcDbLine
 10
65.227746
 20
457.598445
 30
0.0
 11
68.227761
 21
457.598446
 31
0.0
  0
LINE
  5
1FE
330
1F
100
AcDbEntity
  8
LC-001-100-D00-0
 62
     7
370
    50
100
AcDbLine
 10
79.577773
 20
453.598446
 30
0.0
 11
77.12692
 21
453.598446
 31
0.0
  0
LINE
  5
1FF
330
1F
100
AcDbEntity
  8
LC-001-100-D00-0
 62
     7
370
    50
100
AcDbLine
 10
77.12692
 20
445.598446
 30
0.0
 11
74.727761
 21
445.598446
 31
0.0
  0
LINE
  5
200
330
1F
100
AcDbEntity
  8
LC-001-100-D00-0
 62
     7
370
    50
100
AcDbLine
 10
68.227767
 20
461.598446
 30
0.0
 11
72.727761
 21
461.598446
 31
0.0
  0
LINE
  5
201
330
1F
100
AcDbEntity
  8
LC-001-100-D00-0
 62
     7
370
    50
100
AcDbLine
 10
66.227761
 20
464.598446
 30
0.0
 11
79.577761
 21
464.598446
 31
0.0
  0
LINE
  5
202
330
1F
100
AcDbEntity
  8
LC-001-100-D00-0
 62
     7
370
    50
100
AcDbLine
 10
96.727761
 20
457.598446
 30
0.0
 11
98.727761
 21
457.598446
 31
0.0
  0
LINE
  5
203
330
1F
100
AcDbEntity
  8
LC-001-100-D00-0
 62
     7
370
    50
100
AcDbLine
 10
68.227761
 20
457.598446
 30
0.0
 11
70.227761
 21
457.598446
 31
0.0
  0
LINE
  5
204
330
1F
100
AcDbEntity
  8
LC-001-100-D00-0
 62
     7
370
    50
100
AcDbLine
 10
70.227761
 20
457.598446
 30
0.0
 11
73.727756
 21
457.598445
 31
0.0
  0
LINE
  5
205
330
1F
100
AcDbEntity
  8
LC-001-100-D00-0
 62
     7
370
    50
100
AcDbLine
 10
93.227773
 20
457.598445
 30
0.0
 11
96.727761
 21
457.598446
 31
0.0
  0
LINE
  5
206
330
1F
100
AcDbEntity
  8
LC-001-100-D00-0
 62
     7
370
    50
100
AcDbLine
 10
650.07776
 20
452.598445
 30
0.0
 11
649.077772
 21
453.598446
 31
0.0
  0
LINE
  5
207
330
1F
100
AcDbEntity
  8
LC-001-100-D00-0
 62
     7
370
    50
100
AcDbLine
 10
650.07776
 20
452.598445
 30
0.0
 11
650.077761
 21
446.598446
 31
0.0
  0
LINE
  5
208
330
1F
100
AcDbEntity
  8
LC-001-100-D00-0
 62
     7
370
    50
100
AcDbLine
 10
649.077761
 20
445.598446
 30
0.0
 11
650.077761
 21
446.598446
 31
0.0
  0
LINE
  5
209
330
1F
100
AcDbEntity
  8
LC-001-100-D00-0
 62
     7
370
    50
100
AcDbLine
 10
647.126912
 20
447.598445
 30
0.0
 11
647.126912
 21
445.598446
 31
0.0
  0
LINE
  5
20A
330
1F
100
AcDbEntity
  8
LC-001-100-D00-0
 62
     7
370
    50
100
AcDbLine
 10
647.833052
 20
447.787656
 30
0.0
 11
647.126912
 21
447.598445
 31
0.0
  0
ARC
  5
20B
330
1F
100
AcDbEntity
  8
LC-001-100-D00-0
 62
     7
370
    50
100
AcDbCircle
 10
647.677761
 20
448.367212
 30
0.0
 40
0.600000000000118
100
AcDbArc
 50
285.0
 51
0.0
  0
LINE
  5
20C
330
1F
100
AcDbEntity
  8
LC-001-100-D00-0
 62
     7
370
    50
100
AcDbLine
 10
648.277761
 20
450.829679
 30
0.0
 11
648.277761
 21
448.367212
 31
0.0
  0
ARC
  5
20D
330
1F
100
AcDbEntity
  8
LC-001-100-D00-0
 62
     7
370
    50
100
AcDbCircle
 10
647.677761
 20
450.829679
 30
0.0
 40
0.6000000000000227
100
AcDbArc
 50
0.0
 51
75.0
  0
LINE
  5
20E
330
1F
100
AcDbEntity
  8
LC-001-100-D00-0
 62
     7
370
    50
100
AcDbLine
 10
647.126912
 20
451.598445
 30
0.0
 11
647.833052
 21
451.409235
 31
0.0
  0
LINE
  5
20F
330
1F
100
AcDbEntity
  8
LC-001-100-D00-0
 62
     7
370
    50
100
AcDbLine
 10
647.126912
 20
453.598446
 30
0.0
 11
647.126912
 21
451.598445
 31
0.0
  0
LINE
  5
210
330
1F
100
AcDbEntity
  8
LC-001-100-D00-0
 62
     7
370
    50
100
AcDbLine
 10
647.126912
 20
445.598446
 30
0.0
 11
649.077761
 21
445.598446
 31
0.0
  0
LINE
  5
211
330
1F
100
AcDbEntity
  8
LC-001-100-D00-0
 62
     7
370
    50
100
AcDbLine
 10
647.126912
 20
453.598446
 30
0.0
 11
649.077772
 21
453.598446
 31
0.0
  0
LINE
  5
212
330
1F
100
AcDbEntity
  8
LC-001-100-D00-0
 62
     7
370
    50
100
AcDbLine
 10
658.677761
 20
448.367212
 30
0.0
 11
658.677761
 21
450.829679
 31
0.0
  0
ARC
  5
213
330
1F
100
AcDbEntity
  8
LC-001-100-D00-0
 62
     7
370
    50
100
AcDbCircle
 10
659.277761
 20
448.367212
 30
0.0
 40
0.6000000000002501
100
AcDbArc
 50
180.0
 51
255.0
  0
LINE
  5
214
330
1F
100
AcDbEntity
  8
LC-001-100-D00-0
 62
     7
370
    50
100
AcDbLine
 10
659.828603
 20
447.598445
 30
0.0
 11
659.12247
 21
447.787656
 31
0.0
  0
LINE
  5
215
330
1F
100
AcDbEntity
  8
LC-001-100-D00-0
 62
     7
370
    50
100
AcDbLine
 10
659.828603
 20
447.598445
 30
0.0
 11
659.828603
 21
445.598446
 31
0.0
  0
LINE
  5
216
330
1F
100
AcDbEntity
  8
LC-001-100-D00-0
 62
     7
370
    50
100
AcDbLine
 10
656.877761
 20
446.598446
 30
0.0
 11
657.877761
 21
445.598446
 31
0.0
  0
LINE
  5
217
330
1F
100
AcDbEntity
  8
LC-001-100-D00-0
 62
     7
370
    50
100
AcDbLine
 10
656.877761
 20
446.598446
 30
0.0
 11
656.877755
 21
452.598445
 31
0.0
  0
LINE
  5
218
330
1F
100
AcDbEntity
  8
LC-001-100-D00-0
 62
     7
370
    50
100
AcDbLine
 10
657.877772
 20
453.598446
 30
0.0
 11
656.877755
 21
452.598445
 31
0.0
  0
LINE
  5
219
330
1F
100
AcDbEntity
  8
LC-001-100-D00-0
 62
     7
370
    50
100
AcDbLine
 10
659.828603
 20
453.598446
 30
0.0
 11
659.828603
 21
451.598445
 31
0.0
  0
LINE
  5
21A
330
1F
100
AcDbEntity
  8
LC-001-100-D00-0
 62
     7
370
    50
100
AcDbLine
 10
659.12247
 20
451.409235
 30
0.0
 11
659.828603
 21
451.598445
 31
0.0
  0
ARC
  5
21B
330
1F
100
AcDbEntity
  8
LC-001-100-D00-0
 62
     7
370
    50
100
AcDbCircle
 10
659.277761
 20
450.829679
 30
0.0
 40
0.6000000000001474
100
AcDbArc
 50
105.0
 51
180.0
  0
LINE
  5
21C
330
1F
100
AcDbEntity
  8
LC-001-100-D00-0
 62
     7
370
    50
100
AcDbLine
 10
657.877761
 20
445.598446
 30
0.0
 11
659.828603
 21
445.598446
 31
0.0
  0
LINE
  5
21D
330
1F
100
AcDbEntity
  8
LC-001-100-D00-0
 62
     7
370
    50
100
AcDbLine
 10
657.877772
 20
453.598446
 30
0.0
 11
659.828603
 21
453.598446
 31
0.0
  0
LINE
  5
21E
330
1F
100
AcDbEntity
  8
LC-001-100-D00-0
 62
     7
370
    50
100
AcDbLine
 10
650.077761
 20
446.598446
 30
0.0
 11
650.235601
 21
446.598446
 31
0.0
  0
LINE
  5
21F
330
1F
100
AcDbEntity
  8
LC-001-100-D00-0
 62
     7
370
    50
100
AcDbLine
 10
656.719921
 20
446.598446
 30
0.0
 11
656.877761
 21
446.598446
 31
0.0
  0
LINE
  5
220
330
1F
100
AcDbEntity
  8
LC-001-100-D00-0
 62
     7
370
    50
100
AcDbLine
 10
657.877761
 20
445.598446
 30
0.0
 11
657.341979
 21
445.598446
 31
0.0
  0
LINE
  5
221
330
1F
100
AcDbEntity
  8
LC-001-100-D00-0
 62
     7
370
    50
100
AcDbLine
 10
649.613543
 20
445.598446
 30
0.0
 11
649.077761
 21
445.598446
 31
0.0
  0
LINE
  5
222
330
1F
100
AcDbEntity
  8
LC-001-100-D00-0
 62
     7
370
    50
100
AcDbLine
 10
659.828603
 20
453.598446
 30
0.0
 11
657.377749
 21
453.598446
 31
0.0
  0
LINE
  5
223
330
1F
100
AcDbEntity
  8
LC-001-100-D00-0
 62
     7
370
    50
100
AcDbLine
 10
657.377749
 20
453.598446
 30
0.0
 11
657.377761
 21
464.598446
 31
0.0
  0
LINE
  5
224
330
1F
100
AcDbEntity
  8
LC-001-100-D00-0
 62
     7
370
    50
100
AcDbLine
 10
657.377761
 20
464.598446
 30
0.0
 11
670.727761
 21
464.598446
 31
0.0
  0
ARC
  5
225
330
1F
100
AcDbEntity
  8
LC-001-100-D00-0
 62
     7
370
    50
100
AcDbCircle
 10
670.727761
 20
463.598446
 30
0.0
 40
1.000000000000114
100
AcDbArc
 50
0.0
 51
90.0
  0
LINE
  5
226
330
1F
100
AcDbEntity
  8
LC-001-100-D00-0
 62
     7
370
    50
100
AcDbLine
 10
671.727761
 20
463.598446
 30
0.0
 11
671.727776
 21
457.598445
 31
0.0
  0
LINE
  5
227
330
1F
100
AcDbEntity
  8
LC-001-100-D00-0
 62
     7
370
    50
100
AcDbLine
 10
668.727761
 20
457.598446
 30
0.0
 11
671.727776
 21
457.598445
 31
0.0
  0
LINE
  5
228
330
1F
100
AcDbEntity
  8
LC-001-100-D00-0
 62
     7
370
    50
100
AcDbLine
 10
668.727761
 20
457.598446
 30
0.0
 11
668.727755
 21
461.598446
 31
0.0
  0
LINE
  5
229
330
1F
100
AcDbEntity
  8
LC-001-100-D00-0
 62
     7
370
    50
100
AcDbLine
 10
664.227761
 20
461.598446
 30
0.0
 11
668.727755
 21
461.598446
 31
0.0
  0
ARC
  5
22A
330
1F
100
AcDbEntity
  8
LC-001-100-D00-0
 62
     7
370
    50
100
AcDbCircle
 10
664.227761
 20
460.598446
 30
0.0
 40
1.000000000000227
100
AcDbArc
 50
90.0
 51
180.0
  0
LINE
  5
22B
330
1F
100
AcDbEntity
  8
LC-001-100-D00-0
 62
     7
370
    50
100
AcDbLine
 10
663.227761
 20
446.598446
 30
0.0
 11
663.227761
 21
460.598446
 31
0.0
  0
ARC
  5
22C
330
1F
100
AcDbEntity
  8
LC-001-100-D00-0
 62
     7
370
    50
100
AcDbCircle
 10
662.227761
 20
446.598446
 30
0.0
 40
1.0
100
AcDbArc
 50
270.0
 51
0.0
  0
LINE
  5
22D
330
1F
100
AcDbEntity
  8
LC-001-100-D00-0
 62
     7
370
    50
100
AcDbLine
 10
662.227761
 20
445.598446
 30
0.0
 11
659.828603
 21
445.598446
 31
0.0
  0
LINE
  5
22E
330
1F
100
AcDbEntity
  8
LC-001-100-D00-0
 62
     7
370
    50
100
AcDbLine
 10
659.828603
 20
447.598445
 30
0.0
 11
659.828603
 21
445.598446
 31
0.0
  0
LINE
  5
22F
330
1F
100
AcDbEntity
  8
LC-001-100-D00-0
 62
     7
370
    50
100
AcDbLine
 10
659.177761
 20
447.598446
 30
0.0
 11
659.828603
 21
447.598445
 31
0.0
  0
ARC
  5
230
330
1F
100
AcDbEntity
  8
LC-001-100-D00-0
 62
     7
370
    50
100
AcDbCircle
 10
659.177761
 20
448.098446
 30
0.0
 40
0.5000000000001137
100
AcDbArc
 50
180.0
 51
270.0
  0
LINE
  5
231
330
1F
100
AcDbEntity
  8
LC-001-100-D00-0
 62
     7
370
    50
100
AcDbLine
 10
658.677761
 20
451.098446
 30
0.0
 11
658.677761
 21
448.098446
 31
0.0
  0
ARC
  5
232
330
1F
100
AcDbEntity
  8
LC-001-100-D00-0
 62
     7
370
    50
100
AcDbCircle
 10
659.177761
 20
451.098446
 30
0.0
 40
0.5
100
AcDbArc
 50
90.0
 51
180.0
  0
LINE
  5
233
330
1F
100
AcDbEntity
  8
LC-001-100-D00-0
 62
     7
370
    50
100
AcDbLine
 10
659.828603
 20
451.598445
 30
0.0
 11
659.177761
 21
451.598446
 31
0.0
  0
LINE
  5
234
330
1F
100
AcDbEntity
  8
LC-001-100-D00-0
 62
     7
370
    50
100
AcDbLine
 10
659.828603
 20
453.598446
 30
0.0
 11
659.828603
 21
451.598445
 31
0.0
  0
ARC
  5
235
330
1F
100
AcDbEntity
  8
LC-001-100-D00-0
 62
     7
370
    50
100
AcDbCircle
 10
642.727761
 20
460.598446
 30
0.0
 40
1.000000000000114
100
AcDbArc
 50
0.0
 51
90.0
  0
LINE
  5
236
330
1F
100
AcDbEntity
  8
LC-001-100-D00-0
 62
     7
370
    50
100
AcDbLine
 10
643.727761
 20
460.598446
 30
0.0
 11
643.727761
 21
446.598446
 31
0.0
  0
ARC
  5
237
330
1F
100
AcDbEntity
  8
LC-001-100-D00-0
 62
     7
370
    50
100
AcDbCircle
 10
644.727761
 20
446.598446
 30
0.0
 40
1.000000000000114
100
AcDbArc
 50
180.0
 51
270.0
  0
LINE
  5
238
330
1F
100
AcDbEntity
  8
LC-001-100-D00-0
 62
     7
370
    50
100
AcDbLine
 10
648.277761
 20
448.098446
 30
0.0
 11
648.277761
 21
451.098446
 31
0.0
  0
LINE
  5
239
330
1F
100
AcDbEntity
  8
LC-001-100-D00-0
 62
     7
370
    50
100
AcDbLine
 10
649.577761
 20
464.598446
 30
0.0
 11
649.577766
 21
453.598446
 31
0.0
  0
LINE
  5
23A
330
1F
100
AcDbEntity
  8
LC-001-100-D00-0
 62
     7
370
    50
100
AcDbLine
 10
649.577761
 20
464.598446
 30
0.0
 11
657.377761
 21
464.598446
 31
0.0
  0
ARC
  5
23B
330
1F
100
AcDbEntity
  8
LC-001-100-D00-0
 62
     7
370
    50
100
AcDbCircle
 10
647.777761
 20
448.098446
 30
0.0
 40
0.5
100
AcDbArc
 50
270.0
 51
0.0
  0
LINE
  5
23C
330
1F
100
AcDbEntity
  8
LC-001-100-D00-0
 62
     7
370
    50
100
AcDbLine
 10
647.126912
 20
447.598445
 30
0.0
 11
647.777761
 21
447.598446
 31
0.0
  0
LINE
  5
23D
330
1F
100
AcDbEntity
  8
LC-001-100-D00-0
 62
     7
370
    50
100
AcDbLine
 10
647.126912
 20
447.598445
 30
0.0
 11
647.126912
 21
445.598446
 31
0.0
  0
LINE
  5
23E
330
1F
100
AcDbEntity
  8
LC-001-100-D00-0
 62
     7
370
    50
100
AcDbLine
 10
638.22776
 20
461.598446
 30
0.0
 11
638.227761
 21
457.598446
 31
0.0
  0
LINE
  5
23F
330
1F
100
AcDbEntity
  8
LC-001-100-D00-0
 62
     7
370
    50
100
AcDbLine
 10
635.227769
 20
457.598445
 30
0.0
 11
635.227761
 21
463.598446
 31
0.0
  0
ARC
  5
240
330
1F
100
AcDbEntity
  8
LC-001-100-D00-0
 62
     7
370
    50
100
AcDbCircle
 10
636.227761
 20
463.598446
 30
0.0
 40
1.000000000000227
100
AcDbArc
 50
90.0
 51
180.0
  0
LINE
  5
241
330
1F
100
AcDbEntity
  8
LC-001-100-D00-0
 62
     7
370
    50
100
AcDbLine
 10
647.126912
 20
453.598446
 30
0.0
 11
647.126912
 21
451.598445
 31
0.0
  0
LINE
  5
242
330
1F
100
AcDbEntity
  8
LC-001-100-D00-0
 62
     7
370
    50
100
AcDbLine
 10
647.777761
 20
451.598446
 30
0.0
 11
647.126912
 21
451.598445
 31
0.0
  0
ARC
  5
243
330
1F
100
AcDbEntity
  8
LC-001-100-D00-0
 62
     7
370
    50
100
AcDbCircle
 10
647.777761
 20
451.098446
 30
0.0
 40
0.5000000000001137
100
AcDbArc
 50
0.0
 51
90.0
  0
LINE
  5
244
330
1F
100
AcDbEntity
  8
LC-001-100-D00-0
 62
     7
370
    50
100
AcDbLine
 10
635.227769
 20
457.598445
 30
0.0
 11
638.227761
 21
457.598446
 31
0.0
  0
LINE
  5
245
330
1F
100
AcDbEntity
  8
LC-001-100-D00-0
 62
     7
370
    50
100
AcDbLine
 10
649.577766
 20
453.598446
 30
0.0
 11
647.126912
 21
453.598446
 31
0.0
  0
LINE
  5
246
330
1F
100
AcDbEntity
  8
LC-001-100-D00-0
 62
     7
370
    50
100
AcDbLine
 10
647.126912
 20
445.598446
 30
0.0
 11
644.727761
 21
445.598446
 31
0.0
  0
LINE
  5
247
330
1F
100
AcDbEntity
  8
LC-001-100-D00-0
 62
     7
370
    50
100
AcDbLine
 10
638.22776
 20
461.598446
 30
0.0
 11
642.727761
 21
461.598446
 31
0.0
  0
LINE
  5
248
330
1F
100
AcDbEntity
  8
LC-001-100-D00-0
 62
     7
370
    50
100
AcDbLine
 10
636.227761
 20
464.598446
 30
0.0
 11
649.577761
 21
464.598446
 31
0.0
  0
LINE
  5
249
330
1F
100
AcDbEntity
  8
LC-001-100-D00-0
 62
     7
370
    50
100
AcDbLine
 10
666.727761
 20
457.598446
 30
0.0
 11
668.727761
 21
457.598446
 31
0.0
  0
LINE
  5
24A
330
1F
100
AcDbEntity
  8
LC-001-100-D00-0
 62
     7
370
    50
100
AcDbLine
 10
638.227761
 20
457.598446
 30
0.0
 11
640.227761
 21
457.598446
 31
0.0
  0
LINE
  5
24B
330
1F
100
AcDbEntity
  8
LC-001-100-D00-0
 62
     7
370
    50
100
AcDbLine
 10
640.227761
 20
457.598446
 30
0.0
 11
643.727749
 21
457.598445
 31
0.0
  0
LINE
  5
24C
330
1F
100
AcDbEntity
  8
LC-001-100-D00-0
 62
     7
370
    50
100
AcDbLine
 10
663.227766
 20
457.598445
 30
0.0
 11
666.727761
 21
457.598446
 31
0.0
  0
LINE
  5
24D
330
1F
100
AcDbEntity
  8
LC-001-100-D00-0
 62
     7
370
    50
100
AcDbLine
 10
265.077762
 20
452.598445
 30
0.0
 11
264.07776
 21
453.598446
 31
0.0
  0
LINE
  5
24E
330
1F
100
AcDbEntity
  8
LC-001-100-D00-0
 62
     7
370
    50
100
AcDbLine
 10
265.077762
 20
452.598445
 30
0.0
 11
265.077761
 21
446.598446
 31
0.0
  0
LINE
  5
24F
330
1F
100
AcDbEntity
  8
LC-001-100-D00-0
 62
     7
370
    50
100
AcDbLine
 10
264.077761
 20
445.598446
 30
0.0
 11
265.077761
 21
446.598446
 31
0.0
  0
LINE
  5
250
330
1F
100
AcDbEntity
  8
LC-001-100-D00-0
 62
     7
370
    50
100
AcDbLine
 10
262.126907
 20
447.598445
 30
0.0
 11
262.126907
 21
445.598446
 31
0.0
  0
LINE
  5
251
330
1F
100
AcDbEntity
  8
LC-001-100-D00-0
 62
     7
370
    50
100
AcDbLine
 10
262.833052
 20
447.787656
 30
0.0
 11
262.126907
 21
447.598445
 31
0.0
  0
ARC
  5
252
330
1F
100
AcDbEntity
  8
LC-001-100-D00-0
 62
     7
370
    50
100
AcDbCircle
 10
262.677761
 20
448.367212
 30
0.0
 40
0.600000000000118
100
AcDbArc
 50
285.0
 51
0.0
  0
LINE
  5
253
330
1F
100
AcDbEntity
  8
LC-001-100-D00-0
 62
     7
370
    50
100
AcDbLine
 10
263.277761
 20
450.829679
 30
0.0
 11
263.277761
 21
448.367212
 31
0.0
  0
ARC
  5
254
330
1F
100
AcDbEntity
  8
LC-001-100-D00-0
 62
     7
370
    50
100
AcDbCircle
 10
262.677761
 20
450.829679
 30
0.0
 40
0.6000000000003638
100
AcDbArc
 50
0.0
 51
75.0
  0
LINE
  5
255
330
1F
100
AcDbEntity
  8
LC-001-100-D00-0
 62
     7
370
    50
100
AcDbLine
 10
262.126907
 20
451.598445
 30
0.0
 11
262.833052
 21
451.409235
 31
0.0
  0
LINE
  5
256
330
1F
100
AcDbEntity
  8
LC-001-100-D00-0
 62
     7
370
    50
100
AcDbLine
 10
262.126907
 20
453.598446
 30
0.0
 11
262.126907
 21
451.598445
 31
0.0
  0
LINE
  5
257
330
1F
100
AcDbEntity
  8
LC-001-100-D00-0
 62
     7
370
    50
100
AcDbLine
 10
262.126907
 20
445.598446
 30
0.0
 11
264.077761
 21
445.598446
 31
0.0
  0
LINE
  5
258
330
1F
100
AcDbEntity
  8
LC-001-100-D00-0
 62
     7
370
    50
100
AcDbLine
 10
262.126907
 20
453.598446
 30
0.0
 11
264.07776
 21
453.598446
 31
0.0
  0
LINE
  5
259
330
1F
100
AcDbEntity
  8
LC-001-100-D00-0
 62
     7
370
    50
100
AcDbLine
 10
273.677761
 20
448.367212
 30
0.0
 11
273.677761
 21
450.829679
 31
0.0
  0
ARC
  5
25A
330
1F
100
AcDbEntity
  8
LC-001-100-D00-0
 62
     7
370
    50
100
AcDbCircle
 10
274.277761
 20
448.367212
 30
0.0
 40
0.6000000000000227
100
AcDbArc
 50
180.0
 51
255.0
  0
LINE
  5
25B
330
1F
100
AcDbEntity
  8
LC-001-100-D00-0
 62
     7
370
    50
100
AcDbLine
 10
274.828612
 20
447.598445
 30
0.0
 11
274.12247
 21
447.787656
 31
0.0
  0
LINE
  5
25C
330
1F
100
AcDbEntity
  8
LC-001-100-D00-0
 62
     7
370
    50
100
AcDbLine
 10
274.828612
 20
447.598445
 30
0.0
 11
274.828612
 21
445.598446
 31
0.0
  0
LINE
  5
25D
330
1F
100
AcDbEntity
  8
LC-001-100-D00-0
 62
     7
370
    50
100
AcDbLine
 10
271.877761
 20
446.598446
 30
0.0
 11
272.877761
 21
445.598446
 31
0.0
  0
LINE
  5
25E
330
1F
100
AcDbEntity
  8
LC-001-100-D00-0
 62
     7
370
    50
100
AcDbLine
 10
271.877761
 20
446.598446
 30
0.0
 11
271.877758
 21
452.598445
 31
0.0
  0
LINE
  5
25F
330
1F
100
AcDbEntity
  8
LC-001-100-D00-0
 62
     7
370
    50
100
AcDbLine
 10
272.87776
 20
453.598446
 30
0.0
 11
271.877758
 21
452.598445
 31
0.0
  0
LINE
  5
260
330
1F
100
AcDbEntity
  8
LC-001-100-D00-0
 62
     7
370
    50
100
AcDbLine
 10
274.828612
 20
453.598446
 30
0.0
 11
274.828612
 21
451.598445
 31
0.0
  0
LINE
  5
261
330
1F
100
AcDbEntity
  8
LC-001-100-D00-0
 62
     7
370
    50
100
AcDbLine
 10
274.12247
 20
451.409235
 30
0.0
 11
274.828612
 21
451.598445
 31
0.0
  0
ARC
  5
262
330
1F
100
AcDbEntity
  8
LC-001-100-D00-0
 62
     7
370
    50
100
AcDbCircle
 10
274.277761
 20
450.829679
 30
0.0
 40
0.600000000000118
100
AcDbArc
 50
105.0
 51
180.0
  0
LINE
  5
263
330
1F
100
AcDbEntity
  8
LC-001-100-D00-0
 62
     7
370
    50
100
AcDbLine
 10
272.877761
 20
445.598446
 30
0.0
 11
274.828612
 21
445.598446
 31
0.0
  0
LINE
  5
264
330
1F
100
AcDbEntity
  8
LC-001-100-D00-0
 62
     7
370
    50
100
AcDbLine
 10
272.87776
 20
453.598446
 30
0.0
 11
274.828612
 21
453.598446
 31
0.0
  0
LINE
  5
265
330
1F
100
AcDbEntity
  8
LC-001-100-D00-0
 62
     7
370
    50
100
AcDbLine
 10
265.077761
 20
446.598446
 30
0.0
 11
265.235601
 21
446.598446
 31
0.0
  0
LINE
  5
266
330
1F
100
AcDbEntity
  8
LC-001-100-D00-0
 62
     7
370
    50
100
AcDbLine
 10
271.719921
 20
446.598446
 30
0.0
 11
271.877761
 21
446.598446
 31
0.0
  0
LINE
  5
267
330
1F
100
AcDbEntity
  8
LC-001-100-D00-0
 62
     7
370
    50
100
AcDbLine
 10
272.877761
 20
445.598446
 30
0.0
 11
272.341979
 21
445.598446
 31
0.0
  0
LINE
  5
268
330
1F
100
AcDbEntity
  8
LC-001-100-D00-0
 62
     7
370
    50
100
AcDbLine
 10
264.613543
 20
445.598446
 30
0.0
 11
264.077761
 21
445.598446
 31
0.0
  0
LINE
  5
269
330
1F
100
AcDbEntity
  8
LC-001-100-D00-0
 62
     7
370
    50
100
AcDbLine
 10
274.828612
 20
453.598446
 30
0.0
 11
272.377759
 21
453.598446
 31
0.0
  0
LINE
  5
26A
330
1F
100
AcDbEntity
  8
LC-001-100-D00-0
 62
     7
370
    50
100
AcDbLine
 10
272.377759
 20
453.598446
 30
0.0
 11
272.377761
 21
464.598446
 31
0.0
  0
LINE
  5
26B
330
1F
100
AcDbEntity
  8
LC-001-100-D00-0
 62
     7
370
    50
100
AcDbLine
 10
272.377761
 20
464.598446
 30
0.0
 11
285.727761
 21
464.598446
 31
0.0
  0
ARC
  5
26C
330
1F
100
AcDbEntity
  8
LC-001-100-D00-0
 62
     7
370
    50
100
AcDbCircle
 10
285.727761
 20
463.598446
 30
0.0
 40
1.000000000000227
100
AcDbArc
 50
0.0
 51
90.0
  0
LINE
  5
26D
330
1F
100
AcDbEntity
  8
LC-001-100-D00-0
 62
     7
370
    50
100
AcDbLine
 10
286.727761
 20
463.598446
 30
0.0
 11
286.727763
 21
457.598445
 31
0.0
  0
LINE
  5
26E
330
1F
100
AcDbEntity
  8
LC-001-100-D00-0
 62
     7
370
    50
100
AcDbLine
 10
283.727761
 20
457.598446
 30
0.0
 11
286.727763
 21
457.598445
 31
0.0
  0
LINE
  5
26F
330
1F
100
AcDbEntity
  8
LC-001-100-D00-0
 62
     7
370
    50
100
AcDbLine
 10
283.727761
 20
457.598446
 30
0.0
 11
283.727764
 21
461.598446
 31
0.0
  0
LINE
  5
270
330
1F
100
AcDbEntity
  8
LC-001-100-D00-0
 62
     7
370
    50
100
AcDbLine
 10
279.227761
 20
461.598446
 30
0.0
 11
283.727764
 21
461.598446
 31
0.0
  0
ARC
  5
271
330
1F
100
AcDbEntity
  8
LC-001-100-D00-0
 62
     7
370
    50
100
AcDbCircle
 10
279.227761
 20
460.598446
 30
0.0
 40
1.000000000000227
100
AcDbArc
 50
90.0
 51
180.0
  0
LINE
  5
272
330
1F
100
AcDbEntity
  8
LC-001-100-D00-0
 62
     7
370
    50
100
AcDbLine
 10
278.227761
 20
446.598446
 30
0.0
 11
278.227761
 21
460.598446
 31
0.0
  0
ARC
  5
273
330
1F
100
AcDbEntity
  8
LC-001-100-D00-0
 62
     7
370
    50
100
AcDbCircle
 10
277.227761
 20
446.598446
 30
0.0
 40
1.000000000000227
100
AcDbArc
 50
270.0
 51
0.0
  0
LINE
  5
274
330
1F
100
AcDbEntity
  8
LC-001-100-D00-0
 62
     7
370
    50
100
AcDbLine
 10
277.227761
 20
445.598446
 30
0.0
 11
274.828612
 21
445.598446
 31
0.0
  0
LINE
  5
275
330
1F
100
AcDbEntity
  8
LC-001-100-D00-0
 62
     7
370
    50
100
AcDbLine
 10
274.828612
 20
447.598445
 30
0.0
 11
274.828612
 21
445.598446
 31
0.0
  0
LINE
  5
276
330
1F
100
AcDbEntity
  8
LC-001-100-D00-0
 62
     7
370
    50
100
AcDbLine
 10
274.177761
 20
447.598446
 30
0.0
 11
274.828612
 21
447.598445
 31
0.0
  0
ARC
  5
277
330
1F
100
AcDbEntity
  8
LC-001-100-D00-0
 62
     7
370
    50
100
AcDbCircle
 10
274.177761
 20
448.098446
 30
0.0
 40
0.5
100
AcDbArc
 50
180.0
 51
270.0
  0
LINE
  5
278
330
1F
100
AcDbEntity
  8
LC-001-100-D00-0
 62
     7
370
    50
100
AcDbLine
 10
273.677761
 20
451.098446
 30
0.0
 11
273.677761
 21
448.098446
 31
0.0
  0
ARC
  5
279
330
1F
100
AcDbEntity
  8
LC-001-100-D00-0
 62
     7
370
    50
100
AcDbCircle
 10
274.177761
 20
451.098446
 30
0.0
 40
0.5
100
AcDbArc
 50
90.0
 51
180.0
  0
LINE
  5
27A
330
1F
100
AcDbEntity
  8
LC-001-100-D00-0
 62
     7
370
    50
100
AcDbLine
 10
274.828612
 20
451.598445
 30
0.0
 11
274.177761
 21
451.598446
 31
0.0
  0
LINE
  5
27B
330
1F
100
AcDbEntity
  8
LC-001-100-D00-0
 62
     7
370
    50
100
AcDbLine
 10
274.828612
 20
453.598446
 30
0.0
 11
274.828612
 21
451.598445
 31
0.0
  0
ARC
  5
27C
330
1F
100
AcDbEntity
  8
LC-001-100-D00-0
 62
     7
370
    50
100
AcDbCircle
 10
257.727761
 20
460.598446
 30
0.0
 40
1.000000000000227
100
AcDbArc
 50
0.0
 51
90.0
  0
LINE
  5
27D
330
1F
100
AcDbEntity
  8
LC-001-100-D00-0
 62
     7
370
    50
100
AcDbLine
 10
258.727761
 20
460.598446
 30
0.0
 11
258.727761
 21
446.598446
 31
0.0
  0
ARC
  5
27E
330
1F
100
AcDbEntity
  8
LC-001-100-D00-0
 62
     7
370
    50
100
AcDbCircle
 10
259.727761
 20
446.598446
 30
0.0
 40
1.000000000000227
100
AcDbArc
 50
180.0
 51
270.0
  0
LINE
  5
27F
330
1F
100
AcDbEntity
  8
LC-001-100-D00-0
 62
     7
370
    50
100
AcDbLine
 10
263.277761
 20
448.098446
 30
0.0
 11
263.277761
 21
451.098446
 31
0.0
  0
LINE
  5
280
330
1F
100
AcDbEntity
  8
LC-001-100-D00-0
 62
     7
370
    50
100
AcDbLine
 10
264.577761
 20
464.598446
 30
0.0
 11
264.577761
 21
453.598446
 31
0.0
  0
LINE
  5
281
330
1F
100
AcDbEntity
  8
LC-001-100-D00-0
 62
     7
370
    50
100
AcDbLine
 10
264.577761
 20
464.598446
 30
0.0
 11
272.377761
 21
464.598446
 31
0.0
  0
ARC
  5
282
330
1F
100
AcDbEntity
  8
LC-001-100-D00-0
 62
     7
370
    50
100
AcDbCircle
 10
262.777761
 20
448.098446
 30
0.0
 40
0.5
100
AcDbArc
 50
270.0
 51
0.0
  0
LINE
  5
283
330
1F
100
AcDbEntity
  8
LC-001-100-D00-0
 62
     7
370
    50
100
AcDbLine
 10
262.126907
 20
447.598445
 30
0.0
 11
262.777761
 21
447.598446
 31
0.0
  0
LINE
  5
284
330
1F
100
AcDbEntity
  8
LC-001-100-D00-0
 62
     7
370
    50
100
AcDbLine
 10
262.126907
 20
447.598445
 30
0.0
 11
262.126907
 21
445.598446
 31
0.0
  0
LINE
  5
285
330
1F
100
AcDbEntity
  8
LC-001-100-D00-0
 62
     7
370
    50
100
AcDbLine
 10
253.227762
 20
461.598446
 30
0.0
 11
253.227761
 21
457.598446
 31
0.0
  0
LINE
  5
286
330
1F
100
AcDbEntity
  8
LC-001-100-D00-0
 62
     7
370
    50
100
AcDbLine
 10
250.227764
 20
457.598445
 30
0.0
 11
250.227761
 21
463.598446
 31
0.0
  0
ARC
  5
287
330
1F
100
AcDbEntity
  8
LC-001-100-D00-0
 62
     7
370
    50
100
AcDbCircle
 10
251.227761
 20
463.598446
 30
0.0
 40
1.000000000000227
100
AcDbArc
 50
90.0
 51
180.0
  0
LINE
  5
288
330
1F
100
AcDbEntity
  8
LC-001-100-D00-0
 62
     7
370
    50
100
AcDbLine
 10
262.126907
 20
453.598446
 30
0.0
 11
262.126907
 21
451.598445
 31
0.0
  0
LINE
  5
289
330
1F
100
AcDbEntity
  8
LC-001-100-D00-0
 62
     7
370
    50
100
AcDbLine
 10
262.777761
 20
451.598446
 30
0.0
 11
262.126907
 21
451.598445
 31
0.0
  0
ARC
  5
28A
330
1F
100
AcDbEntity
  8
LC-001-100-D00-0
 62
     7
370
    50
100
AcDbCircle
 10
262.777761
 20
451.098446
 30
0.0
 40
0.5000000000001137
100
AcDbArc
 50
0.0
 51
90.0
  0
LINE
  5
28B
330
1F
100
AcDbEntity
  8
LC-001-100-D00-0
 62
     7
370
    50
100
AcDbLine
 10
264.577761
 20
453.598446
 30
0.0
 11
262.126907
 21
453.598446
 31
0.0
  0
LINE
  5
28C
330
1F
100
AcDbEntity
  8
LC-001-100-D00-0
 62
     7
370
    50
100
AcDbLine
 10
250.227764
 20
457.598445
 30
0.0
 11
253.227761
 21
457.598446
 31
0.0
  0
LINE
  5
28D
330
1F
100
AcDbEntity
  8
LC-001-100-D00-0
 62
     7
370
    50
100
AcDbLine
 10
262.126907
 20
445.598446
 30
0.0
 11
259.727761
 21
445.598446
 31
0.0
  0
LINE
  5
28E
330
1F
100
AcDbEntity
  8
LC-001-100-D00-0
 62
     7
370
    50
100
AcDbLine
 10
253.227762
 20
461.598446
 30
0.0
 11
257.727761
 21
461.598446
 31
0.0
  0
LINE
  5
28F
330
1F
100
AcDbEntity
  8
LC-001-100-D00-0
 62
     7
370
    50
100
AcDbLine
 10
251.227761
 20
464.598446
 30
0.0
 11
264.577761
 21
464.598446
 31
0.0
  0
LINE
  5
290
330
1F
100
AcDbEntity
  8
LC-001-100-D00-0
 62
     7
370
    50
100
AcDbLine
 10
281.727761
 20
457.598446
 30
0.0
 11
283.727761
 21
457.598446
 31
0.0
  0
LINE
  5
291
330
1F
100
AcDbEntity
  8
LC-001-100-D00-0
 62
     7
370
    50
100
AcDbLine
 10
253.227761
 20
457.598446
 30
0.0
 11
255.227761
 21
457.598446
 31
0.0
  0
LINE
  5
292
330
1F
100
AcDbEntity
  8
LC-001-100-D00-0
 62
     7
370
    50
100
AcDbLine
 10
255.227761
 20
457.598446
 30
0.0
 11
258.727758
 21
457.598445
 31
0.0
  0
LINE
  5
293
330
1F
100
AcDbEntity
  8
LC-001-100-D00-0
 62
     7
370
    50
100
AcDbLine
 10
278.227761
 20
457.598445
 30
0.0
 11
281.727761
 21
457.598446
 31
0.0
  0
LINE
  5
294
330
1F
100
AcDbEntity
  8
LC-001-100-D00-0
 62
     7
370
    50
100
AcDbLine
 10
465.077765
 20
452.598445
 30
0.0
 11
464.077763
 21
453.598446
 31
0.0
  0
LINE
  5
295
330
1F
100
AcDbEntity
  8
LC-001-100-D00-0
 62
     7
370
    50
100
AcDbLine
 10
465.077765
 20
452.598445
 30
0.0
 11
465.077761
 21
446.598446
 31
0.0
  0
LINE
  5
296
330
1F
100
AcDbEntity
  8
LC-001-100-D00-0
 62
     7
370
    50
100
AcDbLine
 10
464.077761
 20
445.598446
 30
0.0
 11
465.077761
 21
446.598446
 31
0.0
  0
LINE
  5
297
330
1F
100
AcDbEntity
  8
LC-001-100-D00-0
 62
     7
370
    50
100
AcDbLine
 10
462.12691
 20
447.598445
 30
0.0
 11
462.12691
 21
445.598446
 31
0.0
  0
LINE
  5
298
330
1F
100
AcDbEntity
  8
LC-001-100-D00-0
 62
     7
370
    50
100
AcDbLine
 10
462.833052
 20
447.787656
 30
0.0
 11
462.12691
 21
447.598445
 31
0.0
  0
ARC
  5
299
330
1F
100
AcDbEntity
  8
LC-001-100-D00-0
 62
     7
370
    50
100
AcDbCircle
 10
462.677761
 20
448.367212
 30
0.0
 40
0.600000000000118
100
AcDbArc
 50
285.0
 51
0.0
  0
LINE
  5
29A
330
1F
100
AcDbEntity
  8
LC-001-100-D00-0
 62
     7
370
    50
100
AcDbLine
 10
463.277761
 20
450.829679
 30
0.0
 11
463.277761
 21
448.367212
 31
0.0
  0
ARC
  5
29B
330
1F
100
AcDbEntity
  8
LC-001-100-D00-0
 62
     7
370
    50
100
AcDbCircle
 10
462.677761
 20
450.829679
 30
0.0
 40
0.6000000000002501
100
AcDbArc
 50
0.0
 51
75.0
  0
LINE
  5
29C
330
1F
100
AcDbEntity
  8
LC-001-100-D00-0
 62
     7
370
    50
100
AcDbLine
 10
462.12691
 20
451.598445
 30
0.0
 11
462.833052
 21
451.409235
 31
0.0
  0
LINE
  5
29D
330
1F
100
AcDbEntity
  8
LC-001-100-D00-0
 62
     7
370
    50
100
AcDbLine
 10
462.12691
 20
453.598446
 30
0.0
 11
462.12691
 21
451.598445
 31
0.0
  0
LINE
  5
29E
330
1F
100
AcDbEntity
  8
LC-001-100-D00-0
 62
     7
370
    50
100
AcDbLine
 10
462.12691
 20
445.598446
 30
0.0
 11
464.077761
 21
445.598446
 31
0.0
  0
LINE
  5
29F
330
1F
100
AcDbEntity
  8
LC-001-100-D00-0
 62
     7
370
    50
100
AcDbLine
 10
462.12691
 20
453.598446
 30
0.0
 11
464.077763
 21
453.598446
 31
0.0
  0
LINE
  5
2A0
330
1F
100
AcDbEntity
  8
LC-001-100-D00-0
 62
     7
370
    50
100
AcDbLine
 10
473.677761
 20
448.367212
 30
0.0
 11
473.677761
 21
450.829679
 31
0.0
  0
ARC
  5
2A1
330
1F
100
AcDbEntity
  8
LC-001-100-D00-0
 62
     7
370
    50
100
AcDbCircle
 10
474.277761
 20
448.367212
 30
0.0
 40
0.6000000000001364
100
AcDbArc
 50
180.0
 51
255.0
  0
LINE
  5
2A2
330
1F
100
AcDbEntity
  8
LC-001-100-D00-0
 62
     7
370
    50
100
AcDbLine
 10
474.828615
 20
447.598445
 30
0.0
 11
474.12247
 21
447.787656
 31
0.0
  0
LINE
  5
2A3
330
1F
100
AcDbEntity
  8
LC-001-100-D00-0
 62
     7
370
    50
100
AcDbLine
 10
474.828615
 20
447.598445
 30
0.0
 11
474.828615
 21
445.598446
 31
0.0
  0
LINE
  5
2A4
330
1F
100
AcDbEntity
  8
LC-001-100-D00-0
 62
     7
370
    50
100
AcDbLine
 10
471.877761
 20
446.598446
 30
0.0
 11
472.877761
 21
445.598446
 31
0.0
  0
LINE
  5
2A5
330
1F
100
AcDbEntity
  8
LC-001-100-D00-0
 62
     7
370
    50
100
AcDbLine
 10
471.877761
 20
446.598446
 30
0.0
 11
471.877761
 21
452.598445
 31
0.0
  0
LINE
  5
2A6
330
1F
100
AcDbEntity
  8
LC-001-100-D00-0
 62
     7
370
    50
100
AcDbLine
 10
472.877763
 20
453.598446
 30
0.0
 11
471.877761
 21
452.598445
 31
0.0
  0
LINE
  5
2A7
330
1F
100
AcDbEntity
  8
LC-001-100-D00-0
 62
     7
370
    50
100
AcDbLine
 10
474.828615
 20
453.598446
 30
0.0
 11
474.828615
 21
451.598445
 31
0.0
  0
LINE
  5
2A8
330
1F
100
AcDbEntity
  8
LC-001-100-D00-0
 62
     7
370
    50
100
AcDbLine
 10
474.12247
 20
451.409235
 30
0.0
 11
474.828615
 21
451.598445
 31
0.0
  0
ARC
  5
2A9
330
1F
100
AcDbEntity
  8
LC-001-100-D00-0
 62
     7
370
    50
100
AcDbCircle
 10
474.277761
 20
450.829679
 30
0.0
 40
0.6000000000001474
100
AcDbArc
 50
105.0
 51
180.0
  0
LINE
  5
2AA
330
1F
100
AcDbEntity
  8
LC-001-100-D00-0
 62
     7
370
    50
100
AcDbLine
 10
472.877761
 20
445.598446
 30
0.0
 11
474.828615
 21
445.598446
 31
0.0
  0
LINE
  5
2AB
330
1F
100
AcDbEntity
  8
LC-001-100-D00-0
 62
     7
370
    50
100
AcDbLine
 10
472.877763
 20
453.598446
 30
0.0
 11
474.828615
 21
453.598446
 31
0.0
  0
LINE
  5
2AC
330
1F
100
AcDbEntity
  8
LC-001-100-D00-0
 62
     7
370
    50
100
AcDbLine
 10
465.077761
 20
446.598446
 30
0.0
 11
465.235601
 21
446.598446
 31
0.0
  0
LINE
  5
2AD
330
1F
100
AcDbEntity
  8
LC-001-100-D00-0
 62
     7
370
    50
100
AcDbLine
 10
471.719921
 20
446.598446
 30
0.0
 11
471.877761
 21
446.598446
 31
0.0
  0
LINE
  5
2AE
330
1F
100
AcDbEntity
  8
LC-001-100-D00-0
 62
     7
370
    50
100
AcDbLine
 10
472.877761
 20
445.598446
 30
0.0
 11
472.341979
 21
445.598446
 31
0.0
  0
LINE
  5
2AF
330
1F
100
AcDbEntity
  8
LC-001-100-D00-0
 62
     7
370
    50
100
AcDbLine
 10
464.613543
 20
445.598446
 30
0.0
 11
464.077761
 21
445.598446
 31
0.0
  0
LINE
  5
2B0
330
1F
100
AcDbEntity
  8
LC-001-100-D00-0
 62
     7
370
    50
100
AcDbLine
 10
474.828615
 20
453.598446
 30
0.0
 11
472.377762
 21
453.598446
 31
0.0
  0
LINE
  5
2B1
330
1F
100
AcDbEntity
  8
LC-001-100-D00-0
 62
     7
370
    50
100
AcDbLine
 10
472.377762
 20
453.598446
 30
0.0
 11
472.377761
 21
464.598446
 31
0.0
  0
LINE
  5
2B2
330
1F
100
AcDbEntity
  8
LC-001-100-D00-0
 62
     7
370
    50
100
AcDbLine
 10
472.377761
 20
464.598446
 30
0.0
 11
485.727761
 21
464.598446
 31
0.0
  0
ARC
  5
2B3
330
1F
100
AcDbEntity
  8
LC-001-100-D00-0
 62
     7
370
    50
100
AcDbCircle
 10
485.727761
 20
463.598446
 30
0.0
 40
1.000000000000114
100
AcDbArc
 50
0.0
 51
90.0
  0
LINE
  5
2B4
330
1F
100
AcDbEntity
  8
LC-001-100-D00-0
 62
     7
370
    50
100
AcDbLine
 10
486.727761
 20
463.598446
 30
0.0
 11
486.727759
 21
457.598445
 31
0.0
  0
LINE
  5
2B5
330
1F
100
AcDbEntity
  8
LC-001-100-D00-0
 62
     7
370
    50
100
AcDbLine
 10
483.727761
 20
457.598446
 30
0.0
 11
486.727759
 21
457.598445
 31
0.0
  0
LINE
  5
2B6
330
1F
100
AcDbEntity
  8
LC-001-100-D00-0
 62
     7
370
    50
100
AcDbLine
 10
483.727761
 20
457.598446
 30
0.0
 11
483.72776
 21
461.598446
 31
0.0
  0
LINE
  5
2B7
330
1F
100
AcDbEntity
  8
LC-001-100-D00-0
 62
     7
370
    50
100
AcDbLine
 10
479.227761
 20
461.598446
 30
0.0
 11
483.72776
 21
461.598446
 31
0.0
  0
ARC
  5
2B8
330
1F
100
AcDbEntity
  8
LC-001-100-D00-0
 62
     7
370
    50
100
AcDbCircle
 10
479.227761
 20
460.598446
 30
0.0
 40
1.000000000000227
100
AcDbArc
 50
90.0
 51
180.0
  0
LINE
  5
2B9
330
1F
100
AcDbEntity
  8
LC-001-100-D00-0
 62
     7
370
    50
100
AcDbLine
 10
478.227761
 20
446.598446
 30
0.0
 11
478.227761
 21
460.598446
 31
0.0
  0
ARC
  5
2BA
330
1F
100
AcDbEntity
  8
LC-001-100-D00-0
 62
     7
370
    50
100
AcDbCircle
 10
477.227761
 20
446.598446
 30
0.0
 40
1.000000000000227
100
AcDbArc
 50
270.0
 51
0.0
  0
LINE
  5
2BB
330
1F
100
AcDbEntity
  8
LC-001-100-D00-0
 62
     7
370
    50
100
AcDbLine
 10
477.227761
 20
445.598446
 30
0.0
 11
474.828615
 21
445.598446
 31
0.0
  0
LINE
  5
2BC
330
1F
100
AcDbEntity
  8
LC-001-100-D00-0
 62
     7
370
    50
100
AcDbLine
 10
474.828615
 20
447.598445
 30
0.0
 11
474.828615
 21
445.598446
 31
0.0
  0
LINE
  5
2BD
330
1F
100
AcDbEntity
  8
LC-001-100-D00-0
 62
     7
370
    50
100
AcDbLine
 10
474.177761
 20
447.598446
 30
0.0
 11
474.828615
 21
447.598445
 31
0.0
  0
ARC
  5
2BE
330
1F
100
AcDbEntity
  8
LC-001-100-D00-0
 62
     7
370
    50
100
AcDbCircle
 10
474.177761
 20
448.098446
 30
0.0
 40
0.5000000000001137
100
AcDbArc
 50
180.0
 51
270.0
  0
LINE
  5
2BF
330
1F
100
AcDbEntity
  8
LC-001-100-D00-0
 62
     7
370
    50
100
AcDbLine
 10
473.677761
 20
451.098446
 30
0.0
 11
473.677761
 21
448.098446
 31
0.0
  0
ARC
  5
2C0
330
1F
100
AcDbEntity
  8
LC-001-100-D00-0
 62
     7
370
    50
100
AcDbCircle
 10
474.177761
 20
451.098446
 30
0.0
 40
0.5
100
AcDbArc
 50
90.0
 51
180.0
  0
LINE
  5
2C1
330
1F
100
AcDbEntity
  8
LC-001-100-D00-0
 62
     7
370
    50
100
AcDbLine
 10
474.828615
 20
451.598445
 30
0.0
 11
474.177761
 21
451.598446
 31
0.0
  0
LINE
  5
2C2
330
1F
100
AcDbEntity
  8
LC-001-100-D00-0
 62
     7
370
    50
100
AcDbLine
 10
474.828615
 20
453.598446
 30
0.0
 11
474.828615
 21
451.598445
 31
0.0
  0
ARC
  5
2C3
330
1F
100
AcDbEntity
  8
LC-001-100-D00-0
 62
     7
370
    50
100
AcDbCircle
 10
457.727761
 20
460.598446
 30
0.0
 40
1.000000000000227
100
AcDbArc
 50
0.0
 51
90.0
  0
LINE
  5
2C4
330
1F
100
AcDbEntity
  8
LC-001-100-D00-0
 62
     7
370
    50
100
AcDbLine
 10
458.727761
 20
460.598446
 30
0.0
 11
458.727761
 21
446.598446
 31
0.0
  0
ARC
  5
2C5
330
1F
100
AcDbEntity
  8
LC-001-100-D00-0
 62
     7
370
    50
100
AcDbCircle
 10
459.727761
 20
446.598446
 30
0.0
 40
1.000000000000227
100
AcDbArc
 50
180.0
 51
270.0
  0
LINE
  5
2C6
330
1F
100
AcDbEntity
  8
LC-001-100-D00-0
 62
     7
370
    50
100
AcDbLine
 10
463.277761
 20
448.098446
 30
0.0
 11
463.277761
 21
451.098446
 31
0.0
  0
LINE
  5
2C7
330
1F
100
AcDbEntity
  8
LC-001-100-D00-0
 62
     7
370
    50
100
AcDbLine
 10
464.577761
 20
464.598446
 30
0.0
 11
464.577764
 21
453.598446
 31
0.0
  0
LINE
  5
2C8
330
1F
100
AcDbEntity
  8
LC-001-100-D00-0
 62
     7
370
    50
100
AcDbLine
 10
464.577761
 20
464.598446
 30
0.0
 11
472.377761
 21
464.598446
 31
0.0
  0
ARC
  5
2C9
330
1F
100
AcDbEntity
  8
LC-001-100-D00-0
 62
     7
370
    50
100
AcDbCircle
 10
462.777761
 20
448.098446
 30
0.0
 40
0.4999999999997726
100
AcDbArc
 50
270.0
 51
0.0
  0
LINE
  5
2CA
330
1F
100
AcDbEntity
  8
LC-001-100-D00-0
 62
     7
370
    50
100
AcDbLine
 10
462.12691
 20
447.598445
 30
0.0
 11
462.777761
 21
447.598446
 31
0.0
  0
LINE
  5
2CB
330
1F
100
AcDbEntity
  8
LC-001-100-D00-0
 62
     7
370
    50
100
AcDbLine
 10
462.12691
 20
447.598445
 30
0.0
 11
462.12691
 21
445.598446
 31
0.0
  0
LINE
  5
2CC
330
1F
100
AcDbEntity
  8
LC-001-100-D00-0
 62
     7
370
    50
100
AcDbLine
 10
453.227758
 20
461.598446
 30
0.0
 11
453.227761
 21
457.598446
 31
0.0
  0
LINE
  5
2CD
330
1F
100
AcDbEntity
  8
LC-001-100-D00-0
 62
     7
370
    50
100
AcDbLine
 10
450.227759
 20
457.598445
 30
0.0
 11
450.227761
 21
463.598446
 31
0.0
  0
ARC
  5
2CE
330
1F
100
AcDbEntity
  8
LC-001-100-D00-0
 62
     7
370
    50
100
AcDbCircle
 10
451.227761
 20
463.598446
 30
0.0
 40
1.000000000000227
100
AcDbArc
 50
90.0
 51
180.0
  0
LINE
  5
2CF
330
1F
100
AcDbEntity
  8
LC-001-100-D00-0
 62
     7
370
    50
100
AcDbLine
 10
462.12691
 20
453.598446
 30
0.0
 11
462.12691
 21
451.598445
 31
0.0
  0
LINE
  5
2D0
330
1F
100
AcDbEntity
  8
LC-001-100-D00-0
 62
     7
370
    50
100
AcDbLine
 10
462.777761
 20
451.598446
 30
0.0
 11
462.12691
 21
451.598445
 31
0.0
  0
ARC
  5
2D1
330
1F
100
AcDbEntity
  8
LC-001-100-D00-0
 62
     7
370
    50
100
AcDbCircle
 10
462.777761
 20
451.098446
 30
0.0
 40
0.5000000000001137
100
AcDbArc
 50
0.0
 51
90.0
  0
LINE
  5
2D2
330
1F
100
AcDbEntity
  8
LC-001-100-D00-0
 62
     7
370
    50
100
AcDbLine
 10
464.577764
 20
453.598446
 30
0.0
 11
462.12691
 21
453.598446
 31
0.0
  0
LINE
  5
2D3
330
1F
100
AcDbEntity
  8
LC-001-100-D00-0
 62
     7
370
    50
100
AcDbLine
 10
450.227759
 20
457.598445
 30
0.0
 11
453.227761
 21
457.598446
 31
0.0
  0
LINE
  5
2D4
330
1F
100
AcDbEntity
  8
LC-001-100-D00-0
 62
     7
370
    50
100
AcDbLine
 10
462.12691
 20
445.598446
 30
0.0
 11
459.727761
 21
445.598446
 31
0.0
  0
LINE
  5
2D5
330
1F
100
AcDbEntity
  8
LC-001-100-D00-0
 62
     7
370
    50
100
AcDbLine
 10
453.227758
 20
461.598446
 30
0.0
 11
457.727761
 21
461.598446
 31
0.0
  0
LINE
  5
2D6
330
1F
100
AcDbEntity
  8
LC-001-100-D00-0
 62
     7
370
    50
100
AcDbLine
 10
451.227761
 20
464.598446
 30
0.0
 11
464.577761
 21
464.598446
 31
0.0
  0
LINE
  5
2D7
330
1F
100
AcDbEntity
  8
LC-001-100-D00-0
 62
     7
370
    50
100
AcDbLine
 10
481.727761
 20
457.598446
 30
0.0
 11
483.727761
 21
457.598446
 31
0.0
  0
LINE
  5
2D8
330
1F
100
AcDbEntity
  8
LC-001-100-D00-0
 62
     7
370
    50
100
AcDbLine
 10
453.227761
 20
457.598446
 30
0.0
 11
455.227761
 21
457.598446
 31
0.0
  0
LINE
  5
2D9
330
1F
100
AcDbEntity
  8
LC-001-100-D00-0
 62
     7
370
    50
100
AcDbLine
 10
455.227761
 20
457.598446
 30
0.0
 11
458.727761
 21
457.598445
 31
0.0
  0
LINE
  5
2DA
330
1F
100
AcDbEntity
  8
LC-001-100-D00-0
 62
     7
370
    50
100
AcDbLine
 10
478.227764
 20
457.598445
 30
0.0
 11
481.727761
 21
457.598446
 31
0.0
  0
LINE
  5
2DB
330
1F
100
AcDbEntity
  8
LC-001-100-D00-0
 62
     7
370
    50
100
AcDbLine
 10
461.820099
 20
442.51326
 30
0.0
 11
443.986427
 21
437.734742
 31
0.0
  0
ARC
  5
2DC
330
1F
100
AcDbEntity
  8
LC-001-100-D00-0
 62
     7
370
    50
100
AcDbCircle
 10
442.951151
 20
441.598446
 30
0.0
 40
4.0
100
AcDbArc
 50
270.0
 51
285.0
  0
ARC
  5
2DD
330
1F
100
AcDbEntity
  8
LC-001-100-D00-0
 62
     7
370
    50
100
AcDbCircle
 10
442.951151
 20
441.598446
 30
0.0
 40
2.5
100
AcDbArc
 50
270.0
 51
285.0
  0
LINE
  5
2DE
330
1F
100
AcDbEntity
  8
LC-001-100-D00-0
 62
     7
370
    50
100
AcDbLine
 10
461.43187
 20
443.962149
 30
0.0
 11
443.598199
 21
439.183631
 31
0.0
  0
ARC
  5
2DF
330
1F
100
AcDbEntity
  8
LC-001-100-D00-0
 62
     7
370
    50
100
AcDbCircle
 10
462.467146
 20
440.098446
 30
0.0
 40
4.0
100
AcDbArc
 50
90.0
 51
105.0
  0
LINE
  5
2E0
330
1F
100
AcDbEntity
  8
LC-001-100-D00-0
 62
     7
370
    50
100
AcDbLine
 10
462.467146
 20
444.098446
 30
0.0
 11
463.977761
 21
444.098445
 31
0.0
  0
LINE
  5
2E1
330
1F
100
AcDbEntity
  8
LC-001-100-D00-0
 62
     7
370
    50
100
AcDbLine
 10
463.977761
 20
444.098445
 30
0.0
 11
463.977761
 21
445.498446
 31
0.0
  0
LINE
  5
2E2
330
1F
100
AcDbEntity
  8
LC-001-100-D00-0
 62
     7
370
    50
100
AcDbLine
 10
464.477761
 20
445.498446
 30
0.0
 11
463.977761
 21
445.498446
 31
0.0
  0
ARC
  5
2E3
330
1F
100
AcDbEntity
  8
LC-001-100-D00-0
 62
     7
370
    50
100
AcDbCircle
 10
463.477761
 20
446.998446
 30
0.0
 40
1.802775637732562
100
AcDbArc
 50
303.690068
 51
56.309932
  0
LINE
  5
2E4
330
1F
100
AcDbEntity
  8
LC-001-100-D00-0
 62
     7
370
    50
100
AcDbLine
 10
464.477762
 20
463.098446
 30
0.0
 11
464.477761
 21
448.498446
 31
0.0
  0
LINE
  5
2E5
330
1F
100
AcDbEntity
  8
LC-001-100-D00-0
 62
     7
370
    50
100
AcDbLine
 10
465.477764
 20
464.098446
 30
0.0
 11
464.477762
 21
463.098446
 31
0.0
  0
LINE
  5
2E6
330
1F
100
AcDbEntity
  8
LC-001-100-D00-0
 62
     7
370
    50
100
AcDbLine
 10
471.477761
 20
464.098446
 30
0.0
 11
465.477764
 21
464.098446
 31
0.0
  0
LINE
  5
2E7
330
1F
100
AcDbEntity
  8
LC-001-100-D00-0
 62
     7
370
    50
100
AcDbLine
 10
472.477763
 20
463.098446
 30
0.0
 11
471.477761
 21
464.098446
 31
0.0
  0
LINE
  5
2E8
330
1F
100
AcDbEntity
  8
LC-001-100-D00-0
 62
     7
370
    50
100
AcDbLine
 10
472.477761
 20
448.498446
 30
0.0
 11
472.477763
 21
463.098446
 31
0.0
  0
ARC
  5
2E9
330
1F
100
AcDbEntity
  8
LC-001-100-D00-0
 62
     7
370
    50
100
AcDbCircle
 10
473.477761
 20
446.998446
 30
0.0
 40
1.802775637731995
100
AcDbArc
 50
123.690068
 51
236.309932
  0
LINE
  5
2EA
330
1F
100
AcDbEntity
  8
LC-001-100-D00-0
 62
     7
370
    50
100
AcDbLine
 10
472.977764
 20
445.498446
 30
0.0
 11
472.477761
 21
445.498446
 31
0.0
  0
LINE
  5
2EB
330
1F
100
AcDbEntity
  8
LC-001-100-D00-0
 62
     7
370
    50
100
AcDbLine
 10
472.977764
 20
445.498446
 30
0.0
 11
472.977764
 21
444.098445
 31
0.0
  0
LINE
  5
2EC
330
1F
100
AcDbEntity
  8
LC-001-100-D00-0
 62
     7
370
    50
100
AcDbLine
 10
472.977764
 20
444.098445
 30
0.0
 11
648.977756
 21
444.098445
 31
0.0
  0
LINE
  5
2ED
330
1F
100
AcDbEntity
  8
LC-001-100-D00-0
 62
     7
370
    50
100
AcDbLine
 10
648.977756
 20
444.098445
 30
0.0
 11
648.977756
 21
445.498446
 31
0.0
  0
LINE
  5
2EE
330
1F
100
AcDbEntity
  8
LC-001-100-D00-0
 62
     7
370
    50
100
AcDbLine
 10
649.477761
 20
445.498446
 30
0.0
 11
648.977756
 21
445.498446
 31
0.0
  0
ARC
  5
2EF
330
1F
100
AcDbEntity
  8
LC-001-100-D00-0
 62
     7
370
    50
100
AcDbCircle
 10
648.477761
 20
446.998446
 30
0.0
 40
1.802775637732373
100
AcDbArc
 50
303.690068
 51
56.309932
  0
LINE
  5
2F0
330
1F
100
AcDbEntity
  8
LC-001-100-D00-0
 62
     7
370
    50
100
AcDbLine
 10
649.477749
 20
463.098446
 30
0.0
 11
649.477761
 21
448.498446
 31
0.0
  0
LINE
  5
2F1
330
1F
100
AcDbEntity
  8
LC-001-100-D00-0
 62
     7
370
    50
100
AcDbLine
 10
650.477766
 20
464.098446
 30
0.0
 11
649.477749
 21
463.098446
 31
0.0
  0
LINE
  5
2F2
330
1F
100
AcDbEntity
  8
LC-001-100-D00-0
 62
     7
370
    50
100
AcDbLine
 10
656.477749
 20
464.098446
 30
0.0
 11
650.477766
 21
464.098446
 31
0.0
  0
LINE
  5
2F3
330
1F
100
AcDbEntity
  8
LC-001-100-D00-0
 62
     7
370
    50
100
AcDbLine
 10
657.477766
 20
463.098446
 30
0.0
 11
656.477749
 21
464.098446
 31
0.0
  0
LINE
  5
2F4
330
1F
100
AcDbEntity
  8
LC-001-100-D00-0
 62
     7
370
    50
100
AcDbLine
 10
657.477761
 20
448.498446
 30
0.0
 11
657.477766
 21
463.098446
 31
0.0
  0
ARC
  5
2F5
330
1F
100
AcDbEntity
  8
LC-001-100-D00-0
 62
     7
370
    50
100
AcDbCircle
 10
658.477761
 20
446.998446
 30
0.0
 40
1.802775637732373
100
AcDbArc
 50
123.690068
 51
236.309932
  0
LINE
  5
2F6
330
1F
100
AcDbEntity
  8
LC-001-100-D00-0
 62
     7
370
    50
100
AcDbLine
 10
657.977759
 20
445.498446
 30
0.0
 11
657.477761
 21
445.498446
 31
0.0
  0
LINE
  5
2F7
330
1F
100
AcDbEntity
  8
LC-001-100-D00-0
 62
     7
370
    50
100
AcDbLine
 10
657.977759
 20
445.498446
 30
0.0
 11
657.977759
 21
444.098445
 31
0.0
  0
LINE
  5
2F8
330
1F
100
AcDbEntity
  8
LC-001-100-D00-0
 62
     7
370
    50
100
AcDbLine
 10
657.977759
 20
444.098445
 30
0.0
 11
833.977758
 21
444.098445
 31
0.0
  0
LINE
  5
2F9
330
1F
100
AcDbEntity
  8
LC-001-100-D00-0
 62
     7
370
    50
100
AcDbLine
 10
833.977758
 20
444.098445
 30
0.0
 11
833.977758
 21
445.498446
 31
0.0
  0
LINE
  5
2FA
330
1F
100
AcDbEntity
  8
LC-001-100-D00-0
 62
     7
370
    50
100
AcDbLine
 10
834.477761
 20
445.498446
 30
0.0
 11
833.977758
 21
445.498446
 31
0.0
  0
ARC
  5
2FB
330
1F
100
AcDbEntity
  8
LC-001-100-D00-0
 62
     7
370
    50
100
AcDbCircle
 10
833.477761
 20
446.998446
 30
0.0
 40
1.802775637731868
100
AcDbArc
 50
303.690068
 51
56.309932
  0
LINE
  5
2FC
330
1F
100
AcDbEntity
  8
LC-001-100-D00-0
 62
     7
370
    50
100
AcDbLine
 10
834.477752
 20
463.098446
 30
0.0
 11
834.477761
 21
448.498446
 31
0.0
  0
LINE
  5
2FD
330
1F
100
AcDbEntity
  8
LC-001-100-D00-0
 62
     7
370
    50
100
AcDbLine
 10
835.477769
 20
464.098446
 30
0.0
 11
834.477752
 21
463.098446
 31
0.0
  0
LINE
  5
2FE
330
1F
100
AcDbEntity
  8
LC-001-100-D00-0
 62
     7
370
    50
100
AcDbLine
 10
841.477751
 20
464.098446
 30
0.0
 11
835.477769
 21
464.098446
 31
0.0
  0
LINE
  5
2FF
330
1F
100
AcDbEntity
  8
LC-001-100-D00-0
 62
     7
370
    50
100
AcDbLine
 10
842.477768
 20
463.098446
 30
0.0
 11
841.477751
 21
464.098446
 31
0.0
  0
LINE
  5
300
330
1F
100
AcDbEntity
  8
LC-001-100-D00-0
 62
     7
370
    50
100
AcDbLine
 10
842.477761
 20
448.498446
 30
0.0
 11
842.477768
 21
463.098446
 31
0.0
  0
ARC
  5
301
330
1F
100
AcDbEntity
  8
LC-001-100-D00-0
 62
     7
370
    50
100
AcDbCircle
 10
843.477761
 20
446.998446
 30
0.0
 40
1.802775637731868
100
AcDbArc
 50
123.690068
 51
236.309932
  0
LINE
  5
302
330
1F
100
AcDbEntity
  8
LC-001-100-D00-0
 62
     7
370
    50
100
AcDbLine
 10
842.977762
 20
445.498446
 30
0.0
 11
842.477761
 21
445.498446
 31
0.0
  0
LINE
  5
303
330
1F
100
AcDbEntity
  8
LC-001-100-D00-0
 62
     7
370
    50
100
AcDbLine
 10
842.977762
 20
445.498446
 30
0.0
 11
842.977762
 21
444.098445
 31
0.0
  0
LINE
  5
304
330
1F
100
AcDbEntity
  8
LC-001-100-D00-0
 62
     7
370
    50
100
AcDbLine
 10
842.977762
 20
444.098445
 30
0.0
 11
860.477761
 21
444.098446
 31
0.0
  0
ARC
  5
305
330
1F
100
AcDbEntity
  8
LC-001-100-D00-0
 62
     7
370
    50
100
AcDbCircle
 10
860.477761
 20
452.098446
 30
0.0
 40
8.0
100
AcDbArc
 50
270.0
 51
0.0
  0
LINE
  5
306
330
1F
100
AcDbEntity
  8
LC-001-100-D00-0
 62
     7
370
    50
100
AcDbLine
 10
868.477761
 20
452.098446
 30
0.0
 11
868.477761
 21
461.598446
 31
0.0
  0
ARC
  5
307
330
1F
100
AcDbEntity
  8
LC-001-100-D00-0
 62
     7
370
    50
100
AcDbCircle
 10
871.477761
 20
461.598446
 30
0.0
 40
3.000000000000227
100
AcDbArc
 50
90.0
 51
180.0
  0
LINE
  5
308
330
1F
100
AcDbEntity
  8
LC-001-100-D00-0
 62
     7
370
    50
100
AcDbLine
 10
918.477761
 20
464.598446
 30
0.0
 11
871.477761
 21
464.598446
 31
0.0
  0
LINE
  5
309
330
1F
100
AcDbEntity
  8
LC-001-100-D00-0
 62
     7
370
    50
100
AcDbLine
 10
918.477773
 20
463.098446
 30
0.0
 11
918.477761
 21
464.598446
 31
0.0
  0
LINE
  5
30A
330
1F
100
AcDbEntity
  8
LC-001-100-D00-0
 62
     7
370
    50
100
AcDbLine
 10
918.477773
 20
463.098446
 30
0.0
 11
871.477761
 21
463.098446
 31
0.0
  0
ARC
  5
30B
330
1F
100
AcDbEntity
  8
LC-001-100-D00-0
 62
     7
370
    50
100
AcDbCircle
 10
871.477761
 20
461.598446
 30
0.0
 40
1.5
100
AcDbArc
 50
90.0
 51
180.0
  0
LINE
  5
30C
330
1F
100
AcDbEntity
  8
LC-001-100-D00-0
 62
     7
370
    50
100
AcDbLine
 10
869.977761
 20
452.098446
 30
0.0
 11
869.977761
 21
461.598446
 31
0.0
  0
ARC
  5
30D
330
1F
100
AcDbEntity
  8
LC-001-100-D00-0
 62
     7
370
    50
100
AcDbCircle
 10
860.477761
 20
452.098446
 30
0.0
 40
9.500000000000227
100
AcDbArc
 50
270.0
 51
0.0
  0
LINE
  5
30E
330
1F
100
AcDbEntity
  8
LC-001-100-D00-0
 62
     7
370
    50
100
AcDbLine
 10
462.467146
 20
442.598446
 30
0.0
 11
860.477761
 21
442.598446
 31
0.0
  0
ARC
  5
30F
330
1F
100
AcDbEntity
  8
LC-001-100-D00-0
 62
     7
370
    50
100
AcDbCircle
 10
462.467146
 20
440.098446
 30
0.0
 40
2.5
100
AcDbArc
 50
90.0
 51
105.0
  0
LINE
  5
310
330
1F
100
AcDbEntity
  8
LC-001-100-D00-0
 62
     7
370
    50
100
AcDbLine
 10
-97.022236
 20
445.498446
 30
0.0
 11
-97.522239
 21
445.498446
 31
0.0
  0
LINE
  5
311
330
1F
100
AcDbEntity
  8
LC-001-100-D00-0
 62
     7
370
    50
100
AcDbLine
 10
-97.022236
 20
445.498446
 30
0.0
 11
-97.022236
 21
444.098445
 31
0.0
  0
LINE
  5
312
330
1F
100
AcDbEntity
  8
LC-001-100-D00-0
 62
     7
370
    50
100
AcDbLine
 10
-97.022236
 20
444.098445
 30
0.0
 11
78.977763
 21
444.098445
 31
0.0
  0
LINE
  5
313
330
1F
100
AcDbEntity
  8
LC-001-100-D00-0
 62
     7
370
    50
100
AcDbLine
 10
78.977763
 20
444.098445
 30
0.0
 11
78.977763
 21
445.498446
 31
0.0
  0
LINE
  5
314
330
1F
100
AcDbEntity
  8
LC-001-100-D00-0
 62
     7
370
    50
100
AcDbLine
 10
79.477761
 20
445.498446
 30
0.0
 11
78.977763
 21
445.498446
 31
0.0
  0
ARC
  5
315
330
1F
100
AcDbEntity
  8
LC-001-100-D00-0
 62
     7
370
    50
100
AcDbCircle
 10
78.477761
 20
446.998446
 30
0.0
 40
1.802775637732278
100
AcDbArc
 50
303.690068
 51
56.309932
  0
LINE
  5
316
330
1F
100
AcDbEntity
  8
LC-001-100-D00-0
 62
     7
370
    50
100
AcDbLine
 10
79.477757
 20
463.098446
 30
0.0
 11
79.477761
 21
448.498446
 31
0.0
  0
LINE
  5
317
330
1F
100
AcDbEntity
  8
LC-001-100-D00-0
 62
     7
370
    50
100
AcDbLine
 10
80.477773
 20
464.098446
 30
0.0
 11
79.477757
 21
463.098446
 31
0.0
  0
LINE
  5
318
330
1F
100
AcDbEntity
  8
LC-001-100-D00-0
 62
     7
370
    50
100
AcDbLine
 10
86.477756
 20
464.098446
 30
0.0
 11
80.477773
 21
464.098446
 31
0.0
  0
LINE
  5
319
330
1F
100
AcDbEntity
  8
LC-001-100-D00-0
 62
     7
370
    50
100
AcDbLine
 10
87.477773
 20
463.098446
 30
0.0
 11
86.477756
 21
464.098446
 31
0.0
  0
LINE
  5
31A
330
1F
100
AcDbEntity
  8
LC-001-100-D00-0
 62
     7
370
    50
100
AcDbLine
 10
87.477761
 20
448.498446
 30
0.0
 11
87.477773
 21
463.098446
 31
0.0
  0
ARC
  5
31B
330
1F
100
AcDbEntity
  8
LC-001-100-D00-0
 62
     7
370
    50
100
AcDbCircle
 10
88.477761
 20
446.998446
 30
0.0
 40
1.8027756377319
100
AcDbArc
 50
123.690068
 51
236.309932
  0
LINE
  5
31C
330
1F
100
AcDbEntity
  8
LC-001-100-D00-0
 62
     7
370
    50
100
AcDbLine
 10
87.977766
 20
445.498446
 30
0.0
 11
87.477761
 21
445.498446
 31
0.0
  0
LINE
  5
31D
330
1F
100
AcDbEntity
  8
LC-001-100-D00-0
 62
     7
370
    50
100
AcDbLine
 10
87.977766
 20
445.498446
 30
0.0
 11
87.977766
 21
444.098445
 31
0.0
  0
LINE
  5
31E
330
1F
100
AcDbEntity
  8
LC-001-100-D00-0
 62
     7
370
    50
100
AcDbLine
 10
87.977766
 20
444.098445
 30
0.0
 11
263.977758
 21
444.098445
 31
0.0
  0
LINE
  5
31F
330
1F
100
AcDbEntity
  8
LC-001-100-D00-0
 62
     7
370
    50
100
AcDbLine
 10
263.977758
 20
444.098445
 30
0.0
 11
263.977758
 21
445.498446
 31
0.0
  0
LINE
  5
320
330
1F
100
AcDbEntity
  8
LC-001-100-D00-0
 62
     7
370
    50
100
AcDbLine
 10
264.477761
 20
445.498446
 30
0.0
 11
263.977758
 21
445.498446
 31
0.0
  0
ARC
  5
321
330
1F
100
AcDbEntity
  8
LC-001-100-D00-0
 62
     7
370
    50
100
AcDbCircle
 10
263.477761
 20
446.998446
 30
0.0
 40
1.80277563773231
100
AcDbArc
 50
303.690068
 51
56.309932
  0
LINE
  5
322
330
1F
100
AcDbEntity
  8
LC-001-100-D00-0
 62
     7
370
    50
100
AcDbLine
 10
264.477759
 20
463.098446
 30
0.0
 11
264.477761
 21
448.498446
 31
0.0
  0
LINE
  5
323
330
1F
100
AcDbEntity
  8
LC-001-100-D00-0
 62
     7
370
    50
100
AcDbLine
 10
265.477761
 20
464.098446
 30
0.0
 11
264.477759
 21
463.098446
 31
0.0
  0
LINE
  5
324
330
1F
100
AcDbEntity
  8
LC-001-100-D00-0
 62
     7
370
    50
100
AcDbLine
 10
271.477758
 20
464.098446
 30
0.0
 11
265.477761
 21
464.098446
 31
0.0
  0
LINE
  5
325
330
1F
100
AcDbEntity
  8
LC-001-100-D00-0
 62
     7
370
    50
100
AcDbLine
 10
272.47776
 20
463.098446
 30
0.0
 11
271.477758
 21
464.098446
 31
0.0
  0
LINE
  5
326
330
1F
100
AcDbEntity
  8
LC-001-100-D00-0
 62
     7
370
    50
100
AcDbLine
 10
272.477761
 20
448.498446
 30
0.0
 11
272.47776
 21
463.098446
 31
0.0
  0
ARC
  5
327
330
1F
100
AcDbEntity
  8
LC-001-100-D00-0
 62
     7
370
    50
100
AcDbCircle
 10
273.477761
 20
446.998446
 30
0.0
 40
1.802775637731932
100
AcDbArc
 50
123.690068
 51
236.309932
  0
LINE
  5
328
330
1F
100
AcDbEntity
  8
LC-001-100-D00-0
 62
     7
370
    50
100
AcDbLine
 10
272.977761
 20
445.498446
 30
0.0
 11
272.477761
 21
445.498446
 31
0.0
  0
LINE
  5
329
330
1F
100
AcDbEntity
  8
LC-001-100-D00-0
 62
     7
370
    50
100
AcDbLine
 10
272.977761
 20
445.498446
 30
0.0
 11
272.977761
 21
444.098445
 31
0.0
  0
LINE
  5
32A
330
1F
100
AcDbEntity
  8
LC-001-100-D00-0
 62
     7
370
    50
100
AcDbLine
 10
272.977761
 20
444.098445
 30
0.0
 11
274.488376
 21
444.098446
 31
0.0
  0
ARC
  5
32B
330
1F
100
AcDbEntity
  8
LC-001-100-D00-0
 62
     7
370
    50
100
AcDbCircle
 10
274.488376
 20
440.098446
 30
0.0
 40
4.000000000000092
100
AcDbArc
 50
75.0
 51
90.0
  0
LINE
  5
32C
330
1F
100
AcDbEntity
  8
LC-001-100-D00-0
 62
     7
370
    50
100
AcDbLine
 10
293.357323
 20
439.183631
 30
0.0
 11
275.523652
 21
443.962149
 31
0.0
  0
ARC
  5
32D
330
1F
100
AcDbEntity
  8
LC-001-100-D00-0
 62
     7
370
    50
100
AcDbCircle
 10
294.004371
 20
441.598446
 30
0.0
 40
4.000000000000092
100
AcDbArc
 50
255.0
 51
270.0
  0
LINE
  5
32E
330
1F
100
AcDbEntity
  8
LC-001-100-D00-0
 62
     7
370
    50
100
AcDbLine
 10
292.969095
 20
437.734742
 30
0.0
 11
275.135423
 21
442.51326
 31
0.0
  0
ARC
  5
32F
330
1F
100
AcDbEntity
  8
LC-001-100-D00-0
 62
     7
370
    50
100
AcDbCircle
 10
274.488376
 20
440.098446
 30
0.0
 40
2.500000000000062
100
AcDbArc
 50
75.0
 51
90.0
  0
LINE
  5
330
330
1F
100
AcDbEntity
  8
LC-001-100-D00-0
 62
     7
370
    50
100
AcDbLine
 10
-123.522239
 20
442.598446
 30
0.0
 11
274.488376
 21
442.598446
 31
0.0
  0
ARC
  5
331
330
1F
100
AcDbEntity
  8
LC-001-100-D00-0
 62
     7
370
    50
100
AcDbCircle
 10
-123.522239
 20
452.098446
 30
0.0
 40
9.5
100
AcDbArc
 50
180.0
 51
270.0
  0
LINE
  5
332
330
1F
100
AcDbEntity
  8
LC-001-100-D00-0
 62
     7
370
    50
100
AcDbLine
 10
-133.022239
 20
461.598446
 30
0.0
 11
-133.022239
 21
452.098446
 31
0.0
  0
ARC
  5
333
330
1F
100
AcDbEntity
  8
LC-001-100-D00-0
 62
     7
370
    50
100
AcDbCircle
 10
-134.522239
 20
461.598446
 30
0.0
 40
1.500000000000057
100
AcDbArc
 50
0.0
 51
90.0
  0
LINE
  5
334
330
1F
100
AcDbEntity
  8
LC-001-100-D00-0
 62
     7
370
    50
100
AcDbLine
 10
-181.522239
 20
464.598446
 30
0.0
 11
-181.522251
 21
463.098446
 31
0.0
  0
ARC
  5
335
330
1F
100
AcDbEntity
  8
LC-001-100-D00-0
 62
     7
370
    50
100
AcDbCircle
 10
-134.522239
 20
461.598446
 30
0.0
 40
2.999999999999943
100
AcDbArc
 50
0.0
 51
90.0
  0
LINE
  5
336
330
1F
100
AcDbEntity
  8
LC-001-100-D00-0
 62
     7
370
    50
100
AcDbLine
 10
-131.522239
 20
461.598446
 30
0.0
 11
-131.522239
 21
452.098446
 31
0.0
  0
ARC
  5
337
330
1F
100
AcDbEntity
  8
LC-001-100-D00-0
 62
     7
370
    50
100
AcDbCircle
 10
-123.522239
 20
452.098446
 30
0.0
 40
8.000000000000114
100
AcDbArc
 50
180.0
 51
270.0
  0
LINE
  5
338
330
1F
100
AcDbEntity
  8
LC-001-100-D00-0
 62
     7
370
    50
100
AcDbLine
 10
-123.522239
 20
444.098446
 30
0.0
 11
-106.022239
 21
444.098445
 31
0.0
  0
LINE
  5
339
330
1F
100
AcDbEntity
  8
LC-001-100-D00-0
 62
     7
370
    50
100
AcDbLine
 10
-106.022239
 20
444.098445
 30
0.0
 11
-106.022239
 21
445.498446
 31
0.0
  0
LINE
  5
33A
330
1F
100
AcDbEntity
  8
LC-001-100-D00-0
 62
     7
370
    50
100
AcDbLine
 10
-105.522239
 20
445.498446
 30
0.0
 11
-106.022239
 21
445.498446
 31
0.0
  0
ARC
  5
33B
330
1F
100
AcDbEntity
  8
LC-001-100-D00-0
 62
     7
370
    50
100
AcDbCircle
 10
-106.522239
 20
446.998446
 30
0.0
 40
1.80277563773231
100
AcDbArc
 50
303.690068
 51
56.309932
  0
LINE
  5
33C
330
1F
100
AcDbEntity
  8
LC-001-100-D00-0
 62
     7
370
    50
100
AcDbLine
 10
-105.522246
 20
463.098446
 30
0.0
 11
-105.522239
 21
448.498446
 31
0.0
  0
LINE
  5
33D
330
1F
100
AcDbEntity
  8
LC-001-100-D00-0
 62
     7
370
    50
100
AcDbLine
 10
-104.522229
 20
464.098446
 30
0.0
 11
-105.522246
 21
463.098446
 31
0.0
  0
LINE
  5
33E
330
1F
100
AcDbEntity
  8
LC-001-100-D00-0
 62
     7
370
    50
100
AcDbLine
 10
-98.522247
 20
464.098446
 30
0.0
 11
-104.522229
 21
464.098446
 31
0.0
  0
LINE
  5
33F
330
1F
100
AcDbEntity
  8
LC-001-100-D00-0
 62
     7
370
    50
100
AcDbLine
 10
-97.52223
 20
463.098446
 30
0.0
 11
-98.522247
 21
464.098446
 31
0.0
  0
LINE
  5
340
330
1F
100
AcDbEntity
  8
LC-001-100-D00-0
 62
     7
370
    50
100
AcDbLine
 10
-97.522239
 20
448.498446
 30
0.0
 11
-97.52223
 21
463.098446
 31
0.0
  0
ARC
  5
341
330
1F
100
AcDbEntity
  8
LC-001-100-D00-0
 62
     7
370
    50
100
AcDbCircle
 10
-96.522239
 20
446.998446
 30
0.0
 40
1.8027756377319
100
AcDbArc
 50
123.690068
 51
236.309932
  0
LINE
  5
342
330
1F
100
AcDbEntity
  8
LC-001-100-D00-0
 62
     7
370
    50
100
AcDbLine
 10
-134.522239
 20
463.098446
 30
0.0
 11
-181.522251
 21
463.098446
 31
0.0
  0
LINE
  5
343
330
1F
100
AcDbEntity
  8
LC-001-100-D00-0
 62
     7
370
    50
100
AcDbLine
 10
-134.522239
 20
464.598446
 30
0.0
 11
-181.522239
 21
464.598446
 31
0.0
  0
ELLIPSE
  5
344
330
1F
100
AcDbEntity
  8
LC-001-100-D00-0
 62
     7
370
    50
100
AcDbEllipse
 10
723.499578
 20
440.098446
 30
0.0
 11
0.0
 21
-2.500000213623038
 31
0.0
210
0.0
220
0.0
230
1.0
 40
0.027578
 41
0.0000000000082447
 42
0.321750554407479
  0
ELLIPSE
  5
345
330
1F
100
AcDbEntity
  8
LC-001-100-D00-0
 62
     7
370
    50
100
AcDbEllipse
 10
13.455944
 20
440.098446
 30
0.0
 11
0.0
 21
-2.500000003829883
 31
0.0
210
0.0
220
0.0
230
1.0
 40
0.027578
 41
5.961434752783126
 42
6.2831853071792
  0
LINE
  5
346
330
1F
100
AcDbEntity
  8
LC-001-100-D00-0
 62
     7
370
    50
100
AcDbLine
 10
723.47775
 20
442.469793
 30
0.0
 11
723.47775
 21
437.804405
 31
0.0
  0
LINE
  5
347
330
1F
100
AcDbEntity
  8
LC-001-100-D00-0
 62
     7
370
    50
100
AcDbLine
 10
13.477772
 20
442.469793
 30
0.0
 11
13.477772
 21
437.804405
 31
0.0
  0
INSERT
  5
351
330
1F
100
AcDbEntity
  8
LC-001-100-D00-0
 62
     7
370
    50
100
AcDbBlockReference
  2
KLON15
 10
0.0
 20
0.0
 30
0.0
  0
INSERT
  5
35B
330
1F
100
AcDbEntity
  8
LC-001-100-D00-0
 62
     7
370
    50
100
AcDbBlockReference
  2
KLON16
 10
0.0
 20
0.0
 30
0.0
  0
LINE
  5
35C
330
1F
100
AcDbEntity
  8
LC-001-100-D00-0
 62
     7
370
    50
100
AcDbLine
 10
723.47775
 20
437.598445
 30
0.0
 11
723.477721
 21
437.803712
 31
0.0
  0
LINE
  5
35D
330
1F
100
AcDbEntity
  8
LC-001-100-D00-0
 62
     7
370
    50
100
AcDbLine
 10
723.47775
 20
437.598445
 30
0.0
 11
851.385444
 21
442.26661
 31
0.0
  0
LINE
  5
35E
330
1F
100
AcDbEntity
  8
LC-001-100-D00-0
 62
     7
370
    50
100
AcDbLine
 10
13.477772
 20
437.598445
 30
0.0
 11
13.477802
 21
437.803712
 31
0.0
  0
LINE
  5
35F
330
1F
100
AcDbEntity
  8
LC-001-100-D00-0
 62
     7
370
    50
100
AcDbLine
 10
13.477772
 20
437.598445
 30
0.0
 11
-114.429922
 21
442.26661
 31
0.0
  0
LINE
  5
360
330
1F
100
AcDbEntity
  8
LC-001-100-D00-0
 62
     7
370
    50
100
AcDbLine
 10
442.951151
 20
437.598446
 30
0.0
 11
445.051751
 21
437.598445
 31
0.0
  0
LINE
  5
361
330
1F
100
AcDbEntity
  8
LC-001-100-D00-0
 62
     7
370
    50
100
AcDbLine
 10
294.004371
 20
437.598446
 30
0.0
 11
291.903771
 21
437.598445
 31
0.0
  0
LINE
  5
362
330
1F
100
AcDbEntity
  8
LC-001-100-D00-0
 62
     7
370
    50
100
AcDbLine
 10
445.051751
 20
437.598445
 30
0.0
 11
723.47775
 21
437.598445
 31
0.0
  0
LINE
  5
363
330
1F
100
AcDbEntity
  8
LC-001-100-D00-0
 62
     7
370
    50
100
AcDbLine
 10
291.903771
 20
437.598445
 30
0.0
 11
13.477772
 21
437.598445
 31
0.0
  0
INSERT
  5
370
330
1F
100
AcDbEntity
  8
LC-001-100-D00-0
 62
     7
370
    50
100
AcDbBlockReference
  2
KLON17
 10
0.0
 20
0.0
 30
0.0
  0
INSERT
  5
37D
330
1F
100
AcDbEntity
  8
LC-001-100-D00-0
 62
     7
370
    50
100
AcDbBlockReference
  2
KLON18
 10
0.0
 20
0.0
 30
0.0
  0
LINE
  5
37E
330
1F
100
AcDbEntity
  8
LC-001-100-D00-0
 62
     7
370
    50
100
AcDbLine
 10
865.977761
 20
464.598446
 30
0.0
 11
871.477761
 21
464.598446
 31
0.0
  0
LINE
  5
37F
330
1F
100
AcDbEntity
  8
LC-001-100-D00-0
 62
     7
370
    50
100
AcDbLine
 10
-129.022239
 20
464.598446
 30
0.0
 11
-134.522239
 21
464.598446
 31
0.0
  0
LINE
  5
380
330
1F
100
AcDbEntity
  8
LC-001-100-D00-0
 62
     7
370
    50
100
AcDbLine
 10
865.977761
 20
464.598446
 30
0.0
 11
855.727761
 21
464.598446
 31
0.0
  0
LINE
  5
381
330
1F
100
AcDbEntity
  8
LC-001-100-D00-0
 62
     7
370
    50
100
AcDbLine
 10
821.227761
 20
464.598446
 30
0.0
 11
670.727761
 21
464.598446
 31
0.0
  0
LINE
  5
382
330
1F
100
AcDbEntity
  8
LC-001-100-D00-0
 62
     7
370
    50
100
AcDbLine
 10
636.227761
 20
464.598446
 30
0.0
 11
485.727761
 21
464.598446
 31
0.0
  0
LINE
  5
383
330
1F
100
AcDbEntity
  8
LC-001-100-D00-0
 62
     7
370
    50
100
AcDbLine
 10
451.227761
 20
464.598446
 30
0.0
 11
285.727761
 21
464.598446
 31
0.0
  0
LINE
  5
384
330
1F
100
AcDbEntity
  8
LC-001-100-D00-0
 62
     7
370
    50
100
AcDbLine
 10
251.227761
 20
464.598446
 30
0.0
 11
100.727761
 21
464.598446
 31
0.0
  0
LINE
  5
385
330
1F
100
AcDbEntity
  8
LC-001-100-D00-0
 62
     7
370
    50
100
AcDbLine
 10
66.227761
 20
464.598446
 30
0.0
 11
-84.272239
 21
464.598446
 31
0.0
  0
LINE
  5
386
330
1F
100
AcDbEntity
  8
LC-001-100-D00-0
 62
     7
370
    50
100
AcDbLine
 10
-118.772239
 20
464.598446
 30
0.0
 11
-129.022239
 21
464.598446
 31
0.0
  0
LINE
  5
387
330
1F
100
AcDbEntity
  8
LC-001-100-D00-0
 62
     7
370
    50
100
AcDbLine
 10
-181.522239
 20
464.598446
 30
0.0
 11
-181.522239
 21
466.098446
 31
0.0
  0
LINE
  5
388
330
1F
100
AcDbEntity
  8
LC-001-100-D00-0
 62
     7
370
    50
100
AcDbLine
 10
918.477761
 20
466.098446
 30
0.0
 11
918.477761
 21
464.598446
 31
0.0
  0
ARC
  5
389
330
1F
100
AcDbEntity
  8
LC-001-100-D00-0
 62
     7
370
    50
100
AcDbCircle
 10
-176.522239
 20
505.598446
 30
0.0
 40
5.0
100
AcDbArc
 50
90.0
 51
180.0
  0
LINE
  5
38A
330
1F
100
AcDbEntity
  8
LC-001-100-D00-0
 62
     7
370
    50
100
AcDbLine
 10
-176.522239
 20
510.598446
 30
0.0
 11
913.477761
 21
510.598446
 31
0.0
  0
ARC
  5
38B
330
1F
100
AcDbEntity
  8
LC-001-100-D00-0
 62
     7
370
    50
100
AcDbCircle
 10
913.477761
 20
505.598446
 30
0.0
 40
5.0
100
AcDbArc
 50
0.0
 51
90.0
  0
LINE
  5
38C
330
1F
100
AcDbEntity
  8
LC-001-100-D00-0
 62
     7
370
    50
100
AcDbLine
 10
-181.522239
 20
505.598446
 30
0.0
 11
-181.522239
 21
466.098446
 31
0.0
  0
LINE
  5
38D
330
1F
100
AcDbEntity
  8
LC-001-100-D00-0
 62
     7
370
    50
100
AcDbLine
 10
918.477761
 20
505.598446
 30
0.0
 11
918.477761
 21
466.098446
 31
0.0
  0
DIMENSION
  5
38E
330
1F
100
AcDbEntity
  8
LC-001-100-D00-0
 62
     7
370
    25
100
AcDbDimension
  2
*D22
 10
-216.157332
 20
510.598446
 30
0.0
 11
-271.157332
 21
565.088446
 31
0.0
 70
   160
  1
46
 71
     5
 42
46.0
 53
90.0
  3
LC-DIM-L-0100-02-02
100
AcDbAlignedDimension
 13
-181.522239
 23
464.598446
 33
0.0
 14
-176.522239
 24
510.598446
 34
0.0
 50
90.0
100
AcDbRotatedDimension
  0
INSERT
  5
3B8
330
1F
100
AcDbEntity
  8
LC-001-100-D00-0
 62
     7
370
    25
100
AcDbBlockReference
  2
KLON19
 10
0.0
 20
0.0
 30
0.0
  0
INSERT
  5
3D5
330
1F
100
AcDbEntity
  8
LC-001-100-D00-0
 62
     7
370
    25
100
AcDbBlockReference
  2
KLON20
 10
0.0
 20
0.0
 30
0.0
  0
LINE
  5
3D6
330
1F
100
AcDbEntity
  8
LC-001-100-D00-0
 62
     7
370
    25
100
AcDbLine
 10
828.727761
 20
450.765525
 30
0.0
 11
834.577761
 21
456.615525
 31
0.0
  0
INSERT
  5
3DC
330
1F
100
AcDbEntity
  8
LC-001-100-D00-0
 62
     7
370
    25
100
AcDbBlockReference
  2
KLON21
 10
0.0
 20
0.0
 30
0.0
  0
LINE
  5
3DD
330
1F
100
AcDbEntity
  8
LC-001-100-D00-0
 62
     7
370
    50
100
AcDbLine
 10
-96.915537
 20
445.598446
 30
0.0
 11
-95.171386
 21
447.342596
 31
0.0
  0
LINE
  5
3DE
330
1F
100
AcDbEntity
  8
LC-001-100-D00-0
 62
     7
370
    25
100
AcDbLine
 10
-111.272239
 20
453.692383
 30
0.0
 11
-105.422239
 21
459.542384
 31
0.0
  0
INSERT
  5
3E4
330
1F
100
AcDbEntity
  8
LC-001-100-D00-0
 62
     7
370
    25
100
AcDbBlockReference
  2
KLON22
 10
0.0
 20
0.0
 30
0.0
  0
LINE
  5
3E5
330
1F
100
AcDbEntity
  8
LC-001-100-D00-0
 62
     7
370
    50
100
AcDbLine
 10
86.877761
 20
449.786628
 30
0.0
 11
89.828614
 21
452.737481
 31
0.0
  0
LINE
  5
3E6
330
1F
100
AcDbEntity
  8
LC-001-100-D00-0
 62
     7
370
    25
100
AcDbLine
 10
73.727761
 20
459.087268
 30
0.0
 11
79.238938
 21
464.598446
 31
0.0
  0
INSERT
  5
3EC
330
1F
100
AcDbEntity
  8
LC-001-100-D00-0
 62
     7
370
    25
100
AcDbBlockReference
  2
KLON23
 10
0.0
 20
0.0
 30
0.0
  0
LINE
  5
3ED
330
1F
100
AcDbEntity
  8
LC-001-100-D00-0
 62
     7
370
    50
100
AcDbLine
 10
648.277761
 20
449.920641
 30
0.0
 11
650.077761
 21
451.720641
 31
0.0
  0
INSERT
  5
3F3
330
1F
100
AcDbEntity
  8
LC-001-100-D00-0
 62
     7
370
    25
100
AcDbBlockReference
  2
KLON24
 10
0.0
 20
0.0
 30
0.0
  0
LINE
  5
3F4
330
1F
100
AcDbEntity
  8
LC-001-100-D00-0
 62
     7
370
    25
100
AcDbLine
 10
657.377761
 20
459.020641
 30
0.0
 11
662.955565
 21
464.598446
 31
0.0
  0
LINE
  5
3F5
330
1F
100
AcDbEntity
  8
LC-001-100-D00-0
 62
     7
370
    50
100
AcDbLine
 10
262.294695
 20
445.598446
 30
0.0
 11
265.077761
 21
448.381512
 31
0.0
  0
INSERT
  5
3FB
330
1F
100
AcDbEntity
  8
LC-001-100-D00-0
 62
     7
370
    25
100
AcDbBlockReference
  2
KLON25
 10
0.0
 20
0.0
 30
0.0
  0
LINE
  5
3FC
330
1F
100
AcDbEntity
  8
LC-001-100-D00-0
 62
     7
370
    25
100
AcDbLine
 10
272.377761
 20
455.681512
 30
0.0
 11
281.294694
 21
464.598446
 31
0.0
  0
LINE
  5
3FD
330
1F
100
AcDbEntity
  8
LC-001-100-D00-0
 62
     7
370
    25
100
AcDbLine
 10
457.887043
 20
461.585679
 30
0.0
 11
460.899809
 21
464.598446
 31
0.0
  0
INSERT
  5
403
330
1F
100
AcDbEntity
  8
LC-001-100-D00-0
 62
     7
370
    25
100
AcDbBlockReference
  2
KLON26
 10
0.0
 20
0.0
 30
0.0
  0
LINE
  5
404
330
1F
100
AcDbEntity
  8
LC-001-100-D00-0
  6
DASHDOT
 62
     7
370
    25
100
AcDbLine
 10
-101.522239
 20
436.598446
 30
0.0
 11
-101.522239
 21
470.598446
 31
0.0
  0
LINE
  5
405
330
1F
100
AcDbEntity
  8
LC-001-100-D00-0
  6
DASHDOT
 62
     7
370
    25
100
AcDbLine
 10
83.477761
 20
436.598446
 30
0.0
 11
83.477761
 21
470.598446
 31
0.0
  0
LINE
  5
406
330
1F
100
AcDbEntity
  8
LC-001-100-D00-0
  6
DASHDOT
 62
     7
370
    25
100
AcDbLine
 10
268.477761
 20
436.598446
 30
0.0
 11
268.477761
 21
470.598446
 31
0.0
  0
LINE
  5
407
330
1F
100
AcDbEntity
  8
LC-001-100-D00-0
  6
DASHDOT
 62
     7
370
    25
100
AcDbLine
 10
468.477761
 20
436.598446
 30
0.0
 11
468.477761
 21
470.598446
 31
0.0
  0
LINE
  5
408
330
1F
100
AcDbEntity
  8
LC-001-100-D00-0
  6
DASHDOT
 62
     7
370
    25
100
AcDbLine
 10
653.477761
 20
436.598446
 30
0.0
 11
653.477761
 21
470.598446
 31
0.0
  0
LINE
  5
409
330
1F
100
AcDbEntity
  8
LC-001-100-D00-0
  6
DASHDOT
 62
     7
370
    25
100
AcDbLine
 10
838.477761
 20
436.598446
 30
0.0
 11
838.477761
 21
470.598446
 31
0.0
  0
DIMENSION
  5
40B
330
1F
100
AcDbEntity
  8
LC-002-003-----0
 62
     7
370
    25
100
AcDbDimension
  2
*D31
 10
918.477761
 20
648.703446
 30
0.0
 11
359.108923
 21
703.703446
 31
0.0
 70
   160
 71
     5
 42
1100.0
  3
LC-DIM-L-0100-02-02
100
AcDbAlignedDimension
 13
-181.522239
 23
505.598446
 33
0.0
 14
918.477761
 24
505.598446
 34
0.0
100
AcDbRotatedDimension
  0
DIMENSION
  5
418
330
1F
100
AcDbEntity
  8
LC-002-003-----0
 62
     7
370
    25
100
AcDbDimension
  2
*D32
 10
868.477761
 20
567.028446
 30
0.0
 11
364.26796
 21
622.028446
 31
0.0
 70
   160
 71
     5
 42
1000.0
  3
LC-DIM-L-0100-02-02
100
AcDbAlignedDimension
 13
-131.522239
 23
461.598446
 33
0.0
 14
868.477761
 24
461.598446
 34
0.0
100
AcDbRotatedDimension
  0
LINE
  5
425
102
{ACAD_REACTORS
330
781
102
}
330
1F
100
AcDbEntity
  8
LC-001-100-D00-0
 62
     7
370
    50
100
AcDbLine
 10
417.920378
 20
406.598446
 30
0.0
 11
417.920378
 21
430.598446
 31
0.0
  0
LINE
  5
426
102
{ACAD_REACTORS
330
781
102
}
330
1F
100
AcDbEntity
  8
LC-001-100-D00-0
 62
     7
370
    50
100
AcDbLine
 10
319.035144
 20
430.598446
 30
0.0
 11
319.035144
 21
406.598446
 31
0.0
  0
ARC
  5
427
102
{ACAD_REACTORS
330
781
102
}
330
1F
100
AcDbEntity
  8
LC-001-100-D00-0
 62
     7
370
    50
100
AcDbCircle
 10
442.951151
 20
441.598446
 30
0.0
 40
4.000000000000114
100
AcDbArc
 50
270.0
 51
285.0
  0
LINE
  5
428
102
{ACAD_REACTORS
330
781
102
}
330
1F
100
AcDbEntity
  8
LC-001-100-D00-0
 62
     7
370
    50
100
AcDbLine
 10
442.951148
 20
437.598446
 30
0.0
 11
426.277762
 21
437.598446
 31
0.0
  0
ARC
  5
429
102
{ACAD_REACTORS
330
781
102
}
330
1F
100
AcDbEntity
  8
LC-001-100-D00-0
 62
     7
370
    50
100
AcDbCircle
 10
426.277761
 20
436.598446
 30
0.0
 40
1.0
100
AcDbArc
 50
90.0
 51
180.0
  0
LINE
  5
42A
102
{ACAD_REACTORS
330
781
102
}
330
1F
100
AcDbEntity
  8
LC-001-100-D00-0
 62
     7
370
    50
100
AcDbLine
 10
425.27776
 20
436.598446
 30
0.0
 11
425.27776
 21
432.598445
 31
0.0
  0
LINE
  5
42B
102
{ACAD_REACTORS
330
781
102
}
330
1F
100
AcDbEntity
  8
LC-001-100-D00-0
 62
     7
370
    50
100
AcDbLine
 10
425.27776
 20
432.598445
 30
0.0
 11
423.77776
 21
432.598445
 31
0.0
  0
LINE
  5
42C
102
{ACAD_REACTORS
330
781
102
}
330
1F
100
AcDbEntity
  8
LC-001-100-D00-0
 62
     7
370
    50
100
AcDbLine
 10
423.77776
 20
436.598446
 30
0.0
 11
423.77776
 21
432.598445
 31
0.0
  0
ARC
  5
42D
102
{ACAD_REACTORS
330
781
102
}
330
1F
100
AcDbEntity
  8
LC-001-100-D00-0
 62
     7
370
    50
100
AcDbCircle
 10
426.277761
 20
436.598446
 30
0.0
 40
2.5
100
AcDbArc
 50
90.0
 51
180.0
  0
LINE
  5
42E
102
{ACAD_REACTORS
330
781
102
}
330
1F
100
AcDbEntity
  8
LC-001-100-D00-0
 62
     7
370
    50
100
AcDbLine
 10
442.951148
 20
439.098445
 30
0.0
 11
426.277762
 21
439.098445
 31
0.0
  0
ARC
  5
42F
102
{ACAD_REACTORS
330
781
102
}
330
1F
100
AcDbEntity
  8
LC-001-100-D00-0
 62
     7
370
    50
100
AcDbCircle
 10
442.951151
 20
441.598446
 30
0.0
 40
2.500000000000227
100
AcDbArc
 50
270.0
 51
285.0
  0
ARC
  5
430
102
{ACAD_REACTORS
330
781
102
}
330
1F
100
AcDbEntity
  8
LC-001-100-D00-0
 62
     7
370
    50
100
AcDbCircle
 10
294.004371
 20
441.598446
 30
0.0
 40
2.500000000000062
100
AcDbArc
 50
255.0
 51
270.0
  0
LINE
  5
431
102
{ACAD_REACTORS
330
781
102
}
330
1F
100
AcDbEntity
  8
LC-001-100-D00-0
 62
     7
370
    50
100
AcDbLine
 10
299.400551
 20
439.098445
 30
0.0
 11
294.004371
 21
439.098445
 31
0.0
  0
LINE
  5
432
102
{ACAD_REACTORS
330
781
102
}
330
1F
100
AcDbEntity
  8
LC-001-100-D00-0
 62
     7
370
    50
100
AcDbLine
 10
310.677761
 20
439.098445
 30
0.0
 11
299.400551
 21
439.098445
 31
0.0
  0
ARC
  5
433
102
{ACAD_REACTORS
330
781
102
}
330
1F
100
AcDbEntity
  8
LC-001-100-D00-0
 62
     7
370
    50
100
AcDbCircle
 10
310.677761
 20
436.598446
 30
0.0
 40
2.5
100
AcDbArc
 50
0.0
 51
90.0
  0
LINE
  5
434
102
{ACAD_REACTORS
330
781
102
}
330
1F
100
AcDbEntity
  8
LC-001-100-D00-0
 62
     7
370
    50
100
AcDbLine
 10
313.177762
 20
432.598445
 30
0.0
 11
313.177762
 21
436.598446
 31
0.0
  0
LINE
  5
435
102
{ACAD_REACTORS
330
781
102
}
330
1F
100
AcDbEntity
  8
LC-001-100-D00-0
 62
     7
370
    50
100
AcDbLine
 10
313.177762
 20
432.598445
 30
0.0
 11
311.677763
 21
432.598445
 31
0.0
  0
LINE
  5
436
102
{ACAD_REACTORS
330
781
102
}
330
1F
100
AcDbEntity
  8
LC-001-100-D00-0
 62
     7
370
    50
100
AcDbLine
 10
311.677763
 20
432.598445
 30
0.0
 11
311.677763
 21
436.598446
 31
0.0
  0
ARC
  5
437
102
{ACAD_REACTORS
330
781
102
}
330
1F
100
AcDbEntity
  8
LC-001-100-D00-0
 62
     7
370
    50
100
AcDbCircle
 10
310.677761
 20
436.598446
 30
0.0
 40
1.0
100
AcDbArc
 50
0.0
 51
90.0
  0
LINE
  5
438
102
{ACAD_REACTORS
330
781
102
}
330
1F
100
AcDbEntity
  8
LC-001-100-D00-0
 62
     7
370
    50
100
AcDbLine
 10
310.677761
 20
437.598446
 30
0.0
 11
294.004371
 21
437.598446
 31
0.0
  0
ARC
  5
439
102
{ACAD_REACTORS
330
781
102
}
330
1F
100
AcDbEntity
  8
LC-001-100-D00-0
 62
     7
370
    50
100
AcDbCircle
 10
294.004371
 20
441.598446
 30
0.0
 40
4.000000000000122
100
AcDbArc
 50
255.0
 51
270.0
  0
LINE
  5
43A
102
{ACAD_REACTORS
330
781
102
}
330
1F
100
AcDbEntity
  8
LC-001-100-D00-0
 62
     7
370
    50
100
AcDbLine
 10
315.977761
 20
432.598445
 30
0.0
 11
313.177762
 21
432.598445
 31
0.0
  0
LINE
  5
43B
102
{ACAD_REACTORS
330
781
102
}
330
1F
100
AcDbEntity
  8
LC-001-100-D00-0
 62
     7
370
    50
100
AcDbLine
 10
423.77776
 20
432.598445
 30
0.0
 11
420.977761
 21
432.598445
 31
0.0
  0
LINE
  5
43C
102
{ACAD_REACTORS
330
781
102
}
330
1F
100
AcDbEntity
  8
LC-001-100-D00-0
 62
     7
370
    50
100
AcDbLine
 10
418.977761
 20
439.098445
 30
0.0
 11
426.277762
 21
439.098445
 31
0.0
  0
LINE
  5
43D
102
{ACAD_REACTORS
330
781
102
}
330
1F
100
AcDbEntity
  8
LC-001-100-D00-0
 62
     7
370
    50
100
AcDbLine
 10
317.977761
 20
439.098445
 30
0.0
 11
310.677761
 21
439.098445
 31
0.0
  0
LINE
  5
43E
102
{ACAD_REACTORS
330
781
102
}
330
1F
100
AcDbEntity
  8
LC-001-100-D00-0
 62
     7
370
    50
100
AcDbLine
 10
417.477762
 20
441.598445
 30
0.0
 11
417.477762
 21
430.598446
 31
0.0
  0
LINE
  5
43F
102
{ACAD_REACTORS
330
781
102
}
330
1F
100
AcDbEntity
  8
LC-001-100-D00-0
 62
     7
370
    50
100
AcDbLine
 10
319.477761
 20
430.598446
 30
0.0
 11
319.477761
 21
441.598445
 31
0.0
  0
LINE
  5
440
102
{ACAD_REACTORS
330
781
102
}
330
1F
100
AcDbEntity
  8
LC-001-100-D00-0
 62
     7
370
    50
100
AcDbLine
 10
422.977762
 20
432.098445
 30
0.0
 11
422.977762
 21
430.598446
 31
0.0
  0
LINE
  5
441
102
{ACAD_REACTORS
330
781
102
}
330
1F
100
AcDbEntity
  8
LC-001-100-D00-0
 62
     7
370
    50
100
AcDbLine
 10
313.977761
 20
430.598446
 30
0.0
 11
313.977761
 21
432.098445
 31
0.0
  0
LINE
  5
442
102
{ACAD_REACTORS
330
781
102
}
330
1F
100
AcDbEntity
  8
LC-001-100-D00-0
 62
     7
370
    50
100
AcDbLine
 10
313.977761
 20
430.598446
 30
0.0
 11
319.477761
 21
430.598446
 31
0.0
  0
LINE
  5
443
102
{ACAD_REACTORS
330
781
102
}
330
1F
100
AcDbEntity
  8
LC-001-100-D00-0
 62
     7
370
    50
100
AcDbLine
 10
313.977761
 20
432.098445
 30
0.0
 11
315.977761
 21
432.098445
 31
0.0
  0
LINE
  5
444
102
{ACAD_REACTORS
330
781
102
}
330
1F
100
AcDbEntity
  8
LC-001-100-D00-0
 62
     7
370
    50
100
AcDbLine
 10
315.977761
 20
432.098445
 30
0.0
 11
315.977761
 21
435.598446
 31
0.0
  0
LINE
  5
445
102
{ACAD_REACTORS
330
781
102
}
330
1F
100
AcDbEntity
  8
LC-001-100-D00-0
 62
     7
370
    50
100
AcDbLine
 10
313.977761
 20
435.598446
 30
0.0
 11
315.977761
 21
435.598446
 31
0.0
  0
LINE
  5
446
102
{ACAD_REACTORS
330
781
102
}
330
1F
100
AcDbEntity
  8
LC-001-100-D00-0
 62
     7
370
    50
100
AcDbLine
 10
313.977761
 20
437.098445
 30
0.0
 11
313.977761
 21
435.598446
 31
0.0
  0
LINE
  5
447
102
{ACAD_REACTORS
330
781
102
}
330
1F
100
AcDbEntity
  8
LC-001-100-D00-0
 62
     7
370
    50
100
AcDbLine
 10
313.977761
 20
437.098445
 30
0.0
 11
317.977761
 21
437.098445
 31
0.0
  0
LINE
  5
448
102
{ACAD_REACTORS
330
781
102
}
330
1F
100
AcDbEntity
  8
LC-001-100-D00-0
 62
     7
370
    50
100
AcDbLine
 10
317.977761
 20
437.098445
 30
0.0
 11
317.977761
 21
441.598445
 31
0.0
  0
ARC
  5
449
102
{ACAD_REACTORS
330
781
102
}
330
1F
100
AcDbEntity
  8
LC-001-100-D00-0
 62
     7
370
    50
100
AcDbCircle
 10
323.477761
 20
441.598446
 30
0.0
 40
5.499999999999886
100
AcDbArc
 50
90.0
 51
180.0
  0
LINE
  5
44A
102
{ACAD_REACTORS
330
781
102
}
330
1F
100
AcDbEntity
  8
LC-001-100-D00-0
 62
     7
370
    50
100
AcDbLine
 10
413.477761
 20
447.098445
 30
0.0
 11
323.477761
 21
447.098445
 31
0.0
  0
ARC
  5
44B
102
{ACAD_REACTORS
330
781
102
}
330
1F
100
AcDbEntity
  8
LC-001-100-D00-0
 62
     7
370
    50
100
AcDbCircle
 10
413.477761
 20
441.598446
 30
0.0
 40
5.5
100
AcDbArc
 50
0.0
 51
90.0
  0
LINE
  5
44C
102
{ACAD_REACTORS
330
781
102
}
330
1F
100
AcDbEntity
  8
LC-001-100-D00-0
 62
     7
370
    50
100
AcDbLine
 10
418.977761
 20
441.598445
 30
0.0
 11
418.977761
 21
437.098445
 31
0.0
  0
LINE
  5
44D
102
{ACAD_REACTORS
330
781
102
}
330
1F
100
AcDbEntity
  8
LC-001-100-D00-0
 62
     7
370
    50
100
AcDbLine
 10
418.977761
 20
437.098445
 30
0.0
 11
422.977762
 21
437.098445
 31
0.0
  0
LINE
  5
44E
102
{ACAD_REACTORS
330
781
102
}
330
1F
100
AcDbEntity
  8
LC-001-100-D00-0
 62
     7
370
    50
100
AcDbLine
 10
422.977762
 20
435.598446
 30
0.0
 11
422.977762
 21
437.098445
 31
0.0
  0
LINE
  5
44F
102
{ACAD_REACTORS
330
781
102
}
330
1F
100
AcDbEntity
  8
LC-001-100-D00-0
 62
     7
370
    50
100
AcDbLine
 10
420.977761
 20
435.598446
 30
0.0
 11
422.977762
 21
435.598446
 31
0.0
  0
LINE
  5
450
102
{ACAD_REACTORS
330
781
102
}
330
1F
100
AcDbEntity
  8
LC-001-100-D00-0
 62
     7
370
    50
100
AcDbLine
 10
420.977761
 20
435.598446
 30
0.0
 11
420.977761
 21
432.098445
 31
0.0
  0
LINE
  5
451
102
{ACAD_REACTORS
330
781
102
}
330
1F
100
AcDbEntity
  8
LC-001-100-D00-0
 62
     7
370
    50
100
AcDbLine
 10
420.977761
 20
432.098445
 30
0.0
 11
422.977762
 21
432.098445
 31
0.0
  0
LINE
  5
452
102
{ACAD_REACTORS
330
781
102
}
330
1F
100
AcDbEntity
  8
LC-001-100-D00-0
 62
     7
370
    50
100
AcDbLine
 10
417.477762
 20
430.598446
 30
0.0
 11
422.977762
 21
430.598446
 31
0.0
  0
ARC
  5
453
102
{ACAD_REACTORS
330
781
102
}
330
1F
100
AcDbEntity
  8
LC-001-100-D00-0
 62
     7
370
    50
100
AcDbCircle
 10
413.477761
 20
441.598446
 30
0.0
 40
4.000000000000114
100
AcDbArc
 50
0.0
 51
90.0
  0
LINE
  5
454
102
{ACAD_REACTORS
330
781
102
}
330
1F
100
AcDbEntity
  8
LC-001-100-D00-0
 62
     7
370
    50
100
AcDbLine
 10
413.477761
 20
445.598446
 30
0.0
 11
323.477761
 21
445.598446
 31
0.0
  0
ARC
  5
455
102
{ACAD_REACTORS
330
781
102
}
330
1F
100
AcDbEntity
  8
LC-001-100-D00-0
 62
     7
370
    50
100
AcDbCircle
 10
323.477761
 20
441.598446
 30
0.0
 40
4.0
100
AcDbArc
 50
90.0
 51
180.0
  0
LINE
  5
456
102
{ACAD_REACTORS
330
781
102
}
330
1F
100
AcDbEntity
  8
LC-001-100-D00-0
 62
     7
370
    50
100
AcDbLine
 10
417.920378
 20
406.598446
 30
0.0
 11
416.920376
 21
406.598446
 31
0.0
  0
LINE
  5
457
102
{ACAD_REACTORS
330
781
102
}
330
1F
100
AcDbEntity
  8
LC-001-100-D00-0
 62
     7
370
    50
100
AcDbLine
 10
320.035146
 20
406.598446
 30
0.0
 11
416.920376
 21
406.598446
 31
0.0
  0
LINE
  5
458
102
{ACAD_REACTORS
330
781
102
}
330
1F
100
AcDbEntity
  8
LC-001-100-D00-0
 62
     7
370
    50
100
AcDbLine
 10
320.035146
 20
406.598446
 30
0.0
 11
319.035144
 21
406.598446
 31
0.0
  0
LINE
  5
459
102
{ACAD_REACTORS
330
781
102
}
330
1F
100
AcDbEntity
  8
LC-001-100-D00-0
 62
     7
370
    50
100
AcDbLine
 10
427.47776
 20
433.598446
 30
0.0
 11
425.27776
 21
433.598446
 31
0.0
  0
LINE
  5
45A
102
{ACAD_REACTORS
330
781
102
}
330
1F
100
AcDbEntity
  8
LC-001-100-D00-0
 62
     7
370
    50
100
AcDbLine
 10
427.47776
 20
434.22446
 30
0.0
 11
427.47776
 21
433.598446
 31
0.0
  0
LINE
  5
45B
102
{ACAD_REACTORS
330
781
102
}
330
1F
100
AcDbEntity
  8
LC-001-100-D00-0
 62
     7
370
    50
100
AcDbLine
 10
303.477762
 20
433.598446
 30
0.0
 11
303.477762
 21
437.598446
 31
0.0
  0
LINE
  5
45C
102
{ACAD_REACTORS
330
781
102
}
330
1F
100
AcDbEntity
  8
LC-001-100-D00-0
 62
     7
370
    50
100
AcDbLine
 10
309.097563
 20
437.598446
 30
0.0
 11
303.477762
 21
437.598446
 31
0.0
  0
ARC
  5
45D
102
{ACAD_REACTORS
330
781
102
}
330
1F
100
AcDbEntity
  8
LC-001-100-D00-0
 62
     7
370
    50
100
AcDbCircle
 10
309.097562
 20
436.598446
 30
0.0
 40
0.9999999999999849
100
AcDbArc
 50
48.366461
 51
90.0
  0
LINE
  5
45E
102
{ACAD_REACTORS
330
781
102
}
330
1F
100
AcDbEntity
  8
LC-001-100-D00-0
 62
     7
370
    50
100
AcDbLine
 10
313.114015
 20
434.366222
 30
0.0
 11
309.761924
 21
437.345855
 31
0.0
  0
ARC
  5
45F
102
{ACAD_REACTORS
330
781
102
}
330
1F
100
AcDbEntity
  8
LC-001-100-D00-0
 62
     7
370
    50
100
AcDbCircle
 10
312.914704
 20
434.141999
 30
0.0
 40
0.3000000000001588
100
AcDbArc
 50
257.471192
 51
48.366461
  0
LINE
  5
460
102
{ACAD_REACTORS
330
781
102
}
330
1F
100
AcDbEntity
  8
LC-001-100-D00-0
 62
     7
370
    50
100
AcDbLine
 10
309.842841
 20
434.517316
 30
0.0
 11
312.849623
 21
433.849143
 31
0.0
  0
ARC
  5
461
102
{ACAD_REACTORS
330
781
102
}
330
1F
100
AcDbEntity
  8
LC-001-100-D00-0
 62
     7
370
    50
100
AcDbCircle
 10
309.777761
 20
434.224461
 30
0.0
 40
0.2999999999999368
100
AcDbArc
 50
77.471192
 51
180.0
  0
LINE
  5
462
102
{ACAD_REACTORS
330
781
102
}
330
1F
100
AcDbEntity
  8
LC-001-100-D00-0
 62
     7
370
    50
100
AcDbLine
 10
309.477763
 20
433.598446
 30
0.0
 11
309.477763
 21
434.22446
 31
0.0
  0
LINE
  5
463
102
{ACAD_REACTORS
330
781
102
}
330
1F
100
AcDbEntity
  8
LC-001-100-D00-0
 62
     7
370
    50
100
AcDbLine
 10
309.477763
 20
433.598446
 30
0.0
 11
303.477762
 21
433.598446
 31
0.0
  0
LINE
  5
464
102
{ACAD_REACTORS
330
781
102
}
330
1F
100
AcDbEntity
  8
LC-001-100-D00-0
 62
     7
370
    50
100
AcDbLine
 10
433.477764
 20
437.598446
 30
0.0
 11
433.477764
 21
433.598446
 31
0.0
  0
LINE
  5
465
102
{ACAD_REACTORS
330
781
102
}
330
1F
100
AcDbEntity
  8
LC-001-100-D00-0
 62
     7
370
    50
100
AcDbLine
 10
311.677763
 20
433.598446
 30
0.0
 11
309.477763
 21
433.598446
 31
0.0
  0
LINE
  5
466
102
{ACAD_REACTORS
330
781
102
}
330
1F
100
AcDbEntity
  8
LC-001-100-D00-0
 62
     7
370
    50
100
AcDbLine
 10
424.105899
 20
433.849143
 30
0.0
 11
427.112681
 21
434.517316
 31
0.0
  0
ARC
  5
467
102
{ACAD_REACTORS
330
781
102
}
330
1F
100
AcDbEntity
  8
LC-001-100-D00-0
 62
     7
370
    50
100
AcDbCircle
 10
424.040818
 20
434.141999
 30
0.0
 40
0.300000000000087
100
AcDbArc
 50
131.633539
 51
282.528808
  0
LINE
  5
468
102
{ACAD_REACTORS
330
781
102
}
330
1F
100
AcDbEntity
  8
LC-001-100-D00-0
 62
     7
370
    50
100
AcDbLine
 10
427.193598
 20
437.345855
 30
0.0
 11
423.841507
 21
434.366222
 31
0.0
  0
ARC
  5
469
102
{ACAD_REACTORS
330
781
102
}
330
1F
100
AcDbEntity
  8
LC-001-100-D00-0
 62
     7
370
    50
100
AcDbCircle
 10
427.85796
 20
436.598446
 30
0.0
 40
0.9999999999998863
100
AcDbArc
 50
90.0
 51
131.633539
  0
ARC
  5
46A
102
{ACAD_REACTORS
330
781
102
}
330
1F
100
AcDbEntity
  8
LC-001-100-D00-0
 62
     7
370
    50
100
AcDbCircle
 10
427.177761
 20
434.224461
 30
0.0
 40
0.3000000000000682
100
AcDbArc
 50
0.0
 51
102.528808
  0
LINE
  5
46B
102
{ACAD_REACTORS
330
781
102
}
330
1F
100
AcDbEntity
  8
LC-001-100-D00-0
 62
     7
370
    50
100
AcDbLine
 10
433.477764
 20
437.598446
 30
0.0
 11
427.857959
 21
437.598446
 31
0.0
  0
LINE
  5
46C
102
{ACAD_REACTORS
330
781
102
}
330
1F
100
AcDbEntity
  8
LC-001-100-D00-0
 62
     7
370
    50
100
AcDbLine
 10
433.477764
 20
433.598446
 30
0.0
 11
427.47776
 21
433.598446
 31
0.0
  0
LINE
  5
46D
102
{ACAD_REACTORS
330
781
102
}
330
1F
100
AcDbEntity
  8
LC-001-100-D00-0
 62
     7
370
    50
100
AcDbLine
 10
435.977762
 20
434.598446
 30
0.0
 11
435.977762
 21
430.598446
 31
0.0
  0
LINE
  5
46E
102
{ACAD_REACTORS
330
781
102
}
330
1F
100
AcDbEntity
  8
LC-001-100-D00-0
 62
     7
370
    50
100
AcDbLine
 10
429.977761
 20
433.598446
 30
0.0
 11
429.977761
 21
430.598446
 31
0.0
  0
LINE
  5
46F
102
{ACAD_REACTORS
330
781
102
}
330
1F
100
AcDbEntity
  8
LC-001-100-D00-0
 62
     7
370
    50
100
AcDbLine
 10
422.977762
 20
430.598446
 30
0.0
 11
429.977761
 21
430.598446
 31
0.0
  0
LINE
  5
470
102
{ACAD_REACTORS
330
781
102
}
330
1F
100
AcDbEntity
  8
LC-001-100-D00-0
 62
     7
370
    50
100
AcDbLine
 10
306.977761
 20
433.598446
 30
0.0
 11
303.977763
 21
433.598446
 31
0.0
  0
LINE
  5
471
102
{ACAD_REACTORS
330
781
102
}
330
1F
100
AcDbEntity
  8
LC-001-100-D00-0
 62
     7
370
    50
100
AcDbLine
 10
306.977761
 20
430.598446
 30
0.0
 11
306.977761
 21
433.598446
 31
0.0
  0
LINE
  5
472
102
{ACAD_REACTORS
330
781
102
}
330
1F
100
AcDbEntity
  8
LC-001-100-D00-0
 62
     7
370
    50
100
AcDbLine
 10
300.977764
 20
430.598446
 30
0.0
 11
300.977764
 21
434.598446
 31
0.0
  0
LINE
  5
473
102
{ACAD_REACTORS
330
781
102
}
330
1F
100
AcDbEntity
  8
LC-001-100-D00-0
 62
     7
370
    50
100
AcDbLine
 10
297.977758
 20
433.098445
 30
0.0
 11
297.977758
 21
434.598446
 31
0.0
  0
LINE
  5
474
102
{ACAD_REACTORS
330
781
102
}
330
1F
100
AcDbEntity
  8
LC-001-100-D00-0
 62
     7
370
    50
100
AcDbLine
 10
294.977759
 20
433.098445
 30
0.0
 11
294.977759
 21
437.598446
 31
0.0
  0
LINE
  5
475
102
{ACAD_REACTORS
330
781
102
}
330
1F
100
AcDbEntity
  8
LC-001-100-D00-0
 62
     7
370
    50
100
AcDbLine
 10
303.977763
 20
437.598446
 30
0.0
 11
294.977759
 21
437.598446
 31
0.0
  0
LINE
  5
476
102
{ACAD_REACTORS
330
781
102
}
330
1F
100
AcDbEntity
  8
LC-001-100-D00-0
 62
     7
370
    50
100
AcDbLine
 10
303.977763
 20
437.598446
 30
0.0
 11
303.977763
 21
433.598446
 31
0.0
  0
LINE
  5
477
102
{ACAD_REACTORS
330
781
102
}
330
1F
100
AcDbEntity
  8
LC-001-100-D00-0
 62
     7
370
    50
100
AcDbLine
 10
294.977759
 20
433.098445
 30
0.0
 11
297.977758
 21
433.098445
 31
0.0
  0
LINE
  5
478
102
{ACAD_REACTORS
330
781
102
}
330
1F
100
AcDbEntity
  8
LC-001-100-D00-0
 62
     7
370
    50
100
AcDbLine
 10
300.977764
 20
430.598446
 30
0.0
 11
306.977761
 21
430.598446
 31
0.0
  0
LINE
  5
479
102
{ACAD_REACTORS
330
781
102
}
330
1F
100
AcDbEntity
  8
LC-001-100-D00-0
 62
     7
370
    50
100
AcDbLine
 10
297.977758
 20
434.598446
 30
0.0
 11
300.977764
 21
434.598446
 31
0.0
  0
LINE
  5
47A
102
{ACAD_REACTORS
330
781
102
}
330
1F
100
AcDbEntity
  8
LC-001-100-D00-0
 62
     7
370
    50
100
AcDbLine
 10
441.977759
 20
437.598446
 30
0.0
 11
432.977763
 21
437.598446
 31
0.0
  0
LINE
  5
47B
102
{ACAD_REACTORS
330
781
102
}
330
1F
100
AcDbEntity
  8
LC-001-100-D00-0
 62
     7
370
    50
100
AcDbLine
 10
441.977759
 20
437.598446
 30
0.0
 11
441.977759
 21
433.098445
 31
0.0
  0
LINE
  5
47C
102
{ACAD_REACTORS
330
781
102
}
330
1F
100
AcDbEntity
  8
LC-001-100-D00-0
 62
     7
370
    50
100
AcDbLine
 10
438.977761
 20
434.598446
 30
0.0
 11
438.977761
 21
433.098445
 31
0.0
  0
LINE
  5
47D
102
{ACAD_REACTORS
330
781
102
}
330
1F
100
AcDbEntity
  8
LC-001-100-D00-0
 62
     7
370
    50
100
AcDbLine
 10
432.977763
 20
433.598446
 30
0.0
 11
429.977761
 21
433.598446
 31
0.0
  0
LINE
  5
47E
102
{ACAD_REACTORS
330
781
102
}
330
1F
100
AcDbEntity
  8
LC-001-100-D00-0
 62
     7
370
    50
100
AcDbLine
 10
432.977763
 20
433.598446
 30
0.0
 11
432.977763
 21
437.598446
 31
0.0
  0
LINE
  5
47F
102
{ACAD_REACTORS
330
781
102
}
330
1F
100
AcDbEntity
  8
LC-001-100-D00-0
 62
     7
370
    50
100
AcDbLine
 10
438.977761
 20
433.098445
 30
0.0
 11
441.977759
 21
433.098445
 31
0.0
  0
LINE
  5
480
102
{ACAD_REACTORS
330
781
102
}
330
1F
100
AcDbEntity
  8
LC-001-100-D00-0
 62
     7
370
    50
100
AcDbLine
 10
429.977761
 20
430.598446
 30
0.0
 11
435.977762
 21
430.598446
 31
0.0
  0
LINE
  5
481
102
{ACAD_REACTORS
330
781
102
}
330
1F
100
AcDbEntity
  8
LC-001-100-D00-0
 62
     7
370
    50
100
AcDbLine
 10
435.977762
 20
434.598446
 30
0.0
 11
438.977761
 21
434.598446
 31
0.0
  0
LINE
  5
482
102
{ACAD_REACTORS
330
781
102
}
330
1F
100
AcDbEntity
  8
LC-001-100-D00-0
 62
     7
370
    50
100
AcDbLine
 10
306.977761
 20
430.598446
 30
0.0
 11
313.977761
 21
430.598446
 31
0.0
  0
LINE
  5
483
102
{ACAD_REACTORS
330
781
102
}
330
1F
100
AcDbEntity
  8
LC-001-100-D00-0
 62
     7
370
    50
100
AcDbLine
 10
435.977762
 20
433.098445
 30
0.0
 11
438.977761
 21
433.098445
 31
0.0
  0
LINE
  5
484
102
{ACAD_REACTORS
330
781
102
}
330
1F
100
AcDbEntity
  8
LC-001-100-D00-0
 62
     7
370
    50
100
AcDbLine
 10
297.977758
 20
433.098445
 30
0.0
 11
300.977764
 21
433.098445
 31
0.0
  0
ARC
  5
485
102
{ACAD_REACTORS
330
781
102
}
330
1F
100
AcDbEntity
  8
LC-001-100-D00-0
 62
     7
370
    50
100
AcDbCircle
 10
431.977761
 20
406.598446
 30
0.0
 40
7.0
100
AcDbArc
 50
270.0
 51
0.0
  0
LINE
  5
486
102
{ACAD_REACTORS
330
781
102
}
330
1F
100
AcDbEntity
  8
LC-001-100-D00-0
 62
     7
370
    50
100
AcDbLine
 10
438.977761
 20
434.598446
 30
0.0
 11
438.977761
 21
406.598446
 31
0.0
  0
LINE
  5
487
102
{ACAD_REACTORS
330
781
102
}
330
1F
100
AcDbEntity
  8
LC-001-100-D00-0
 62
     7
370
    50
100
AcDbLine
 10
297.977758
 20
406.598446
 30
0.0
 11
297.977758
 21
434.598446
 31
0.0
  0
ARC
  5
488
102
{ACAD_REACTORS
330
781
102
}
330
1F
100
AcDbEntity
  8
LC-001-100-D00-0
 62
     7
370
    50
100
AcDbCircle
 10
304.977761
 20
406.598446
 30
0.0
 40
7.0
100
AcDbArc
 50
180.0
 51
270.0
  0
LINE
  5
489
102
{ACAD_REACTORS
330
781
102
}
330
1F
100
AcDbEntity
  8
LC-001-100-D00-0
 62
     7
370
    50
100
AcDbLine
 10
431.977761
 20
399.598446
 30
0.0
 11
304.977765
 21
399.598446
 31
0.0
  0
LINE
  5
48A
102
{ACAD_REACTORS
330
781
102
}
330
1F
100
AcDbEntity
  8
LC-001-100-D00-0
 62
     7
370
    50
100
AcDbLine
 10
441.977759
 20
434.598446
 30
0.0
 11
441.977759
 21
406.598446
 31
0.0
  0
ARC
  5
48B
102
{ACAD_REACTORS
330
781
102
}
330
1F
100
AcDbEntity
  8
LC-001-100-D00-0
 62
     7
370
    50
100
AcDbCircle
 10
431.977761
 20
406.598446
 30
0.0
 40
10.0
100
AcDbArc
 50
270.0
 51
0.0
  0
LINE
  5
48C
102
{ACAD_REACTORS
330
781
102
}
330
1F
100
AcDbEntity
  8
LC-001-100-D00-0
 62
     7
370
    50
100
AcDbLine
 10
431.977761
 20
396.598445
 30
0.0
 11
304.977765
 21
396.598445
 31
0.0
  0
ARC
  5
48D
102
{ACAD_REACTORS
330
781
102
}
330
1F
100
AcDbEntity
  8
LC-001-100-D00-0
 62
     7
370
    50
100
AcDbCircle
 10
304.977761
 20
406.598446
 30
0.0
 40
10.0
100
AcDbArc
 50
180.0
 51
270.0
  0
LINE
  5
48E
102
{ACAD_REACTORS
330
781
102
}
330
1F
100
AcDbEntity
  8
LC-001-100-D00-0
 62
     7
370
    50
100
AcDbLine
 10
294.977759
 20
406.598446
 30
0.0
 11
294.977759
 21
434.598446
 31
0.0
  0
LINE
  5
48F
102
{ACAD_REACTORS
330
781
102
}
330
1F
100
AcDbEntity
  8
LC-001-100-D00-0
 62
     7
370
    50
100
AcDbLine
 10
297.977758
 20
434.598446
 30
0.0
 11
294.977759
 21
434.598446
 31
0.0
  0
LINE
  5
490
102
{ACAD_REACTORS
330
781
102
}
330
1F
100
AcDbEntity
  8
LC-001-100-D00-0
 62
     7
370
    50
100
AcDbLine
 10
441.977759
 20
434.598446
 30
0.0
 11
438.977761
 21
434.598446
 31
0.0
  0
INSERT
  5
49D
102
{ACAD_REACTORS
330
781
102
}
330
1F
100
AcDbEntity
  8
LC-001-100-D00-0
 62
     7
370
    25
100
AcDbBlockReference
  2
KLON27
 10
0.0
 20
0.0
 30
0.0
  0
LINE
  5
49E
102
{ACAD_REACTORS
330
781
102
}
330
1F
100
AcDbEntity
  8
LC-001-100-D00-0
 62
     7
370
    25
100
AcDbLine
 10
426.134138
 20
434.299863
 30
0.0
 11
429.432721
 21
437.598446
 31
0.0
  0
INSERT
  5
4AA
102
{ACAD_REACTORS
330
781
102
}
330
1F
100
AcDbEntity
  8
LC-001-100-D00-0
 62
     7
370
    25
100
AcDbBlockReference
  2
KLON28
 10
0.0
 20
0.0
 30
0.0
  0
DIMENSION
  5
4AB
102
{ACAD_REACTORS
330
781
102
}
330
1F
100
AcDbEntity
  8
LC-001-100-D00-0
 62
     7
370
    25
100
AcDbDimension
  2
*D35
 10
441.977761
 20
297.788446
 30
0.0
 11
358.877357
 21
352.788446
 31
0.0
 70
   160
  1
147
 71
     5
 42
147.0
  3
LC-DIM-L-0100-02-02
100
AcDbAlignedDimension
 13
294.977761
 23
406.598446
 33
0.0
 14
441.977761
 24
406.598446
 34
0.0
100
AcDbRotatedDimension
  0
LINE
  5
4B8
102
{ACAD_REACTORS
330
781
102
}
330
1F
100
AcDbEntity
  8
LC-001-100-D00-0
  6
DASHDOT
 62
     7
370
    25
100
AcDbLine
 10
370.044794
 20
464.598445
 30
0.0
 11
370.044794
 21
396.598445
 31
0.0
  0
DIMENSION
  5
4B9
330
1F
100
AcDbEntity
  8
LC-001-100-D00-0
 62
     7
370
    25
100
AcDbDimension
  2
*D36
 10
717.385092
 20
396.598446
 30
0.0
 11
662.385092
 21
430.294115
 31
0.0
 70
   160
  1
68
 71
     5
 42
68.0
 53
90.0
  3
LC-DIM-L-0100-02-02
100
AcDbAlignedDimension
 13
668.477761
 23
464.598446
 33
0.0
 14
431.977761
 24
396.598446
 34
0.0
 50
90.0
100
AcDbRotatedDimension
  0
INSERT
  5
4CD
330
1F
100
AcDbEntity
  8
LC-001-100-D00-0
 62
     7
370
    50
100
AcDbBlockReference
  2
KLON29
 10
0.0
 20
0.0
 30
0.0
  0
ARC
  5
4CE
330
1F
100
AcDbEntity
  8
LC-001-100-D00-0
 62
     7
370
    50
100
AcDbCircle
 10
398.977751
 20
36.556018
 30
0.0
 40
24.76305695180431
100
AcDbArc
 50
286.637155
 51
62.523751
  0
LINE
  5
4CF
330
1F
100
AcDbEntity
  8
LC-001-100-D00-0
 62
     7
370
    50
100
AcDbLine
 10
400.115129
 20
11.819096
 30
0.0
 11
398.977751
 21
11.792961
 31
0.0
  0
LINE
  5
4D0
330
1F
100
AcDbEntity
  8
LC-001-100-D00-0
 62
     7
370
    50
100
AcDbLine
 10
337.977751
 20
61.319075
 30
0.0
 11
398.977751
 21
61.319075
 31
0.0
  0
INSERT
  5
4D6
330
1F
100
AcDbEntity
  8
LC-001-100-D00-0
 62
     7
370
    50
100
AcDbBlockReference
  2
KLON30
 10
0.0
 20
0.0
 30
0.0
  0
ARC
  5
4D7
330
1F
100
AcDbEntity
  8
LC-001-100-D00-0
 62
     7
370
    50
100
AcDbCircle
 10
337.977751
 20
36.556018
 30
0.0
 40
24.76305695180422
100
AcDbArc
 50
109.469149
 51
245.19649
  0
LINE
  5
4D8
330
1F
100
AcDbEntity
  8
LC-001-100-D00-0
 62
     7
370
    50
100
AcDbLine
 10
336.381859
 20
61.267597
 30
0.0
 11
337.977751
 21
61.319075
 31
0.0
  0
LINE
  5
4D9
330
1F
100
AcDbEntity
  8
LC-001-100-D00-0
 62
     7
370
    50
100
AcDbLine
 10
398.977751
 20
11.792961
 30
0.0
 11
337.977751
 21
11.792961
 31
0.0
  0
INSERT
  5
4E9
330
1F
100
AcDbEntity
  8
LC-001-100-D00-0
 62
     7
370
    50
100
AcDbBlockReference
  2
POLY1
 10
0.0
 20
0.0
 30
0.0
  0
INSERT
  5
4F9
330
1F
100
AcDbEntity
  8
LC-001-100-D00-0
 62
     7
370
    50
100
AcDbBlockReference
  2
POLY2
 10
0.0
 20
0.0
 30
0.0
  0
INSERT
  5
509
330
1F
100
AcDbEntity
  8
LC-001-100-D00-0
 62
     7
370
    50
100
AcDbBlockReference
  2
POLY3
 10
0.0
 20
0.0
 30
0.0
  0
INSERT
  5
519
330
1F
100
AcDbEntity
  8
LC-001-100-D00-0
 62
     7
370
    50
100
AcDbBlockReference
  2
POLY4
 10
0.0
 20
0.0
 30
0.0
  0
LINE
  5
51A
330
1F
100
AcDbEntity
  8
LC-001-100-D00-0
 62
     7
370
    50
100
AcDbLine
 10
337.977751
 20
61.356019
 30
0.0
 11
398.977751
 21
61.356019
 31
0.0
  0
LINE
  5
51B
330
1F
100
AcDbEntity
  8
LC-001-100-D00-0
 62
     7
370
    50
100
AcDbLine
 10
398.977751
 20
11.756017
 30
0.0
 11
337.977751
 21
11.756017
 31
0.0
  0
ARC
  5
51C
330
1F
100
AcDbEntity
  8
LC-001-100-D00-0
 62
     7
370
    50
100
AcDbCircle
 10
398.977751
 20
36.556018
 30
0.0
 40
24.7999999999944
100
AcDbArc
 50
300.592814
 51
59.407186
  0
ARC
  5
51D
330
1F
100
AcDbEntity
  8
LC-001-100-D00-0
 62
     7
370
    50
100
AcDbCircle
 10
337.977751
 20
36.556018
 30
0.0
 40
24.79999999999429
100
AcDbArc
 50
120.592814
 51
239.407186
  0
LINE
  5
51E
330
1F
100
AcDbEntity
  8
LC-001-100-D00-0
 62
     7
370
    50
100
AcDbLine
 10
413.723255
 20
56.09598
 30
0.0
 11
413.627668
 21
55.943384
 31
0.0
  0
LINE
  5
51F
330
1F
100
AcDbEntity
  8
LC-001-100-D00-0
 62
     7
370
    50
100
AcDbLine
 10
408.442745
 20
58.936901
 30
0.0
 11
408.527101
 21
59.09598
 31
0.0
  0
LINE
  5
520
330
1F
100
AcDbEntity
  8
LC-001-100-D00-0
 62
     7
370
    50
100
AcDbLine
 10
328.428401
 20
59.09598
 30
0.0
 11
328.512757
 21
58.936901
 31
0.0
  0
LINE
  5
521
330
1F
100
AcDbEntity
  8
LC-001-100-D00-0
 62
     7
370
    50
100
AcDbLine
 10
323.327834
 20
55.943384
 30
0.0
 11
323.232247
 21
56.09598
 31
0.0
  0
LINE
  5
522
330
1F
100
AcDbEntity
  8
LC-001-100-D00-0
 62
     7
370
    50
100
AcDbLine
 10
323.232247
 20
17.016057
 30
0.0
 11
323.327834
 21
17.168652
 31
0.0
  0
LINE
  5
523
330
1F
100
AcDbEntity
  8
LC-001-100-D00-0
 62
     7
370
    50
100
AcDbLine
 10
328.512757
 20
14.175135
 30
0.0
 11
328.428401
 21
14.016056
 31
0.0
  0
INSERT
  5
533
330
1F
100
AcDbEntity
  8
LC-001-100-D00-0
 62
     7
370
    50
100
AcDbBlockReference
  2
POLY5
 10
0.0
 20
0.0
 30
0.0
  0
LINE
  5
534
330
1F
100
AcDbEntity
  8
LC-001-100-D00-0
 62
     7
370
    50
100
AcDbLine
 10
408.527101
 20
14.016056
 30
0.0
 11
408.442745
 21
14.175135
 31
0.0
  0
LINE
  5
535
330
1F
100
AcDbEntity
  8
LC-001-100-D00-0
 62
     7
370
    50
100
AcDbLine
 10
413.627668
 20
17.168652
 30
0.0
 11
413.723255
 21
17.016057
 31
0.0
  0
INSERT
  5
545
330
1F
100
AcDbEntity
  8
LC-001-100-D00-0
 62
     7
370
    50
100
AcDbBlockReference
  2
POLY6
 10
0.0
 20
0.0
 30
0.0
  0
LINE
  5
546
330
1F
100
AcDbEntity
  8
LC-001-100-D00-0
 62
     7
370
    50
100
AcDbLine
 10
408.442745
 20
58.936901
 30
0.0
 11
408.328264
 21
58.65959
 31
0.0
  0
LINE
  5
547
330
1F
100
AcDbEntity
  8
LC-001-100-D00-0
 62
     7
370
    50
100
AcDbLine
 10
413.444749
 20
55.705586
 30
0.0
 11
413.627668
 21
55.943384
 31
0.0
  0
LINE
  5
548
330
1F
100
AcDbEntity
  8
LC-001-100-D00-0
 62
     7
370
    50
100
AcDbLine
 10
323.327834
 20
55.943384
 30
0.0
 11
323.51075
 21
55.705586
 31
0.0
  0
LINE
  5
549
330
1F
100
AcDbEntity
  8
LC-001-100-D00-0
 62
     7
370
    50
100
AcDbLine
 10
328.627238
 20
58.65959
 30
0.0
 11
328.512757
 21
58.936901
 31
0.0
  0
LINE
  5
54A
330
1F
100
AcDbEntity
  8
LC-001-100-D00-0
 62
     7
370
    50
100
AcDbLine
 10
328.512757
 20
14.175135
 30
0.0
 11
328.627238
 21
14.452446
 31
0.0
  0
LINE
  5
54B
330
1F
100
AcDbEntity
  8
LC-001-100-D00-0
 62
     7
370
    50
100
AcDbLine
 10
323.51075
 20
17.40645
 30
0.0
 11
323.327834
 21
17.168652
 31
0.0
  0
LINE
  5
54C
330
1F
100
AcDbEntity
  8
LC-001-100-D00-0
 62
     7
370
    50
100
AcDbLine
 10
408.328264
 20
14.452446
 30
0.0
 11
408.442745
 21
14.175135
 31
0.0
  0
LINE
  5
54D
330
1F
100
AcDbEntity
  8
LC-001-100-D00-0
 62
     7
370
    50
100
AcDbLine
 10
413.627668
 20
17.168652
 30
0.0
 11
413.444749
 21
17.40645
 31
0.0
  0
ARC
  5
54E
330
1F
100
AcDbEntity
  8
LC-001-100-D00-0
 62
     7
370
    50
100
AcDbCircle
 10
417.086796
 20
42.306018
 30
0.0
 40
1.000000000000185
100
AcDbArc
 50
17.615731
 51
90.0
  0
ARC
  5
54F
330
1F
100
AcDbEntity
  8
LC-001-100-D00-0
 62
     7
370
    50
100
AcDbCircle
 10
398.977751
 20
36.556018
 30
0.0
 40
20.00000000000017
100
AcDbArc
 50
270.0
 51
17.615731
  0
ARC
  5
550
330
1F
100
AcDbEntity
  8
LC-001-100-D00-0
 62
     7
370
    50
100
AcDbCircle
 10
337.977751
 20
36.556018
 30
0.0
 40
20.00000000000007
100
AcDbArc
 50
162.384269
 51
270.0
  0
ARC
  5
551
330
1F
100
AcDbEntity
  8
LC-001-100-D00-0
 62
     7
370
    50
100
AcDbCircle
 10
319.868706
 20
42.306018
 30
0.0
 40
1.0
100
AcDbArc
 50
90.0
 51
162.384269
  0
LINE
  5
552
330
1F
100
AcDbEntity
  8
LC-001-100-D00-0
 62
     7
370
    50
100
AcDbLine
 10
319.868705
 20
43.306018
 30
0.0
 11
417.086797
 21
43.306018
 31
0.0
  0
LINE
  5
553
330
1F
100
AcDbEntity
  8
LC-001-100-D00-0
 62
     7
370
    50
100
AcDbLine
 10
398.977751
 20
16.556019
 30
0.0
 11
337.977751
 21
16.556019
 31
0.0
  0
ARC
  5
554
330
1F
100
AcDbEntity
  8
LC-001-100-D00-0
 62
     7
370
    50
100
AcDbCircle
 10
398.977751
 20
36.556018
 30
0.0
 40
18.50000000000021
100
AcDbArc
 50
21.399266
 51
90.0
  0
ARC
  5
555
330
1F
100
AcDbEntity
  8
LC-001-100-D00-0
 62
     7
370
    50
100
AcDbCircle
 10
337.977751
 20
36.556018
 30
0.0
 40
18.49999999999994
100
AcDbArc
 50
90.0
 51
158.600734
  0
LINE
  5
556
330
1F
100
AcDbEntity
  8
LC-001-100-D00-0
 62
     7
370
    50
100
AcDbLine
 10
398.977751
 20
60.556018
 30
0.0
 11
337.977751
 21
60.556018
 31
0.0
  0
ARC
  5
557
330
1F
100
AcDbEntity
  8
LC-001-100-D00-0
 62
     7
370
    50
100
AcDbCircle
 10
398.977751
 20
36.556018
 30
0.0
 40
24.0
100
AcDbArc
 50
270.0
 51
90.0
  0
LINE
  5
558
330
1F
100
AcDbEntity
  8
LC-001-100-D00-0
 62
     7
370
    50
100
AcDbLine
 10
337.977751
 20
12.556018
 30
0.0
 11
398.977751
 21
12.556018
 31
0.0
  0
ARC
  5
559
330
1F
100
AcDbEntity
  8
LC-001-100-D00-0
 62
     7
370
    50
100
AcDbCircle
 10
337.977751
 20
36.556018
 30
0.0
 40
24.0
100
AcDbArc
 50
90.0
 51
270.0
  0
LINE
  5
55A
330
1F
100
AcDbEntity
  8
LC-001-100-D00-0
 62
     7
370
    50
100
AcDbLine
 10
398.977751
 20
55.056018
 30
0.0
 11
337.977751
 21
55.056018
 31
0.0
  0
LINE
  5
55B
330
1F
100
AcDbEntity
  8
LC-001-100-D00-0
 62
     7
370
    50
100
AcDbLine
 10
313.862021
 20
30.931018
 30
0.0
 11
314.646239
 21
30.931018
 31
0.0
  0
LINE
  5
55C
330
1F
100
AcDbEntity
  8
LC-001-100-D00-0
 62
     7
370
    50
100
AcDbLine
 10
422.309263
 20
30.931018
 30
0.0
 11
423.093478
 21
30.931018
 31
0.0
  0
LINE
  5
55D
330
1F
100
AcDbEntity
  8
LC-001-100-D00-0
 62
     7
370
    50
100
AcDbLine
 10
314.417864
 20
28.931018
 30
0.0
 11
315.221226
 21
28.931018
 31
0.0
  0
LINE
  5
55E
330
1F
100
AcDbEntity
  8
LC-001-100-D00-0
 62
     7
370
    50
100
AcDbLine
 10
421.734276
 20
28.931018
 30
0.0
 11
422.537638
 21
28.931018
 31
0.0
  0
LINE
  5
55F
330
1F
100
AcDbEntity
  8
LC-001-100-D00-0
 62
     7
370
    50
100
AcDbLine
 10
393.477751
 20
-66.443982
 30
0.0
 11
393.477751
 21
-40.943982
 31
0.0
  0
LINE
  5
560
330
1F
100
AcDbEntity
  8
LC-001-100-D00-0
 62
     7
370
    50
100
AcDbLine
 10
343.477751
 20
-40.943982
 30
0.0
 11
343.477751
 21
-66.443982
 31
0.0
  0
LINE
  5
561
330
1F
100
AcDbEntity
  8
LC-001-100-D00-0
 62
     7
370
    50
100
AcDbLine
 10
343.477751
 20
-66.443982
 30
0.0
 11
344.281599
 21
-69.443981
 31
0.0
  0
LINE
  5
562
330
1F
100
AcDbEntity
  8
LC-001-100-D00-0
 62
     7
370
    50
100
AcDbLine
 10
392.673903
 20
-69.443981
 30
0.0
 11
393.477751
 21
-66.443982
 31
0.0
  0
LINE
  5
563
330
1F
100
AcDbEntity
  8
LC-001-100-D00-0
 62
     7
370
    50
100
AcDbLine
 10
343.477751
 20
-66.443982
 30
0.0
 11
393.477751
 21
-66.443982
 31
0.0
  0
LINE
  5
564
330
1F
100
AcDbEntity
  8
LC-001-100-D00-0
 62
     7
370
    50
100
AcDbLine
 10
392.673903
 20
-69.443981
 30
0.0
 11
344.281599
 21
-69.443981
 31
0.0
  0
LINE
  5
565
330
1F
100
AcDbEntity
  8
LC-001-100-D00-0
 62
     7
370
    50
100
AcDbLine
 10
-348.936295
 20
429.098445
 30
0.0
 11
-348.936295
 21
430.598445
 31
0.0
  0
LINE
  5
566
330
1F
100
AcDbEntity
  8
LC-001-100-D00-0
 62
     7
370
    50
100
AcDbLine
 10
-433.646333
 20
396.598444
 30
0.0
 11
-360.646332
 21
396.598444
 31
0.0
  0
LINE
  5
567
330
1F
100
AcDbEntity
  8
LC-001-100-D00-0
 62
     7
370
    50
100
AcDbLine
 10
-386.378382
 20
446.598445
 30
0.0
 11
-433.646333
 21
446.598445
 31
0.0
  0
LINE
  5
568
330
1F
100
AcDbEntity
  8
LC-001-100-D00-0
 62
     7
370
    50
100
AcDbLine
 10
-433.646333
 20
446.598445
 30
0.0
 11
-436.646331
 21
445.794596
 31
0.0
  0
LINE
  5
569
330
1F
100
AcDbEntity
  8
LC-001-100-D00-0
 62
     7
370
    50
100
AcDbLine
 10
-436.646331
 20
397.402293
 30
0.0
 11
-433.646333
 21
396.598444
 31
0.0
  0
LINE
  5
56A
330
1F
100
AcDbEntity
  8
LC-001-100-D00-0
 62
     7
370
    50
100
AcDbLine
 10
-340.396333
 20
457.598445
 30
0.0
 11
-340.396333
 21
447.098444
 31
0.0
  0
LINE
  5
56B
330
1F
100
AcDbEntity
  8
LC-001-100-D00-0
 62
     7
370
    50
100
AcDbLine
 10
-320.896332
 20
446.598445
 30
0.0
 11
-320.896332
 21
457.598445
 31
0.0
  0
ARC
  5
56C
330
1F
100
AcDbEntity
  8
LC-001-100-D00-0
 62
     7
370
    50
100
AcDbCircle
 10
-321.896333
 20
446.598445
 30
0.0
 40
1.000000000000114
100
AcDbArc
 50
270.0
 51
0.0
  0
ARC
  5
56D
330
1F
100
AcDbEntity
  8
LC-001-100-D00-0
 62
     7
370
    50
100
AcDbCircle
 10
-404.146333
 20
342.598445
 30
0.0
 40
0.5
100
AcDbArc
 50
90.0
 51
180.0
  0
ARC
  5
56E
330
1F
100
AcDbEntity
  8
LC-001-100-D00-0
 62
     7
370
    50
100
AcDbCircle
 10
-386.146333
 20
342.598445
 30
0.0
 40
0.5
100
AcDbArc
 50
0.0
 51
90.0
  0
LINE
  5
56F
330
1F
100
AcDbEntity
  8
LC-001-100-D00-0
 62
     7
370
    50
100
AcDbLine
 10
-404.646333
 20
342.598443
 30
0.0
 11
-404.646333
 21
335.098443
 31
0.0
  0
LINE
  5
570
330
1F
100
AcDbEntity
  8
LC-001-100-D00-0
 62
     7
370
    50
100
AcDbLine
 10
-385.646332
 20
335.098443
 30
0.0
 11
-385.646332
 21
342.598443
 31
0.0
  0
LINE
  5
571
330
1F
100
AcDbEntity
  8
LC-001-100-D00-0
 62
     7
370
    50
100
AcDbLine
 10
-405.146334
 20
396.598444
 30
0.0
 11
-405.146334
 21
358.098445
 31
0.0
  0
LINE
  5
572
330
1F
100
AcDbEntity
  8
LC-001-100-D00-0
 62
     7
370
    50
100
AcDbLine
 10
-385.146331
 20
358.098445
 30
0.0
 11
-385.146331
 21
396.598444
 31
0.0
  0
LINE
  5
573
330
1F
100
AcDbEntity
  8
LC-001-100-D00-0
 62
     7
370
    50
100
AcDbLine
 10
-405.146334
 20
354.598445
 30
0.0
 11
-405.146334
 21
344.098446
 31
0.0
  0
LINE
  5
574
330
1F
100
AcDbEntity
  8
LC-001-100-D00-0
 62
     7
370
    50
100
AcDbLine
 10
-385.146331
 20
344.098446
 30
0.0
 11
-385.146331
 21
354.598445
 31
0.0
  0
LINE
  5
575
330
1F
100
AcDbEntity
  8
LC-001-100-D00-0
 62
     7
370
    50
100
AcDbLine
 10
-405.146334
 20
344.098446
 30
0.0
 11
-404.146332
 21
343.098444
 31
0.0
  0
LINE
  5
576
330
1F
100
AcDbEntity
  8
LC-001-100-D00-0
 62
     7
370
    50
100
AcDbLine
 10
-386.146333
 20
343.098444
 30
0.0
 11
-385.146331
 21
344.098446
 31
0.0
  0
LINE
  5
577
330
1F
100
AcDbEntity
  8
LC-001-100-D00-0
 62
     7
370
    50
100
AcDbLine
 10
-403.046336
 20
358.098445
 30
0.0
 11
-403.046336
 21
354.598445
 31
0.0
  0
LINE
  5
578
330
1F
100
AcDbEntity
  8
LC-001-100-D00-0
 62
     7
370
    50
100
AcDbLine
 10
-387.246333
 20
354.598445
 30
0.0
 11
-387.246333
 21
358.098445
 31
0.0
  0
ARC
  5
579
330
1F
100
AcDbEntity
  8
LC-001-100-D00-0
 62
     7
370
    50
100
AcDbCircle
 10
-301.646333
 20
461.598445
 30
0.0
 40
3.0
100
AcDbArc
 50
90.0
 51
180.0
  0
LINE
  5
57A
330
1F
100
AcDbEntity
  8
LC-001-100-D00-0
 62
     7
370
    50
100
AcDbLine
 10
-301.646333
 20
464.598444
 30
0.0
 11
-287.646331
 21
464.598444
 31
0.0
  0
ARC
  5
57B
330
1F
100
AcDbEntity
  8
LC-001-100-D00-0
 62
     7
370
    50
100
AcDbCircle
 10
-287.646333
 20
466.098445
 30
0.0
 40
1.500000000000114
100
AcDbArc
 50
270.0
 51
0.0
  0
LINE
  5
57C
330
1F
100
AcDbEntity
  8
LC-001-100-D00-0
 62
     7
370
    50
100
AcDbLine
 10
-286.146332
 20
466.098444
 30
0.0
 11
-286.146332
 21
510.598448
 31
0.0
  0
LINE
  5
57D
330
1F
100
AcDbEntity
  8
LC-001-100-D00-0
 62
     7
370
    50
100
AcDbLine
 10
-286.146332
 20
510.598448
 30
0.0
 11
-284.646332
 21
510.598448
 31
0.0
  0
LINE
  5
57E
330
1F
100
AcDbEntity
  8
LC-001-100-D00-0
 62
     7
370
    50
100
AcDbLine
 10
-284.646332
 20
510.598448
 30
0.0
 11
-284.646332
 21
465.598446
 31
0.0
  0
ARC
  5
57F
330
1F
100
AcDbEntity
  8
LC-001-100-D00-0
 62
     7
370
    50
100
AcDbCircle
 10
-287.146333
 20
465.598445
 30
0.0
 40
2.5
100
AcDbArc
 50
270.0
 51
0.0
  0
LINE
  5
580
330
1F
100
AcDbEntity
  8
LC-001-100-D00-0
 62
     7
370
    50
100
AcDbLine
 10
-301.646333
 20
463.098445
 30
0.0
 11
-287.146334
 21
463.098445
 31
0.0
  0
ARC
  5
581
330
1F
100
AcDbEntity
  8
LC-001-100-D00-0
 62
     7
370
    50
100
AcDbCircle
 10
-301.646333
 20
461.598445
 30
0.0
 40
1.5
100
AcDbArc
 50
90.0
 51
180.0
  0
LINE
  5
582
330
1F
100
AcDbEntity
  8
LC-001-100-D00-0
 62
     7
370
    50
100
AcDbLine
 10
-303.146333
 20
461.598446
 30
0.0
 11
-303.146333
 21
441.598444
 31
0.0
  0
ARC
  5
583
330
1F
100
AcDbEntity
  8
LC-001-100-D00-0
 62
     7
370
    50
100
AcDbCircle
 10
-307.146333
 20
441.598445
 30
0.0
 40
4.000000000000073
100
AcDbArc
 50
319.464198
 51
360.0
  0
ARC
  5
584
330
1F
100
AcDbEntity
  8
LC-001-100-D00-0
 62
     7
370
    50
100
AcDbCircle
 10
-303.346333
 20
438.34883
 30
0.0
 40
0.9999999999999845
100
AcDbArc
 50
139.464198
 51
180.0
  0
LINE
  5
585
330
1F
100
AcDbEntity
  8
LC-001-100-D00-0
 62
     7
370
    50
100
AcDbLine
 10
-304.346333
 20
432.598445
 30
0.0
 11
-304.346333
 21
438.348829
 31
0.0
  0
LINE
  5
586
330
1F
100
AcDbEntity
  8
LC-001-100-D00-0
 62
     7
370
    50
100
AcDbLine
 10
-305.846332
 20
432.598445
 30
0.0
 11
-304.346333
 21
432.598445
 31
0.0
  0
LINE
  5
587
330
1F
100
AcDbEntity
  8
LC-001-100-D00-0
 62
     7
370
    50
100
AcDbLine
 10
-305.846332
 20
432.598445
 30
0.0
 11
-305.846332
 21
438.348829
 31
0.0
  0
ARC
  5
588
330
1F
100
AcDbEntity
  8
LC-001-100-D00-0
 62
     7
370
    50
100
AcDbCircle
 10
-303.346333
 20
438.34883
 30
0.0
 40
2.499999999999998
100
AcDbArc
 50
139.464198
 51
180.0
  0
ARC
  5
589
330
1F
100
AcDbEntity
  8
LC-001-100-D00-0
 62
     7
370
    50
100
AcDbCircle
 10
-307.146333
 20
441.598445
 30
0.0
 40
2.499999999999986
100
AcDbArc
 50
319.464198
 51
360.0
  0
LINE
  5
58A
330
1F
100
AcDbEntity
  8
LC-001-100-D00-0
 62
     7
370
    50
100
AcDbLine
 10
-304.646332
 20
461.598446
 30
0.0
 11
-304.646332
 21
441.598444
 31
0.0
  0
LINE
  5
58B
330
1F
100
AcDbEntity
  8
LC-001-100-D00-0
 62
     7
370
    50
100
AcDbLine
 10
-358.146332
 20
441.598444
 30
0.0
 11
-358.146332
 21
461.598446
 31
0.0
  0
ARC
  5
58C
330
1F
100
AcDbEntity
  8
LC-001-100-D00-0
 62
     7
370
    50
100
AcDbCircle
 10
-359.646333
 20
461.598445
 30
0.0
 40
1.5
100
AcDbArc
 50
0.0
 51
90.0
  0
LINE
  5
58D
330
1F
100
AcDbEntity
  8
LC-001-100-D00-0
 62
     7
370
    50
100
AcDbLine
 10
-408.146333
 20
463.098445
 30
0.0
 11
-359.646332
 21
463.098445
 31
0.0
  0
LINE
  5
58E
330
1F
100
AcDbEntity
  8
LC-001-100-D00-0
 62
     7
370
    50
100
AcDbLine
 10
-408.146333
 20
463.098445
 30
0.0
 11
-408.146333
 21
464.598444
 31
0.0
  0
LINE
  5
58F
330
1F
100
AcDbEntity
  8
LC-001-100-D00-0
 62
     7
370
    50
100
AcDbLine
 10
-408.146333
 20
464.598444
 30
0.0
 11
-359.646332
 21
464.598444
 31
0.0
  0
ARC
  5
590
330
1F
100
AcDbEntity
  8
LC-001-100-D00-0
 62
     7
370
    50
100
AcDbCircle
 10
-359.646333
 20
461.598445
 30
0.0
 40
3.000000000000114
100
AcDbArc
 50
0.0
 51
90.0
  0
LINE
  5
591
330
1F
100
AcDbEntity
  8
LC-001-100-D00-0
 62
     7
370
    50
100
AcDbLine
 10
-356.646333
 20
441.598444
 30
0.0
 11
-356.646333
 21
461.598446
 31
0.0
  0
ARC
  5
592
330
1F
100
AcDbEntity
  8
LC-001-100-D00-0
 62
     7
370
    50
100
AcDbCircle
 10
-354.146333
 20
441.598445
 30
0.0
 40
2.5
100
AcDbArc
 50
180.0
 51
220.535802
  0
ARC
  5
593
330
1F
100
AcDbEntity
  8
LC-001-100-D00-0
 62
     7
370
    50
100
AcDbCircle
 10
-357.946333
 20
438.34883
 30
0.0
 40
2.5
100
AcDbArc
 50
0.0
 51
40.535802
  0
LINE
  5
594
330
1F
100
AcDbEntity
  8
LC-001-100-D00-0
 62
     7
370
    50
100
AcDbLine
 10
-355.446333
 20
438.348829
 30
0.0
 11
-355.446333
 21
432.598445
 31
0.0
  0
LINE
  5
595
330
1F
100
AcDbEntity
  8
LC-001-100-D00-0
 62
     7
370
    50
100
AcDbLine
 10
-356.946333
 20
432.598445
 30
0.0
 11
-355.446333
 21
432.598445
 31
0.0
  0
LINE
  5
596
330
1F
100
AcDbEntity
  8
LC-001-100-D00-0
 62
     7
370
    50
100
AcDbLine
 10
-356.946333
 20
438.348829
 30
0.0
 11
-356.946333
 21
432.598445
 31
0.0
  0
ARC
  5
597
330
1F
100
AcDbEntity
  8
LC-001-100-D00-0
 62
     7
370
    50
100
AcDbCircle
 10
-357.946333
 20
438.34883
 30
0.0
 40
1.0
100
AcDbArc
 50
0.0
 51
40.535802
  0
ARC
  5
598
330
1F
100
AcDbEntity
  8
LC-001-100-D00-0
 62
     7
370
    50
100
AcDbCircle
 10
-354.146333
 20
441.598445
 30
0.0
 40
4.0
100
AcDbArc
 50
180.0
 51
220.535802
  0
LINE
  5
599
330
1F
100
AcDbEntity
  8
LC-001-100-D00-0
 62
     7
370
    50
100
AcDbLine
 10
-354.774136
 20
431.098444
 30
0.0
 11
-354.774136
 21
432.598445
 31
0.0
  0
LINE
  5
59A
330
1F
100
AcDbEntity
  8
LC-001-100-D00-0
 62
     7
370
    50
100
AcDbLine
 10
-306.518529
 20
431.098444
 30
0.0
 11
-306.518529
 21
432.598445
 31
0.0
  0
LINE
  5
59B
330
1F
100
AcDbEntity
  8
LC-001-100-D00-0
 62
     7
370
    50
100
AcDbLine
 10
-353.466042
 20
432.098445
 30
0.0
 11
-353.466042
 21
432.598445
 31
0.0
  0
LINE
  5
59C
330
1F
100
AcDbEntity
  8
LC-001-100-D00-0
 62
     7
370
    50
100
AcDbLine
 10
-307.826623
 20
432.098445
 30
0.0
 11
-307.826623
 21
432.598445
 31
0.0
  0
LINE
  5
59D
330
1F
100
AcDbEntity
  8
LC-001-100-D00-0
 62
     7
370
    50
100
AcDbLine
 10
-353.466042
 20
432.598445
 30
0.0
 11
-355.446333
 21
432.598445
 31
0.0
  0
LINE
  5
59E
330
1F
100
AcDbEntity
  8
LC-001-100-D00-0
 62
     7
370
    50
100
AcDbLine
 10
-305.846332
 20
432.598445
 30
0.0
 11
-307.826623
 21
432.598445
 31
0.0
  0
INSERT
  5
5AE
330
1F
100
AcDbEntity
  8
LC-001-100-D00-0
 62
     7
370
    50
100
AcDbBlockReference
  2
POLY7
 10
0.0
 20
0.0
 30
0.0
  0
INSERT
  5
5BE
330
1F
100
AcDbEntity
  8
LC-001-100-D00-0
 62
     7
370
    50
100
AcDbBlockReference
  2
POLY8
 10
0.0
 20
0.0
 30
0.0
  0
LINE
  5
5BF
330
1F
100
AcDbEntity
  8
LC-001-100-D00-0
 62
     7
370
    50
100
AcDbLine
 10
-308.26545
 20
429.098445
 30
0.0
 11
-308.10637
 21
429.106506
 31
0.0
  0
LINE
  5
5C0
330
1F
100
AcDbEntity
  8
LC-001-100-D00-0
 62
     7
370
    50
100
AcDbLine
 10
-308.26545
 20
429.098445
 30
0.0
 11
-310.646333
 21
429.098445
 31
0.0
  0
LINE
  5
5C1
330
1F
100
AcDbEntity
  8
LC-001-100-D00-0
 62
     7
370
    50
100
AcDbLine
 10
-349.745969
 20
429.098445
 30
0.0
 11
-353.027215
 21
429.098445
 31
0.0
  0
LINE
  5
5C2
330
1F
100
AcDbEntity
  8
LC-001-100-D00-0
 62
     7
370
    50
100
AcDbLine
 10
-353.186295
 20
429.106506
 30
0.0
 11
-353.027215
 21
429.098445
 31
0.0
  0
INSERT
  5
5D4
330
1F
100
AcDbEntity
  8
LC-001-100-D00-0
 62
     7
370
    50
100
AcDbBlockReference
  2
POLY9
 10
0.0
 20
0.0
 30
0.0
  0
INSERT
  5
5E6
330
1F
100
AcDbEntity
  8
LC-001-100-D00-0
 62
     7
370
    50
100
AcDbBlockReference
  2
POLY10
 10
0.0
 20
0.0
 30
0.0
  0
LINE
  5
5E7
330
1F
100
AcDbEntity
  8
LC-001-100-D00-0
 62
     7
370
    50
100
AcDbLine
 10
-349.29741
 20
429.098445
 30
0.0
 11
-349.745969
 21
429.098445
 31
0.0
  0
LINE
  5
5E8
330
1F
100
AcDbEntity
  8
LC-001-100-D00-0
 62
     7
370
    50
100
AcDbLine
 10
-348.936295
 20
429.098445
 30
0.0
 11
-349.29741
 21
429.098445
 31
0.0
  0
LINE
  5
5E9
330
1F
100
AcDbEntity
  8
LC-001-100-D00-0
 62
     7
370
    50
100
AcDbLine
 10
-307.146333
 20
439.098445
 30
0.0
 11
-323.896332
 21
439.098445
 31
0.0
  0
LINE
  5
5EA
330
1F
100
AcDbEntity
  8
LC-001-100-D00-0
 62
     7
370
    50
100
AcDbLine
 10
-350.646332
 20
439.098445
 30
0.0
 11
-354.146332
 21
439.098445
 31
0.0
  0
ARC
  5
5EB
330
1F
100
AcDbEntity
  8
LC-001-100-D00-0
 62
     7
370
    50
100
AcDbCircle
 10
-309.997222
 20
441.598445
 30
0.0
 40
2.500000000000061
100
AcDbArc
 50
251.565051
 51
270.0
  0
ARC
  5
5EC
330
1F
100
AcDbEntity
  8
LC-001-100-D00-0
 62
     7
370
    50
100
AcDbCircle
 10
-351.295443
 20
441.598445
 30
0.0
 40
2.5
100
AcDbArc
 50
270.0
 51
285.048955
  0
LINE
  5
5ED
330
1F
100
AcDbEntity
  8
LC-001-100-D00-0
 62
     7
370
    50
100
AcDbLine
 10
-310.787792
 20
439.226736
 30
0.0
 11
-324.330854
 21
443.741092
 31
0.0
  0
ARC
  5
5EE
330
1F
100
AcDbEntity
  8
LC-001-100-D00-0
 62
     7
370
    50
100
AcDbCircle
 10
-354.146333
 20
446.598445
 30
0.0
 40
2.5
100
AcDbArc
 50
180.0
 51
270.0
  0
ARC
  5
5EF
330
1F
100
AcDbEntity
  8
LC-001-100-D00-0
 62
     7
370
    50
100
AcDbCircle
 10
-307.146333
 20
446.598445
 30
0.0
 40
2.5
100
AcDbArc
 50
270.0
 51
360.0
  0
INSERT
  5
5FB
330
1F
100
AcDbEntity
  8
LC-001-100-D00-0
 62
     7
370
    50
100
AcDbBlockReference
  2
POLY11
 10
0.0
 20
0.0
 30
0.0
  0
LINE
  5
5FC
330
1F
100
AcDbEntity
  8
LC-001-100-D00-0
 62
     7
370
    50
100
AcDbLine
 10
-350.04529
 20
444.098489
 30
0.0
 11
-354.146332
 21
444.098489
 31
0.0
  0
LINE
  5
5FD
330
1F
100
AcDbEntity
  8
LC-001-100-D00-0
 62
     7
370
    50
100
AcDbLine
 10
-307.160972
 20
444.098489
 30
0.0
 11
-318.352626
 21
444.098489
 31
0.0
  0
ARC
  5
5FE
330
1F
100
AcDbEntity
  8
LC-001-100-D00-0
 62
     7
370
    50
100
AcDbCircle
 10
-307.146333
 20
446.598445
 30
0.0
 40
2.500000000000691
100
AcDbArc
 50
269.664477
 51
270.0
  0
LINE
  5
5FF
330
1F
100
AcDbEntity
  8
LC-001-100-D00-0
 62
     7
370
    50
100
AcDbLine
 10
-318.495165
 20
444.098446
 30
0.0
 11
-324.497353
 21
444.098446
 31
0.0
  0
LINE
  5
600
330
1F
100
AcDbEntity
  8
LC-001-100-D00-0
 62
     7
370
    50
100
AcDbLine
 10
-382.146333
 20
461.098445
 30
0.0
 11
-408.146333
 21
461.098445
 31
0.0
  0
LINE
  5
601
330
1F
100
AcDbEntity
  8
LC-001-100-D00-0
 62
     7
370
    50
100
AcDbLine
 10
-382.146333
 20
461.098445
 30
0.0
 11
-382.146333
 21
463.098445
 31
0.0
  0
LINE
  5
602
330
1F
100
AcDbEntity
  8
LC-001-100-D00-0
 62
     7
370
    50
100
AcDbLine
 10
-408.146333
 20
461.098445
 30
0.0
 11
-408.146333
 21
463.098445
 31
0.0
  0
LINE
  5
603
330
1F
100
AcDbEntity
  8
LC-001-100-D00-0
 62
     7
370
    50
100
AcDbLine
 10
-382.146333
 20
461.098445
 30
0.0
 11
-382.146333
 21
459.098444
 31
0.0
  0
LINE
  5
604
330
1F
100
AcDbEntity
  8
LC-001-100-D00-0
 62
     7
370
    50
100
AcDbLine
 10
-408.146333
 20
459.098444
 30
0.0
 11
-408.146333
 21
461.098445
 31
0.0
  0
LINE
  5
605
330
1F
100
AcDbEntity
  8
LC-001-100-D00-0
 62
     7
370
    50
100
AcDbLine
 10
-382.146333
 20
442.268319
 30
0.0
 11
-382.146333
 21
459.098444
 31
0.0
  0
LINE
  5
606
330
1F
100
AcDbEntity
  8
LC-001-100-D00-0
 62
     7
370
    50
100
AcDbLine
 10
-408.146333
 20
446.598445
 30
0.0
 11
-408.146333
 21
459.098444
 31
0.0
  0
LINE
  5
607
330
1F
100
AcDbEntity
  8
LC-001-100-D00-0
 62
     7
370
    50
100
AcDbLine
 10
-301.646333
 20
464.598444
 30
0.0
 11
-307.146333
 21
464.598444
 31
0.0
  0
LINE
  5
608
330
1F
100
AcDbEntity
  8
LC-001-100-D00-0
 62
     7
370
    50
100
AcDbLine
 10
-354.146332
 20
464.598444
 30
0.0
 11
-359.646332
 21
464.598444
 31
0.0
  0
LINE
  5
609
330
1F
100
AcDbEntity
  8
LC-001-100-D00-0
 62
     7
370
    50
100
AcDbLine
 10
-307.146333
 20
464.598444
 30
0.0
 11
-313.396333
 21
464.598444
 31
0.0
  0
LINE
  5
60A
330
1F
100
AcDbEntity
  8
LC-001-100-D00-0
 62
     7
370
    50
100
AcDbLine
 10
-347.896332
 20
464.598444
 30
0.0
 11
-354.146332
 21
464.598444
 31
0.0
  0
LINE
  5
60B
330
1F
100
AcDbEntity
  8
LC-001-100-D00-0
 62
     7
370
    50
100
AcDbLine
 10
-352.346333
 20
435.598445
 30
0.0
 11
-354.646333
 21
435.598445
 31
0.0
  0
LINE
  5
60C
330
1F
100
AcDbEntity
  8
LC-001-100-D00-0
 62
     7
370
    50
100
AcDbLine
 10
-354.646333
 20
435.598445
 30
0.0
 11
-354.646333
 21
437.098445
 31
0.0
  0
LINE
  5
60D
330
1F
100
AcDbEntity
  8
LC-001-100-D00-0
 62
     7
370
    50
100
AcDbLine
 10
-350.646332
 20
437.098445
 30
0.0
 11
-354.646333
 21
437.098445
 31
0.0
  0
LINE
  5
60E
330
1F
100
AcDbEntity
  8
LC-001-100-D00-0
 62
     7
370
    50
100
AcDbLine
 10
-350.646332
 20
441.598444
 30
0.0
 11
-350.646332
 21
437.098445
 31
0.0
  0
ARC
  5
60F
330
1F
100
AcDbEntity
  8
LC-001-100-D00-0
 62
     7
370
    50
100
AcDbCircle
 10
-345.146333
 20
441.598445
 30
0.0
 40
5.5
100
AcDbArc
 50
90.0
 51
180.0
  0
LINE
  5
610
330
1F
100
AcDbEntity
  8
LC-001-100-D00-0
 62
     7
370
    50
100
AcDbLine
 10
-345.146332
 20
447.098444
 30
0.0
 11
-329.396333
 21
447.098444
 31
0.0
  0
ARC
  5
611
330
1F
100
AcDbEntity
  8
LC-001-100-D00-0
 62
     7
370
    50
100
AcDbCircle
 10
-329.396333
 20
441.598445
 30
0.0
 40
5.500000000000114
100
AcDbArc
 50
0.0
 51
90.0
  0
LINE
  5
612
330
1F
100
AcDbEntity
  8
LC-001-100-D00-0
 62
     7
370
    50
100
AcDbLine
 10
-323.896332
 20
441.598444
 30
0.0
 11
-323.896332
 21
406.598445
 31
0.0
  0
LINE
  5
613
330
1F
100
AcDbEntity
  8
LC-001-100-D00-0
 62
     7
370
    50
100
AcDbLine
 10
-323.896332
 20
406.598445
 30
0.0
 11
-325.396333
 21
406.598445
 31
0.0
  0
LINE
  5
614
330
1F
100
AcDbEntity
  8
LC-001-100-D00-0
 62
     7
370
    50
100
AcDbLine
 10
-325.396333
 20
441.598444
 30
0.0
 11
-325.396333
 21
406.598445
 31
0.0
  0
ARC
  5
615
330
1F
100
AcDbEntity
  8
LC-001-100-D00-0
 62
     7
370
    50
100
AcDbCircle
 10
-329.396333
 20
441.598445
 30
0.0
 40
4.000000000000114
100
AcDbArc
 50
0.0
 51
90.0
  0
LINE
  5
616
330
1F
100
AcDbEntity
  8
LC-001-100-D00-0
 62
     7
370
    50
100
AcDbLine
 10
-345.146332
 20
445.598445
 30
0.0
 11
-329.396333
 21
445.598445
 31
0.0
  0
ARC
  5
617
330
1F
100
AcDbEntity
  8
LC-001-100-D00-0
 62
     7
370
    50
100
AcDbCircle
 10
-345.146333
 20
441.598445
 30
0.0
 40
4.0
100
AcDbArc
 50
90.0
 51
180.0
  0
LINE
  5
618
330
1F
100
AcDbEntity
  8
LC-001-100-D00-0
 62
     7
370
    50
100
AcDbLine
 10
-349.146333
 20
441.598444
 30
0.0
 11
-349.146333
 21
430.598445
 31
0.0
  0
LINE
  5
619
330
1F
100
AcDbEntity
  8
LC-001-100-D00-0
 62
     7
370
    50
100
AcDbLine
 10
-349.146333
 20
430.598445
 30
0.0
 11
-354.646333
 21
430.598445
 31
0.0
  0
LINE
  5
61A
330
1F
100
AcDbEntity
  8
LC-001-100-D00-0
 62
     7
370
    50
100
AcDbLine
 10
-354.646333
 20
432.098445
 30
0.0
 11
-354.646333
 21
430.598445
 31
0.0
  0
LINE
  5
61B
330
1F
100
AcDbEntity
  8
LC-001-100-D00-0
 62
     7
370
    50
100
AcDbLine
 10
-352.346333
 20
432.098445
 30
0.0
 11
-354.646333
 21
432.098445
 31
0.0
  0
LINE
  5
61C
330
1F
100
AcDbEntity
  8
LC-001-100-D00-0
 62
     7
370
    50
100
AcDbLine
 10
-352.346333
 20
435.598445
 30
0.0
 11
-352.346333
 21
432.098445
 31
0.0
  0
LINE
  5
61D
330
1F
100
AcDbEntity
  8
LC-001-100-D00-0
 62
     7
370
    50
100
AcDbLine
 10
-306.646332
 20
430.598445
 30
0.0
 11
-306.646332
 21
432.098445
 31
0.0
  0
LINE
  5
61E
330
1F
100
AcDbEntity
  8
LC-001-100-D00-0
 62
     7
370
    50
100
AcDbLine
 10
-306.646332
 20
430.598445
 30
0.0
 11
-310.646333
 21
430.598445
 31
0.0
  0
LINE
  5
61F
330
1F
100
AcDbEntity
  8
LC-001-100-D00-0
 62
     7
370
    50
100
AcDbLine
 10
-310.646333
 20
406.598445
 30
0.0
 11
-310.646333
 21
430.598445
 31
0.0
  0
LINE
  5
620
330
1F
100
AcDbEntity
  8
LC-001-100-D00-0
 62
     7
370
    50
100
AcDbLine
 10
-310.646333
 20
406.598445
 30
0.0
 11
-312.146332
 21
406.598445
 31
0.0
  0
LINE
  5
621
330
1F
100
AcDbEntity
  8
LC-001-100-D00-0
 62
     7
370
    50
100
AcDbLine
 10
-312.146332
 20
406.598445
 30
0.0
 11
-312.146332
 21
436.098444
 31
0.0
  0
ARC
  5
622
330
1F
100
AcDbEntity
  8
LC-001-100-D00-0
 62
     7
370
    50
100
AcDbCircle
 10
-311.146333
 20
436.098445
 30
0.0
 40
0.9999999999998863
100
AcDbArc
 50
90.0
 51
180.0
  0
LINE
  5
623
330
1F
100
AcDbEntity
  8
LC-001-100-D00-0
 62
     7
370
    50
100
AcDbLine
 10
-306.646332
 20
437.098445
 30
0.0
 11
-311.146332
 21
437.098445
 31
0.0
  0
LINE
  5
624
330
1F
100
AcDbEntity
  8
LC-001-100-D00-0
 62
     7
370
    50
100
AcDbLine
 10
-306.646332
 20
437.098445
 30
0.0
 11
-306.646332
 21
435.598445
 31
0.0
  0
LINE
  5
625
330
1F
100
AcDbEntity
  8
LC-001-100-D00-0
 62
     7
370
    50
100
AcDbLine
 10
-306.646332
 20
435.598445
 30
0.0
 11
-308.946332
 21
435.598445
 31
0.0
  0
LINE
  5
626
330
1F
100
AcDbEntity
  8
LC-001-100-D00-0
 62
     7
370
    50
100
AcDbLine
 10
-308.946332
 20
432.098445
 30
0.0
 11
-308.946332
 21
435.598445
 31
0.0
  0
LINE
  5
627
330
1F
100
AcDbEntity
  8
LC-001-100-D00-0
 62
     7
370
    50
100
AcDbLine
 10
-306.646332
 20
432.098445
 30
0.0
 11
-308.946332
 21
432.098445
 31
0.0
  0
LINE
  5
628
330
1F
100
AcDbEntity
  8
LC-001-100-D00-0
 62
     7
370
    50
100
AcDbLine
 10
-323.914996
 20
437.098445
 30
0.0
 11
-311.146332
 21
437.098445
 31
0.0
  0
LINE
  5
629
330
1F
100
AcDbEntity
  8
LC-001-100-D00-0
 62
     7
370
    50
100
AcDbLine
 10
-349.146333
 20
430.598445
 30
0.0
 11
-338.271333
 21
430.598445
 31
0.0
  0
LINE
  5
62A
330
1F
100
AcDbEntity
  8
LC-001-100-D00-0
 62
     7
370
    50
100
AcDbLine
 10
-336.271333
 20
430.598445
 30
0.0
 11
-326.153476
 21
430.598445
 31
0.0
  0
LINE
  5
62B
330
1F
100
AcDbEntity
  8
LC-001-100-D00-0
 62
     7
370
    50
100
AcDbLine
 10
-323.896332
 20
406.598445
 30
0.0
 11
-312.146332
 21
406.598445
 31
0.0
  0
LINE
  5
62C
330
1F
100
AcDbEntity
  8
LC-001-100-D00-0
 62
     7
370
    50
100
AcDbLine
 10
-325.396333
 20
430.598445
 30
0.0
 11
-326.153476
 21
430.598445
 31
0.0
  0
ARC
  5
62D
330
1F
100
AcDbEntity
  8
LC-001-100-D00-0
 62
     7
370
    50
100
AcDbCircle
 10
-305.583276
 20
434.141998
 30
0.0
 40
0.3000000000000115
100
AcDbArc
 50
131.633539
 51
282.528808
  0
LINE
  5
62E
330
1F
100
AcDbEntity
  8
LC-001-100-D00-0
 62
     7
370
    50
100
AcDbLine
 10
-305.782585
 20
434.366222
 30
0.0
 11
-302.430498
 21
437.345854
 31
0.0
  0
ARC
  5
62F
330
1F
100
AcDbEntity
  8
LC-001-100-D00-0
 62
     7
370
    50
100
AcDbCircle
 10
-301.766133
 20
436.598445
 30
0.0
 40
1.0
100
AcDbArc
 50
90.0
 51
131.633539
  0
LINE
  5
630
330
1F
100
AcDbEntity
  8
LC-001-100-D00-0
 62
     7
370
    50
100
AcDbLine
 10
-301.766133
 20
437.598446
 30
0.0
 11
-299.146332
 21
437.598446
 31
0.0
  0
LINE
  5
631
330
1F
100
AcDbEntity
  8
LC-001-100-D00-0
 62
     7
370
    50
100
AcDbLine
 10
-299.146332
 20
437.598446
 30
0.0
 11
-299.146332
 21
433.598445
 31
0.0
  0
LINE
  5
632
330
1F
100
AcDbEntity
  8
LC-001-100-D00-0
 62
     7
370
    50
100
AcDbLine
 10
-302.146333
 20
433.598445
 30
0.0
 11
-299.146332
 21
433.598445
 31
0.0
  0
LINE
  5
633
330
1F
100
AcDbEntity
  8
LC-001-100-D00-0
 62
     7
370
    50
100
AcDbLine
 10
-302.146333
 20
433.598445
 30
0.0
 11
-302.146333
 21
434.224459
 31
0.0
  0
ARC
  5
634
330
1F
100
AcDbEntity
  8
LC-001-100-D00-0
 62
     7
370
    50
100
AcDbCircle
 10
-302.446333
 20
434.22446
 30
0.0
 40
0.3000000000000682
100
AcDbArc
 50
0.0
 51
102.528808
  0
LINE
  5
635
330
1F
100
AcDbEntity
  8
LC-001-100-D00-0
 62
     7
370
    50
100
AcDbLine
 10
-302.511411
 20
434.517316
 30
0.0
 11
-305.518197
 21
433.849142
 31
0.0
  0
LINE
  5
636
330
1F
100
AcDbEntity
  8
LC-001-100-D00-0
 62
     7
370
    50
100
AcDbLine
 10
-359.146333
 20
434.224459
 30
0.0
 11
-359.146333
 21
433.598445
 31
0.0
  0
LINE
  5
637
330
1F
100
AcDbEntity
  8
LC-001-100-D00-0
 62
     7
370
    50
100
AcDbLine
 10
-362.146333
 20
433.598445
 30
0.0
 11
-362.146333
 21
437.598446
 31
0.0
  0
ARC
  5
638
330
1F
100
AcDbEntity
  8
LC-001-100-D00-0
 62
     7
370
    50
100
AcDbCircle
 10
-359.526532
 20
436.598445
 30
0.0
 40
1.00000000000006
100
AcDbArc
 50
48.366461
 51
90.0
  0
LINE
  5
639
330
1F
100
AcDbEntity
  8
LC-001-100-D00-0
 62
     7
370
    50
100
AcDbLine
 10
-355.51008
 20
434.366222
 30
0.0
 11
-358.862167
 21
437.345854
 31
0.0
  0
ARC
  5
63A
330
1F
100
AcDbEntity
  8
LC-001-100-D00-0
 62
     7
370
    50
100
AcDbCircle
 10
-355.709389
 20
434.141998
 30
0.0
 40
0.3000000000001464
100
AcDbArc
 50
257.471192
 51
48.366461
  0
LINE
  5
63B
330
1F
100
AcDbEntity
  8
LC-001-100-D00-0
 62
     7
370
    50
100
AcDbLine
 10
-358.781254
 20
434.517316
 30
0.0
 11
-355.774468
 21
433.849142
 31
0.0
  0
ARC
  5
63C
330
1F
100
AcDbEntity
  8
LC-001-100-D00-0
 62
     7
370
    50
100
AcDbCircle
 10
-358.846333
 20
434.22446
 30
0.0
 40
0.3000000000001464
100
AcDbArc
 50
77.471192
 51
180.0
  0
LINE
  5
63D
330
1F
100
AcDbEntity
  8
LC-001-100-D00-0
 62
     7
370
    50
100
AcDbLine
 10
-362.146333
 20
433.598445
 30
0.0
 11
-359.146333
 21
433.598445
 31
0.0
  0
LINE
  5
63E
330
1F
100
AcDbEntity
  8
LC-001-100-D00-0
 62
     7
370
    50
100
AcDbLine
 10
-362.146333
 20
437.598446
 30
0.0
 11
-359.526532
 21
437.598446
 31
0.0
  0
LINE
  5
63F
330
1F
100
AcDbEntity
  8
LC-001-100-D00-0
 62
     7
370
    50
100
AcDbLine
 10
-302.646332
 20
433.598445
 30
0.0
 11
-304.346333
 21
433.598445
 31
0.0
  0
LINE
  5
640
330
1F
100
AcDbEntity
  8
LC-001-100-D00-0
 62
     7
370
    50
100
AcDbLine
 10
-356.946333
 20
433.598445
 30
0.0
 11
-358.646333
 21
433.598445
 31
0.0
  0
LINE
  5
641
330
1F
100
AcDbEntity
  8
LC-001-100-D00-0
 62
     7
370
    50
100
AcDbLine
 10
-302.646332
 20
430.598445
 30
0.0
 11
-302.646332
 21
433.598445
 31
0.0
  0
LINE
  5
642
330
1F
100
AcDbEntity
  8
LC-001-100-D00-0
 62
     7
370
    50
100
AcDbLine
 10
-302.646332
 20
433.598445
 30
0.0
 11
-299.646333
 21
433.598445
 31
0.0
  0
LINE
  5
643
330
1F
100
AcDbEntity
  8
LC-001-100-D00-0
 62
     7
370
    50
100
AcDbLine
 10
-299.646333
 20
437.598446
 30
0.0
 11
-299.646333
 21
433.598445
 31
0.0
  0
LINE
  5
644
330
1F
100
AcDbEntity
  8
LC-001-100-D00-0
 62
     7
370
    50
100
AcDbLine
 10
-299.646333
 20
437.598446
 30
0.0
 11
-294.646334
 21
437.598446
 31
0.0
  0
ARC
  5
645
330
1F
100
AcDbEntity
  8
LC-001-100-D00-0
 62
     7
370
    50
100
AcDbCircle
 10
-294.646333
 20
438.598445
 30
0.0
 40
1.0
100
AcDbArc
 50
270.0
 51
0.0
  0
LINE
  5
646
330
1F
100
AcDbEntity
  8
LC-001-100-D00-0
 62
     7
370
    50
100
AcDbLine
 10
-293.646332
 20
463.098445
 30
0.0
 11
-293.646332
 21
438.598446
 31
0.0
  0
LINE
  5
647
330
1F
100
AcDbEntity
  8
LC-001-100-D00-0
 62
     7
370
    50
100
AcDbLine
 10
-290.646333
 20
463.098445
 30
0.0
 11
-293.646332
 21
463.098445
 31
0.0
  0
LINE
  5
648
330
1F
100
AcDbEntity
  8
LC-001-100-D00-0
 62
     7
370
    50
100
AcDbLine
 10
-290.646333
 20
463.098445
 30
0.0
 11
-290.646333
 21
433.098445
 31
0.0
  0
LINE
  5
649
330
1F
100
AcDbEntity
  8
LC-001-100-D00-0
 62
     7
370
    50
100
AcDbLine
 10
-290.646333
 20
433.098445
 30
0.0
 11
-293.646332
 21
433.098445
 31
0.0
  0
LINE
  5
64A
330
1F
100
AcDbEntity
  8
LC-001-100-D00-0
 62
     7
370
    50
100
AcDbLine
 10
-293.646332
 20
433.098445
 30
0.0
 11
-293.646332
 21
434.598445
 31
0.0
  0
LINE
  5
64B
330
1F
100
AcDbEntity
  8
LC-001-100-D00-0
 62
     7
370
    50
100
AcDbLine
 10
-293.646332
 20
434.598445
 30
0.0
 11
-296.646331
 21
434.598445
 31
0.0
  0
LINE
  5
64C
330
1F
100
AcDbEntity
  8
LC-001-100-D00-0
 62
     7
370
    50
100
AcDbLine
 10
-296.646331
 20
430.598445
 30
0.0
 11
-296.646331
 21
434.598445
 31
0.0
  0
LINE
  5
64D
330
1F
100
AcDbEntity
  8
LC-001-100-D00-0
 62
     7
370
    50
100
AcDbLine
 10
-296.646331
 20
430.598445
 30
0.0
 11
-302.646332
 21
430.598445
 31
0.0
  0
LINE
  5
64E
330
1F
100
AcDbEntity
  8
LC-001-100-D00-0
 62
     7
370
    50
100
AcDbLine
 10
-367.646333
 20
434.598445
 30
0.0
 11
-367.646333
 21
433.098445
 31
0.0
  0
LINE
  5
64F
330
1F
100
AcDbEntity
  8
LC-001-100-D00-0
 62
     7
370
    50
100
AcDbLine
 10
-367.646333
 20
433.098445
 30
0.0
 11
-370.646332
 21
433.098445
 31
0.0
  0
LINE
  5
650
330
1F
100
AcDbEntity
  8
LC-001-100-D00-0
 62
     7
370
    50
100
AcDbLine
 10
-370.646332
 20
433.098445
 30
0.0
 11
-370.646332
 21
463.098445
 31
0.0
  0
LINE
  5
651
330
1F
100
AcDbEntity
  8
LC-001-100-D00-0
 62
     7
370
    50
100
AcDbLine
 10
-367.646333
 20
463.098445
 30
0.0
 11
-370.646332
 21
463.098445
 31
0.0
  0
LINE
  5
652
330
1F
100
AcDbEntity
  8
LC-001-100-D00-0
 62
     7
370
    50
100
AcDbLine
 10
-367.646333
 20
438.598446
 30
0.0
 11
-367.646333
 21
463.098445
 31
0.0
  0
ARC
  5
653
330
1F
100
AcDbEntity
  8
LC-001-100-D00-0
 62
     7
370
    50
100
AcDbCircle
 10
-366.646333
 20
438.598445
 30
0.0
 40
1.0
100
AcDbArc
 50
180.0
 51
270.0
  0
LINE
  5
654
330
1F
100
AcDbEntity
  8
LC-001-100-D00-0
 62
     7
370
    50
100
AcDbLine
 10
-366.646331
 20
437.598446
 30
0.0
 11
-361.646332
 21
437.598446
 31
0.0
  0
LINE
  5
655
330
1F
100
AcDbEntity
  8
LC-001-100-D00-0
 62
     7
370
    50
100
AcDbLine
 10
-361.646332
 20
433.598445
 30
0.0
 11
-361.646332
 21
437.598446
 31
0.0
  0
LINE
  5
656
330
1F
100
AcDbEntity
  8
LC-001-100-D00-0
 62
     7
370
    50
100
AcDbLine
 10
-361.646332
 20
433.598445
 30
0.0
 11
-358.646333
 21
433.598445
 31
0.0
  0
LINE
  5
657
330
1F
100
AcDbEntity
  8
LC-001-100-D00-0
 62
     7
370
    50
100
AcDbLine
 10
-358.646333
 20
433.598445
 30
0.0
 11
-358.646333
 21
430.598445
 31
0.0
  0
LINE
  5
658
330
1F
100
AcDbEntity
  8
LC-001-100-D00-0
 62
     7
370
    50
100
AcDbLine
 10
-358.646333
 20
430.598445
 30
0.0
 11
-364.646334
 21
430.598445
 31
0.0
  0
LINE
  5
659
330
1F
100
AcDbEntity
  8
LC-001-100-D00-0
 62
     7
370
    50
100
AcDbLine
 10
-364.646334
 20
434.598445
 30
0.0
 11
-364.646334
 21
430.598445
 31
0.0
  0
LINE
  5
65A
330
1F
100
AcDbEntity
  8
LC-001-100-D00-0
 62
     7
370
    50
100
AcDbLine
 10
-364.646334
 20
434.598445
 30
0.0
 11
-367.646333
 21
434.598445
 31
0.0
  0
LINE
  5
65B
330
1F
100
AcDbEntity
  8
LC-001-100-D00-0
 62
     7
370
    50
100
AcDbLine
 10
-296.178248
 20
433.098445
 30
0.0
 11
-293.646332
 21
433.098445
 31
0.0
  0
LINE
  5
65C
330
1F
100
AcDbEntity
  8
LC-001-100-D00-0
 62
     7
370
    50
100
AcDbLine
 10
-303.837821
 20
430.598445
 30
0.0
 11
-302.646332
 21
430.598445
 31
0.0
  0
LINE
  5
65D
330
1F
100
AcDbEntity
  8
LC-001-100-D00-0
 62
     7
370
    50
100
AcDbLine
 10
-358.646333
 20
430.598445
 30
0.0
 11
-357.454844
 21
430.598445
 31
0.0
  0
LINE
  5
65E
330
1F
100
AcDbEntity
  8
LC-001-100-D00-0
 62
     7
370
    50
100
AcDbLine
 10
-367.646333
 20
433.098445
 30
0.0
 11
-365.114417
 21
433.098445
 31
0.0
  0
LINE
  5
65F
330
1F
100
AcDbEntity
  8
LC-001-100-D00-0
 62
     7
370
    50
100
AcDbLine
 10
-357.454844
 20
430.598445
 30
0.0
 11
-354.819803
 21
430.598445
 31
0.0
  0
LINE
  5
660
330
1F
100
AcDbEntity
  8
LC-001-100-D00-0
 62
     7
370
    50
100
AcDbLine
 10
-306.574334
 20
430.598445
 30
0.0
 11
-303.837821
 21
430.598445
 31
0.0
  0
INSERT
  5
66E
330
1F
100
AcDbEntity
  8
LC-001-100-D00-0
 62
     7
370
    50
100
AcDbBlockReference
  2
POLY12
 10
0.0
 20
0.0
 30
0.0
  0
LINE
  5
66F
330
1F
100
AcDbEntity
  8
LC-001-100-D00-0
 62
     7
370
    50
100
AcDbLine
 10
-365.114417
 20
433.098445
 30
0.0
 11
-364.646334
 21
433.098445
 31
0.0
  0
LINE
  5
670
330
1F
100
AcDbEntity
  8
LC-001-100-D00-0
 62
     7
370
    50
100
AcDbLine
 10
-296.646331
 20
433.098445
 30
0.0
 11
-296.178248
 21
433.098445
 31
0.0
  0
LINE
  5
671
330
1F
100
AcDbEntity
  8
LC-001-100-D00-0
 62
     7
370
    50
100
AcDbLine
 10
-436.646331
 20
399.654324
 30
0.0
 11
-361.529052
 21
399.654324
 31
0.0
  0
ARC
  5
672
330
1F
100
AcDbEntity
  8
LC-001-100-D00-0
 62
     7
370
    50
100
AcDbCircle
 10
-360.646333
 20
406.598445
 30
0.0
 40
7.00000000000002
100
AcDbArc
 50
262.755545
 51
270.0
  0
LINE
  5
673
330
1F
100
AcDbEntity
  8
LC-001-100-D00-0
 62
     7
370
    50
100
AcDbLine
 10
-360.646332
 20
399.598445
 30
0.0
 11
-339.795137
 21
399.598445
 31
0.0
  0
ARC
  5
674
330
1F
100
AcDbEntity
  8
LC-001-100-D00-0
 62
     7
370
    50
100
AcDbCircle
 10
-339.795137
 20
400.598445
 30
0.0
 40
1.0
100
AcDbArc
 50
270.0
 51
359.0
  0
LINE
  5
675
330
1F
100
AcDbEntity
  8
LC-001-100-D00-0
 62
     7
370
    50
100
AcDbLine
 10
-338.79529
 20
400.580992
 30
0.0
 11
-338.271333
 21
430.598445
 31
0.0
  0
LINE
  5
676
330
1F
100
AcDbEntity
  8
LC-001-100-D00-0
 62
     7
370
    50
100
AcDbLine
 10
-338.271333
 20
430.598445
 30
0.0
 11
-336.271333
 21
430.598445
 31
0.0
  0
LINE
  5
677
330
1F
100
AcDbEntity
  8
LC-001-100-D00-0
 62
     7
370
    50
100
AcDbLine
 10
-336.271333
 20
430.598445
 30
0.0
 11
-335.747376
 21
400.580992
 31
0.0
  0
ARC
  5
678
330
1F
100
AcDbEntity
  8
LC-001-100-D00-0
 62
     7
370
    50
100
AcDbCircle
 10
-334.747528
 20
400.598445
 30
0.0
 40
1.000000000000014
100
AcDbArc
 50
181.0
 51
270.0
  0
LINE
  5
679
330
1F
100
AcDbEntity
  8
LC-001-100-D00-0
 62
     7
370
    50
100
AcDbLine
 10
-334.747528
 20
399.598445
 30
0.0
 11
-300.646333
 21
399.598445
 31
0.0
  0
ARC
  5
67A
330
1F
100
AcDbEntity
  8
LC-001-100-D00-0
 62
     7
370
    50
100
AcDbCircle
 10
-300.646333
 20
406.598445
 30
0.0
 40
7.0
100
AcDbArc
 50
270.0
 51
0.0
  0
LINE
  5
67B
330
1F
100
AcDbEntity
  8
LC-001-100-D00-0
 62
     7
370
    50
100
AcDbLine
 10
-293.646332
 20
406.598445
 30
0.0
 11
-293.646332
 21
434.598445
 31
0.0
  0
LINE
  5
67C
330
1F
100
AcDbEntity
  8
LC-001-100-D00-0
 62
     7
370
    50
100
AcDbLine
 10
-293.646332
 20
434.598445
 30
0.0
 11
-290.646333
 21
434.598445
 31
0.0
  0
LINE
  5
67D
330
1F
100
AcDbEntity
  8
LC-001-100-D00-0
 62
     7
370
    50
100
AcDbLine
 10
-290.646333
 20
406.598445
 30
0.0
 11
-290.646333
 21
434.598445
 31
0.0
  0
ARC
  5
67E
330
1F
100
AcDbEntity
  8
LC-001-100-D00-0
 62
     7
370
    50
100
AcDbCircle
 10
-300.646333
 20
406.598445
 30
0.0
 40
10.0
100
AcDbArc
 50
270.0
 51
0.0
  0
LINE
  5
67F
330
1F
100
AcDbEntity
  8
LC-001-100-D00-0
 62
     7
370
    50
100
AcDbLine
 10
-360.646332
 20
396.598444
 30
0.0
 11
-300.646333
 21
396.598444
 31
0.0
  0
ARC
  5
680
330
1F
100
AcDbEntity
  8
LC-001-100-D00-0
 62
     7
370
    50
100
AcDbCircle
 10
-360.646333
 20
406.598445
 30
0.0
 40
10.00000000000011
100
AcDbArc
 50
264.316413
 51
270.0
  0
LINE
  5
681
330
1F
100
AcDbEntity
  8
LC-001-100-D00-0
 62
     7
370
    50
100
AcDbLine
 10
-433.646333
 20
396.647605
 30
0.0
 11
-361.63668
 21
396.647605
 31
0.0
  0
INSERT
  5
687
330
1F
100
AcDbEntity
  8
LC-001-100-D00-0
 62
     7
370
    50
100
AcDbBlockReference
  2
KLON31
 10
0.0
 20
0.0
 30
0.0
  0
LINE
  5
688
330
1F
100
AcDbEntity
  8
LC-001-100-D00-0
 62
     7
370
    50
100
AcDbLine
 10
-436.646331
 20
397.453089
 30
0.0
 11
-436.646331
 21
399.654324
 31
0.0
  0
LINE
  5
689
330
1F
100
AcDbEntity
  8
LC-001-100-D00-0
 62
     7
370
    50
100
AcDbLine
 10
-433.646333
 20
396.647605
 30
0.0
 11
-433.646333
 21
396.598444
 31
0.0
  0
LINE
  5
68A
330
1F
100
AcDbEntity
  8
LC-001-100-D00-0
 62
     7
370
    50
100
AcDbLine
 10
-433.646333
 20
446.598445
 30
0.0
 11
-433.646333
 21
446.549284
 31
0.0
  0
LINE
  5
68B
330
1F
100
AcDbEntity
  8
LC-001-100-D00-0
 62
     7
370
    50
100
AcDbLine
 10
-386.353407
 20
446.549284
 30
0.0
 11
-433.646333
 21
446.549284
 31
0.0
  0
LINE
  5
68C
330
1F
100
AcDbEntity
  8
LC-001-100-D00-0
 62
     7
370
    50
100
AcDbLine
 10
-367.646333
 20
430.098445
 30
0.0
 11
-367.646333
 21
406.598445
 31
0.0
  0
INSERT
  5
6A0
330
1F
100
AcDbEntity
  8
LC-001-100-D00-0
 62
     7
370
    50
100
AcDbBlockReference
  2
POLY13
 10
0.0
 20
0.0
 30
0.0
  0
LINE
  5
6A1
330
1F
100
AcDbEntity
  8
LC-001-100-D00-0
 62
     7
370
    50
100
AcDbLine
 10
-436.646331
 20
443.542565
 30
0.0
 11
-436.646331
 21
399.654324
 31
0.0
  0
LINE
  5
6A2
330
1F
100
AcDbEntity
  8
LC-001-100-D00-0
 62
     7
370
    50
100
AcDbLine
 10
-386.346121
 20
443.542565
 30
0.0
 11
-436.646331
 21
443.542565
 31
0.0
  0
INSERT
  5
6A8
330
1F
100
AcDbEntity
  8
LC-001-100-D00-0
 62
     7
370
    50
100
AcDbBlockReference
  2
KLON32
 10
0.0
 20
0.0
 30
0.0
  0
LINE
  5
6A9
330
1F
100
AcDbEntity
  8
LC-001-100-D00-0
 62
     7
370
    50
100
AcDbLine
 10
-436.646331
 20
445.7438
 30
0.0
 11
-436.646331
 21
445.794596
 31
0.0
  0
LINE
  5
6AA
330
1F
100
AcDbEntity
  8
LC-001-100-D00-0
 62
     7
370
    50
100
AcDbLine
 10
-436.646331
 20
397.402293
 30
0.0
 11
-436.646331
 21
397.453089
 31
0.0
  0
LINE
  5
6AB
330
1F
100
AcDbEntity
  8
LC-001-100-D00-0
 62
     7
370
    50
100
AcDbLine
 10
-370.646332
 20
433.098445
 30
0.0
 11
-375.120051
 21
433.098445
 31
0.0
  0
LINE
  5
6AC
330
1F
100
AcDbEntity
  8
LC-001-100-D00-0
 62
     7
370
    50
100
AcDbLine
 10
-370.646332
 20
434.598445
 30
0.0
 11
-370.646332
 21
433.098445
 31
0.0
  0
LINE
  5
6AD
330
1F
100
AcDbEntity
  8
LC-001-100-D00-0
 62
     7
370
    50
100
AcDbLine
 10
-367.646333
 20
434.598445
 30
0.0
 11
-367.646333
 21
430.098445
 31
0.0
  0
LINE
  5
6AE
330
1F
100
AcDbEntity
  8
LC-001-100-D00-0
 62
     7
370
    50
100
AcDbLine
 10
-367.646333
 20
430.098445
 30
0.0
 11
-375.120051
 21
430.098445
 31
0.0
  0
ARC
  5
6AF
330
1F
100
AcDbEntity
  8
LC-001-100-D00-0
 62
     7
370
    50
100
AcDbCircle
 10
-375.120053
 20
436.098445
 30
0.0
 40
6.000000000000019
100
AcDbArc
 50
210.0
 51
270.0
  0
LINE
  5
6B0
330
1F
100
AcDbEntity
  8
LC-001-100-D00-0
 62
     7
370
    50
100
AcDbLine
 10
-380.316205
 20
433.098445
 30
0.0
 11
-386.346121
 21
443.542565
 31
0.0
  0
INSERT
  5
6BE
330
1F
100
AcDbEntity
  8
LC-001-100-D00-0
 62
     7
370
    50
100
AcDbBlockReference
  2
POLY14
 10
0.0
 20
0.0
 30
0.0
  0
LINE
  5
6BF
330
1F
100
AcDbEntity
  8
LC-001-100-D00-0
 62
     7
370
    50
100
AcDbLine
 10
-377.718128
 20
434.598445
 30
0.0
 11
-383.748044
 21
445.042565
 31
0.0
  0
ARC
  5
6C0
330
1F
100
AcDbEntity
  8
LC-001-100-D00-0
 62
     7
370
    50
100
AcDbCircle
 10
-375.120053
 20
436.098445
 30
0.0
 40
2.99999999999996
100
AcDbArc
 50
210.0
 51
270.0
  0
LINE
  5
6C1
330
1F
100
AcDbEntity
  8
LC-001-100-D00-0
 62
     7
370
    50
100
AcDbLine
 10
-436.646331
 20
443.542565
 30
0.0
 11
-436.646331
 21
445.7438
 31
0.0
  0
LINE
  5
6C2
330
1F
100
AcDbEntity
  8
LC-001-100-D00-0
 62
     7
370
    50
100
AcDbLine
 10
-370.646332
 20
434.598445
 30
0.0
 11
-367.646333
 21
434.598445
 31
0.0
  0
ARC
  5
6C3
330
1F
100
AcDbEntity
  8
LC-001-100-D00-0
 62
     7
370
    50
100
AcDbCircle
 10
-386.378383
 20
443.598445
 30
0.0
 40
2.999999999999903
100
AcDbArc
 50
30.0
 51
90.0
  0
LINE
  5
6C4
330
1F
100
AcDbEntity
  8
LC-001-100-D00-0
 62
     7
370
    50
100
AcDbLine
 10
-317.396333
 20
464.598444
 30
0.0
 11
-313.396333
 21
464.598444
 31
0.0
  0
ARC
  5
6C5
330
1F
100
AcDbEntity
  8
LC-001-100-D00-0
 62
     7
370
    50
100
AcDbCircle
 10
-313.396333
 20
463.598445
 30
0.0
 40
1.000000000000114
100
AcDbArc
 50
0.0
 51
90.0
  0
LINE
  5
6C6
330
1F
100
AcDbEntity
  8
LC-001-100-D00-0
 62
     7
370
    50
100
AcDbLine
 10
-312.396333
 20
457.598445
 30
0.0
 11
-317.396333
 21
457.598445
 31
0.0
  0
LINE
  5
6C7
330
1F
100
AcDbEntity
  8
LC-001-100-D00-0
 62
     7
370
    50
100
AcDbLine
 10
-312.396333
 20
463.598446
 30
0.0
 11
-312.396333
 21
457.598445
 31
0.0
  0
LINE
  5
6C8
330
1F
100
AcDbEntity
  8
LC-001-100-D00-0
 62
     7
370
    50
100
AcDbLine
 10
-343.896332
 20
464.598444
 30
0.0
 11
-317.396333
 21
464.598444
 31
0.0
  0
LINE
  5
6C9
330
1F
100
AcDbEntity
  8
LC-001-100-D00-0
 62
     7
370
    50
100
AcDbLine
 10
-317.396333
 20
457.598445
 30
0.0
 11
-343.896332
 21
457.598445
 31
0.0
  0
LINE
  5
6CA
330
1F
100
AcDbEntity
  8
LC-001-100-D00-0
 62
     7
370
    50
100
AcDbLine
 10
-347.896332
 20
464.598444
 30
0.0
 11
-343.896332
 21
464.598444
 31
0.0
  0
ARC
  5
6CB
330
1F
100
AcDbEntity
  8
LC-001-100-D00-0
 62
     7
370
    50
100
AcDbCircle
 10
-347.896333
 20
463.598445
 30
0.0
 40
1.0
100
AcDbArc
 50
90.0
 51
180.0
  0
LINE
  5
6CC
330
1F
100
AcDbEntity
  8
LC-001-100-D00-0
 62
     7
370
    50
100
AcDbLine
 10
-348.896332
 20
457.598445
 30
0.0
 11
-348.896332
 21
463.598446
 31
0.0
  0
LINE
  5
6CD
330
1F
100
AcDbEntity
  8
LC-001-100-D00-0
 62
     7
370
    50
100
AcDbLine
 10
-343.896332
 20
457.598445
 30
0.0
 11
-348.896332
 21
457.598445
 31
0.0
  0
LINE
  5
6CE
330
1F
100
AcDbEntity
  8
LC-001-100-D00-0
 62
     7
370
    50
100
AcDbLine
 10
-321.896332
 20
445.598445
 30
0.0
 11
-325.621415
 21
445.598445
 31
0.0
  0
INSERT
  5
6F0
330
1F
100
AcDbEntity
  8
LC-001-100-D00-0
 62
     7
370
    50
100
AcDbBlockReference
  2
POLY15
 10
0.0
 20
0.0
 30
0.0
  0
LINE
  5
6F1
330
1F
100
AcDbEntity
  8
LC-001-100-D00-0
 62
     7
370
    50
100
AcDbLine
 10
-393.208612
 20
335.098443
 30
0.0
 11
-404.646333
 21
335.098443
 31
0.0
  0
LINE
  5
6F2
330
1F
100
AcDbEntity
  8
LC-001-100-D00-0
 62
     7
370
    50
100
AcDbLine
 10
-385.646332
 20
335.098443
 30
0.0
 11
-393.208612
 21
335.098443
 31
0.0
  0
LINE
  5
6F3
330
1F
100
AcDbEntity
  8
LC-001-100-D00-0
 62
     7
370
    50
100
AcDbLine
 10
-405.146334
 20
358.098445
 30
0.0
 11
-385.146331
 21
358.098445
 31
0.0
  0
LINE
  5
6F4
330
1F
100
AcDbEntity
  8
LC-001-100-D00-0
 62
     7
370
    50
100
AcDbLine
 10
-405.146334
 20
354.598445
 30
0.0
 11
-385.146331
 21
354.598445
 31
0.0
  0
LINE
  5
6F5
330
1F
100
AcDbEntity
  8
LC-001-100-D00-0
 62
     7
370
    50
100
AcDbLine
 10
-393.106628
 20
344.098446
 30
0.0
 11
-385.146331
 21
344.098446
 31
0.0
  0
LINE
  5
6F6
330
1F
100
AcDbEntity
  8
LC-001-100-D00-0
 62
     7
370
    50
100
AcDbLine
 10
-405.146334
 20
344.098446
 30
0.0
 11
-393.106628
 21
344.098446
 31
0.0
  0
LINE
  5
6F7
330
1F
100
AcDbEntity
  8
LC-001-100-D00-0
 62
     7
370
    50
100
AcDbLine
 10
-393.310595
 20
343.098444
 30
0.0
 11
-404.146332
 21
343.098444
 31
0.0
  0
LINE
  5
6F8
330
1F
100
AcDbEntity
  8
LC-001-100-D00-0
 62
     7
370
    50
100
AcDbLine
 10
-386.146333
 20
343.098444
 30
0.0
 11
-393.310595
 21
343.098444
 31
0.0
  0
INSERT
  5
700
330
1F
100
AcDbEntity
  8
LC-001-100-D00-0
 62
     7
370
    25
100
AcDbBlockReference
  2
KLON33
 10
0.0
 20
0.0
 30
0.0
  0
INSERT
  5
70D
330
1F
100
AcDbEntity
  8
LC-001-100-D00-0
 62
     7
370
    25
100
AcDbBlockReference
  2
KLON34
 10
0.0
 20
0.0
 30
0.0
  0
INSERT
  5
713
330
1F
100
AcDbEntity
  8
LC-001-100-D00-0
 62
     7
370
    25
100
AcDbBlockReference
  2
KLON35
 10
0.0
 20
0.0
 30
0.0
  0
INSERT
  5
719
330
1F
100
AcDbEntity
  8
LC-001-100-D00-0
 62
     7
370
    25
100
AcDbBlockReference
  2
KLON36
 10
0.0
 20
0.0
 30
0.0
  0
LINE
  5
71A
330
1F
100
AcDbEntity
  8
LC-001-100-D00-0
 62
     7
370
    25
100
AcDbLine
 10
-357.703317
 20
434.277775
 30
0.0
 11
-356.624381
 21
435.356711
 31
0.0
  0
INSERT
  5
722
330
1F
100
AcDbEntity
  8
LC-001-100-D00-0
 62
     7
370
    25
100
AcDbBlockReference
  2
KLON37
 10
0.0
 20
0.0
 30
0.0
  0
INSERT
  5
728
330
1F
100
AcDbEntity
  8
LC-001-100-D00-0
 62
     7
370
    25
100
AcDbBlockReference
  2
KLON38
 10
0.0
 20
0.0
 30
0.0
  0
INSERT
  5
72F
330
1F
100
AcDbEntity
  8
LC-001-100-D00-0
 62
     7
370
    25
100
AcDbBlockReference
  2
KLON39
 10
0.0
 20
0.0
 30
0.0
  0
INSERT
  5
737
330
1F
100
AcDbEntity
  8
LC-001-100-D00-0
 62
     7
370
    25
100
AcDbBlockReference
  2
KLON40
 10
0.0
 20
0.0
 30
0.0
  0
DIMENSION
  5
738
330
1F
100
AcDbEntity
  8
LC-001-100-D00-0
 62
     7
370
    25
100
AcDbDimension
  2
*D64
 10
-252.243737
 20
430.598445
 30
0.0
 11
-307.243737
 21
371.790445
 31
0.0
 70
   160
  1
24
 71
     5
 42
24.0
 53
90.0
  3
LC-DIM-L-0100-02-02
100
AcDbAlignedDimension
 13
-310.646333
 23
406.598445
 33
0.0
 14
-326.153475
 24
430.598445
 34
0.0
 50
90.0
100
AcDbRotatedDimension
  0
DIMENSION
  5
746
330
1F
100
AcDbEntity
  8
LC-001-100-D00-0
 62
     7
370
    25
100
AcDbDimension
  2
*D65
 10
-490.363688
 20
396.647605
 30
0.0
 11
-545.363688
 21
550.238446
 31
0.0
 70
   160
  1
DN50
 71
     5
 42
49.90168
 53
90.0
  3
LC-DIM-L-0100-02-02
100
AcDbAlignedDimension
 13
-433.646333
 23
446.549285
 33
0.0
 14
-433.646333
 24
396.647605
 34
0.0
 50
90.0
100
AcDbRotatedDimension
  0
DIMENSION
  5
755
330
1F
100
AcDbEntity
  8
LC-001-100-D00-0
 62
     7
370
    25
100
AcDbDimension
  2
*D66
 10
-610.162582
 20
335.098445
 30
0.0
 11
-665.162582
 21
498.263446
 31
0.0
 70
   160
  1
68-129,5
 71
     5
 42
129.5
 53
90.0
  3
LC-DIM-L-0100-01-02
100
AcDbAlignedDimension
 13
-408.146333
 23
464.598445
 33
0.0
 14
-404.646333
 24
335.098445
 34
0.0
 50
90.0
100
AcDbRotatedDimension
  0
LINE
  5
763
330
1F
100
AcDbEntity
  8
LC-001-100-D00-0
  6
DASHDOT
 62
     7
370
    25
100
AcDbLine
 10
-446.646333
 20
421.598445
 30
0.0
 11
-363.937587
 21
421.598445
 31
0.0
  0
LINE
  5
764
330
1F
100
AcDbEntity
  8
LC-001-100-D00-0
  6
DASHDOT
 62
     7
370
    25
100
AcDbLine
 10
-330.646333
 20
464.598444
 30
0.0
 11
-330.646333
 21
396.598444
 31
0.0
  0
LINE
  5
765
330
1F
100
AcDbEntity
  8
LC-001-100-D00-0
  6
DASHDOT
 62
     7
370
    25
100
AcDbLine
 10
-395.251448
 20
335.098443
 30
0.0
 11
-395.251448
 21
396.598444
 31
0.0
  0
DIMENSION
  5
766
330
1F
100
AcDbEntity
  8
LC-002-003-----0
 62
     7
370
    25
100
AcDbDimension
  2
*D67
 10
-330.646333
 20
219.440525
 30
0.0
 11
-498.837361
 21
274.440525
 31
0.0
 70
   160
 71
     5
 42
105.999999
  3
LC-DIM-L-0100-02-02
100
AcDbAlignedDimension
 13
-436.646331
 23
399.654324
 33
0.0
 14
-330.646333
 24
399.598445
 34
0.0
100
AcDbRotatedDimension
  0
DIMENSION
  5
774
330
1F
100
AcDbEntity
  8
LC-002-003-----0
 62
     7
370
    25
100
AcDbDimension
  2
*D68
 10
-290.646333
 20
122.033297
 30
0.0
 11
-376.267211
 21
177.033297
 31
0.0
 70
   160
 71
     5
 42
145.999998
  3
LC-DIM-L-0100-02-02
100
AcDbAlignedDimension
 13
-436.646331
 23
399.654324
 33
0.0
 14
-290.646333
 24
411.532198
 34
0.0
100
AcDbRotatedDimension
  0
ENDSEC
  0
SECTION
  2
OBJECTS
  0
DICTIONARY
  5
C
330
0
100
AcDbDictionary
281
     1
  3
ACAD_GROUP
350
D
  3
ACAD_LAYOUT
350
1A
  3
ACAD_MLINESTYLE
350
17
  3
ACAD_PLOTSETTINGS
350
19
  3
ACAD_PLOTSTYLENAME
350
E
  0
DICTIONARY
  5
D
102
{ACAD_REACTORS
330
C
102
}
330
C
100
AcDbDictionary
281
     1
  3
LCGROUP1360
350
781
  0
DICTIONARY
  5
1A
102
{ACAD_REACTORS
330
C
102
}
330
C
100
AcDbDictionary
281
     1
  3
Layout1
350
1E
  3
Layout2
350
26
  3
Model
350
22
  0
DICTIONARY
  5
17
102
{ACAD_REACTORS
330
C
102
}
330
C
100
AcDbDictionary
281
     1
  3
Standard
350
18
  0
DICTIONARY
  5
19
102
{ACAD_REACTORS
330
C
102
}
330
C
100
AcDbDictionary
281
     1
  0
ACDBDICTIONARYWDFLT
  5
E
102
{ACAD_REACTORS
330
C
102
}
330
C
100
AcDbDictionary
281
     1
  3
Normal
350
F
100
AcDbDictionaryWithDefault
340
F
  0
GROUP
  5
781
102
{ACAD_REACTORS
330
D
102
}
330
D
100
AcDbGroup
300
Gehäuse
 70
     1
 71
     1
340
425
340
426
340
427
340
428
340
429
340
42A
340
42B
340
42C
340
42D
340
42E
340
42F
340
430
340
431
340
432
340
433
340
434
340
435
340
436
340
437
340
438
340
439
340
43A
340
43B
340
43C
340
43D
340
43E
340
43F
340
440
340
441
340
442
340
443
340
444
340
445
340
446
340
447
340
448
340
449
340
44A
340
44B
340
44C
340
44D
340
44E
340
44F
340
450
340
451
340
452
340
453
340
454
340
455
340
456
340
457
340
458
340
459
340
45A
340
45B
340
45C
340
45D
340
45E
340
45F
340
460
340
461
340
462
340
463
340
464
340
465
340
466
340
467
340
468
340
469
340
46A
340
46B
340
46C
340
46D
340
46E
340
46F
340
470
340
471
340
472
340
473
340
474
340
475
340
476
340
477
340
478
340
479
340
47A
340
47B
340
47C
340
47D
340
47E
340
47F
340
480
340
481
340
482
340
483
340
484
340
485
340
486
340
487
340
488
340
489
340
48A
340
48B
340
48C
340
48D
340
48E
340
48F
340
490
340
49D
340
49E
340
4AA
340
4AB
340
4B8
  0
LAYOUT
  5
1E
102
{ACAD_REACTORS
330
1A
102
}
330
1A
100
AcDbPlotSettings
  1

  2

  4

  6

 40
0.0
 41
0.0
 42
0.0
 43
0.0
 44
0.0
 45
0.0
 46
0.0
 47
0.0
 48
0.0
 49
0.0
140
0.0
141
0.0
142
1.0
143
1.0
 70
   688
 72
     0
 73
     0
 74
     5
  7

 75
    16
147
1.0
148
0.0
149
0.0
100
AcDbLayout
  1
Layout1
 70
     1
 71
     1
 10
-856.178896
 20
-611.031554
 11
1243.821104
 21
873.968446
 12
0.0
 22
0.0
 32
0.0
 14
-856.178896
 24
-611.031554
 34
0.0
 15
1243.821104
 25
873.968446
 35
0.0
146
0.0
 13
0.0
 23
0.0
 33
0.0
 16
1.0
 26
0.0
 36
0.0
 17
0.0
 27
1.0
 37
0.0
 76
     0
330
1B
  0
LAYOUT
  5
26
102
{ACAD_REACTORS
330
1A
102
}
330
1A
100
AcDbPlotSettings
  1

  2

  4

  6

 40
0.0
 41
0.0
 42
0.0
 43
0.0
 44
0.0
 45
0.0
 46
0.0
 47
0.0
 48
0.0
 49
0.0
140
0.0
141
0.0
142
1.0
143
1.0
 70
   688
 72
     0
 73
     0
 74
     5
  7

 75
    16
147
1.0
148
0.0
149
0.0
100
AcDbLayout
  1
Layout2
 70
     1
 71
     2
 10
0.0
 20
0.0
 11
0.0
 21
0.0
 12
0.0
 22
0.0
 32
0.0
 14
0.0
 24
0.0
 34
0.0
 15
0.0
 25
0.0
 35
0.0
146
0.0
 13
0.0
 23
0.0
 33
0.0
 16
1.0
 26
0.0
 36
0.0
 17
0.0
 27
1.0
 37
0.0
 76
     0
330
23
  0
LAYOUT
  5
22
102
{ACAD_REACTORS
330
1A
102
}
330
1A
100
AcDbPlotSettings
  1

  2

  4

  6

 40
0.0
 41
0.0
 42
0.0
 43
0.0
 44
0.0
 45
0.0
 46
0.0
 47
0.0
 48
0.0
 49
0.0
140
0.0
141
0.0
142
1.0
143
1.0
 70
  1776
 72
     0
 73
     0
 74
     0
  7

 75
     0
147
1.0
148
0.0
149
0.0
100
AcDbLayout
  1
Model
 70
     1
 71
     0
 10
-856.178896
 20
-611.031554
 11
1243.821104
 21
873.968446
 12
0.0
 22
0.0
 32
0.0
 14
-856.178896
 24
-611.031554
 34
0.0
 15
1243.821104
 25
873.968446
 35
0.0
146
0.0
 13
0.0
 23
0.0
 33
0.0
 16
1.0
 26
0.0
 36
0.0
 17
0.0
 27
1.0
 37
0.0
 76
     0
330
1F
  0
MLINESTYLE
  5
18
102
{ACAD_REACTORS
330
17
102
}
330
17
100
AcDbMlineStyle
  2
Standard
 70
     0
  3

 62
   256
 51
90.0
 52
90.0
 71
     2
 49
0.5
 62
   256
  6
BYLAYER
 49
-0.5
 62
   256
  6
BYLAYER
  0
ACDBPLACEHOLDER
  5
F
102
{ACAD_REACTORS
330
E
102
}
330
E
  0
ENDSEC
  0
EOF
