  0
SECTION
  2
HEADER
  9
$ACADVER
  1
AC1015
  9
$ACADMAINTVER
 70
     6
  9
$DWGCODEPAGE
  3
ANSI_1252
  9
$INSBASE
 10
0.0
 20
0.0
 30
0.0
  9
$EXTMIN
 10
-839.701608
 20
-611.015114
 30
0.0
  9
$EXTMAX
 10
1260.298392
 20
873.984886
 30
0.0
  9
$LIMMIN
 10
-839.701608
 20
-611.015114
  9
$LIMMAX
 10
1260.298392
 20
873.984886
  9
$ORTHOMODE
 70
     0
  9
$REGENMODE
 70
     1
  9
$FILLMODE
 70
     1
  9
$QTEXTMODE
 70
     0
  9
$MIRRTEXT
 70
     1
  9
$LTSCALE
 40
5.0
  9
$ATTMODE
 70
     1
  9
$TEXTSIZE
 40
2.5
  9
$TRACEWID
 40
1.0
  9
$TEXTSTYLE
  7
Standard
  9
$CLAYER
  8
0
  9
$CELTYPE
  6
ByLayer
  9
$CECOLOR
 62
     7
  9
$CELTSCALE
 40
1.0
  9
$DISPSILH
 70
     0
  9
$DIMSCALE
 40
5.0
  9
$DIMASZ
 40
3.5
  9
$DIMEXO
 40
0.625
  9
$DIMDLI
 40
3.75
  9
$DIMRND
 40
0.0
  9
$DIMDLE
 40
0.0
  9
$DIMEXE
 40
1.25
  9
$DIMTP
 40
0.0
  9
$DIMTM
 40
0.0
  9
$DIMTXT
 40
3.5
  9
$DIMCEN
 40
2.5
  9
$DIMTSZ
 40
0.0
  9
$DIMTOL
 70
     0
  9
$DIMLIM
 70
     0
  9
$DIMTIH
 70
     0
  9
$DIMTOH
 70
     0
  9
$DIMSE1
 70
     0
  9
$DIMSE2
 70
     0
  9
$DIMTAD
 70
     1
  9
$DIMZIN
 70
     8
  9
$DIMBLK
  1

  9
$DIMASO
 70
     1
  9
$DIMSHO
 70
     1
  9
$DIMPOST
  1

  9
$DIMAPOST
  1

  9
$DIMALT
 70
     0
  9
$DIMALTD
 70
     3
  9
$DIMALTF
 40
0.03937
  9
$DIMLFAC
 40
1.0
  9
$DIMTOFL
 70
     1
  9
$DIMTVP
 40
0.0
  9
$DIMTIX
 70
     0
  9
$DIMSOXD
 70
     0
  9
$DIMSAH
 70
     0
  9
$DIMBLK1
  1

  9
$DIMBLK2
  1

  9
$DIMSTYLE
  2
ISO-25
  9
$DIMCLRD
 70
     0
  9
$DIMCLRE
 70
     0
  9
$DIMCLRT
 70
     0
  9
$DIMTFAC
 40
1.0
  9
$DIMGAP
 40
0.625
  9
$DIMJUST
 70
     0
  9
$DIMSD1
 70
     0
  9
$DIMSD2
 70
     0
  9
$DIMTOLJ
 70
     0
  9
$DIMTZIN
 70
     8
  9
$DIMALTZ
 70
     0
  9
$DIMALTTZ
 70
     0
  9
$DIMUPT
 70
     0
  9
$DIMDEC
 70
     2
  9
$DIMTDEC
 70
     2
  9
$DIMALTU
 70
     2
  9
$DIMALTTD
 70
     3
  9
$DIMTXSTY
  7
Standard
  9
$DIMAUNIT
 70
     0
  9
$DIMADEC
 70
     0
  9
$DIMALTRND
 40
0.0
  9
$DIMAZIN
 70
     0
  9
$DIMDSEP
 70
    44
  9
$DIMATFIT
 70
     3
  9
$DIMFRAC
 70
     0
  9
$DIMLDRBLK
  1

  9
$DIMLUNIT
 70
     2
  9
$DIMLWD
 70
    -2
  9
$DIMLWE
 70
    -2
  9
$DIMTMOVE
 70
     0
  9
$LUNITS
 70
     2
  9
$LUPREC
 70
     4
  9
$SKETCHINC
 40
1.0
  9
$FILLETRAD
 40
10.0
  9
$AUNITS
 70
     0
  9
$AUPREC
 70
     0
  9
$MENU
  1
.
  9
$ELEVATION
 40
0.0
  9
$PELEVATION
 40
0.0
  9
$THICKNESS
 40
0.0
  9
$LIMCHECK
 70
     0
  9
$CHAMFERA
 40
10.0
  9
$CHAMFERB
 40
10.0
  9
$CHAMFERC
 40
20.0
  9
$CHAMFERD
 40
0.0
  9
$SKPOLY
 70
     0
  9
$TDCREATE
 40
2456031.489596574
  9
$TDUCREATE
 40
2456031.406263241
  9
$TDUPDATE
 40
2456031.489596586
  9
$TDUUPDATE
 40
2456031.406263252
  9
$TDINDWG
 40
0.0000000116
  9
$TDUSRTIMER
 40
0.0000000116
  9
$USRTIMER
 70
     1
  9
$ANGBASE
 50
0.0
  9
$ANGDIR
 70
     0
  9
$PDMODE
 70
     0
  9
$PDSIZE
 40
0.0
  9
$PLINEWID
 40
0.0
  9
$SPLFRAME
 70
     0
  9
$SPLINETYPE
 70
     6
  9
$SPLINESEGS
 70
     8
  9
$HANDSEED
  5
787
  9
$SURFTAB1
 70
     6
  9
$SURFTAB2
 70
     6
  9
$SURFTYPE
 70
     6
  9
$SURFU
 70
     6
  9
$SURFV
 70
     6
  9
$UCSBASE
  2

  9
$UCSNAME
  2

  9
$UCSORG
 10
0.0
 20
0.0
 30
0.0
  9
$UCSXDIR
 10
1.0
 20
0.0
 30
0.0
  9
$UCSYDIR
 10
0.0
 20
1.0
 30
0.0
  9
$UCSORTHOREF
  2

  9
$UCSORTHOVIEW
 70
     0
  9
$UCSORGTOP
 10
0.0
 20
0.0
 30
0.0
  9
$UCSORGBOTTOM
 10
0.0
 20
0.0
 30
0.0
  9
$UCSORGLEFT
 10
0.0
 20
0.0
 30
0.0
  9
$UCSORGRIGHT
 10
0.0
 20
0.0
 30
0.0
  9
$UCSORGFRONT
 10
0.0
 20
0.0
 30
0.0
  9
$UCSORGBACK
 10
0.0
 20
0.0
 30
0.0
  9
$PUCSBASE
  2

  9
$PUCSNAME
  2

  9
$PUCSORG
 10
0.0
 20
0.0
 30
0.0
  9
$PUCSXDIR
 10
1.0
 20
0.0
 30
0.0
  9
$PUCSYDIR
 10
0.0
 20
1.0
 30
0.0
  9
$PUCSORTHOREF
  2

  9
$PUCSORTHOVIEW
 70
     0
  9
$PUCSORGTOP
 10
0.0
 20
0.0
 30
0.0
  9
$PUCSORGBOTTOM
 10
0.0
 20
0.0
 30
0.0
  9
$PUCSORGLEFT
 10
0.0
 20
0.0
 30
0.0
  9
$PUCSORGRIGHT
 10
0.0
 20
0.0
 30
0.0
  9
$PUCSORGFRONT
 10
0.0
 20
0.0
 30
0.0
  9
$PUCSORGBACK
 10
0.0
 20
0.0
 30
0.0
  9
$USERI1
 70
     0
  9
$USERI2
 70
     0
  9
$USERI3
 70
     0
  9
$USERI4
 70
     0
  9
$USERI5
 70
     0
  9
$USERR1
 40
0.0
  9
$USERR2
 40
0.0
  9
$USERR3
 40
0.0
  9
$USERR4
 40
0.0
  9
$USERR5
 40
0.0
  9
$WORLDVIEW
 70
     1
  9
$SHADEDGE
 70
     3
  9
$SHADEDIF
 70
    70
  9
$TILEMODE
 70
     1
  9
$MAXACTVP
 70
    64
  9
$PINSBASE
 10
0.0
 20
0.0
 30
0.0
  9
$PLIMCHECK
 70
     0
  9
$PEXTMIN
 10
-839.701608
 20
-611.015114
 30
0.0
  9
$PEXTMAX
 10
1260.298392
 20
873.984886
 30
0.0
  9
$PLIMMIN
 10
-839.701608
 20
-611.015114
  9
$PLIMMAX
 10
1260.298392
 20
873.984886
  9
$UNITMODE
 70
     0
  9
$VISRETAIN
 70
     1
  9
$PLINEGEN
 70
     0
  9
$PSLTSCALE
 70
     1
  9
$TREEDEPTH
 70
  3020
  9
$CMLSTYLE
  2
Standard
  9
$CMLJUST
 70
     0
  9
$CMLSCALE
 40
20.0
  9
$PROXYGRAPHICS
 70
     1
  9
$MEASUREMENT
 70
     1
  9
$CELWEIGHT
370
    -1
  9
$ENDCAPS
280
     0
  9
$JOINSTYLE
280
     0
  9
$LWDISPLAY
290
     0
  9
$INSUNITS
 70
     4
  9
$HYPERLINKBASE
  1

  9
$STYLESHEET
  1

  9
$XEDIT
290
     1
  9
$CEPSNTYPE
380
     0
  9
$PSTYLEMODE
290
     1
  9
$FINGERPRINTGUID
  2
{FAEB1C30-E019-11D5-929B-00C0DF256EC4}
  9
$VERSIONGUID
  2
{FAEB1C32-E019-11D5-929B-00C0DF256EC4}
  9
$EXTNAMES
290
     1
  9
$PSVPSCALE
 40
0.0
  9
$OLESTARTUP
290
     0
  0
ENDSEC
  0
SECTION
  2
CLASSES
  0
CLASS
  1
ACDBDICTIONARYWDFLT
  2
AcDbDictionaryWithDefault
  3
ObjectDBX Classes
 90
        0
280
     0
281
     0
  0
CLASS
  1
ACDBPLACEHOLDER
  2
AcDbPlaceHolder
  3
ObjectDBX Classes
 90
        0
280
     0
281
     0
  0
CLASS
  1
LAYOUT
  2
AcDbLayout
  3
ObjectDBX Classes
 90
        0
280
     0
281
     0
  0
ENDSEC
  0
SECTION
  2
TABLES
  0
TABLE
  2
VPORT
  5
8
330
0
100
AcDbSymbolTable
 70
     2
  0
VPORT
  5
29
330
8
100
AcDbSymbolTableRecord
100
AcDbViewportTableRecord
  2
*ACTIVE
 70
     0
 10
0.0
 20
0.0
 11
1.0
 21
1.0
 12
210.298392
 22
131.484886
 13
0.0
 23
0.0
 14
1.0
 24
1.0
 15
0.0
 25
0.0
 16
0.0
 26
0.0
 36
1.0
 17
0.0
 27
0.0
 37
0.0
 40
1485.0
 41
1.414141
 42
50.0
 43
0.0
 44
0.0
 50
0.0
 51
0.0
 71
    16
 72
   100
 73
     1
 74
     0
 75
     0
 76
     0
 77
     0
 78
     0
281
     0
 65
     0
110
0.0
120
0.0
130
0.0
111
1.0
121
0.0
131
0.0
112
0.0
122
1.0
132
0.0
 79
     0
146
0.0
  0
ENDTAB
  0
TABLE
  2
LTYPE
  5
5
330
0
100
AcDbSymbolTable
 70
     3
  0
LTYPE
  5
14
330
5
100
AcDbSymbolTableRecord
100
AcDbLinetypeTableRecord
  2
ByBlock
 70
     0
  3

 72
    65
 73
     0
 40
0.0
  0
LTYPE
  5
15
330
5
100
AcDbSymbolTableRecord
100
AcDbLinetypeTableRecord
  2
ByLayer
 70
     0
  3

 72
    65
 73
     0
 40
0.0
  0
LTYPE
  5
16
330
5
100
AcDbSymbolTableRecord
100
AcDbLinetypeTableRecord
  2
Continuous
 70
     0
  3
Solid line
 72
    65
 73
     0
 40
0.0
  0
LTYPE
  5
2A
330
5
100
AcDbSymbolTableRecord
100
AcDbLinetypeTableRecord
  2
DASHED
 70
     0
  3
__ __ __ __ __
 72
    65
 73
     2
 40
6.25
 49
5.0
 74
     4
 75
     0
340
0
 46
1.0
 50
0.0
 44
0.0
 45
0.0
 49
-1.25
 74
     4
 75
     0
340
0
 46
1.0
 50
0.0
 44
0.0
 45
0.0
  0
LTYPE
  5
12E
330
5
100
AcDbSymbolTableRecord
100
AcDbLinetypeTableRecord
  2
DASHDOT
 70
     0
  3
__ . __ . __ . __ . __
 72
    65
 73
     4
 40
7.5
 49
5.0
 74
     4
 75
     0
340
0
 46
1.0
 50
0.0
 44
0.0
 45
0.0
 49
-1.25
 74
     4
 75
     0
340
0
 46
1.0
 50
0.0
 44
0.0
 45
0.0
 49
0.0
 74
     4
 75
     0
340
0
 46
1.0
 50
0.0
 44
0.0
 45
0.0
 49
-1.25
 74
     4
 75
     0
340
0
 46
1.0
 50
0.0
 44
0.0
 45
0.0
  0
ENDTAB
  0
TABLE
  2
LAYER
  5
2
330
0
100
AcDbSymbolTable
 70
     8
  0
LAYER
  5
10
330
2
100
AcDbSymbolTableRecord
100
AcDbLayerTableRecord
  2
0
 70
     0
 62
     7
  6
Continuous
370
    -3
390
F
  0
LAYER
  5
2B
330
2
100
AcDbSymbolTableRecord
100
AcDbLayerTableRecord
  2
LC-INFO-1-5-mm-A3-0
 70
     1
 62
     7
  6
ByBlock
370
    -3
390
F
  0
LAYER
  5
2C
330
2
100
AcDbSymbolTableRecord
100
AcDbLayerTableRecord
  2
LC-CUT-HIDDEN
 70
     0
 62
     7
  6
DASHED
370
    -3
390
F
  0
LAYER
  5
2D
330
2
100
AcDbSymbolTableRecord
100
AcDbLayerTableRecord
  2
LC-VIEWPORT
 70
     0
 62
     7
  6
ByBlock
370
    -3
390
F
  0
LAYER
  5
2E
330
2
100
AcDbSymbolTableRecord
100
AcDbLayerTableRecord
  2
LC-3D-HIDDEN
 70
     0
 62
     9
  6
DASHED
370
    -3
390
F
  0
LAYER
  5
30
330
2
100
AcDbSymbolTableRecord
100
AcDbLayerTableRecord
  2
LC-001-100-D00-0
 70
     0
 62
     1
  6
ByBlock
370
    -3
390
F
  0
LAYER
  5
105
330
2
100
AcDbSymbolTableRecord
100
AcDbLayerTableRecord
  2
Defpoints
 70
     0
 62
     7
  6
Continuous
290
     0
370
    -3
390
F
  0
LAYER
  5
6CB
330
2
100
AcDbSymbolTableRecord
100
AcDbLayerTableRecord
  2
LC-002-003-----0
 70
     0
 62
     2
  6
ByBlock
370
    -3
390
F
  0
ENDTAB
  0
TABLE
  2
STYLE
  5
3
330
0
100
AcDbSymbolTable
 70
     3
  0
STYLE
  5
11
330
3
100
AcDbSymbolTableRecord
100
AcDbTextStyleTableRecord
  2
Standard
 70
     0
 40
0.0
 41
1.0
 50
0.0
 71
     0
 42
2.5
  3
txt
  4

  0
STYLE
  5
2F
330
3
100
AcDbSymbolTableRecord
100
AcDbTextStyleTableRecord
  2
LCTX15-400-0-0-Arial
 70
     0
 40
0.0
 41
0.8
 50
0.0
 71
     0
 42
3.5
  3

  4

1001
ACAD
1000
Arial
1071
 16777218
  0
STYLE
  5
102
330
3
100
AcDbSymbolTableRecord
100
AcDbTextStyleTableRecord
  2
LCTX15-400-0-0pDIN-Schrift
 70
     0
 40
2.5
 41
0.8
 50
15.0
 71
     0
 42
3.5
  3
STANDARD
  4

  0
ENDTAB
  0
TABLE
  2
VIEW
  5
6
330
0
100
AcDbSymbolTable
 70
     0
  0
ENDTAB
  0
TABLE
  2
UCS
  5
7
330
0
100
AcDbSymbolTable
 70
     0
  0
ENDTAB
  0
TABLE
  2
APPID
  5
9
330
0
100
AcDbSymbolTable
 70
     1
  0
APPID
  5
12
330
9
100
AcDbSymbolTableRecord
100
AcDbRegAppTableRecord
  2
ACAD
 70
     0
  0
ENDTAB
  0
TABLE
  2
DIMSTYLE
  5
A
330
0
100
AcDbSymbolTable
 70
     3
100
AcDbDimStyleTable
  0
DIMSTYLE
105
27
330
A
100
AcDbSymbolTableRecord
100
AcDbDimStyleTableRecord
  2
ISO-25
 70
     0
 41
2.5
 42
0.625
 43
3.75
 44
1.25
 73
     0
 74
     0
 77
     1
 78
     8
140
2.5
141
2.5
143
0.03937
147
0.625
171
     3
172
     1
271
     2
272
     2
274
     3
278
    44
283
     0
284
     8
340
11
  0
DIMSTYLE
105
103
102
{ACAD_REACTORS
330
104
330
113
330
121
330
390
330
39F
330
3AC
330
4AE
330
4BC
330
69D
330
6AB
330
6CC
330
6DB
102
}
330
A
100
AcDbSymbolTableRecord
100
AcDbDimStyleTableRecord
  2
LC-DIM-L-0100-02-02
 70
     0
 40
5.0
 41
10.0
 42
0.0
 43
7.5
 44
1.8
 73
     0
 74
     0
 77
     1
 78
     8
 79
     2
140
10.0
141
0.0
146
0.71
147
1.5
176
     2
177
     2
178
     2
179
     2
271
     2
278
    44
289
     1
340
102
  0
DIMSTYLE
105
6B9
102
{ACAD_REACTORS
330
6BA
102
}
330
A
100
AcDbSymbolTableRecord
100
AcDbDimStyleTableRecord
  2
LC-DIM-L-0100-01-02
 70
     0
 40
5.0
 41
10.0
 42
0.0
 43
7.5
 44
1.8
 73
     0
 74
     0
 77
     1
 78
     8
 79
     2
140
10.0
141
0.0
146
0.71
147
1.5
176
     2
177
     2
178
     2
179
     1
271
     1
278
    44
289
     1
340
102
  0
ENDTAB
  0
TABLE
  2
BLOCK_RECORD
  5
1
330
0
100
AcDbSymbolTable
 70
    69
  0
BLOCK_RECORD
  5
1F
330
1
100
AcDbSymbolTableRecord
100
AcDbBlockTableRecord
  2
*Model_Space
340
22
  0
BLOCK_RECORD
  5
1B
330
1
100
AcDbSymbolTableRecord
100
AcDbBlockTableRecord
  2
*Paper_Space
340
1E
  0
BLOCK_RECORD
  5
23
330
1
100
AcDbSymbolTableRecord
100
AcDbBlockTableRecord
  2
*Paper_Space0
340
26
  0
BLOCK_RECORD
  5
50
330
1
100
AcDbSymbolTableRecord
100
AcDbBlockTableRecord
  2
KLON1
340
0
102
{BLKREFS
331
57
102
}
  0
BLOCK_RECORD
  5
59
330
1
100
AcDbSymbolTableRecord
100
AcDbBlockTableRecord
  2
KLON2
340
0
102
{BLKREFS
331
5E
102
}
  0
BLOCK_RECORD
  5
5F
330
1
100
AcDbSymbolTableRecord
100
AcDbBlockTableRecord
  2
KLON3
340
0
102
{BLKREFS
331
64
102
}
  0
BLOCK_RECORD
  5
65
330
1
100
AcDbSymbolTableRecord
100
AcDbBlockTableRecord
  2
KLON4
340
0
102
{BLKREFS
331
6A
102
}
  0
BLOCK_RECORD
  5
6C
330
1
100
AcDbSymbolTableRecord
100
AcDbBlockTableRecord
  2
KLON5
340
0
102
{BLKREFS
331
73
102
}
  0
BLOCK_RECORD
  5
76
330
1
100
AcDbSymbolTableRecord
100
AcDbBlockTableRecord
  2
KLON6
340
0
102
{BLKREFS
331
7B
102
}
  0
BLOCK_RECORD
  5
89
330
1
100
AcDbSymbolTableRecord
100
AcDbBlockTableRecord
  2
KLON7
340
0
102
{BLKREFS
331
8E
102
}
  0
BLOCK_RECORD
  5
8F
330
1
100
AcDbSymbolTableRecord
100
AcDbBlockTableRecord
  2
KLON8
340
0
102
{BLKREFS
331
94
102
}
  0
BLOCK_RECORD
  5
96
330
1
100
AcDbSymbolTableRecord
100
AcDbBlockTableRecord
  2
KLON9
340
0
102
{BLKREFS
331
9C
102
}
  0
BLOCK_RECORD
  5
9D
330
1
100
AcDbSymbolTableRecord
100
AcDbBlockTableRecord
  2
KLON10
340
0
102
{BLKREFS
331
A3
102
}
  0
BLOCK_RECORD
  5
A4
330
1
100
AcDbSymbolTableRecord
100
AcDbBlockTableRecord
  2
KLON11
340
0
102
{BLKREFS
331
A9
102
}
  0
BLOCK_RECORD
  5
AA
330
1
100
AcDbSymbolTableRecord
100
AcDbBlockTableRecord
  2
KLON12
340
0
102
{BLKREFS
331
B0
102
}
  0
BLOCK_RECORD
  5
B1
330
1
100
AcDbSymbolTableRecord
100
AcDbBlockTableRecord
  2
KLON13
340
0
102
{BLKREFS
331
B7
102
}
  0
BLOCK_RECORD
  5
B8
330
1
100
AcDbSymbolTableRecord
100
AcDbBlockTableRecord
  2
KLON14
340
0
102
{BLKREFS
331
BD
102
}
  0
BLOCK_RECORD
  5
106
330
1
100
AcDbSymbolTableRecord
100
AcDbBlockTableRecord
  2
*D15
340
0
  0
BLOCK_RECORD
  5
114
330
1
100
AcDbSymbolTableRecord
100
AcDbBlockTableRecord
  2
*D16
340
0
  0
BLOCK_RECORD
  5
122
330
1
100
AcDbSymbolTableRecord
100
AcDbBlockTableRecord
  2
*D17
340
0
  0
BLOCK_RECORD
  5
348
330
1
100
AcDbSymbolTableRecord
100
AcDbBlockTableRecord
  2
KLON15
340
0
102
{BLKREFS
331
351
102
}
  0
BLOCK_RECORD
  5
352
330
1
100
AcDbSymbolTableRecord
100
AcDbBlockTableRecord
  2
KLON16
340
0
102
{BLKREFS
331
35B
102
}
  0
BLOCK_RECORD
  5
366
330
1
100
AcDbSymbolTableRecord
100
AcDbBlockTableRecord
  2
KLON17
340
0
102
{BLKREFS
331
372
102
}
  0
BLOCK_RECORD
  5
373
330
1
100
AcDbSymbolTableRecord
100
AcDbBlockTableRecord
  2
KLON18
340
0
102
{BLKREFS
331
37F
102
}
  0
BLOCK_RECORD
  5
391
330
1
100
AcDbSymbolTableRecord
100
AcDbBlockTableRecord
  2
*D22
340
0
  0
BLOCK_RECORD
  5
3A0
330
1
100
AcDbSymbolTableRecord
100
AcDbBlockTableRecord
  2
*D23
340
0
  0
BLOCK_RECORD
  5
3AD
330
1
100
AcDbSymbolTableRecord
100
AcDbBlockTableRecord
  2
*D24
340
0
  0
BLOCK_RECORD
  5
3B9
330
1
100
AcDbSymbolTableRecord
100
AcDbBlockTableRecord
  2
KLON19
340
0
102
{BLKREFS
331
3D4
102
}
  0
BLOCK_RECORD
  5
3D5
330
1
100
AcDbSymbolTableRecord
100
AcDbBlockTableRecord
  2
KLON20
340
0
102
{BLKREFS
331
3F0
102
}
  0
BLOCK_RECORD
  5
3F3
330
1
100
AcDbSymbolTableRecord
100
AcDbBlockTableRecord
  2
KLON21
340
0
102
{BLKREFS
331
3F8
102
}
  0
BLOCK_RECORD
  5
3FA
330
1
100
AcDbSymbolTableRecord
100
AcDbBlockTableRecord
  2
KLON22
340
0
102
{BLKREFS
331
400
102
}
  0
BLOCK_RECORD
  5
401
330
1
100
AcDbSymbolTableRecord
100
AcDbBlockTableRecord
  2
KLON23
340
0
102
{BLKREFS
331
406
102
}
  0
BLOCK_RECORD
  5
408
330
1
100
AcDbSymbolTableRecord
100
AcDbBlockTableRecord
  2
KLON24
340
0
102
{BLKREFS
331
40D
102
}
  0
BLOCK_RECORD
  5
410
330
1
100
AcDbSymbolTableRecord
100
AcDbBlockTableRecord
  2
KLON25
340
0
102
{BLKREFS
331
416
102
}
  0
BLOCK_RECORD
  5
41A
330
1
100
AcDbSymbolTableRecord
100
AcDbBlockTableRecord
  2
KLON26
340
0
102
{BLKREFS
331
41F
102
}
  0
BLOCK_RECORD
  5
494
330
1
100
AcDbSymbolTableRecord
100
AcDbBlockTableRecord
  2
KLON27
340
0
102
{BLKREFS
331
4A0
102
}
  0
BLOCK_RECORD
  5
4A2
330
1
100
AcDbSymbolTableRecord
100
AcDbBlockTableRecord
  2
KLON28
340
0
102
{BLKREFS
331
4AD
102
}
  0
BLOCK_RECORD
  5
4AF
330
1
100
AcDbSymbolTableRecord
100
AcDbBlockTableRecord
  2
*D35
340
0
  0
BLOCK_RECORD
  5
4BD
330
1
100
AcDbSymbolTableRecord
100
AcDbBlockTableRecord
  2
*D36
340
0
  0
BLOCK_RECORD
  5
504
330
1
100
AcDbSymbolTableRecord
100
AcDbBlockTableRecord
  2
POLY1
340
0
102
{BLKREFS
331
513
102
}
  0
BLOCK_RECORD
  5
514
330
1
100
AcDbSymbolTableRecord
100
AcDbBlockTableRecord
  2
POLY2
340
0
102
{BLKREFS
331
523
102
}
  0
BLOCK_RECORD
  5
528
330
1
100
AcDbSymbolTableRecord
100
AcDbBlockTableRecord
  2
POLY3
340
0
102
{BLKREFS
331
539
102
}
  0
BLOCK_RECORD
  5
53A
330
1
100
AcDbSymbolTableRecord
100
AcDbBlockTableRecord
  2
POLY4
340
0
102
{BLKREFS
331
54B
102
}
  0
BLOCK_RECORD
  5
555
330
1
100
AcDbSymbolTableRecord
100
AcDbBlockTableRecord
  2
POLY5
340
0
102
{BLKREFS
331
560
102
}
  0
BLOCK_RECORD
  5
5C6
330
1
100
AcDbSymbolTableRecord
100
AcDbBlockTableRecord
  2
POLY6
340
0
102
{BLKREFS
331
5D3
102
}
  0
BLOCK_RECORD
  5
5E7
330
1
100
AcDbSymbolTableRecord
100
AcDbBlockTableRecord
  2
KLON29
340
0
102
{BLKREFS
331
5EC
102
}
  0
BLOCK_RECORD
  5
5F2
330
1
100
AcDbSymbolTableRecord
100
AcDbBlockTableRecord
  2
POLY7
340
0
102
{BLKREFS
331
605
102
}
  0
BLOCK_RECORD
  5
608
330
1
100
AcDbSymbolTableRecord
100
AcDbBlockTableRecord
  2
KLON30
340
0
102
{BLKREFS
331
60D
102
}
  0
BLOCK_RECORD
  5
616
330
1
100
AcDbSymbolTableRecord
100
AcDbBlockTableRecord
  2
POLY8
340
0
102
{BLKREFS
331
623
102
}
  0
BLOCK_RECORD
  5
634
330
1
100
AcDbSymbolTableRecord
100
AcDbBlockTableRecord
  2
POLY9
340
0
102
{BLKREFS
331
655
102
}
  0
BLOCK_RECORD
  5
65E
330
1
100
AcDbSymbolTableRecord
100
AcDbBlockTableRecord
  2
KLON31
340
0
102
{BLKREFS
331
665
102
}
  0
BLOCK_RECORD
  5
666
330
1
100
AcDbSymbolTableRecord
100
AcDbBlockTableRecord
  2
KLON32
340
0
102
{BLKREFS
331
672
102
}
  0
BLOCK_RECORD
  5
673
330
1
100
AcDbSymbolTableRecord
100
AcDbBlockTableRecord
  2
KLON33
340
0
102
{BLKREFS
331
678
102
}
  0
BLOCK_RECORD
  5
679
330
1
100
AcDbSymbolTableRecord
100
AcDbBlockTableRecord
  2
KLON34
340
0
102
{BLKREFS
331
67E
102
}
  0
BLOCK_RECORD
  5
680
330
1
100
AcDbSymbolTableRecord
100
AcDbBlockTableRecord
  2
KLON35
340
0
102
{BLKREFS
331
687
102
}
  0
BLOCK_RECORD
  5
688
330
1
100
AcDbSymbolTableRecord
100
AcDbBlockTableRecord
  2
KLON36
340
0
102
{BLKREFS
331
68D
102
}
  0
BLOCK_RECORD
  5
68E
330
1
100
AcDbSymbolTableRecord
100
AcDbBlockTableRecord
  2
KLON37
340
0
102
{BLKREFS
331
694
102
}
  0
BLOCK_RECORD
  5
695
330
1
100
AcDbSymbolTableRecord
100
AcDbBlockTableRecord
  2
KLON38
340
0
102
{BLKREFS
331
69C
102
}
  0
BLOCK_RECORD
  5
69E
330
1
100
AcDbSymbolTableRecord
100
AcDbBlockTableRecord
  2
*D56
340
0
  0
BLOCK_RECORD
  5
6AC
330
1
100
AcDbSymbolTableRecord
100
AcDbBlockTableRecord
  2
*D57
340
0
  0
BLOCK_RECORD
  5
6BB
330
1
100
AcDbSymbolTableRecord
100
AcDbBlockTableRecord
  2
*D58
340
0
  0
BLOCK_RECORD
  5
6CD
330
1
100
AcDbSymbolTableRecord
100
AcDbBlockTableRecord
  2
*D59
340
0
  0
BLOCK_RECORD
  5
6DC
330
1
100
AcDbSymbolTableRecord
100
AcDbBlockTableRecord
  2
*D60
340
0
  0
BLOCK_RECORD
  5
6E8
330
1
100
AcDbSymbolTableRecord
100
AcDbBlockTableRecord
  2
KLON39
340
0
102
{BLKREFS
331
6ED
102
}
  0
BLOCK_RECORD
  5
6F1
330
1
100
AcDbSymbolTableRecord
100
AcDbBlockTableRecord
  2
KLON40
340
0
102
{BLKREFS
331
6F6
102
}
  0
BLOCK_RECORD
  5
6FA
330
1
100
AcDbSymbolTableRecord
100
AcDbBlockTableRecord
  2
POLY10
340
0
102
{BLKREFS
331
709
102
}
  0
BLOCK_RECORD
  5
70A
330
1
100
AcDbSymbolTableRecord
100
AcDbBlockTableRecord
  2
POLY11
340
0
102
{BLKREFS
331
719
102
}
  0
BLOCK_RECORD
  5
71A
330
1
100
AcDbSymbolTableRecord
100
AcDbBlockTableRecord
  2
POLY12
340
0
102
{BLKREFS
331
729
102
}
  0
BLOCK_RECORD
  5
72A
330
1
100
AcDbSymbolTableRecord
100
AcDbBlockTableRecord
  2
POLY13
340
0
102
{BLKREFS
331
739
102
}
  0
BLOCK_RECORD
  5
744
330
1
100
AcDbSymbolTableRecord
100
AcDbBlockTableRecord
  2
POLY14
340
0
102
{BLKREFS
331
753
102
}
  0
BLOCK_RECORD
  5
756
330
1
100
AcDbSymbolTableRecord
100
AcDbBlockTableRecord
  2
POLY15
340
0
102
{BLKREFS
331
765
102
}
  0
ENDTAB
  0
ENDSEC
  0
SECTION
  2
BLOCKS
  0
BLOCK
  5
20
330
1F
100
AcDbEntity
  8
0
100
AcDbBlockBegin
  2
*Model_Space
 70
     0
 71
     0
 10
0.0
 20
0.0
 30
0.0
  3
*Model_Space
  1

  0
ENDBLK
  5
21
330
1F
100
AcDbEntity
  8
0
100
AcDbBlockEnd
  0
BLOCK
  5
1C
330
1B
100
AcDbEntity
 67
     1
  8
0
100
AcDbBlockBegin
  2
*Paper_Space
 70
     0
 71
     0
 10
0.0
 20
0.0
 30
0.0
  3
*Paper_Space
  1

  0
ENDBLK
  5
1D
330
1B
100
AcDbEntity
 67
     1
  8
0
100
AcDbBlockEnd
  0
BLOCK
  5
24
330
23
100
AcDbEntity
  8
0
100
AcDbBlockBegin
  2
*Paper_Space0
 70
     0
 71
     0
 10
0.0
 20
0.0
 30
0.0
  3
*Paper_Space0
  1

  0
ENDBLK
  5
25
330
23
100
AcDbEntity
  8
0
100
AcDbBlockEnd
  0
BLOCK
  5
51
330
50
100
AcDbEntity
  8
0
100
AcDbBlockBegin
  2
KLON1
 70
     0
 71
     0
 10
0.0
 20
0.0
 30
0.0
  3
KLON1
  1

  4
KLON1
  0
LINE
  5
53
330
50
100
AcDbEntity
  8
LC-001-100-D00-0
 62
     7
370
    15
100
AcDbLine
 10
837.901957
 20
-15.722275
 30
0.0
 11
837.914623
 21
-15.803156
 31
0.0
  0
LINE
  5
54
330
50
100
AcDbEntity
  8
LC-001-100-D00-0
 62
     7
370
    15
100
AcDbLine
 10
837.914623
 20
-15.803156
 30
0.0
 11
837.923414
 21
-15.859365
 31
0.0
  0
LINE
  5
55
330
50
100
AcDbEntity
  8
LC-001-100-D00-0
 62
     7
370
    15
100
AcDbLine
 10
837.923414
 20
-15.859365
 30
0.0
 11
837.925918
 21
-15.875464
 31
0.0
  0
LINE
  5
56
330
50
100
AcDbEntity
  8
LC-001-100-D00-0
 62
     7
370
    15
100
AcDbLine
 10
837.925918
 20
-15.875464
 30
0.0
 11
837.928153
 21
-15.88975
 31
0.0
  0
ENDBLK
  5
52
330
50
100
AcDbEntity
  8
0
100
AcDbBlockEnd
  0
BLOCK
  5
5A
330
59
100
AcDbEntity
  8
0
100
AcDbBlockBegin
  2
KLON2
 70
     0
 71
     0
 10
0.0
 20
0.0
 30
0.0
  3
KLON2
  1

  4
KLON2
  0
LINE
  5
5C
330
59
100
AcDbEntity
  8
LC-001-100-D00-0
 62
     7
370
    15
100
AcDbLine
 10
837.901957
 20
-4.559584
 30
0.0
 11
837.912537
 21
-4.553673
 31
0.0
  0
LINE
  5
5D
330
59
100
AcDbEntity
  8
LC-001-100-D00-0
 62
     7
370
    15
100
AcDbLine
 10
837.912537
 20
-4.553673
 30
0.0
 11
837.928153
 21
-4.544945
 31
0.0
  0
ENDBLK
  5
5B
330
59
100
AcDbEntity
  8
0
100
AcDbBlockEnd
  0
BLOCK
  5
60
330
5F
100
AcDbEntity
  8
0
100
AcDbBlockBegin
  2
KLON3
 70
     0
 71
     0
 10
0.0
 20
0.0
 30
0.0
  3
KLON3
  1

  4
KLON3
  0
LINE
  5
62
330
5F
100
AcDbEntity
  8
LC-001-100-D00-0
 62
     7
370
    15
100
AcDbLine
 10
837.901957
 20
-51.544944
 30
0.0
 11
837.909378
 21
-51.583117
 31
0.0
  0
LINE
  5
63
330
5F
100
AcDbEntity
  8
LC-001-100-D00-0
 62
     7
370
    15
100
AcDbLine
 10
837.909378
 20
-51.583117
 30
0.0
 11
837.928153
 21
-51.615601
 31
0.0
  0
ENDBLK
  5
61
330
5F
100
AcDbEntity
  8
0
100
AcDbBlockEnd
  0
BLOCK
  5
66
330
65
100
AcDbEntity
  8
0
100
AcDbBlockBegin
  2
KLON4
 70
     0
 71
     0
 10
0.0
 20
0.0
 30
0.0
  3
KLON4
  1

  4
KLON4
  0
LINE
  5
68
330
65
100
AcDbEntity
  8
LC-001-100-D00-0
 62
     7
370
    15
100
AcDbLine
 10
-46.045654
 20
-4.559584
 30
0.0
 11
-46.056234
 21
-4.553673
 31
0.0
  0
LINE
  5
69
330
65
100
AcDbEntity
  8
LC-001-100-D00-0
 62
     7
370
    15
100
AcDbLine
 10
-46.056234
 20
-4.553673
 30
0.0
 11
-46.07185
 21
-4.544945
 31
0.0
  0
ENDBLK
  5
67
330
65
100
AcDbEntity
  8
0
100
AcDbBlockEnd
  0
BLOCK
  5
6D
330
6C
100
AcDbEntity
  8
0
100
AcDbBlockBegin
  2
KLON5
 70
     0
 71
     0
 10
0.0
 20
0.0
 30
0.0
  3
KLON5
  1

  4
KLON5
  0
LINE
  5
6F
330
6C
100
AcDbEntity
  8
LC-001-100-D00-0
 62
     7
370
    15
100
AcDbLine
 10
-46.045654
 20
-15.722275
 30
0.0
 11
-46.05832
 21
-15.803156
 31
0.0
  0
LINE
  5
70
330
6C
100
AcDbEntity
  8
LC-001-100-D00-0
 62
     7
370
    15
100
AcDbLine
 10
-46.05832
 20
-15.803156
 30
0.0
 11
-46.067112
 21
-15.859365
 31
0.0
  0
LINE
  5
71
330
6C
100
AcDbEntity
  8
LC-001-100-D00-0
 62
     7
370
    15
100
AcDbLine
 10
-46.067112
 20
-15.859365
 30
0.0
 11
-46.069615
 21
-15.875464
 31
0.0
  0
LINE
  5
72
330
6C
100
AcDbEntity
  8
LC-001-100-D00-0
 62
     7
370
    15
100
AcDbLine
 10
-46.069615
 20
-15.875464
 30
0.0
 11
-46.07185
 21
-15.88975
 31
0.0
  0
ENDBLK
  5
6E
330
6C
100
AcDbEntity
  8
0
100
AcDbBlockEnd
  0
BLOCK
  5
77
330
76
100
AcDbEntity
  8
0
100
AcDbBlockBegin
  2
KLON6
 70
     0
 71
     0
 10
0.0
 20
0.0
 30
0.0
  3
KLON6
  1

  4
KLON6
  0
LINE
  5
79
330
76
100
AcDbEntity
  8
LC-001-100-D00-0
 62
     7
370
    15
100
AcDbLine
 10
-46.045654
 20
-51.544944
 30
0.0
 11
-46.053075
 21
-51.583117
 31
0.0
  0
LINE
  5
7A
330
76
100
AcDbEntity
  8
LC-001-100-D00-0
 62
     7
370
    15
100
AcDbLine
 10
-46.053075
 20
-51.583117
 30
0.0
 11
-46.07185
 21
-51.615601
 31
0.0
  0
ENDBLK
  5
78
330
76
100
AcDbEntity
  8
0
100
AcDbBlockEnd
  0
BLOCK
  5
8A
330
89
100
AcDbEntity
  8
0
100
AcDbBlockBegin
  2
KLON7
 70
     0
 71
     0
 10
0.0
 20
0.0
 30
0.0
  3
KLON7
  1

  4
KLON7
  0
LINE
  5
8C
330
89
100
AcDbEntity
  8
LC-001-100-D00-0
 62
     7
370
    15
100
AcDbLine
 10
837.873436
 20
-40.378353
 30
0.0
 11
837.889589
 21
-40.372269
 31
0.0
  0
LINE
  5
8D
330
89
100
AcDbEntity
  8
LC-001-100-D00-0
 62
     7
370
    15
100
AcDbLine
 10
837.889589
 20
-40.372269
 30
0.0
 11
837.901957
 21
-40.367613
 31
0.0
  0
ENDBLK
  5
8B
330
89
100
AcDbEntity
  8
0
100
AcDbBlockEnd
  0
BLOCK
  5
90
330
8F
100
AcDbEntity
  8
0
100
AcDbBlockBegin
  2
KLON8
 70
     0
 71
     0
 10
0.0
 20
0.0
 30
0.0
  3
KLON8
  1

  4
KLON8
  0
LINE
  5
92
330
8F
100
AcDbEntity
  8
LC-001-100-D00-0
 62
     7
370
    15
100
AcDbLine
 10
-46.017133
 20
-40.378353
 30
0.0
 11
-46.033286
 21
-40.372269
 31
0.0
  0
LINE
  5
93
330
8F
100
AcDbEntity
  8
LC-001-100-D00-0
 62
     7
370
    15
100
AcDbLine
 10
-46.033286
 20
-40.372269
 30
0.0
 11
-46.045654
 21
-40.367613
 31
0.0
  0
ENDBLK
  5
91
330
8F
100
AcDbEntity
  8
0
100
AcDbBlockEnd
  0
BLOCK
  5
97
330
96
100
AcDbEntity
  8
0
100
AcDbBlockBegin
  2
KLON9
 70
     0
 71
     0
 10
0.0
 20
0.0
 30
0.0
  3
KLON9
  1

  4
KLON9
  0
LINE
  5
99
330
96
100
AcDbEntity
  8
LC-001-100-D00-0
 62
     7
370
    15
100
AcDbLine
 10
700.915075
 20
-33.904161
 30
0.0
 11
700.92649
 21
-33.490687
 31
0.0
  0
LINE
  5
9A
330
96
100
AcDbEntity
  8
LC-001-100-D00-0
 62
     7
370
    15
100
AcDbLine
 10
700.92649
 20
-33.490687
 30
0.0
 11
700.938172
 21
-33.067429
 31
0.0
  0
LINE
  5
9B
330
96
100
AcDbEntity
  8
LC-001-100-D00-0
 62
     7
370
    15
100
AcDbLine
 10
700.938172
 20
-33.067429
 30
0.0
 11
700.949974
 21
-32.63925
 31
0.0
  0
ENDBLK
  5
98
330
96
100
AcDbEntity
  8
0
100
AcDbBlockEnd
  0
BLOCK
  5
9E
330
9D
100
AcDbEntity
  8
0
100
AcDbBlockBegin
  2
KLON10
 70
     0
 71
     0
 10
0.0
 20
0.0
 30
0.0
  3
KLON10
  1

  4
KLON10
  0
LINE
  5
A0
330
9D
100
AcDbEntity
  8
LC-001-100-D00-0
 62
     7
370
    15
100
AcDbLine
 10
700.949974
 20
-23.450638
 30
0.0
 11
700.938172
 21
-23.02246
 31
0.0
  0
LINE
  5
A1
330
9D
100
AcDbEntity
  8
LC-001-100-D00-0
 62
     7
370
    15
100
AcDbLine
 10
700.938172
 20
-23.02246
 30
0.0
 11
700.92649
 21
-22.599201
 31
0.0
  0
LINE
  5
A2
330
9D
100
AcDbEntity
  8
LC-001-100-D00-0
 62
     7
370
    15
100
AcDbLine
 10
700.92649
 20
-22.599201
 30
0.0
 11
700.915075
 21
-22.185727
 31
0.0
  0
ENDBLK
  5
9F
330
9D
100
AcDbEntity
  8
0
100
AcDbBlockEnd
  0
BLOCK
  5
A5
330
A4
100
AcDbEntity
  8
0
100
AcDbBlockBegin
  2
KLON11
 70
     0
 71
     0
 10
0.0
 20
0.0
 30
0.0
  3
KLON11
  1

  4
KLON11
  0
LINE
  5
A7
330
A4
100
AcDbEntity
  8
LC-001-100-D00-0
 62
     7
370
    15
100
AcDbLine
 10
837.873436
 20
-15.711535
 30
0.0
 11
837.889589
 21
-15.71762
 31
0.0
  0
LINE
  5
A8
330
A4
100
AcDbEntity
  8
LC-001-100-D00-0
 62
     7
370
    15
100
AcDbLine
 10
837.889589
 20
-15.71762
 30
0.0
 11
837.901957
 21
-15.722275
 31
0.0
  0
ENDBLK
  5
A6
330
A4
100
AcDbEntity
  8
0
100
AcDbBlockEnd
  0
BLOCK
  5
AB
330
AA
100
AcDbEntity
  8
0
100
AcDbBlockBegin
  2
KLON12
 70
     0
 71
     0
 10
0.0
 20
0.0
 30
0.0
  3
KLON12
  1

  4
KLON12
  0
LINE
  5
AD
330
AA
100
AcDbEntity
  8
LC-001-100-D00-0
 62
     7
370
    15
100
AcDbLine
 10
90.941227
 20
-33.904161
 30
0.0
 11
90.929813
 21
-33.490687
 31
0.0
  0
LINE
  5
AE
330
AA
100
AcDbEntity
  8
LC-001-100-D00-0
 62
     7
370
    15
100
AcDbLine
 10
90.929813
 20
-33.490687
 30
0.0
 11
90.918131
 21
-33.067429
 31
0.0
  0
LINE
  5
AF
330
AA
100
AcDbEntity
  8
LC-001-100-D00-0
 62
     7
370
    15
100
AcDbLine
 10
90.918131
 20
-33.067429
 30
0.0
 11
90.906329
 21
-32.63925
 31
0.0
  0
ENDBLK
  5
AC
330
AA
100
AcDbEntity
  8
0
100
AcDbBlockEnd
  0
BLOCK
  5
B2
330
B1
100
AcDbEntity
  8
0
100
AcDbBlockBegin
  2
KLON13
 70
     0
 71
     0
 10
0.0
 20
0.0
 30
0.0
  3
KLON13
  1

  4
KLON13
  0
LINE
  5
B4
330
B1
100
AcDbEntity
  8
LC-001-100-D00-0
 62
     7
370
    15
100
AcDbLine
 10
90.906329
 20
-23.450638
 30
0.0
 11
90.918131
 21
-23.02246
 31
0.0
  0
LINE
  5
B5
330
B1
100
AcDbEntity
  8
LC-001-100-D00-0
 62
     7
370
    15
100
AcDbLine
 10
90.918131
 20
-23.02246
 30
0.0
 11
90.929813
 21
-22.599201
 31
0.0
  0
LINE
  5
B6
330
B1
100
AcDbEntity
  8
LC-001-100-D00-0
 62
     7
370
    15
100
AcDbLine
 10
90.929813
 20
-22.599201
 30
0.0
 11
90.941227
 21
-22.185727
 31
0.0
  0
ENDBLK
  5
B3
330
B1
100
AcDbEntity
  8
0
100
AcDbBlockEnd
  0
BLOCK
  5
B9
330
B8
100
AcDbEntity
  8
0
100
AcDbBlockBegin
  2
KLON14
 70
     0
 71
     0
 10
0.0
 20
0.0
 30
0.0
  3
KLON14
  1

  4
KLON14
  0
LINE
  5
BB
330
B8
100
AcDbEntity
  8
LC-001-100-D00-0
 62
     7
370
    15
100
AcDbLine
 10
-46.017133
 20
-15.711535
 30
0.0
 11
-46.033286
 21
-15.71762
 31
0.0
  0
LINE
  5
BC
330
B8
100
AcDbEntity
  8
LC-001-100-D00-0
 62
     7
370
    15
100
AcDbLine
 10
-46.033286
 20
-15.71762
 30
0.0
 11
-46.045654
 21
-15.722275
 31
0.0
  0
ENDBLK
  5
BA
330
B8
100
AcDbEntity
  8
0
100
AcDbBlockEnd
  0
BLOCK
  5
111
330
106
100
AcDbEntity
  8
0
100
AcDbBlockBegin
  2
*D15
 70
     1
 71
     0
 10
0.0
 20
0.0
 30
0.0
  3
*D15
  1

  0
LINE
  5
107
330
106
100
AcDbEntity
  8
LC-001-100-D00-0
 62
     2
370
    -2
100
AcDbLine
 10
890.928151
 20
17.955056
 30
0.0
 11
954.792255
 21
17.955056
 31
0.0
  0
LINE
  5
108
330
106
100
AcDbEntity
  8
LC-001-100-D00-0
 62
     2
370
    -2
100
AcDbLine
 10
890.928151
 20
16.455056
 30
0.0
 11
954.792255
 21
16.455056
 31
0.0
  0
LINE
  5
109
330
106
100
AcDbEntity
  8
LC-001-100-D00-0
 62
     2
370
    -2
100
AcDbLine
 10
945.792255
 20
-33.544944
 30
0.0
 11
945.792255
 21
-83.544944
 31
0.0
  0
LINE
  5
10A
330
106
100
AcDbEntity
  8
LC-001-100-D00-0
 62
     2
370
    -2
100
AcDbLine
 10
945.792255
 20
67.955056
 30
0.0
 11
945.792255
 21
75.599568
 31
0.0
  0
SOLID
  5
10B
330
106
100
AcDbEntity
  8
LC-001-100-D00-0
 62
     2
100
AcDbTrace
 10
937.458922
 20
67.955056
 30
0.0
 11
954.125589
 21
67.955056
 31
0.0
 12
945.792255
 22
17.955056
 32
0.0
 13
945.792255
 23
17.955056
 33
0.0
  0
SOLID
  5
10C
330
106
100
AcDbEntity
  8
LC-001-100-D00-0
 62
     2
100
AcDbTrace
 10
954.125589
 20
-33.544944
 30
0.0
 11
937.458922
 21
-33.544944
 31
0.0
 12
945.792255
 22
16.455056
 32
0.0
 13
945.792255
 23
16.455056
 33
0.0
  0
MTEXT
  5
10D
330
106
100
AcDbEntity
  8
LC-001-100-D00-0
 62
     2
100
AcDbMText
 10
890.792255
 20
29.019886
 30
0.0
 40
50.0
 41
0.0
 71
     5
 72
     1
  1
\A1;1,5
  7
LCTX15-400-0-0pDIN-Schrift
 11
6.123031769111886E-17
 21
1.0
 31
0.0
 73
     1
 44
1.0
  0
POINT
  5
10E
330
106
100
AcDbEntity
  8
Defpoints
 62
     0
100
AcDbPoint
 10
890.928151
 20
17.955056
 30
0.0
  0
POINT
  5
10F
330
106
100
AcDbEntity
  8
Defpoints
 62
     0
100
AcDbPoint
 10
890.928151
 20
16.455056
 30
0.0
  0
POINT
  5
110
330
106
100
AcDbEntity
  8
Defpoints
 62
     0
100
AcDbPoint
 10
945.792255
 20
16.455056
 30
0.0
  0
ENDBLK
  5
112
330
106
100
AcDbEntity
  8
0
100
AcDbBlockEnd
  0
BLOCK
  5
11F
330
114
100
AcDbEntity
  8
0
100
AcDbBlockBegin
  2
*D16
 70
     1
 71
     0
 10
0.0
 20
0.0
 30
0.0
  3
*D16
  1

  0
LINE
  5
115
330
114
100
AcDbEntity
  8
LC-001-100-D00-0
 62
     2
370
    -2
100
AcDbLine
 10
890.928151
 20
16.455056
 30
0.0
 11
1032.177816
 21
16.455056
 31
0.0
  0
LINE
  5
116
330
114
100
AcDbEntity
  8
LC-001-100-D00-0
 62
     2
370
    -2
100
AcDbLine
 10
843.428151
 20
-2.044944
 30
0.0
 11
1032.177816
 21
-2.044944
 31
0.0
  0
LINE
  5
117
330
114
100
AcDbEntity
  8
LC-001-100-D00-0
 62
     2
370
    -2
100
AcDbLine
 10
1023.177816
 20
66.455056
 30
0.0
 11
1023.177816
 21
116.455056
 31
0.0
  0
LINE
  5
118
330
114
100
AcDbEntity
  8
LC-001-100-D00-0
 62
     2
370
    -2
100
AcDbLine
 10
1023.177816
 20
-52.044944
 30
0.0
 11
1023.177816
 21
-82.642415
 31
0.0
  0
SOLID
  5
119
330
114
100
AcDbEntity
  8
LC-001-100-D00-0
 62
     2
100
AcDbTrace
 10
1014.844482
 20
66.455056
 30
0.0
 11
1031.511149
 21
66.455056
 31
0.0
 12
1023.177816
 22
16.455056
 32
0.0
 13
1023.177816
 23
16.455056
 33
0.0
  0
SOLID
  5
11A
330
114
100
AcDbEntity
  8
LC-001-100-D00-0
 62
     2
100
AcDbTrace
 10
1031.511149
 20
-52.044944
 30
0.0
 11
1014.844482
 21
-52.044944
 31
0.0
 12
1023.177816
 22
-2.044944
 32
0.0
 13
1023.177816
 23
-2.044944
 33
0.0
  0
MTEXT
  5
11B
330
114
100
AcDbEntity
  8
LC-001-100-D00-0
 62
     2
100
AcDbMText
 10
968.177816
 20
-17.015114
 30
0.0
 40
50.0
 41
0.0
 71
     5
 72
     1
  1
\A1;18,5
  7
LCTX15-400-0-0pDIN-Schrift
 11
6.123031769111886E-17
 21
1.0
 31
0.0
 73
     1
 44
1.0
  0
POINT
  5
11C
330
114
100
AcDbEntity
  8
Defpoints
 62
     0
100
AcDbPoint
 10
890.928151
 20
16.455056
 30
0.0
  0
POINT
  5
11D
330
114
100
AcDbEntity
  8
Defpoints
 62
     0
100
AcDbPoint
 10
843.428151
 20
-2.044944
 30
0.0
  0
POINT
  5
11E
330
114
100
AcDbEntity
  8
Defpoints
 62
     0
100
AcDbPoint
 10
1023.177816
 20
-2.044944
 30
0.0
  0
ENDBLK
  5
120
330
114
100
AcDbEntity
  8
0
100
AcDbBlockEnd
  0
BLOCK
  5
12C
330
122
100
AcDbEntity
  8
0
100
AcDbBlockBegin
  2
*D17
 70
     1
 71
     0
 10
0.0
 20
0.0
 30
0.0
  3
*D17
  1

  0
LINE
  5
123
330
122
100
AcDbEntity
  8
LC-001-100-D00-0
 62
     2
370
    -2
100
AcDbLine
 10
890.928151
 20
17.955056
 30
0.0
 11
1114.722413
 21
17.955056
 31
0.0
  0
LINE
  5
124
330
122
100
AcDbEntity
  8
LC-001-100-D00-0
 62
     2
370
    -2
100
AcDbLine
 10
890.928151
 20
-105.544944
 30
0.0
 11
1114.722413
 21
-105.544944
 31
0.0
  0
LINE
  5
125
330
122
100
AcDbEntity
  8
LC-001-100-D00-0
 62
     2
370
    -2
100
AcDbLine
 10
1105.722413
 20
-32.044944
 30
0.0
 11
1105.722413
 21
-55.544944
 31
0.0
  0
SOLID
  5
126
330
122
100
AcDbEntity
  8
LC-001-100-D00-0
 62
     2
100
AcDbTrace
 10
1114.055747
 20
-32.044944
 30
0.0
 11
1097.38908
 21
-32.044944
 31
0.0
 12
1105.722413
 22
17.955056
 32
0.0
 13
1105.722413
 23
17.955056
 33
0.0
  0
SOLID
  5
127
330
122
100
AcDbEntity
  8
LC-001-100-D00-0
 62
     2
100
AcDbTrace
 10
1097.38908
 20
-55.544944
 30
0.0
 11
1114.055747
 21
-55.544944
 31
0.0
 12
1105.722413
 22
-105.544944
 32
0.0
 13
1105.722413
 23
-105.544944
 33
0.0
  0
MTEXT
  5
128
330
122
100
AcDbEntity
  8
LC-001-100-D00-0
 62
     2
100
AcDbMText
 10
1050.722413
 20
-79.385114
 30
0.0
 40
50.0
 41
0.0
 71
     5
 72
     1
  1
\A1;123,5
  7
LCTX15-400-0-0pDIN-Schrift
 11
6.123031769111886E-17
 21
1.0
 31
0.0
 73
     1
 44
1.0
  0
POINT
  5
129
330
122
100
AcDbEntity
  8
Defpoints
 62
     0
100
AcDbPoint
 10
890.928151
 20
17.955056
 30
0.0
  0
POINT
  5
12A
330
122
100
AcDbEntity
  8
Defpoints
 62
     0
100
AcDbPoint
 10
890.928151
 20
-105.544944
 30
0.0
  0
POINT
  5
12B
330
122
100
AcDbEntity
  8
Defpoints
 62
     0
100
AcDbPoint
 10
1105.722413
 20
-105.544944
 30
0.0
  0
ENDBLK
  5
12D
330
122
100
AcDbEntity
  8
0
100
AcDbBlockEnd
  0
BLOCK
  5
349
330
348
100
AcDbEntity
  8
0
100
AcDbBlockBegin
  2
KLON15
 70
     0
 71
     0
 10
0.0
 20
0.0
 30
0.0
  3
KLON15
  1

  4
KLON15
  0
LINE
  5
34B
330
348
100
AcDbEntity
  8
LC-001-100-D00-0
 62
     7
370
    15
100
AcDbLine
 10
828.835822
 20
398.32878
 30
0.0
 11
831.392146
 21
398.422076
 31
0.0
  0
LINE
  5
34C
330
348
100
AcDbEntity
  8
LC-001-100-D00-0
 62
     7
370
    15
100
AcDbLine
 10
831.392146
 20
398.422076
 30
0.0
 11
833.537943
 21
398.500389
 31
0.0
  0
LINE
  5
34D
330
348
100
AcDbEntity
  8
LC-001-100-D00-0
 62
     7
370
    15
100
AcDbLine
 10
833.537943
 20
398.500389
 30
0.0
 11
835.268087
 21
398.563533
 31
0.0
  0
LINE
  5
34E
330
348
100
AcDbEntity
  8
LC-001-100-D00-0
 62
     7
370
    15
100
AcDbLine
 10
835.268087
 20
398.563533
 30
0.0
 11
836.578406
 21
398.611354
 31
0.0
  0
LINE
  5
34F
330
348
100
AcDbEntity
  8
LC-001-100-D00-0
 62
     7
370
    15
100
AcDbLine
 10
836.578406
 20
398.611354
 30
0.0
 11
837.4658
 21
398.643742
 31
0.0
  0
LINE
  5
350
330
348
100
AcDbEntity
  8
LC-001-100-D00-0
 62
     7
370
    15
100
AcDbLine
 10
837.4658
 20
398.643742
 30
0.0
 11
837.928153
 21
398.660616
 31
0.0
  0
ENDBLK
  5
34A
330
348
100
AcDbEntity
  8
0
100
AcDbBlockEnd
  0
BLOCK
  5
353
330
352
100
AcDbEntity
  8
0
100
AcDbBlockBegin
  2
KLON16
 70
     0
 71
     0
 10
0.0
 20
0.0
 30
0.0
  3
KLON16
  1

  4
KLON16
  0
LINE
  5
355
330
352
100
AcDbEntity
  8
LC-001-100-D00-0
 62
     7
370
    15
100
AcDbLine
 10
-36.979519
 20
398.32878
 30
0.0
 11
-39.535843
 21
398.422076
 31
0.0
  0
LINE
  5
356
330
352
100
AcDbEntity
  8
LC-001-100-D00-0
 62
     7
370
    15
100
AcDbLine
 10
-39.535843
 20
398.422076
 30
0.0
 11
-41.68164
 21
398.500389
 31
0.0
  0
LINE
  5
357
330
352
100
AcDbEntity
  8
LC-001-100-D00-0
 62
     7
370
    15
100
AcDbLine
 10
-41.68164
 20
398.500389
 30
0.0
 11
-43.411784
 21
398.563533
 31
0.0
  0
LINE
  5
358
330
352
100
AcDbEntity
  8
LC-001-100-D00-0
 62
     7
370
    15
100
AcDbLine
 10
-43.411784
 20
398.563533
 30
0.0
 11
-44.722103
 21
398.611354
 31
0.0
  0
LINE
  5
359
330
352
100
AcDbEntity
  8
LC-001-100-D00-0
 62
     7
370
    15
100
AcDbLine
 10
-44.722103
 20
398.611354
 30
0.0
 11
-45.609497
 21
398.643742
 31
0.0
  0
LINE
  5
35A
330
352
100
AcDbEntity
  8
LC-001-100-D00-0
 62
     7
370
    15
100
AcDbLine
 10
-45.609497
 20
398.643742
 30
0.0
 11
-46.07185
 21
398.660616
 31
0.0
  0
ENDBLK
  5
354
330
352
100
AcDbEntity
  8
0
100
AcDbBlockEnd
  0
BLOCK
  5
367
330
366
100
AcDbEntity
  8
0
100
AcDbBlockBegin
  2
KLON17
 70
     0
 71
     0
 10
0.0
 20
0.0
 30
0.0
  3
KLON17
  1

  4
KLON17
  0
LINE
  5
369
330
366
100
AcDbEntity
  8
LC-001-100-D00-0
 62
     7
370
    15
100
AcDbLine
 10
837.900795
 20
400.160615
 30
0.0
 11
837.900109
 21
400.198596
 31
0.0
  0
LINE
  5
36A
330
366
100
AcDbEntity
  8
LC-001-100-D00-0
 62
     7
370
    15
100
AcDbLine
 10
837.900109
 20
400.198596
 30
0.0
 11
837.898053
 21
400.311383
 31
0.0
  0
LINE
  5
36B
330
366
100
AcDbEntity
  8
LC-001-100-D00-0
 62
     7
370
    15
100
AcDbLine
 10
837.898053
 20
400.311383
 30
0.0
 11
837.894685
 21
400.495552
 31
0.0
  0
LINE
  5
36C
330
366
100
AcDbEntity
  8
LC-001-100-D00-0
 62
     7
370
    15
100
AcDbLine
 10
837.894685
 20
400.495552
 30
0.0
 11
837.890125
 21
400.745504
 31
0.0
  0
LINE
  5
36D
330
366
100
AcDbEntity
  8
LC-001-100-D00-0
 62
     7
370
    15
100
AcDbLine
 10
837.890125
 20
400.745504
 30
0.0
 11
837.884493
 21
401.053647
 31
0.0
  0
LINE
  5
36E
330
366
100
AcDbEntity
  8
LC-001-100-D00-0
 62
     7
370
    15
100
AcDbLine
 10
837.884493
 20
401.053647
 30
0.0
 11
837.877996
 21
401.410616
 31
0.0
  0
LINE
  5
36F
330
366
100
AcDbEntity
  8
LC-001-100-D00-0
 62
     7
370
    15
100
AcDbLine
 10
837.877996
 20
401.410616
 30
0.0
 11
837.870784
 21
401.805566
 31
0.0
  0
LINE
  5
370
330
366
100
AcDbEntity
  8
LC-001-100-D00-0
 62
     7
370
    15
100
AcDbLine
 10
837.870784
 20
401.805566
 30
0.0
 11
837.863095
 21
402.226495
 31
0.0
  0
LINE
  5
371
330
366
100
AcDbEntity
  8
LC-001-100-D00-0
 62
     7
370
    15
100
AcDbLine
 10
837.863095
 20
402.226495
 30
0.0
 11
837.855197
 21
402.660617
 31
0.0
  0
ENDBLK
  5
368
330
366
100
AcDbEntity
  8
0
100
AcDbBlockEnd
  0
BLOCK
  5
374
330
373
100
AcDbEntity
  8
0
100
AcDbBlockBegin
  2
KLON18
 70
     0
 71
     0
 10
0.0
 20
0.0
 30
0.0
  3
KLON18
  1

  4
KLON18
  0
LINE
  5
376
330
373
100
AcDbEntity
  8
LC-001-100-D00-0
 62
     7
370
    15
100
AcDbLine
 10
-46.044492
 20
400.160615
 30
0.0
 11
-46.043806
 21
400.198596
 31
0.0
  0
LINE
  5
377
330
373
100
AcDbEntity
  8
LC-001-100-D00-0
 62
     7
370
    15
100
AcDbLine
 10
-46.043806
 20
400.198596
 30
0.0
 11
-46.04175
 21
400.311383
 31
0.0
  0
LINE
  5
378
330
373
100
AcDbEntity
  8
LC-001-100-D00-0
 62
     7
370
    15
100
AcDbLine
 10
-46.04175
 20
400.311383
 30
0.0
 11
-46.038382
 21
400.495552
 31
0.0
  0
LINE
  5
379
330
373
100
AcDbEntity
  8
LC-001-100-D00-0
 62
     7
370
    15
100
AcDbLine
 10
-46.038382
 20
400.495552
 30
0.0
 11
-46.033823
 21
400.745504
 31
0.0
  0
LINE
  5
37A
330
373
100
AcDbEntity
  8
LC-001-100-D00-0
 62
     7
370
    15
100
AcDbLine
 10
-46.033823
 20
400.745504
 30
0.0
 11
-46.02819
 21
401.053647
 31
0.0
  0
LINE
  5
37B
330
373
100
AcDbEntity
  8
LC-001-100-D00-0
 62
     7
370
    15
100
AcDbLine
 10
-46.02819
 20
401.053647
 30
0.0
 11
-46.021693
 21
401.410616
 31
0.0
  0
LINE
  5
37C
330
373
100
AcDbEntity
  8
LC-001-100-D00-0
 62
     7
370
    15
100
AcDbLine
 10
-46.021693
 20
401.410616
 30
0.0
 11
-46.014481
 21
401.805566
 31
0.0
  0
LINE
  5
37D
330
373
100
AcDbEntity
  8
LC-001-100-D00-0
 62
     7
370
    15
100
AcDbLine
 10
-46.014481
 20
401.805566
 30
0.0
 11
-46.006792
 21
402.226495
 31
0.0
  0
LINE
  5
37E
330
373
100
AcDbEntity
  8
LC-001-100-D00-0
 62
     7
370
    15
100
AcDbLine
 10
-46.006792
 20
402.226495
 30
0.0
 11
-45.998894
 21
402.660617
 31
0.0
  0
ENDBLK
  5
375
330
373
100
AcDbEntity
  8
0
100
AcDbBlockEnd
  0
BLOCK
  5
39D
330
391
100
AcDbEntity
  8
0
100
AcDbBlockBegin
  2
*D22
 70
     1
 71
     0
 10
0.0
 20
0.0
 30
0.0
  3
*D22
  1

  0
LINE
  5
392
330
391
100
AcDbEntity
  8
LC-001-100-D00-0
 62
     2
370
    -2
100
AcDbLine
 10
-104.071849
 20
420.660616
 30
0.0
 11
-149.464837
 21
420.660616
 31
0.0
  0
LINE
  5
393
330
391
100
AcDbEntity
  8
LC-001-100-D00-0
 62
     2
370
    -2
100
AcDbLine
 10
-99.071849
 20
466.660616
 30
0.0
 11
-149.464837
 21
466.660616
 31
0.0
  0
LINE
  5
394
330
391
100
AcDbEntity
  8
LC-001-100-D00-0
 62
     2
370
    -2
100
AcDbLine
 10
-140.464837
 20
370.660616
 30
0.0
 11
-140.464837
 21
320.660616
 31
0.0
  0
LINE
  5
395
330
391
100
AcDbEntity
  8
LC-001-100-D00-0
 62
     2
370
    -2
100
AcDbLine
 10
-140.464837
 20
516.660616
 30
0.0
 11
-140.464837
 21
566.660616
 31
0.0
  0
LINE
  5
396
330
391
100
AcDbEntity
  8
LC-001-100-D00-0
 62
     2
370
    -2
100
AcDbLine
 10
-140.464837
 20
420.660616
 30
0.0
 11
-140.464837
 21
466.660616
 31
0.0
  0
SOLID
  5
397
330
391
100
AcDbEntity
  8
LC-001-100-D00-0
 62
     2
100
AcDbTrace
 10
-132.131504
 20
370.660616
 30
0.0
 11
-148.79817
 21
370.660616
 31
0.0
 12
-140.464837
 22
420.660616
 32
0.0
 13
-140.464837
 23
420.660616
 33
0.0
  0
SOLID
  5
398
330
391
100
AcDbEntity
  8
LC-001-100-D00-0
 62
     2
100
AcDbTrace
 10
-148.79817
 20
516.660616
 30
0.0
 11
-132.131504
 21
516.660616
 31
0.0
 12
-140.464837
 22
466.660616
 32
0.0
 13
-140.464837
 23
466.660616
 33
0.0
  0
MTEXT
  5
399
330
391
100
AcDbEntity
  8
LC-001-100-D00-0
 62
     2
100
AcDbMText
 10
-195.464837
 20
448.943914
 30
0.0
 40
50.0
 41
0.0
 71
     5
 72
     1
  1
\A1;46
  7
LCTX15-400-0-0pDIN-Schrift
 11
6.123031769111886E-17
 21
1.0
 31
0.0
 73
     1
 44
1.0
  0
POINT
  5
39A
330
391
100
AcDbEntity
  8
Defpoints
 62
     0
100
AcDbPoint
 10
-104.071849
 20
420.660616
 30
0.0
  0
POINT
  5
39B
330
391
100
AcDbEntity
  8
Defpoints
 62
     0
100
AcDbPoint
 10
-99.071849
 20
466.660616
 30
0.0
  0
POINT
  5
39C
330
391
100
AcDbEntity
  8
Defpoints
 62
     0
100
AcDbPoint
 10
-140.464837
 20
466.660616
 30
0.0
  0
ENDBLK
  5
39E
330
391
100
AcDbEntity
  8
0
100
AcDbBlockEnd
  0
BLOCK
  5
3AA
330
3A0
100
AcDbEntity
  8
0
100
AcDbBlockBegin
  2
*D23
 70
     1
 71
     0
 10
0.0
 20
0.0
 30
0.0
  3
*D23
  1

  0
LINE
  5
3A1
330
3A0
100
AcDbEntity
  8
LC-001-100-D00-0
 62
     2
370
    -2
100
AcDbLine
 10
-104.071849
 20
461.660616
 30
0.0
 11
-104.071849
 21
570.104886
 31
0.0
  0
LINE
  5
3A2
330
3A0
100
AcDbEntity
  8
LC-001-100-D00-0
 62
     2
370
    -2
100
AcDbLine
 10
895.928151
 20
461.660616
 30
0.0
 11
895.928151
 21
570.104886
 31
0.0
  0
LINE
  5
3A3
330
3A0
100
AcDbEntity
  8
LC-001-100-D00-0
 62
     2
370
    -2
100
AcDbLine
 10
-54.071849
 20
561.104886
 30
0.0
 11
845.928151
 21
561.104886
 31
0.0
  0
SOLID
  5
3A4
330
3A0
100
AcDbEntity
  8
LC-001-100-D00-0
 62
     2
100
AcDbTrace
 10
-54.071849
 20
569.43822
 30
0.0
 11
-54.071849
 21
552.771553
 31
0.0
 12
-104.071849
 22
561.104886
 32
0.0
 13
-104.071849
 23
561.104886
 33
0.0
  0
SOLID
  5
3A5
330
3A0
100
AcDbEntity
  8
LC-001-100-D00-0
 62
     2
100
AcDbTrace
 10
845.928151
 20
552.771553
 30
0.0
 11
845.928151
 21
569.43822
 31
0.0
 12
895.928151
 22
561.104886
 32
0.0
 13
895.928151
 23
561.104886
 33
0.0
  0
MTEXT
  5
3A6
330
3A0
100
AcDbEntity
  8
LC-001-100-D00-0
 62
     2
100
AcDbMText
 10
404.093332
 20
616.104886
 30
0.0
 40
50.0
 41
0.0
 71
     5
 72
     1
  1
\A1;1000
  7
LCTX15-400-0-0pDIN-Schrift
 73
     1
 44
1.0
  0
POINT
  5
3A7
330
3A0
100
AcDbEntity
  8
Defpoints
 62
     0
100
AcDbPoint
 10
-104.071849
 20
461.660616
 30
0.0
  0
POINT
  5
3A8
330
3A0
100
AcDbEntity
  8
Defpoints
 62
     0
100
AcDbPoint
 10
895.928151
 20
461.660616
 30
0.0
  0
POINT
  5
3A9
330
3A0
100
AcDbEntity
  8
Defpoints
 62
     0
100
AcDbPoint
 10
895.928151
 20
561.104886
 30
0.0
  0
ENDBLK
  5
3AB
330
3A0
100
AcDbEntity
  8
0
100
AcDbBlockEnd
  0
BLOCK
  5
3B7
330
3AD
100
AcDbEntity
  8
0
100
AcDbBlockBegin
  2
*D24
 70
     1
 71
     0
 10
0.0
 20
0.0
 30
0.0
  3
*D24
  1

  0
LINE
  5
3AE
330
3AD
100
AcDbEntity
  8
LC-001-100-D00-0
 62
     2
370
    -2
100
AcDbLine
 10
-54.071849
 20
417.660616
 30
0.0
 11
-54.071849
 21
491.502343
 31
0.0
  0
LINE
  5
3AF
330
3AD
100
AcDbEntity
  8
LC-001-100-D00-0
 62
     2
370
    -2
100
AcDbLine
 10
845.928151
 20
417.660616
 30
0.0
 11
845.928151
 21
491.502343
 31
0.0
  0
LINE
  5
3B0
330
3AD
100
AcDbEntity
  8
LC-001-100-D00-0
 62
     2
370
    -2
100
AcDbLine
 10
-4.071849
 20
482.502343
 30
0.0
 11
795.928151
 21
482.502343
 31
0.0
  0
SOLID
  5
3B1
330
3AD
100
AcDbEntity
  8
LC-001-100-D00-0
 62
     2
100
AcDbTrace
 10
-4.071849
 20
490.835676
 30
0.0
 11
-4.071849
 21
474.169009
 31
0.0
 12
-54.071849
 22
482.502343
 32
0.0
 13
-54.071849
 23
482.502343
 33
0.0
  0
SOLID
  5
3B2
330
3AD
100
AcDbEntity
  8
LC-001-100-D00-0
 62
     2
100
AcDbTrace
 10
795.928151
 20
474.169009
 30
0.0
 11
795.928151
 21
490.835676
 31
0.0
 12
845.928151
 22
482.502343
 32
0.0
 13
845.928151
 23
482.502343
 33
0.0
  0
MTEXT
  5
3B3
330
3AD
100
AcDbEntity
  8
LC-001-100-D00-0
 62
     2
100
AcDbMText
 10
399.347255
 20
537.502343
 30
0.0
 40
50.0
 41
0.0
 71
     5
 72
     1
  1
\A1;900
  7
LCTX15-400-0-0pDIN-Schrift
 73
     1
 44
1.0
  0
POINT
  5
3B4
330
3AD
100
AcDbEntity
  8
Defpoints
 62
     0
100
AcDbPoint
 10
-54.071849
 20
417.660616
 30
0.0
  0
POINT
  5
3B5
330
3AD
100
AcDbEntity
  8
Defpoints
 62
     0
100
AcDbPoint
 10
845.928151
 20
417.660616
 30
0.0
  0
POINT
  5
3B6
330
3AD
100
AcDbEntity
  8
Defpoints
 62
     0
100
AcDbPoint
 10
845.928151
 20
482.502343
 30
0.0
  0
ENDBLK
  5
3B8
330
3AD
100
AcDbEntity
  8
0
100
AcDbBlockEnd
  0
BLOCK
  5
3BA
330
3B9
100
AcDbEntity
  8
0
100
AcDbBlockBegin
  2
KLON19
 70
     0
 71
     0
 10
0.0
 20
0.0
 30
0.0
  3
KLON19
  1

  4
KLON19
  0
LINE
  5
3BC
330
3B9
100
AcDbEntity
  8
LC-001-100-D00-0
 62
     7
370
    25
100
AcDbLine
 10
881.294987
 20
419.160616
 30
0.0
 11
882.794987
 21
420.660616
 31
0.0
  0
LINE
  5
3BD
330
3B9
100
AcDbEntity
  8
LC-001-100-D00-0
 62
     7
370
    25
100
AcDbLine
 10
838.353893
 20
398.67016
 30
0.0
 11
840.162786
 21
400.479053
 31
0.0
  0
LINE
  5
3BE
330
3B9
100
AcDbEntity
  8
LC-001-100-D00-0
 62
     7
370
    25
100
AcDbLine
 10
845.609715
 20
405.925982
 30
0.0
 11
847.418607
 21
407.734874
 31
0.0
  0
LINE
  5
3BF
330
3B9
100
AcDbEntity
  8
LC-001-100-D00-0
 62
     7
370
    25
100
AcDbLine
 10
858.844347
 20
419.160616
 30
0.0
 11
860.344347
 21
420.660616
 31
0.0
  0
LINE
  5
3C0
330
3B9
100
AcDbEntity
  8
LC-001-100-D00-0
 62
     7
370
    25
100
AcDbLine
 10
815.893709
 20
398.660616
 30
0.0
 11
819.376276
 21
402.143183
 31
0.0
  0
LINE
  5
3C1
330
3B9
100
AcDbEntity
  8
LC-001-100-D00-0
 62
     7
370
    25
100
AcDbLine
 10
793.44307
 20
398.660616
 30
0.0
 11
794.94307
 21
400.160616
 31
0.0
  0
LINE
  5
3C2
330
3B9
100
AcDbEntity
  8
LC-001-100-D00-0
 62
     7
370
    25
100
AcDbLine
 10
811.928151
 20
417.145699
 30
0.0
 11
814.943068
 21
420.160616
 31
0.0
  0
LINE
  5
3C3
330
3B9
100
AcDbEntity
  8
LC-001-100-D00-0
 62
     7
370
    25
100
AcDbLine
 10
770.99243
 20
398.660616
 30
0.0
 11
772.49243
 21
400.160616
 31
0.0
  0
LINE
  5
3C4
330
3B9
100
AcDbEntity
  8
LC-001-100-D00-0
 62
     7
370
    25
100
AcDbLine
 10
748.541791
 20
398.660616
 30
0.0
 11
750.041791
 21
400.160616
 31
0.0
  0
LINE
  5
3C5
330
3B9
100
AcDbEntity
  8
LC-001-100-D00-0
 62
     7
370
    25
100
AcDbLine
 10
726.091151
 20
398.660616
 30
0.0
 11
727.591151
 21
400.160616
 31
0.0
  0
LINE
  5
3C6
330
3B9
100
AcDbEntity
  8
LC-001-100-D00-0
 62
     7
370
    25
100
AcDbLine
 10
703.640512
 20
398.660616
 30
0.0
 11
705.140512
 21
400.160616
 31
0.0
  0
LINE
  5
3C7
330
3B9
100
AcDbEntity
  8
LC-001-100-D00-0
 62
     7
370
    25
100
AcDbLine
 10
681.189872
 20
398.660616
 30
0.0
 11
682.689872
 21
400.160616
 31
0.0
  0
LINE
  5
3C8
330
3B9
100
AcDbEntity
  8
LC-001-100-D00-0
 62
     7
370
    25
100
AcDbLine
 10
658.739233
 20
398.660616
 30
0.0
 11
660.428151
 21
400.349534
 31
0.0
  0
LINE
  5
3C9
330
3B9
100
AcDbEntity
  8
LC-001-100-D00-0
 62
     7
370
    25
100
AcDbLine
 10
636.288593
 20
398.660616
 30
0.0
 11
637.788593
 21
400.160616
 31
0.0
  0
LINE
  5
3CA
330
3B9
100
AcDbEntity
  8
LC-001-100-D00-0
 62
     7
370
    25
100
AcDbLine
 10
651.928151
 20
414.300175
 30
0.0
 11
657.788592
 21
420.160616
 31
0.0
  0
LINE
  5
3CB
330
3B9
100
AcDbEntity
  8
LC-001-100-D00-0
 62
     7
370
    25
100
AcDbLine
 10
613.837954
 20
398.660616
 30
0.0
 11
615.337954
 21
400.160616
 31
0.0
  0
LINE
  5
3CC
330
3B9
100
AcDbEntity
  8
LC-001-100-D00-0
 62
     7
370
    25
100
AcDbLine
 10
591.387315
 20
398.660616
 30
0.0
 11
592.887314
 21
400.160616
 31
0.0
  0
LINE
  5
3CD
330
3B9
100
AcDbEntity
  8
LC-001-100-D00-0
 62
     7
370
    25
100
AcDbLine
 10
568.936675
 20
398.660616
 30
0.0
 11
570.436675
 21
400.160616
 31
0.0
  0
LINE
  5
3CE
330
3B9
100
AcDbEntity
  8
LC-001-100-D00-0
 62
     7
370
    25
100
AcDbLine
 10
546.486036
 20
398.660616
 30
0.0
 11
547.986035
 21
400.160616
 31
0.0
  0
LINE
  5
3CF
330
3B9
100
AcDbEntity
  8
LC-001-100-D00-0
 62
     7
370
    25
100
AcDbLine
 10
524.035396
 20
398.660616
 30
0.0
 11
525.535396
 21
400.160616
 31
0.0
  0
LINE
  5
3D0
330
3B9
100
AcDbEntity
  8
LC-001-100-D00-0
 62
     7
370
    25
100
AcDbLine
 10
501.584757
 20
398.660616
 30
0.0
 11
503.084757
 21
400.160616
 31
0.0
  0
LINE
  5
3D1
330
3B9
100
AcDbEntity
  8
LC-001-100-D00-0
 62
     7
370
    25
100
AcDbLine
 10
475.307582
 20
394.834081
 30
0.0
 11
477.428903
 21
396.955401
 31
0.0
  0
LINE
  5
3D2
330
3B9
100
AcDbEntity
  8
LC-001-100-D00-0
 62
     7
370
    25
100
AcDbLine
 10
491.928151
 20
411.454651
 30
0.0
 11
499.781134
 21
419.307634
 31
0.0
  0
LINE
  5
3D3
330
3B9
100
AcDbEntity
  8
LC-001-100-D00-0
 62
     7
370
    25
100
AcDbLine
 10
451.30721
 20
393.284347
 30
0.0
 11
453.10442
 21
395.081557
 31
0.0
  0
ENDBLK
  5
3BB
330
3B9
100
AcDbEntity
  8
0
100
AcDbBlockEnd
  0
BLOCK
  5
3D6
330
3D5
100
AcDbEntity
  8
0
100
AcDbBlockBegin
  2
KLON20
 70
     0
 71
     0
 10
0.0
 20
0.0
 30
0.0
  3
KLON20
  1

  4
KLON20
  0
LINE
  5
3D8
330
3D5
100
AcDbEntity
  8
LC-001-100-D00-0
 62
     7
370
    25
100
AcDbLine
 10
338.969998
 20
393.200333
 30
0.0
 11
340.040516
 21
394.270852
 31
0.0
  0
LINE
  5
3D9
330
3D5
100
AcDbEntity
  8
LC-001-100-D00-0
 62
     7
370
    25
100
AcDbLine
 10
317.814059
 20
394.495034
 30
0.0
 11
319.038804
 21
395.719779
 31
0.0
  0
LINE
  5
3DA
330
3D5
100
AcDbEntity
  8
LC-001-100-D00-0
 62
     7
370
    25
100
AcDbLine
 10
299.529001
 20
398.660616
 30
0.0
 11
301.029001
 21
400.160616
 31
0.0
  0
LINE
  5
3DB
330
3D5
100
AcDbEntity
  8
LC-001-100-D00-0
 62
     7
370
    25
100
AcDbLine
 10
277.078362
 20
398.660616
 30
0.0
 11
278.578362
 21
400.160616
 31
0.0
  0
LINE
  5
3DC
330
3D5
100
AcDbEntity
  8
LC-001-100-D00-0
 62
     7
370
    25
100
AcDbLine
 10
291.928151
 20
413.510406
 30
0.0
 11
298.57836
 21
420.160616
 31
0.0
  0
LINE
  5
3DD
330
3D5
100
AcDbEntity
  8
LC-001-100-D00-0
 62
     7
370
    25
100
AcDbLine
 10
254.627722
 20
398.660616
 30
0.0
 11
256.127722
 21
400.160616
 31
0.0
  0
LINE
  5
3DE
330
3D5
100
AcDbEntity
  8
LC-001-100-D00-0
 62
     7
370
    25
100
AcDbLine
 10
232.177083
 20
398.660616
 30
0.0
 11
233.677083
 21
400.160616
 31
0.0
  0
LINE
  5
3DF
330
3D5
100
AcDbEntity
  8
LC-001-100-D00-0
 62
     7
370
    25
100
AcDbLine
 10
209.726443
 20
398.660616
 30
0.0
 11
211.226443
 21
400.160616
 31
0.0
  0
LINE
  5
3E0
330
3D5
100
AcDbEntity
  8
LC-001-100-D00-0
 62
     7
370
    25
100
AcDbLine
 10
187.275804
 20
398.660616
 30
0.0
 11
188.775804
 21
400.160616
 31
0.0
  0
LINE
  5
3E1
330
3D5
100
AcDbEntity
  8
LC-001-100-D00-0
 62
     7
370
    25
100
AcDbLine
 10
164.825164
 20
398.660616
 30
0.0
 11
166.325164
 21
400.160616
 31
0.0
  0
LINE
  5
3E2
330
3D5
100
AcDbEntity
  8
LC-001-100-D00-0
 62
     7
370
    25
100
AcDbLine
 10
142.374525
 20
398.660616
 30
0.0
 11
143.874525
 21
400.160616
 31
0.0
  0
LINE
  5
3E3
330
3D5
100
AcDbEntity
  8
LC-001-100-D00-0
 62
     7
370
    25
100
AcDbLine
 10
119.923885
 20
398.660616
 30
0.0
 11
121.423885
 21
400.160616
 31
0.0
  0
LINE
  5
3E4
330
3D5
100
AcDbEntity
  8
LC-001-100-D00-0
 62
     7
370
    25
100
AcDbLine
 10
131.928151
 20
410.664883
 30
0.0
 11
139.928151
 21
418.664883
 31
0.0
  0
LINE
  5
3E5
330
3D5
100
AcDbEntity
  8
LC-001-100-D00-0
 62
     7
370
    25
100
AcDbLine
 10
97.473246
 20
398.660616
 30
0.0
 11
98.973246
 21
400.160616
 31
0.0
  0
LINE
  5
3E6
330
3D5
100
AcDbEntity
  8
LC-001-100-D00-0
 62
     7
370
    25
100
AcDbLine
 10
75.022606
 20
398.660616
 30
0.0
 11
76.522606
 21
400.160616
 31
0.0
  0
LINE
  5
3E7
330
3D5
100
AcDbEntity
  8
LC-001-100-D00-0
 62
     7
370
    25
100
AcDbLine
 10
52.571967
 20
398.660616
 30
0.0
 11
54.071967
 21
400.160616
 31
0.0
  0
LINE
  5
3E8
330
3D5
100
AcDbEntity
  8
LC-001-100-D00-0
 62
     7
370
    25
100
AcDbLine
 10
30.121328
 20
398.660616
 30
0.0
 11
31.621327
 21
400.160616
 31
0.0
  0
LINE
  5
3E9
330
3D5
100
AcDbEntity
  8
LC-001-100-D00-0
 62
     7
370
    25
100
AcDbLine
 10
7.670688
 20
398.660616
 30
0.0
 11
9.170688
 21
400.160616
 31
0.0
  0
LINE
  5
3EA
330
3D5
100
AcDbEntity
  8
LC-001-100-D00-0
 62
     7
370
    25
100
AcDbLine
 10
-14.779951
 20
398.660616
 30
0.0
 11
-13.279952
 21
400.160616
 31
0.0
  0
LINE
  5
3EB
330
3D5
100
AcDbEntity
  8
LC-001-100-D00-0
 62
     7
370
    25
100
AcDbLine
 10
-37.230591
 20
398.660616
 30
0.0
 11
-35.730591
 21
400.160616
 31
0.0
  0
LINE
  5
3EC
330
3D5
100
AcDbEntity
  8
LC-001-100-D00-0
 62
     7
370
    25
100
AcDbLine
 10
-28.071849
 20
407.819359
 30
0.0
 11
-20.071849
 21
415.819359
 31
0.0
  0
LINE
  5
3ED
330
3D5
100
AcDbEntity
  8
LC-001-100-D00-0
 62
     7
370
    25
100
AcDbLine
 10
-54.522104
 20
403.819742
 30
0.0
 11
-53.397047
 21
404.9448
 31
0.0
  0
LINE
  5
3EE
330
3D5
100
AcDbEntity
  8
LC-001-100-D00-0
 62
     7
370
    25
100
AcDbLine
 10
-61.631871
 20
419.160616
 30
0.0
 11
-60.131872
 21
420.660616
 31
0.0
  0
LINE
  5
3EF
330
3D5
100
AcDbEntity
  8
LC-001-100-D00-0
 62
     7
370
    25
100
AcDbLine
 10
-84.082511
 20
419.160616
 30
0.0
 11
-82.582511
 21
420.660616
 31
0.0
  0
ENDBLK
  5
3D7
330
3D5
100
AcDbEntity
  8
0
100
AcDbBlockEnd
  0
BLOCK
  5
3F4
330
3F3
100
AcDbEntity
  8
0
100
AcDbBlockBegin
  2
KLON21
 70
     0
 71
     0
 10
0.0
 20
0.0
 30
0.0
  3
KLON21
  1

  4
KLON21
  0
LINE
  5
3F6
330
3F3
100
AcDbEntity
  8
LC-001-100-D00-0
 62
     7
370
    25
100
AcDbLine
 10
821.177375
 20
403.944282
 30
0.0
 11
825.678151
 21
408.445058
 31
0.0
  0
LINE
  5
3F7
330
3F3
100
AcDbEntity
  8
LC-001-100-D00-0
 62
     7
370
    25
100
AcDbLine
 10
831.178151
 20
413.945059
 30
0.0
 11
834.178151
 21
416.945059
 31
0.0
  0
ENDBLK
  5
3F5
330
3F3
100
AcDbEntity
  8
0
100
AcDbBlockEnd
  0
BLOCK
  5
3FB
330
3FA
100
AcDbEntity
  8
0
100
AcDbBlockBegin
  2
KLON22
 70
     0
 71
     0
 10
0.0
 20
0.0
 30
0.0
  3
KLON22
  1

  4
KLON22
  0
LINE
  5
3FD
330
3FA
100
AcDbEntity
  8
LC-001-100-D00-0
 62
     7
370
    25
100
AcDbLine
 10
486.178151
 20
405.704651
 30
0.0
 11
489.577298
 21
409.103798
 31
0.0
  0
LINE
  5
3FE
330
3FA
100
AcDbEntity
  8
LC-001-100-D00-0
 62
     7
370
    25
100
AcDbLine
 10
490.134116
 20
409.660616
 30
0.0
 11
492.028151
 21
411.554651
 31
0.0
  0
LINE
  5
3FF
330
3FA
100
AcDbEntity
  8
LC-001-100-D00-0
 62
     7
370
    25
100
AcDbLine
 10
477.678151
 20
419.655291
 30
0.0
 11
478.683476
 21
420.660616
 31
0.0
  0
ENDBLK
  5
3FC
330
3FA
100
AcDbEntity
  8
0
100
AcDbBlockEnd
  0
BLOCK
  5
402
330
401
100
AcDbEntity
  8
0
100
AcDbBlockBegin
  2
KLON23
 70
     0
 71
     0
 10
0.0
 20
0.0
 30
0.0
  3
KLON23
  1

  4
KLON23
  0
LINE
  5
404
330
401
100
AcDbEntity
  8
LC-001-100-D00-0
 62
     7
370
    25
100
AcDbLine
 10
504.584756
 20
401.660616
 30
0.0
 11
505.678151
 21
402.754011
 31
0.0
  0
LINE
  5
405
330
401
100
AcDbEntity
  8
LC-001-100-D00-0
 62
     7
370
    25
100
AcDbLine
 10
499.828151
 20
419.354652
 30
0.0
 11
501.134116
 21
420.660616
 31
0.0
  0
ENDBLK
  5
403
330
401
100
AcDbEntity
  8
0
100
AcDbBlockEnd
  0
BLOCK
  5
409
330
408
100
AcDbEntity
  8
0
100
AcDbBlockBegin
  2
KLON24
 70
     0
 71
     0
 10
0.0
 20
0.0
 30
0.0
  3
KLON24
  1

  4
KLON24
  0
LINE
  5
40B
330
408
100
AcDbEntity
  8
LC-001-100-D00-0
 62
     7
370
    25
100
AcDbLine
 10
-33.703149
 20
402.188058
 30
0.0
 11
-29.271849
 21
406.619359
 31
0.0
  0
LINE
  5
40C
330
408
100
AcDbEntity
  8
LC-001-100-D00-0
 62
     7
370
    25
100
AcDbLine
 10
-42.321849
 20
416.019999
 30
0.0
 11
-37.681232
 21
420.660616
 31
0.0
  0
ENDBLK
  5
40A
330
408
100
AcDbEntity
  8
0
100
AcDbBlockEnd
  0
BLOCK
  5
411
330
410
100
AcDbEntity
  8
0
100
AcDbBlockBegin
  2
KLON25
 70
     0
 71
     0
 10
0.0
 20
0.0
 30
0.0
  3
KLON25
  1

  4
KLON25
  0
LINE
  5
413
330
410
100
AcDbEntity
  8
LC-001-100-D00-0
 62
     7
370
    25
100
AcDbLine
 10
126.178151
 20
404.914882
 30
0.0
 11
129.577298
 21
408.314029
 31
0.0
  0
LINE
  5
414
330
410
100
AcDbEntity
  8
LC-001-100-D00-0
 62
     7
370
    25
100
AcDbLine
 10
130.923885
 20
409.660616
 30
0.0
 11
132.028151
 21
410.764883
 31
0.0
  0
LINE
  5
415
330
410
100
AcDbEntity
  8
LC-001-100-D00-0
 62
     7
370
    25
100
AcDbLine
 10
117.678151
 20
418.865523
 30
0.0
 11
119.473244
 21
420.660616
 31
0.0
  0
ENDBLK
  5
412
330
410
100
AcDbEntity
  8
0
100
AcDbBlockEnd
  0
BLOCK
  5
41B
330
41A
100
AcDbEntity
  8
0
100
AcDbBlockBegin
  2
KLON26
 70
     0
 71
     0
 10
0.0
 20
0.0
 30
0.0
  3
KLON26
  1

  4
KLON26
  0
LINE
  5
41D
330
41A
100
AcDbEntity
  8
LC-001-100-D00-0
 62
     7
370
    25
100
AcDbLine
 10
662.279004
 20
402.200387
 30
0.0
 11
665.678151
 21
405.599535
 31
0.0
  0
LINE
  5
41E
330
41A
100
AcDbEntity
  8
LC-001-100-D00-0
 62
     7
370
    25
100
AcDbLine
 10
673.739232
 20
413.660616
 30
0.0
 11
674.178151
 21
414.099535
 31
0.0
  0
ENDBLK
  5
41C
330
41A
100
AcDbEntity
  8
0
100
AcDbBlockEnd
  0
BLOCK
  5
495
330
494
100
AcDbEntity
  8
0
100
AcDbBlockBegin
  2
KLON27
 70
     0
 71
     0
 10
0.0
 20
0.0
 30
0.0
  3
KLON27
  1

  4
KLON27
  0
LINE
  5
497
330
494
100
AcDbEntity
  8
LC-001-100-D00-0
 62
     7
370
    25
100
AcDbLine
 10
460.892135
 20
352.768359
 30
0.0
 11
469.320409
 21
361.196632
 31
0.0
  0
LINE
  5
498
330
494
100
AcDbEntity
  8
LC-001-100-D00-0
 62
     7
370
    25
100
AcDbLine
 10
438.333752
 20
352.660616
 30
0.0
 11
441.333752
 21
355.660616
 31
0.0
  0
LINE
  5
499
330
494
100
AcDbEntity
  8
LC-001-100-D00-0
 62
     7
370
    25
100
AcDbLine
 10
466.428151
 20
380.755015
 30
0.0
 11
469.428151
 21
383.755015
 31
0.0
  0
LINE
  5
49A
330
494
100
AcDbEntity
  8
LC-001-100-D00-0
 62
     7
370
    25
100
AcDbLine
 10
415.883112
 20
352.660616
 30
0.0
 11
418.883112
 21
355.660616
 31
0.0
  0
LINE
  5
49B
330
494
100
AcDbEntity
  8
LC-001-100-D00-0
 62
     7
370
    25
100
AcDbLine
 10
393.432471
 20
352.660616
 30
0.0
 11
396.432471
 21
355.660616
 31
0.0
  0
LINE
  5
49C
330
494
100
AcDbEntity
  8
LC-001-100-D00-0
 62
     7
370
    25
100
AcDbLine
 10
370.981831
 20
352.660616
 30
0.0
 11
373.981831
 21
355.660616
 31
0.0
  0
LINE
  5
49D
330
494
100
AcDbEntity
  8
LC-001-100-D00-0
 62
     7
370
    25
100
AcDbLine
 10
348.531191
 20
352.660616
 30
0.0
 11
351.531191
 21
355.660616
 31
0.0
  0
LINE
  5
49E
330
494
100
AcDbEntity
  8
LC-001-100-D00-0
 62
     7
370
    25
100
AcDbLine
 10
327.423173
 20
354.003238
 30
0.0
 11
329.653808
 21
356.233873
 31
0.0
  0
LINE
  5
49F
330
494
100
AcDbEntity
  8
LC-001-100-D00-0
 62
     7
370
    25
100
AcDbLine
 10
322.428151
 20
371.458857
 30
0.0
 11
325.428151
 21
374.458857
 31
0.0
  0
ENDBLK
  5
496
330
494
100
AcDbEntity
  8
0
100
AcDbBlockEnd
  0
BLOCK
  5
4A3
330
4A2
100
AcDbEntity
  8
0
100
AcDbBlockBegin
  2
KLON28
 70
     0
 71
     0
 10
0.0
 20
0.0
 30
0.0
  3
KLON28
  1

  4
KLON28
  0
LINE
  5
4A5
330
4A2
100
AcDbEntity
  8
LC-001-100-D00-0
 62
     7
370
    25
100
AcDbLine
 10
449.883112
 20
386.660616
 30
0.0
 11
450.428151
 21
387.205656
 31
0.0
  0
LINE
  5
4A6
330
4A2
100
AcDbEntity
  8
LC-001-100-D00-0
 62
     7
370
    25
100
AcDbLine
 10
442.218597
 20
401.446742
 30
0.0
 11
443.363774
 21
402.591918
 31
0.0
  0
LINE
  5
4A7
330
4A2
100
AcDbEntity
  8
LC-001-100-D00-0
 62
     7
370
    25
100
AcDbLine
 10
419.981831
 20
401.660616
 30
0.0
 11
421.481831
 21
403.160616
 31
0.0
  0
LINE
  5
4A8
330
4A2
100
AcDbEntity
  8
LC-001-100-D00-0
 62
     7
370
    25
100
AcDbLine
 10
397.531191
 20
401.660616
 30
0.0
 11
399.031191
 21
403.160616
 31
0.0
  0
LINE
  5
4A9
330
4A2
100
AcDbEntity
  8
LC-001-100-D00-0
 62
     7
370
    25
100
AcDbLine
 10
375.08055
 20
401.660616
 30
0.0
 11
376.58055
 21
403.160616
 31
0.0
  0
LINE
  5
4AA
330
4A2
100
AcDbEntity
  8
LC-001-100-D00-0
 62
     7
370
    25
100
AcDbLine
 10
342.62991
 20
391.660616
 30
0.0
 11
344.12991
 21
393.160616
 31
0.0
  0
LINE
  5
4AB
330
4A2
100
AcDbEntity
  8
LC-001-100-D00-0
 62
     7
370
    25
100
AcDbLine
 10
345.428151
 20
394.458857
 30
0.0
 11
346.928151
 21
395.958857
 31
0.0
  0
LINE
  5
4AC
330
4A2
100
AcDbEntity
  8
LC-001-100-D00-0
 62
     7
370
    25
100
AcDbLine
 10
352.62991
 20
401.660616
 30
0.0
 11
354.12991
 21
403.160616
 31
0.0
  0
ENDBLK
  5
4A4
330
4A2
100
AcDbEntity
  8
0
100
AcDbBlockEnd
  0
BLOCK
  5
4B9
330
4AF
100
AcDbEntity
  8
0
100
AcDbBlockBegin
  2
*D35
 70
     1
 71
     0
 10
0.0
 20
0.0
 30
0.0
  3
*D35
  1

  0
LINE
  5
4B0
330
4AF
100
AcDbEntity
  8
LC-001-100-D00-0
 62
     2
370
    -2
100
AcDbLine
 10
322.428151
 20
362.660616
 30
0.0
 11
322.428151
 21
241.284886
 31
0.0
  0
LINE
  5
4B1
330
4AF
100
AcDbEntity
  8
LC-001-100-D00-0
 62
     2
370
    -2
100
AcDbLine
 10
469.428151
 20
362.660616
 30
0.0
 11
469.428151
 21
241.284886
 31
0.0
  0
LINE
  5
4B2
330
4AF
100
AcDbEntity
  8
LC-001-100-D00-0
 62
     2
370
    -2
100
AcDbLine
 10
372.428151
 20
250.284886
 30
0.0
 11
419.428151
 21
250.284886
 31
0.0
  0
SOLID
  5
4B3
330
4AF
100
AcDbEntity
  8
LC-001-100-D00-0
 62
     2
100
AcDbTrace
 10
372.428151
 20
258.61822
 30
0.0
 11
372.428151
 21
241.951553
 31
0.0
 12
322.428151
 22
250.284886
 32
0.0
 13
322.428151
 23
250.284886
 33
0.0
  0
SOLID
  5
4B4
330
4AF
100
AcDbEntity
  8
LC-001-100-D00-0
 62
     2
100
AcDbTrace
 10
419.428151
 20
241.951553
 30
0.0
 11
419.428151
 21
258.61822
 31
0.0
 12
469.428151
 22
250.284886
 32
0.0
 13
469.428151
 23
250.284886
 33
0.0
  0
MTEXT
  5
4B5
330
4AF
100
AcDbEntity
  8
LC-001-100-D00-0
 62
     2
100
AcDbMText
 10
383.341238
 20
305.284886
 30
0.0
 40
50.0
 41
0.0
 71
     5
 72
     1
  1
\A1;147
  7
LCTX15-400-0-0pDIN-Schrift
 73
     1
 44
1.0
  0
POINT
  5
4B6
330
4AF
100
AcDbEntity
  8
Defpoints
 62
     0
100
AcDbPoint
 10
322.428151
 20
362.660616
 30
0.0
  0
POINT
  5
4B7
330
4AF
100
AcDbEntity
  8
Defpoints
 62
     0
100
AcDbPoint
 10
469.428151
 20
362.660616
 30
0.0
  0
POINT
  5
4B8
330
4AF
100
AcDbEntity
  8
Defpoints
 62
     0
100
AcDbPoint
 10
469.428151
 20
250.284886
 30
0.0
  0
ENDBLK
  5
4BA
330
4AF
100
AcDbEntity
  8
0
100
AcDbBlockEnd
  0
BLOCK
  5
4C8
330
4BD
100
AcDbEntity
  8
0
100
AcDbBlockBegin
  2
*D36
 70
     1
 71
     0
 10
0.0
 20
0.0
 30
0.0
  3
*D36
  1

  0
LINE
  5
4BE
330
4BD
100
AcDbEntity
  8
LC-001-100-D00-0
 62
     2
370
    -2
100
AcDbLine
 10
695.928151
 20
420.660616
 30
0.0
 11
999.322299
 21
420.660616
 31
0.0
  0
LINE
  5
4BF
330
4BD
100
AcDbEntity
  8
LC-001-100-D00-0
 62
     2
370
    -2
100
AcDbLine
 10
459.428151
 20
352.660616
 30
0.0
 11
999.322299
 21
352.660616
 31
0.0
  0
LINE
  5
4C0
330
4BD
100
AcDbEntity
  8
LC-001-100-D00-0
 62
     2
370
    -2
100
AcDbLine
 10
990.322299
 20
302.660616
 30
0.0
 11
990.322299
 21
252.660616
 31
0.0
  0
LINE
  5
4C1
330
4BD
100
AcDbEntity
  8
LC-001-100-D00-0
 62
     2
370
    -2
100
AcDbLine
 10
990.322299
 20
470.660616
 30
0.0
 11
990.322299
 21
477.718503
 31
0.0
  0
SOLID
  5
4C2
330
4BD
100
AcDbEntity
  8
LC-001-100-D00-0
 62
     2
100
AcDbTrace
 10
981.988965
 20
470.660616
 30
0.0
 11
998.655632
 21
470.660616
 31
0.0
 12
990.322299
 22
420.660616
 32
0.0
 13
990.322299
 23
420.660616
 33
0.0
  0
SOLID
  5
4C3
330
4BD
100
AcDbEntity
  8
LC-001-100-D00-0
 62
     2
100
AcDbTrace
 10
998.655632
 20
302.660616
 30
0.0
 11
981.988965
 21
302.660616
 31
0.0
 12
990.322299
 22
352.660616
 32
0.0
 13
990.322299
 23
352.660616
 33
0.0
  0
MTEXT
  5
4C4
330
4BD
100
AcDbEntity
  8
LC-001-100-D00-0
 62
     2
100
AcDbMText
 10
935.322299
 20
435.909886
 30
0.0
 40
50.0
 41
0.0
 71
     5
 72
     1
  1
\A1;68
  7
LCTX15-400-0-0pDIN-Schrift
 11
6.123031769111886E-17
 21
1.0
 31
0.0
 73
     1
 44
1.0
  0
POINT
  5
4C5
330
4BD
100
AcDbEntity
  8
Defpoints
 62
     0
100
AcDbPoint
 10
695.928151
 20
420.660616
 30
0.0
  0
POINT
  5
4C6
330
4BD
100
AcDbEntity
  8
Defpoints
 62
     0
100
AcDbPoint
 10
459.428151
 20
352.660616
 30
0.0
  0
POINT
  5
4C7
330
4BD
100
AcDbEntity
  8
Defpoints
 62
     0
100
AcDbPoint
 10
990.322299
 20
352.660616
 30
0.0
  0
ENDBLK
  5
4C9
330
4BD
100
AcDbEntity
  8
0
100
AcDbBlockEnd
  0
BLOCK
  5
505
330
504
100
AcDbEntity
  8
0
100
AcDbBlockBegin
  2
POLY1
 70
     0
 71
     0
 10
0.0
 20
0.0
 30
0.0
  3
POLY1
  1

  4
POLY1
  0
LINE
  5
507
330
504
100
AcDbEntity
  8
LC-001-100-D00-0
 62
     7
370
    50
100
AcDbLine
 10
-232.795941
 20
396.035807
 30
0.0
 11
-232.795941
 21
396.035807
 31
0.0
  0
LINE
  5
508
330
504
100
AcDbEntity
  8
LC-001-100-D00-0
 62
     7
370
    50
100
AcDbLine
 10
-232.795941
 20
396.035807
 30
0.0
 11
-232.821047
 21
396.003411
 31
0.0
  0
LINE
  5
509
330
504
100
AcDbEntity
  8
LC-001-100-D00-0
 62
     7
370
    50
100
AcDbLine
 10
-232.821047
 20
396.003411
 30
0.0
 11
-232.821047
 21
396.003411
 31
0.0
  0
LINE
  5
50A
330
504
100
AcDbEntity
  8
LC-001-100-D00-0
 62
     7
370
    50
100
AcDbLine
 10
-232.821047
 20
396.003411
 30
0.0
 11
-232.871461
 21
395.938357
 31
0.0
  0
LINE
  5
50B
330
504
100
AcDbEntity
  8
LC-001-100-D00-0
 62
     7
370
    50
100
AcDbLine
 10
-232.871461
 20
395.938357
 30
0.0
 11
-232.871461
 21
395.938357
 31
0.0
  0
LINE
  5
50C
330
504
100
AcDbEntity
  8
LC-001-100-D00-0
 62
     7
370
    50
100
AcDbLine
 10
-232.871461
 20
395.938357
 30
0.0
 11
-233.27115
 21
395.581773
 31
0.0
  0
LINE
  5
50D
330
504
100
AcDbEntity
  8
LC-001-100-D00-0
 62
     7
370
    50
100
AcDbLine
 10
-233.27115
 20
395.581773
 30
0.0
 11
-233.27115
 21
395.581773
 31
0.0
  0
LINE
  5
50E
330
504
100
AcDbEntity
  8
LC-001-100-D00-0
 62
     7
370
    50
100
AcDbLine
 10
-233.27115
 20
395.581773
 30
0.0
 11
-233.850835
 21
395.255002
 31
0.0
  0
LINE
  5
50F
330
504
100
AcDbEntity
  8
LC-001-100-D00-0
 62
     7
370
    50
100
AcDbLine
 10
-233.850835
 20
395.255002
 30
0.0
 11
-233.850835
 21
395.255002
 31
0.0
  0
LINE
  5
510
330
504
100
AcDbEntity
  8
LC-001-100-D00-0
 62
     7
370
    50
100
AcDbLine
 10
-233.850835
 20
395.255002
 30
0.0
 11
-234.413651
 21
395.192143
 31
0.0
  0
LINE
  5
511
330
504
100
AcDbEntity
  8
LC-001-100-D00-0
 62
     7
370
    50
100
AcDbLine
 10
-234.413651
 20
395.192143
 30
0.0
 11
-234.413651
 21
395.192143
 31
0.0
  0
LINE
  5
512
330
504
100
AcDbEntity
  8
LC-001-100-D00-0
 62
     7
370
    50
100
AcDbLine
 10
-234.413651
 20
395.192143
 30
0.0
 11
-234.695942
 21
395.160616
 31
0.0
  0
ENDBLK
  5
506
330
504
100
AcDbEntity
  8
0
100
AcDbBlockEnd
  0
BLOCK
  5
515
330
514
100
AcDbEntity
  8
0
100
AcDbBlockBegin
  2
POLY2
 70
     0
 71
     0
 10
0.0
 20
0.0
 30
0.0
  3
POLY2
  1

  4
POLY2
  0
LINE
  5
517
330
514
100
AcDbEntity
  8
LC-001-100-D00-0
 62
     7
370
    50
100
AcDbLine
 10
-281.69594
 20
395.160616
 30
0.0
 11
-281.69594
 21
395.160616
 31
0.0
  0
LINE
  5
518
330
514
100
AcDbEntity
  8
LC-001-100-D00-0
 62
     7
370
    50
100
AcDbLine
 10
-281.69594
 20
395.160616
 30
0.0
 11
-282.007439
 21
395.199416
 31
0.0
  0
LINE
  5
519
330
514
100
AcDbEntity
  8
LC-001-100-D00-0
 62
     7
370
    50
100
AcDbLine
 10
-282.007439
 20
395.199416
 30
0.0
 11
-282.007439
 21
395.199416
 31
0.0
  0
LINE
  5
51A
330
514
100
AcDbEntity
  8
LC-001-100-D00-0
 62
     7
370
    50
100
AcDbLine
 10
-282.007439
 20
395.199416
 30
0.0
 11
-282.633413
 21
395.277386
 31
0.0
  0
LINE
  5
51B
330
514
100
AcDbEntity
  8
LC-001-100-D00-0
 62
     7
370
    50
100
AcDbLine
 10
-282.633413
 20
395.277386
 30
0.0
 11
-282.633413
 21
395.277386
 31
0.0
  0
LINE
  5
51C
330
514
100
AcDbEntity
  8
LC-001-100-D00-0
 62
     7
370
    50
100
AcDbLine
 10
-282.633413
 20
395.277386
 30
0.0
 11
-283.188765
 21
395.635231
 31
0.0
  0
LINE
  5
51D
330
514
100
AcDbEntity
  8
LC-001-100-D00-0
 62
     7
370
    50
100
AcDbLine
 10
-283.188765
 20
395.635231
 30
0.0
 11
-283.188765
 21
395.635231
 31
0.0
  0
LINE
  5
51E
330
514
100
AcDbEntity
  8
LC-001-100-D00-0
 62
     7
370
    50
100
AcDbLine
 10
-283.188765
 20
395.635231
 30
0.0
 11
-283.534907
 21
395.957681
 31
0.0
  0
LINE
  5
51F
330
514
100
AcDbEntity
  8
LC-001-100-D00-0
 62
     7
370
    50
100
AcDbLine
 10
-283.534907
 20
395.957681
 30
0.0
 11
-283.534907
 21
395.957681
 31
0.0
  0
LINE
  5
520
330
514
100
AcDbEntity
  8
LC-001-100-D00-0
 62
     7
370
    50
100
AcDbLine
 10
-283.534907
 20
395.957681
 30
0.0
 11
-283.575557
 21
396.009716
 31
0.0
  0
LINE
  5
521
330
514
100
AcDbEntity
  8
LC-001-100-D00-0
 62
     7
370
    50
100
AcDbLine
 10
-283.575557
 20
396.009716
 30
0.0
 11
-283.575557
 21
396.009716
 31
0.0
  0
LINE
  5
522
330
514
100
AcDbEntity
  8
LC-001-100-D00-0
 62
     7
370
    50
100
AcDbLine
 10
-283.575557
 20
396.009716
 30
0.0
 11
-283.595941
 21
396.035807
 31
0.0
  0
ENDBLK
  5
516
330
514
100
AcDbEntity
  8
0
100
AcDbBlockEnd
  0
BLOCK
  5
529
330
528
100
AcDbEntity
  8
0
100
AcDbBlockBegin
  2
POLY3
 70
     0
 71
     0
 10
0.0
 20
0.0
 30
0.0
  3
POLY3
  1

  4
POLY3
  0
LINE
  5
52B
330
528
100
AcDbEntity
  8
LC-001-100-D00-0
 62
     7
370
    50
100
AcDbLine
 10
-235.655979
 20
385.168677
 30
0.0
 11
-235.655979
 21
385.168677
 31
0.0
  0
LINE
  5
52C
330
528
100
AcDbEntity
  8
LC-001-100-D00-0
 62
     7
370
    50
100
AcDbLine
 10
-235.655979
 20
385.168677
 30
0.0
 11
-235.461512
 21
385.211107
 31
0.0
  0
LINE
  5
52D
330
528
100
AcDbEntity
  8
LC-001-100-D00-0
 62
     7
370
    50
100
AcDbLine
 10
-235.461512
 20
385.211107
 30
0.0
 11
-235.461512
 21
385.211107
 31
0.0
  0
LINE
  5
52E
330
528
100
AcDbEntity
  8
LC-001-100-D00-0
 62
     7
370
    50
100
AcDbLine
 10
-235.461512
 20
385.211107
 30
0.0
 11
-235.072545
 21
385.295976
 31
0.0
  0
LINE
  5
52F
330
528
100
AcDbEntity
  8
LC-001-100-D00-0
 62
     7
370
    50
100
AcDbLine
 10
-235.072545
 20
385.295976
 30
0.0
 11
-235.072545
 21
385.295976
 31
0.0
  0
LINE
  5
530
330
528
100
AcDbEntity
  8
LC-001-100-D00-0
 62
     7
370
    50
100
AcDbLine
 10
-235.072545
 20
385.295976
 30
0.0
 11
-234.57718
 21
385.696603
 31
0.0
  0
LINE
  5
531
330
528
100
AcDbEntity
  8
LC-001-100-D00-0
 62
     7
370
    50
100
AcDbLine
 10
-234.57718
 20
385.696603
 30
0.0
 11
-234.57718
 21
385.696603
 31
0.0
  0
LINE
  5
532
330
528
100
AcDbEntity
  8
LC-001-100-D00-0
 62
     7
370
    50
100
AcDbLine
 10
-234.57718
 20
385.696603
 30
0.0
 11
-234.223953
 21
386.246759
 31
0.0
  0
LINE
  5
533
330
528
100
AcDbEntity
  8
LC-001-100-D00-0
 62
     7
370
    50
100
AcDbLine
 10
-234.223953
 20
386.246759
 30
0.0
 11
-234.223953
 21
386.246759
 31
0.0
  0
LINE
  5
534
330
528
100
AcDbEntity
  8
LC-001-100-D00-0
 62
     7
370
    50
100
AcDbLine
 10
-234.223953
 20
386.246759
 30
0.0
 11
-234.08134
 21
386.768642
 31
0.0
  0
LINE
  5
535
330
528
100
AcDbEntity
  8
LC-001-100-D00-0
 62
     7
370
    50
100
AcDbLine
 10
-234.08134
 20
386.768642
 30
0.0
 11
-234.08134
 21
386.768642
 31
0.0
  0
LINE
  5
536
330
528
100
AcDbEntity
  8
LC-001-100-D00-0
 62
     7
370
    50
100
AcDbLine
 10
-234.08134
 20
386.768642
 30
0.0
 11
-234.070968
 21
387.076581
 31
0.0
  0
LINE
  5
537
330
528
100
AcDbEntity
  8
LC-001-100-D00-0
 62
     7
370
    50
100
AcDbLine
 10
-234.070968
 20
387.076581
 30
0.0
 11
-234.070968
 21
387.076581
 31
0.0
  0
LINE
  5
538
330
528
100
AcDbEntity
  8
LC-001-100-D00-0
 62
     7
370
    50
100
AcDbLine
 10
-234.070968
 20
387.076581
 30
0.0
 11
-234.068137
 21
387.160615
 31
0.0
  0
ENDBLK
  5
52A
330
528
100
AcDbEntity
  8
0
100
AcDbBlockEnd
  0
BLOCK
  5
53B
330
53A
100
AcDbEntity
  8
0
100
AcDbBlockBegin
  2
POLY4
 70
     0
 71
     0
 10
0.0
 20
0.0
 30
0.0
  3
POLY4
  1

  4
POLY4
  0
LINE
  5
53D
330
53A
100
AcDbEntity
  8
LC-001-100-D00-0
 62
     7
370
    50
100
AcDbLine
 10
-282.323745
 20
387.160615
 30
0.0
 11
-282.323745
 21
387.160615
 31
0.0
  0
LINE
  5
53E
330
53A
100
AcDbEntity
  8
LC-001-100-D00-0
 62
     7
370
    50
100
AcDbLine
 10
-282.323745
 20
387.160615
 30
0.0
 11
-282.304653
 21
386.936869
 31
0.0
  0
LINE
  5
53F
330
53A
100
AcDbEntity
  8
LC-001-100-D00-0
 62
     7
370
    50
100
AcDbLine
 10
-282.304653
 20
386.936869
 30
0.0
 11
-282.304653
 21
386.936869
 31
0.0
  0
LINE
  5
540
330
53A
100
AcDbEntity
  8
LC-001-100-D00-0
 62
     7
370
    50
100
AcDbLine
 10
-282.304653
 20
386.936869
 30
0.0
 11
-282.266472
 21
386.489397
 31
0.0
  0
LINE
  5
541
330
53A
100
AcDbEntity
  8
LC-001-100-D00-0
 62
     7
370
    50
100
AcDbLine
 10
-282.266472
 20
386.489397
 30
0.0
 11
-282.266472
 21
386.489397
 31
0.0
  0
LINE
  5
542
330
53A
100
AcDbEntity
  8
LC-001-100-D00-0
 62
     7
370
    50
100
AcDbLine
 10
-282.266472
 20
386.489397
 30
0.0
 11
-281.968951
 21
385.892842
 31
0.0
  0
LINE
  5
543
330
53A
100
AcDbEntity
  8
LC-001-100-D00-0
 62
     7
370
    50
100
AcDbLine
 10
-281.968951
 20
385.892842
 30
0.0
 11
-281.968951
 21
385.892842
 31
0.0
  0
LINE
  5
544
330
53A
100
AcDbEntity
  8
LC-001-100-D00-0
 62
     7
370
    50
100
AcDbLine
 10
-281.968951
 20
385.892842
 30
0.0
 11
-281.530505
 21
385.439823
 31
0.0
  0
LINE
  5
545
330
53A
100
AcDbEntity
  8
LC-001-100-D00-0
 62
     7
370
    50
100
AcDbLine
 10
-281.530505
 20
385.439823
 30
0.0
 11
-281.530505
 21
385.439823
 31
0.0
  0
LINE
  5
546
330
53A
100
AcDbEntity
  8
LC-001-100-D00-0
 62
     7
370
    50
100
AcDbLine
 10
-281.530505
 20
385.439823
 30
0.0
 11
-281.08857
 21
385.222313
 31
0.0
  0
LINE
  5
547
330
53A
100
AcDbEntity
  8
LC-001-100-D00-0
 62
     7
370
    50
100
AcDbLine
 10
-281.08857
 20
385.222313
 30
0.0
 11
-281.08857
 21
385.222313
 31
0.0
  0
LINE
  5
548
330
53A
100
AcDbEntity
  8
LC-001-100-D00-0
 62
     7
370
    50
100
AcDbLine
 10
-281.08857
 20
385.222313
 30
0.0
 11
-280.815666
 21
385.180808
 31
0.0
  0
LINE
  5
549
330
53A
100
AcDbEntity
  8
LC-001-100-D00-0
 62
     7
370
    50
100
AcDbLine
 10
-280.815666
 20
385.180808
 30
0.0
 11
-280.815666
 21
385.180808
 31
0.0
  0
LINE
  5
54A
330
53A
100
AcDbEntity
  8
LC-001-100-D00-0
 62
     7
370
    50
100
AcDbLine
 10
-280.815666
 20
385.180808
 30
0.0
 11
-280.735903
 21
385.168677
 31
0.0
  0
ENDBLK
  5
53C
330
53A
100
AcDbEntity
  8
0
100
AcDbBlockEnd
  0
BLOCK
  5
556
330
555
100
AcDbEntity
  8
0
100
AcDbBlockBegin
  2
POLY5
 70
     0
 71
     0
 10
0.0
 20
0.0
 30
0.0
  3
POLY5
  1

  4
POLY5
  0
LINE
  5
558
330
555
100
AcDbEntity
  8
LC-001-100-D00-0
 62
     7
370
    50
100
AcDbLine
 10
-281.69594
 20
400.160659
 30
0.0
 11
-281.69594
 21
400.160659
 31
0.0
  0
LINE
  5
559
330
555
100
AcDbEntity
  8
LC-001-100-D00-0
 62
     7
370
    50
100
AcDbLine
 10
-281.69594
 20
400.160659
 30
0.0
 11
-281.709047
 21
400.160712
 31
0.0
  0
LINE
  5
55A
330
555
100
AcDbEntity
  8
LC-001-100-D00-0
 62
     7
370
    50
100
AcDbLine
 10
-281.709047
 20
400.160712
 30
0.0
 11
-281.709047
 21
400.160712
 31
0.0
  0
LINE
  5
55B
330
555
100
AcDbEntity
  8
LC-001-100-D00-0
 62
     7
370
    50
100
AcDbLine
 10
-281.709047
 20
400.160712
 30
0.0
 11
-281.734802
 21
400.160816
 31
0.0
  0
LINE
  5
55C
330
555
100
AcDbEntity
  8
LC-001-100-D00-0
 62
     7
370
    50
100
AcDbLine
 10
-281.734802
 20
400.160816
 30
0.0
 11
-281.734802
 21
400.160816
 31
0.0
  0
LINE
  5
55D
330
555
100
AcDbEntity
  8
LC-001-100-D00-0
 62
     7
370
    50
100
AcDbLine
 10
-281.734802
 20
400.160816
 30
0.0
 11
-281.756126
 21
400.161352
 31
0.0
  0
LINE
  5
55E
330
555
100
AcDbEntity
  8
LC-001-100-D00-0
 62
     7
370
    50
100
AcDbLine
 10
-281.756126
 20
400.161352
 30
0.0
 11
-281.756126
 21
400.161352
 31
0.0
  0
LINE
  5
55F
330
555
100
AcDbEntity
  8
LC-001-100-D00-0
 62
     7
370
    50
100
AcDbLine
 10
-281.756126
 20
400.161352
 30
0.0
 11
-281.766598
 21
400.161615
 31
0.0
  0
ENDBLK
  5
557
330
555
100
AcDbEntity
  8
0
100
AcDbBlockEnd
  0
BLOCK
  5
5C7
330
5C6
100
AcDbEntity
  8
0
100
AcDbBlockBegin
  2
POLY6
 70
     0
 71
     0
 10
0.0
 20
0.0
 30
0.0
  3
POLY6
  1

  4
POLY6
  0
LINE
  5
5C9
330
5C6
100
AcDbEntity
  8
LC-001-100-D00-0
 62
     7
370
    50
100
AcDbLine
 10
-283.141331
 20
394.080453
 30
0.0
 11
-283.141331
 21
394.080453
 31
0.0
  0
LINE
  5
5CA
330
5C6
100
AcDbEntity
  8
LC-001-100-D00-0
 62
     7
370
    50
100
AcDbLine
 10
-283.141331
 20
394.080453
 30
0.0
 11
-282.87097
 21
393.961122
 31
0.0
  0
LINE
  5
5CB
330
5C6
100
AcDbEntity
  8
LC-001-100-D00-0
 62
     7
370
    50
100
AcDbLine
 10
-282.87097
 20
393.961122
 30
0.0
 11
-282.87097
 21
393.961122
 31
0.0
  0
LINE
  5
5CC
330
5C6
100
AcDbEntity
  8
LC-001-100-D00-0
 62
     7
370
    50
100
AcDbLine
 10
-282.87097
 20
393.961122
 30
0.0
 11
-282.328928
 21
393.721878
 31
0.0
  0
LINE
  5
5CD
330
5C6
100
AcDbEntity
  8
LC-001-100-D00-0
 62
     7
370
    50
100
AcDbLine
 10
-282.328928
 20
393.721878
 30
0.0
 11
-282.328928
 21
393.721878
 31
0.0
  0
LINE
  5
5CE
330
5C6
100
AcDbEntity
  8
LC-001-100-D00-0
 62
     7
370
    50
100
AcDbLine
 10
-282.328928
 20
393.721878
 30
0.0
 11
-281.709223
 21
393.661035
 31
0.0
  0
LINE
  5
5CF
330
5C6
100
AcDbEntity
  8
LC-001-100-D00-0
 62
     7
370
    50
100
AcDbLine
 10
-281.709223
 20
393.661035
 30
0.0
 11
-281.709223
 21
393.661035
 31
0.0
  0
LINE
  5
5D0
330
5C6
100
AcDbEntity
  8
LC-001-100-D00-0
 62
     7
370
    50
100
AcDbLine
 10
-281.709223
 20
393.661035
 30
0.0
 11
-281.400927
 21
393.660623
 31
0.0
  0
LINE
  5
5D1
330
5C6
100
AcDbEntity
  8
LC-001-100-D00-0
 62
     7
370
    50
100
AcDbLine
 10
-281.400927
 20
393.660623
 30
0.0
 11
-281.400927
 21
393.660623
 31
0.0
  0
LINE
  5
5D2
330
5C6
100
AcDbEntity
  8
LC-001-100-D00-0
 62
     7
370
    50
100
AcDbLine
 10
-281.400927
 20
393.660623
 30
0.0
 11
-281.395941
 21
393.660616
 31
0.0
  0
ENDBLK
  5
5C8
330
5C6
100
AcDbEntity
  8
0
100
AcDbBlockEnd
  0
BLOCK
  5
5E8
330
5E7
100
AcDbEntity
  8
0
100
AcDbBlockBegin
  2
KLON29
 70
     0
 71
     0
 10
0.0
 20
0.0
 30
0.0
  3
KLON29
  1

  4
KLON29
  0
LINE
  5
5EA
330
5E7
100
AcDbEntity
  8
LC-001-100-D00-0
 62
     7
370
    15
100
AcDbLine
 10
-361.195941
 20
352.709776
 30
0.0
 11
-364.14991
 21
353.5029
 31
0.0
  0
LINE
  5
5EB
330
5E7
100
AcDbEntity
  8
LC-001-100-D00-0
 62
     7
370
    15
100
AcDbLine
 10
-364.14991
 20
353.5029
 30
0.0
 11
-364.19594
 21
353.51526
 31
0.0
  0
ENDBLK
  5
5E9
330
5E7
100
AcDbEntity
  8
0
100
AcDbBlockEnd
  0
BLOCK
  5
5F3
330
5F2
100
AcDbEntity
  8
0
100
AcDbBlockBegin
  2
POLY7
 70
     0
 71
     0
 10
0.0
 20
0.0
 30
0.0
  3
POLY7
  1

  4
POLY7
  0
LINE
  5
5F5
330
5F2
100
AcDbEntity
  8
LC-001-100-D00-0
 62
     7
370
    50
100
AcDbLine
 10
-289.311957
 20
355.828656
 30
0.0
 11
-289.311957
 21
355.828656
 31
0.0
  0
LINE
  5
5F6
330
5F2
100
AcDbEntity
  8
LC-001-100-D00-0
 62
     7
370
    50
100
AcDbLine
 10
-289.311957
 20
355.828656
 30
0.0
 11
-289.633019
 21
355.863964
 31
0.0
  0
LINE
  5
5F7
330
5F2
100
AcDbEntity
  8
LC-001-100-D00-0
 62
     7
370
    50
100
AcDbLine
 10
-289.633019
 20
355.863964
 30
0.0
 11
-289.633019
 21
355.863964
 31
0.0
  0
LINE
  5
5F8
330
5F2
100
AcDbEntity
  8
LC-001-100-D00-0
 62
     7
370
    50
100
AcDbLine
 10
-289.633019
 20
355.863964
 30
0.0
 11
-290.661049
 21
355.977018
 31
0.0
  0
LINE
  5
5F9
330
5F2
100
AcDbEntity
  8
LC-001-100-D00-0
 62
     7
370
    50
100
AcDbLine
 10
-290.661049
 20
355.977018
 30
0.0
 11
-290.661049
 21
355.977018
 31
0.0
  0
LINE
  5
5FA
330
5F2
100
AcDbEntity
  8
LC-001-100-D00-0
 62
     7
370
    50
100
AcDbLine
 10
-290.661049
 20
355.977018
 30
0.0
 11
-292.122581
 21
356.769515
 31
0.0
  0
LINE
  5
5FB
330
5F2
100
AcDbEntity
  8
LC-001-100-D00-0
 62
     7
370
    50
100
AcDbLine
 10
-292.122581
 20
356.769515
 30
0.0
 11
-292.122581
 21
356.769515
 31
0.0
  0
LINE
  5
5FC
330
5F2
100
AcDbEntity
  8
LC-001-100-D00-0
 62
     7
370
    50
100
AcDbLine
 10
-292.122581
 20
356.769515
 30
0.0
 11
-293.591111
 21
358.068687
 31
0.0
  0
LINE
  5
5FD
330
5F2
100
AcDbEntity
  8
LC-001-100-D00-0
 62
     7
370
    50
100
AcDbLine
 10
-293.591111
 20
358.068687
 30
0.0
 11
-293.591111
 21
358.068687
 31
0.0
  0
LINE
  5
5FE
330
5F2
100
AcDbEntity
  8
LC-001-100-D00-0
 62
     7
370
    50
100
AcDbLine
 10
-293.591111
 20
358.068687
 30
0.0
 11
-294.519394
 21
359.516227
 31
0.0
  0
LINE
  5
5FF
330
5F2
100
AcDbEntity
  8
LC-001-100-D00-0
 62
     7
370
    50
100
AcDbLine
 10
-294.519394
 20
359.516227
 30
0.0
 11
-294.519394
 21
359.516227
 31
0.0
  0
LINE
  5
600
330
5F2
100
AcDbEntity
  8
LC-001-100-D00-0
 62
     7
370
    50
100
AcDbLine
 10
-294.519394
 20
359.516227
 30
0.0
 11
-295.085559
 21
361.074094
 31
0.0
  0
LINE
  5
601
330
5F2
100
AcDbEntity
  8
LC-001-100-D00-0
 62
     7
370
    50
100
AcDbLine
 10
-295.085559
 20
361.074094
 30
0.0
 11
-295.085559
 21
361.074094
 31
0.0
  0
LINE
  5
602
330
5F2
100
AcDbEntity
  8
LC-001-100-D00-0
 62
     7
370
    50
100
AcDbLine
 10
-295.085559
 20
361.074094
 30
0.0
 11
-295.158847
 21
362.127455
 31
0.0
  0
LINE
  5
603
330
5F2
100
AcDbEntity
  8
LC-001-100-D00-0
 62
     7
370
    50
100
AcDbLine
 10
-295.158847
 20
362.127455
 30
0.0
 11
-295.158847
 21
362.127455
 31
0.0
  0
LINE
  5
604
330
5F2
100
AcDbEntity
  8
LC-001-100-D00-0
 62
     7
370
    50
100
AcDbLine
 10
-295.158847
 20
362.127455
 30
0.0
 11
-295.195942
 21
362.660616
 31
0.0
  0
ENDBLK
  5
5F4
330
5F2
100
AcDbEntity
  8
0
100
AcDbBlockEnd
  0
BLOCK
  5
609
330
608
100
AcDbEntity
  8
0
100
AcDbBlockBegin
  2
KLON30
 70
     0
 71
     0
 10
0.0
 20
0.0
 30
0.0
  3
KLON30
  1

  4
KLON30
  0
LINE
  5
60B
330
608
100
AcDbEntity
  8
LC-001-100-D00-0
 62
     7
370
    15
100
AcDbLine
 10
-364.19594
 20
401.805971
 30
0.0
 11
-364.14991
 21
401.818332
 31
0.0
  0
LINE
  5
60C
330
608
100
AcDbEntity
  8
LC-001-100-D00-0
 62
     7
370
    15
100
AcDbLine
 10
-364.14991
 20
401.818332
 30
0.0
 11
-361.195941
 21
402.611455
 31
0.0
  0
ENDBLK
  5
60A
330
608
100
AcDbEntity
  8
0
100
AcDbBlockEnd
  0
BLOCK
  5
617
330
616
100
AcDbEntity
  8
0
100
AcDbBlockBegin
  2
POLY8
 70
     0
 71
     0
 10
0.0
 20
0.0
 30
0.0
  3
POLY8
  1

  4
POLY8
  0
LINE
  5
619
330
616
100
AcDbEntity
  8
LC-001-100-D00-0
 62
     7
370
    50
100
AcDbLine
 10
-313.903016
 20
402.611455
 30
0.0
 11
-313.903016
 21
402.611455
 31
0.0
  0
LINE
  5
61A
330
616
100
AcDbEntity
  8
LC-001-100-D00-0
 62
     7
370
    50
100
AcDbLine
 10
-313.903016
 20
402.611455
 30
0.0
 11
-313.566441
 21
402.577446
 31
0.0
  0
LINE
  5
61B
330
616
100
AcDbEntity
  8
LC-001-100-D00-0
 62
     7
370
    50
100
AcDbLine
 10
-313.566441
 20
402.577446
 30
0.0
 11
-313.566441
 21
402.577446
 31
0.0
  0
LINE
  5
61C
330
616
100
AcDbEntity
  8
LC-001-100-D00-0
 62
     7
370
    50
100
AcDbLine
 10
-313.566441
 20
402.577446
 30
0.0
 11
-312.893321
 21
402.50943
 31
0.0
  0
LINE
  5
61D
330
616
100
AcDbEntity
  8
LC-001-100-D00-0
 62
     7
370
    50
100
AcDbLine
 10
-312.893321
 20
402.50943
 30
0.0
 11
-312.893321
 21
402.50943
 31
0.0
  0
LINE
  5
61E
330
616
100
AcDbEntity
  8
LC-001-100-D00-0
 62
     7
370
    50
100
AcDbLine
 10
-312.893321
 20
402.50943
 30
0.0
 11
-311.943918
 21
401.984111
 31
0.0
  0
LINE
  5
61F
330
616
100
AcDbEntity
  8
LC-001-100-D00-0
 62
     7
370
    50
100
AcDbLine
 10
-311.943918
 20
401.984111
 30
0.0
 11
-311.943918
 21
401.984111
 31
0.0
  0
LINE
  5
620
330
616
100
AcDbEntity
  8
LC-001-100-D00-0
 62
     7
370
    50
100
AcDbLine
 10
-311.943918
 20
401.984111
 30
0.0
 11
-311.520403
 21
401.407833
 31
0.0
  0
LINE
  5
621
330
616
100
AcDbEntity
  8
LC-001-100-D00-0
 62
     7
370
    50
100
AcDbLine
 10
-311.520403
 20
401.407833
 30
0.0
 11
-311.520403
 21
401.407833
 31
0.0
  0
LINE
  5
622
330
616
100
AcDbEntity
  8
LC-001-100-D00-0
 62
     7
370
    50
100
AcDbLine
 10
-311.520403
 20
401.407833
 30
0.0
 11
-311.297652
 21
401.104735
 31
0.0
  0
ENDBLK
  5
618
330
616
100
AcDbEntity
  8
0
100
AcDbBlockEnd
  0
BLOCK
  5
635
330
634
100
AcDbEntity
  8
0
100
AcDbBlockBegin
  2
POLY9
 70
     0
 71
     0
 10
0.0
 20
0.0
 30
0.0
  3
POLY9
  1

  4
POLY9
  0
LINE
  5
637
330
634
100
AcDbEntity
  8
LC-001-100-D00-0
 62
     7
370
    50
100
AcDbLine
 10
-313.854017
 20
299.160615
 30
0.0
 11
-313.854017
 21
299.160615
 31
0.0
  0
LINE
  5
638
330
634
100
AcDbEntity
  8
LC-001-100-D00-0
 62
     7
370
    50
100
AcDbLine
 10
-313.854017
 20
299.160615
 30
0.0
 11
-313.814353
 21
299.160615
 31
0.0
  0
LINE
  5
639
330
634
100
AcDbEntity
  8
LC-001-100-D00-0
 62
     7
370
    50
100
AcDbLine
 10
-313.814353
 20
299.160615
 30
0.0
 11
-313.814353
 21
299.160615
 31
0.0
  0
LINE
  5
63A
330
634
100
AcDbEntity
  8
LC-001-100-D00-0
 62
     7
370
    50
100
AcDbLine
 10
-313.814353
 20
299.160615
 30
0.0
 11
-313.727744
 21
299.160615
 31
0.0
  0
LINE
  5
63B
330
634
100
AcDbEntity
  8
LC-001-100-D00-0
 62
     7
370
    50
100
AcDbLine
 10
-313.727744
 20
299.160615
 30
0.0
 11
-313.727744
 21
299.160615
 31
0.0
  0
LINE
  5
63C
330
634
100
AcDbEntity
  8
LC-001-100-D00-0
 62
     7
370
    50
100
AcDbLine
 10
-313.727744
 20
299.160615
 30
0.0
 11
-314.282219
 21
299.160615
 31
0.0
  0
LINE
  5
63D
330
634
100
AcDbEntity
  8
LC-001-100-D00-0
 62
     7
370
    50
100
AcDbLine
 10
-314.282219
 20
299.160615
 30
0.0
 11
-314.282219
 21
299.160615
 31
0.0
  0
LINE
  5
63E
330
634
100
AcDbEntity
  8
LC-001-100-D00-0
 62
     7
370
    50
100
AcDbLine
 10
-314.282219
 20
299.160615
 30
0.0
 11
-315.108795
 21
299.160615
 31
0.0
  0
LINE
  5
63F
330
634
100
AcDbEntity
  8
LC-001-100-D00-0
 62
     7
370
    50
100
AcDbLine
 10
-315.108795
 20
299.160615
 30
0.0
 11
-315.108795
 21
299.160615
 31
0.0
  0
LINE
  5
640
330
634
100
AcDbEntity
  8
LC-001-100-D00-0
 62
     7
370
    50
100
AcDbLine
 10
-315.108795
 20
299.160615
 30
0.0
 11
-316.286411
 21
299.160615
 31
0.0
  0
LINE
  5
641
330
634
100
AcDbEntity
  8
LC-001-100-D00-0
 62
     7
370
    50
100
AcDbLine
 10
-316.286411
 20
299.160615
 30
0.0
 11
-316.286411
 21
299.160615
 31
0.0
  0
LINE
  5
642
330
634
100
AcDbEntity
  8
LC-001-100-D00-0
 62
     7
370
    50
100
AcDbLine
 10
-316.286411
 20
299.160615
 30
0.0
 11
-318.114525
 21
299.160615
 31
0.0
  0
LINE
  5
643
330
634
100
AcDbEntity
  8
LC-001-100-D00-0
 62
     7
370
    50
100
AcDbLine
 10
-318.114525
 20
299.160615
 30
0.0
 11
-318.114525
 21
299.160615
 31
0.0
  0
LINE
  5
644
330
634
100
AcDbEntity
  8
LC-001-100-D00-0
 62
     7
370
    50
100
AcDbLine
 10
-318.114525
 20
299.160615
 30
0.0
 11
-320.816153
 21
299.160615
 31
0.0
  0
LINE
  5
645
330
634
100
AcDbEntity
  8
LC-001-100-D00-0
 62
     7
370
    50
100
AcDbLine
 10
-320.816153
 20
299.160615
 30
0.0
 11
-320.816153
 21
299.160615
 31
0.0
  0
LINE
  5
646
330
634
100
AcDbEntity
  8
LC-001-100-D00-0
 62
     7
370
    50
100
AcDbLine
 10
-320.816153
 20
299.160615
 30
0.0
 11
-323.741417
 21
299.160615
 31
0.0
  0
LINE
  5
647
330
634
100
AcDbEntity
  8
LC-001-100-D00-0
 62
     7
370
    50
100
AcDbLine
 10
-323.741417
 20
299.160615
 30
0.0
 11
-323.741417
 21
299.160615
 31
0.0
  0
LINE
  5
648
330
634
100
AcDbEntity
  8
LC-001-100-D00-0
 62
     7
370
    50
100
AcDbLine
 10
-323.741417
 20
299.160615
 30
0.0
 11
-326.01552
 21
299.160615
 31
0.0
  0
LINE
  5
649
330
634
100
AcDbEntity
  8
LC-001-100-D00-0
 62
     7
370
    50
100
AcDbLine
 10
-326.01552
 20
299.160615
 30
0.0
 11
-326.01552
 21
299.160615
 31
0.0
  0
LINE
  5
64A
330
634
100
AcDbEntity
  8
LC-001-100-D00-0
 62
     7
370
    50
100
AcDbLine
 10
-326.01552
 20
299.160615
 30
0.0
 11
-327.662196
 21
299.160615
 31
0.0
  0
LINE
  5
64B
330
634
100
AcDbEntity
  8
LC-001-100-D00-0
 62
     7
370
    50
100
AcDbLine
 10
-327.662196
 20
299.160615
 30
0.0
 11
-327.662196
 21
299.160615
 31
0.0
  0
LINE
  5
64C
330
634
100
AcDbEntity
  8
LC-001-100-D00-0
 62
     7
370
    50
100
AcDbLine
 10
-327.662196
 20
299.160615
 30
0.0
 11
-329.105409
 21
299.160615
 31
0.0
  0
LINE
  5
64D
330
634
100
AcDbEntity
  8
LC-001-100-D00-0
 62
     7
370
    50
100
AcDbLine
 10
-329.105409
 20
299.160615
 30
0.0
 11
-329.105409
 21
299.160615
 31
0.0
  0
LINE
  5
64E
330
634
100
AcDbEntity
  8
LC-001-100-D00-0
 62
     7
370
    50
100
AcDbLine
 10
-329.105409
 20
299.160615
 30
0.0
 11
-330.573493
 21
299.160615
 31
0.0
  0
LINE
  5
64F
330
634
100
AcDbEntity
  8
LC-001-100-D00-0
 62
     7
370
    50
100
AcDbLine
 10
-330.573493
 20
299.160615
 30
0.0
 11
-330.573493
 21
299.160615
 31
0.0
  0
LINE
  5
650
330
634
100
AcDbEntity
  8
LC-001-100-D00-0
 62
     7
370
    50
100
AcDbLine
 10
-330.573493
 20
299.160615
 30
0.0
 11
-331.634675
 21
299.160615
 31
0.0
  0
LINE
  5
651
330
634
100
AcDbEntity
  8
LC-001-100-D00-0
 62
     7
370
    50
100
AcDbLine
 10
-331.634675
 20
299.160615
 30
0.0
 11
-331.634675
 21
299.160615
 31
0.0
  0
LINE
  5
652
330
634
100
AcDbEntity
  8
LC-001-100-D00-0
 62
     7
370
    50
100
AcDbLine
 10
-331.634675
 20
299.160615
 30
0.0
 11
-331.563117
 21
299.160615
 31
0.0
  0
LINE
  5
653
330
634
100
AcDbEntity
  8
LC-001-100-D00-0
 62
     7
370
    50
100
AcDbLine
 10
-331.563117
 20
299.160615
 30
0.0
 11
-331.563117
 21
299.160615
 31
0.0
  0
LINE
  5
654
330
634
100
AcDbEntity
  8
LC-001-100-D00-0
 62
     7
370
    50
100
AcDbLine
 10
-331.563117
 20
299.160615
 30
0.0
 11
-331.537869
 21
299.160615
 31
0.0
  0
ENDBLK
  5
636
330
634
100
AcDbEntity
  8
0
100
AcDbBlockEnd
  0
BLOCK
  5
65F
330
65E
100
AcDbEntity
  8
0
100
AcDbBlockBegin
  2
KLON31
 70
     0
 71
     0
 10
0.0
 20
0.0
 30
0.0
  3
KLON31
  1

  4
KLON31
  0
LINE
  5
661
330
65E
100
AcDbEntity
  8
LC-001-100-D00-0
 62
     7
370
    25
100
AcDbLine
 10
-308.238092
 20
389.80542
 30
0.0
 11
-306.041939
 21
392.001572
 31
0.0
  0
LINE
  5
662
330
65E
100
AcDbEntity
  8
LC-001-100-D00-0
 62
     7
370
    25
100
AcDbLine
 10
-320.889416
 20
399.604736
 30
0.0
 11
-317.882697
 21
402.611456
 31
0.0
  0
LINE
  5
663
330
65E
100
AcDbEntity
  8
LC-001-100-D00-0
 62
     7
370
    25
100
AcDbLine
 10
-343.340057
 20
399.604736
 30
0.0
 11
-340.333337
 21
402.611456
 31
0.0
  0
LINE
  5
664
330
65E
100
AcDbEntity
  8
LC-001-100-D00-0
 62
     7
370
    25
100
AcDbLine
 10
-364.195941
 20
401.199492
 30
0.0
 11
-363.366856
 21
402.028576
 31
0.0
  0
ENDBLK
  5
660
330
65E
100
AcDbEntity
  8
0
100
AcDbBlockEnd
  0
BLOCK
  5
667
330
666
100
AcDbEntity
  8
0
100
AcDbBlockBegin
  2
KLON32
 70
     0
 71
     0
 10
0.0
 20
0.0
 30
0.0
  3
KLON32
  1

  4
KLON32
  0
LINE
  5
669
330
666
100
AcDbEntity
  8
LC-001-100-D00-0
 62
     7
370
    25
100
AcDbLine
 10
-233.129695
 20
352.660616
 30
0.0
 11
-230.129695
 21
355.660616
 31
0.0
  0
LINE
  5
66A
330
666
100
AcDbEntity
  8
LC-001-100-D00-0
 62
     7
370
    25
100
AcDbLine
 10
-221.195941
 20
364.594369
 30
0.0
 11
-218.195941
 21
367.594369
 31
0.0
  0
LINE
  5
66B
330
666
100
AcDbEntity
  8
LC-001-100-D00-0
 62
     7
370
    25
100
AcDbLine
 10
-255.580335
 20
352.660616
 30
0.0
 11
-252.580335
 21
355.660616
 31
0.0
  0
LINE
  5
66C
330
666
100
AcDbEntity
  8
LC-001-100-D00-0
 62
     7
370
    25
100
AcDbLine
 10
-221.195941
 20
387.04501
 30
0.0
 11
-218.195941
 21
390.04501
 31
0.0
  0
LINE
  5
66D
330
666
100
AcDbEntity
  8
LC-001-100-D00-0
 62
     7
370
    25
100
AcDbLine
 10
-278.030975
 20
352.660616
 30
0.0
 11
-275.030975
 21
355.660616
 31
0.0
  0
LINE
  5
66E
330
666
100
AcDbEntity
  8
LC-001-100-D00-0
 62
     7
370
    25
100
AcDbLine
 10
-266.208043
 20
364.483548
 30
0.0
 11
-263.481432
 21
367.210159
 31
0.0
  0
LINE
  5
66F
330
666
100
AcDbEntity
  8
LC-001-100-D00-0
 62
     7
370
    25
100
AcDbLine
 10
-300.432455
 20
352.709776
 30
0.0
 11
-297.425736
 21
355.716496
 31
0.0
  0
LINE
  5
670
330
666
100
AcDbEntity
  8
LC-001-100-D00-0
 62
     7
370
    25
100
AcDbLine
 10
-322.883096
 20
352.709776
 30
0.0
 11
-319.876376
 21
355.716496
 31
0.0
  0
LINE
  5
671
330
666
100
AcDbEntity
  8
LC-001-100-D00-0
 62
     7
370
    25
100
AcDbLine
 10
-345.333736
 20
352.709776
 30
0.0
 11
-342.327016
 21
355.716496
 31
0.0
  0
ENDBLK
  5
668
330
666
100
AcDbEntity
  8
0
100
AcDbBlockEnd
  0
BLOCK
  5
674
330
673
100
AcDbEntity
  8
0
100
AcDbBlockBegin
  2
KLON33
 70
     0
 71
     0
 10
0.0
 20
0.0
 30
0.0
  3
KLON33
  1

  4
KLON33
  0
LINE
  5
676
330
673
100
AcDbEntity
  8
LC-001-100-D00-0
 62
     7
370
    25
100
AcDbLine
 10
-219.080335
 20
389.160616
 30
0.0
 11
-218.195941
 21
390.04501
 31
0.0
  0
LINE
  5
677
330
673
100
AcDbEntity
  8
LC-001-100-D00-0
 62
     7
370
    25
100
AcDbLine
 10
-221.195941
 20
409.49565
 30
0.0
 11
-218.195941
 21
412.49565
 31
0.0
  0
ENDBLK
  5
675
330
673
100
AcDbEntity
  8
0
100
AcDbBlockEnd
  0
BLOCK
  5
67A
330
679
100
AcDbEntity
  8
0
100
AcDbBlockBegin
  2
KLON34
 70
     0
 71
     0
 10
0.0
 20
0.0
 30
0.0
  3
KLON34
  1

  4
KLON34
  0
LINE
  5
67C
330
679
100
AcDbEntity
  8
LC-001-100-D00-0
 62
     7
370
    25
100
AcDbLine
 10
-288.932256
 20
386.660616
 30
0.0
 11
-286.195941
 21
389.39693
 31
0.0
  0
LINE
  5
67D
330
679
100
AcDbEntity
  8
LC-001-100-D00-0
 62
     7
370
    25
100
AcDbLine
 10
-298.195941
 20
399.847571
 30
0.0
 11
-295.195941
 21
402.847571
 31
0.0
  0
ENDBLK
  5
67B
330
679
100
AcDbEntity
  8
0
100
AcDbBlockEnd
  0
BLOCK
  5
681
330
680
100
AcDbEntity
  8
0
100
AcDbBlockBegin
  2
KLON35
 70
     0
 71
     0
 10
0.0
 20
0.0
 30
0.0
  3
KLON35
  1

  4
KLON35
  0
LINE
  5
683
330
680
100
AcDbEntity
  8
LC-001-100-D00-0
 62
     7
370
    25
100
AcDbLine
 10
-252.945941
 20
377.74565
 30
0.0
 11
-251.445941
 21
379.24565
 31
0.0
  0
LINE
  5
684
330
680
100
AcDbEntity
  8
LC-001-100-D00-0
 62
     7
370
    25
100
AcDbLine
 10
-253.481757
 20
399.660474
 30
0.0
 11
-252.394231
 21
400.748
 31
0.0
  0
LINE
  5
685
330
680
100
AcDbEntity
  8
LC-001-100-D00-0
 62
     7
370
    25
100
AcDbLine
 10
-278.195941
 20
397.39693
 30
0.0
 11
-276.384263
 21
399.208609
 31
0.0
  0
LINE
  5
686
330
680
100
AcDbEntity
  8
LC-001-100-D00-0
 62
     7
370
    25
100
AcDbLine
 10
-274.243934
 20
401.348938
 30
0.0
 11
-272.432256
 21
403.160616
 31
0.0
  0
ENDBLK
  5
682
330
680
100
AcDbEntity
  8
0
100
AcDbBlockEnd
  0
BLOCK
  5
689
330
688
100
AcDbEntity
  8
0
100
AcDbBlockBegin
  2
KLON36
 70
     0
 71
     0
 10
0.0
 20
0.0
 30
0.0
  3
KLON36
  1

  4
KLON36
  0
LINE
  5
68B
330
688
100
AcDbEntity
  8
LC-001-100-D00-0
 62
     7
370
    25
100
AcDbLine
 10
-239.695941
 20
368.54501
 30
0.0
 11
-238.195941
 21
370.04501
 31
0.0
  0
LINE
  5
68C
330
688
100
AcDbEntity
  8
LC-001-100-D00-0
 62
     7
370
    25
100
AcDbLine
 10
-239.695941
 20
390.99565
 30
0.0
 11
-237.530975
 21
393.160616
 31
0.0
  0
ENDBLK
  5
68A
330
688
100
AcDbEntity
  8
0
100
AcDbBlockEnd
  0
BLOCK
  5
68F
330
68E
100
AcDbEntity
  8
0
100
AcDbBlockBegin
  2
KLON37
 70
     0
 71
     0
 10
0.0
 20
0.0
 30
0.0
  3
KLON37
  1

  4
KLON37
  0
LINE
  5
691
330
68E
100
AcDbEntity
  8
LC-001-100-D00-0
 62
     7
370
    25
100
AcDbLine
 10
-232.195941
 20
398.49565
 30
0.0
 11
-230.695941
 21
399.99565
 31
0.0
  0
LINE
  5
692
330
68E
100
AcDbEntity
  8
LC-001-100-D00-0
 62
     7
370
    25
100
AcDbLine
 10
-213.695941
 20
439.44629
 30
0.0
 11
-212.195941
 21
440.94629
 31
0.0
  0
LINE
  5
693
330
68E
100
AcDbEntity
  8
LC-001-100-D00-0
 62
     7
370
    25
100
AcDbLine
 10
-213.695941
 20
461.89693
 30
0.0
 11
-212.195941
 21
463.39693
 31
0.0
  0
ENDBLK
  5
690
330
68E
100
AcDbEntity
  8
0
100
AcDbBlockEnd
  0
BLOCK
  5
696
330
695
100
AcDbEntity
  8
0
100
AcDbBlockBegin
  2
KLON38
 70
     0
 71
     0
 10
0.0
 20
0.0
 30
0.0
  3
KLON38
  1

  4
KLON38
  0
LINE
  5
698
330
695
100
AcDbEntity
  8
LC-001-100-D00-0
 62
     7
370
    25
100
AcDbLine
 10
-284.495941
 20
391.09693
 30
0.0
 11
-282.995941
 21
392.59693
 31
0.0
  0
LINE
  5
699
330
695
100
AcDbEntity
  8
LC-001-100-D00-0
 62
     7
370
    25
100
AcDbLine
 10
-285.695941
 20
412.347571
 30
0.0
 11
-284.195941
 21
413.847571
 31
0.0
  0
LINE
  5
69A
330
695
100
AcDbEntity
  8
LC-001-100-D00-0
 62
     7
370
    25
100
AcDbLine
 10
-301.333536
 20
419.160616
 30
0.0
 11
-299.833536
 21
420.660616
 31
0.0
  0
LINE
  5
69B
330
695
100
AcDbEntity
  8
LC-001-100-D00-0
 62
     7
370
    25
100
AcDbLine
 10
-323.784177
 20
419.160616
 30
0.0
 11
-322.284177
 21
420.660616
 31
0.0
  0
ENDBLK
  5
697
330
695
100
AcDbEntity
  8
0
100
AcDbBlockEnd
  0
BLOCK
  5
6A9
330
69E
100
AcDbEntity
  8
0
100
AcDbBlockBegin
  2
*D56
 70
     1
 71
     0
 10
0.0
 20
0.0
 30
0.0
  3
*D56
  1

  0
LINE
  5
69F
330
69E
100
AcDbEntity
  8
LC-001-100-D00-0
 62
     2
370
    -2
100
AcDbLine
 10
-238.195941
 20
362.660616
 30
0.0
 11
-170.793345
 21
362.660616
 31
0.0
  0
LINE
  5
6A0
330
69E
100
AcDbEntity
  8
LC-001-100-D00-0
 62
     2
370
    -2
100
AcDbLine
 10
-253.703084
 20
386.660616
 30
0.0
 11
-170.793345
 21
386.660616
 31
0.0
  0
LINE
  5
6A1
330
69E
100
AcDbEntity
  8
LC-001-100-D00-0
 62
     2
370
    -2
100
AcDbLine
 10
-179.793345
 20
436.660616
 30
0.0
 11
-179.793345
 21
486.660616
 31
0.0
  0
LINE
  5
6A2
330
69E
100
AcDbEntity
  8
LC-001-100-D00-0
 62
     2
370
    -2
100
AcDbLine
 10
-179.793345
 20
312.660616
 30
0.0
 11
-179.793345
 21
284.786372
 31
0.0
  0
SOLID
  5
6A3
330
69E
100
AcDbEntity
  8
LC-001-100-D00-0
 62
     2
100
AcDbTrace
 10
-171.460012
 20
312.660616
 30
0.0
 11
-188.126678
 21
312.660616
 31
0.0
 12
-179.793345
 22
362.660616
 32
0.0
 13
-179.793345
 23
362.660616
 33
0.0
  0
SOLID
  5
6A4
330
69E
100
AcDbEntity
  8
LC-001-100-D00-0
 62
     2
100
AcDbTrace
 10
-188.126678
 20
436.660616
 30
0.0
 11
-171.460012
 21
436.660616
 31
0.0
 12
-179.793345
 22
386.660616
 32
0.0
 13
-179.793345
 23
386.660616
 33
0.0
  0
MTEXT
  5
6A5
330
69E
100
AcDbEntity
  8
LC-001-100-D00-0
 62
     2
100
AcDbMText
 10
-234.793345
 20
327.852616
 30
0.0
 40
50.0
 41
0.0
 71
     5
 72
     1
  1
\A1;24
  7
LCTX15-400-0-0pDIN-Schrift
 11
6.123031769111886E-17
 21
1.0
 31
0.0
 73
     1
 44
1.0
  0
POINT
  5
6A6
330
69E
100
AcDbEntity
  8
Defpoints
 62
     0
100
AcDbPoint
 10
-238.195941
 20
362.660616
 30
0.0
  0
POINT
  5
6A7
330
69E
100
AcDbEntity
  8
Defpoints
 62
     0
100
AcDbPoint
 10
-253.703084
 20
386.660616
 30
0.0
  0
POINT
  5
6A8
330
69E
100
AcDbEntity
  8
Defpoints
 62
     0
100
AcDbPoint
 10
-179.793345
 20
386.660616
 30
0.0
  0
ENDBLK
  5
6AA
330
69E
100
AcDbEntity
  8
0
100
AcDbBlockEnd
  0
BLOCK
  5
6B7
330
6AC
100
AcDbEntity
  8
0
100
AcDbBlockBegin
  2
*D57
 70
     1
 71
     0
 10
0.0
 20
0.0
 30
0.0
  3
*D57
  1

  0
LINE
  5
6AD
330
6AC
100
AcDbEntity
  8
LC-001-100-D00-0
 62
     2
370
    -2
100
AcDbLine
 10
-361.195941
 20
402.611456
 30
0.0
 11
-413.669261
 21
402.611456
 31
0.0
  0
LINE
  5
6AE
330
6AC
100
AcDbEntity
  8
LC-001-100-D00-0
 62
     2
370
    -2
100
AcDbLine
 10
-361.195941
 20
352.709776
 30
0.0
 11
-413.669261
 21
352.709776
 31
0.0
  0
LINE
  5
6AF
330
6AC
100
AcDbEntity
  8
LC-001-100-D00-0
 62
     2
370
    -2
100
AcDbLine
 10
-404.669261
 20
302.709776
 30
0.0
 11
-404.669261
 21
252.709776
 31
0.0
  0
LINE
  5
6B0
330
6AC
100
AcDbEntity
  8
LC-001-100-D00-0
 62
     2
370
    -2
100
AcDbLine
 10
-404.669261
 20
452.611456
 30
0.0
 11
-404.669261
 21
541.051239
 31
0.0
  0
SOLID
  5
6B1
330
6AC
100
AcDbEntity
  8
LC-001-100-D00-0
 62
     2
100
AcDbTrace
 10
-413.002595
 20
452.611456
 30
0.0
 11
-396.335928
 21
452.611456
 31
0.0
 12
-404.669261
 22
402.611456
 32
0.0
 13
-404.669261
 23
402.611456
 33
0.0
  0
SOLID
  5
6B2
330
6AC
100
AcDbEntity
  8
LC-001-100-D00-0
 62
     2
100
AcDbTrace
 10
-396.335928
 20
302.709776
 30
0.0
 11
-413.002595
 21
302.709776
 31
0.0
 12
-404.669261
 22
352.709776
 32
0.0
 13
-404.669261
 23
352.709776
 33
0.0
  0
MTEXT
  5
6B3
330
6AC
100
AcDbEntity
  8
LC-001-100-D00-0
 62
     2
100
AcDbMText
 10
-459.669261
 20
456.699886
 30
0.0
 40
50.0
 41
0.0
 71
     5
 72
     1
  1
\A1;DN50
  7
LCTX15-400-0-0pDIN-Schrift
 11
6.123031769111886E-17
 21
1.0
 31
0.0
 73
     1
 44
1.0
  0
POINT
  5
6B4
330
6AC
100
AcDbEntity
  8
Defpoints
 62
     0
100
AcDbPoint
 10
-361.195941
 20
402.611456
 30
0.0
  0
POINT
  5
6B5
330
6AC
100
AcDbEntity
  8
Defpoints
 62
     0
100
AcDbPoint
 10
-361.195941
 20
352.709776
 30
0.0
  0
POINT
  5
6B6
330
6AC
100
AcDbEntity
  8
Defpoints
 62
     0
100
AcDbPoint
 10
-404.669261
 20
352.709776
 30
0.0
  0
ENDBLK
  5
6B8
330
6AC
100
AcDbEntity
  8
0
100
AcDbBlockEnd
  0
BLOCK
  5
6C6
330
6BB
100
AcDbEntity
  8
0
100
AcDbBlockBegin
  2
*D58
 70
     1
 71
     0
 10
0.0
 20
0.0
 30
0.0
  3
*D58
  1

  0
LINE
  5
6BC
330
6BB
100
AcDbEntity
  8
LC-001-100-D00-0
 62
     2
370
    -2
100
AcDbLine
 10
-335.695941
 20
420.660616
 30
0.0
 11
-517.494969
 21
420.660616
 31
0.0
  0
LINE
  5
6BD
330
6BB
100
AcDbEntity
  8
LC-001-100-D00-0
 62
     2
370
    -2
100
AcDbLine
 10
-332.195941
 20
291.160616
 30
0.0
 11
-517.494969
 21
291.160616
 31
0.0
  0
LINE
  5
6BE
330
6BB
100
AcDbEntity
  8
LC-001-100-D00-0
 62
     2
370
    -2
100
AcDbLine
 10
-508.494969
 20
370.660616
 30
0.0
 11
-508.494969
 21
341.160616
 31
0.0
  0
LINE
  5
6BF
330
6BB
100
AcDbEntity
  8
LC-001-100-D00-0
 62
     2
370
    -2
100
AcDbLine
 10
-508.494969
 20
420.660616
 30
0.0
 11
-508.494969
 21
597.109274
 31
0.0
  0
SOLID
  5
6C0
330
6BB
100
AcDbEntity
  8
LC-001-100-D00-0
 62
     2
100
AcDbTrace
 10
-500.161636
 20
370.660616
 30
0.0
 11
-516.828303
 21
370.660616
 31
0.0
 12
-508.494969
 22
420.660616
 32
0.0
 13
-508.494969
 23
420.660616
 33
0.0
  0
SOLID
  5
6C1
330
6BB
100
AcDbEntity
  8
LC-001-100-D00-0
 62
     2
100
AcDbTrace
 10
-516.828303
 20
341.160616
 30
0.0
 11
-500.161636
 21
341.160616
 31
0.0
 12
-508.494969
 22
291.160616
 32
0.0
 13
-508.494969
 23
291.160616
 33
0.0
  0
MTEXT
  5
6C2
330
6BB
100
AcDbEntity
  8
LC-001-100-D00-0
 62
     2
100
AcDbMText
 10
-563.494969
 20
444.819886
 30
0.0
 40
50.0
 41
0.0
 71
     5
 72
     1
  1
\A1;68-129,5
  7
LCTX15-400-0-0pDIN-Schrift
 11
6.123031769111886E-17
 21
1.0
 31
0.0
 73
     1
 44
1.0
  0
POINT
  5
6C3
330
6BB
100
AcDbEntity
  8
Defpoints
 62
     0
100
AcDbPoint
 10
-335.695941
 20
420.660616
 30
0.0
  0
POINT
  5
6C4
330
6BB
100
AcDbEntity
  8
Defpoints
 62
     0
100
AcDbPoint
 10
-332.195941
 20
291.160616
 30
0.0
  0
POINT
  5
6C5
330
6BB
100
AcDbEntity
  8
Defpoints
 62
     0
100
AcDbPoint
 10
-508.494969
 20
291.160616
 30
0.0
  0
ENDBLK
  5
6C7
330
6BB
100
AcDbEntity
  8
0
100
AcDbBlockEnd
  0
BLOCK
  5
6D9
330
6CD
100
AcDbEntity
  8
0
100
AcDbBlockBegin
  2
*D59
 70
     1
 71
     0
 10
0.0
 20
0.0
 30
0.0
  3
*D59
  1

  0
LINE
  5
6CE
330
6CD
100
AcDbEntity
  8
LC-002-003-----0
 62
     2
370
    -2
100
AcDbLine
 10
-364.19594
 20
355.716495
 30
0.0
 11
-364.19594
 21
180.399886
 31
0.0
  0
LINE
  5
6CF
330
6CD
100
AcDbEntity
  8
LC-002-003-----0
 62
     2
370
    -2
100
AcDbLine
 10
-258.195941
 20
355.660616
 30
0.0
 11
-258.195941
 21
180.399886
 31
0.0
  0
LINE
  5
6D0
330
6CD
100
AcDbEntity
  8
LC-002-003-----0
 62
     2
370
    -2
100
AcDbLine
 10
-414.19594
 20
189.399886
 30
0.0
 11
-464.19594
 21
189.399886
 31
0.0
  0
LINE
  5
6D1
330
6CD
100
AcDbEntity
  8
LC-002-003-----0
 62
     2
370
    -2
100
AcDbLine
 10
-208.195941
 20
189.399886
 30
0.0
 11
-158.195941
 21
189.399886
 31
0.0
  0
LINE
  5
6D2
330
6CD
100
AcDbEntity
  8
LC-002-003-----0
 62
     2
370
    -2
100
AcDbLine
 10
-364.19594
 20
189.399886
 30
0.0
 11
-258.195941
 21
189.399886
 31
0.0
  0
SOLID
  5
6D3
330
6CD
100
AcDbEntity
  8
LC-002-003-----0
 62
     2
100
AcDbTrace
 10
-414.19594
 20
181.066553
 30
0.0
 11
-414.19594
 21
197.73322
 31
0.0
 12
-364.19594
 22
189.399886
 32
0.0
 13
-364.19594
 23
189.399886
 33
0.0
  0
SOLID
  5
6D4
330
6CD
100
AcDbEntity
  8
LC-002-003-----0
 62
     2
100
AcDbTrace
 10
-208.195941
 20
197.73322
 30
0.0
 11
-208.195941
 21
181.066553
 31
0.0
 12
-258.195941
 22
189.399886
 32
0.0
 13
-258.195941
 23
189.399886
 33
0.0
  0
MTEXT
  5
6D5
330
6CD
100
AcDbEntity
  8
LC-002-003-----0
 62
     2
100
AcDbMText
 10
-348.763111
 20
244.399886
 30
0.0
 40
50.0
 41
0.0
 71
     5
 72
     1
  1
\A1;106
  7
LCTX15-400-0-0pDIN-Schrift
 73
     1
 44
1.0
  0
POINT
  5
6D6
330
6CD
100
AcDbEntity
  8
Defpoints
 62
     0
100
AcDbPoint
 10
-364.19594
 20
355.716495
 30
0.0
  0
POINT
  5
6D7
330
6CD
100
AcDbEntity
  8
Defpoints
 62
     0
100
AcDbPoint
 10
-258.195941
 20
355.660616
 30
0.0
  0
POINT
  5
6D8
330
6CD
100
AcDbEntity
  8
Defpoints
 62
     0
100
AcDbPoint
 10
-258.195941
 20
189.399886
 30
0.0
  0
ENDBLK
  5
6DA
330
6CD
100
AcDbEntity
  8
0
100
AcDbBlockEnd
  0
BLOCK
  5
6E6
330
6DC
100
AcDbEntity
  8
0
100
AcDbBlockBegin
  2
*D60
 70
     1
 71
     0
 10
0.0
 20
0.0
 30
0.0
  3
*D60
  1

  0
LINE
  5
6DD
330
6DC
100
AcDbEntity
  8
LC-002-003-----0
 62
     2
370
    -2
100
AcDbLine
 10
-364.19594
 20
355.716495
 30
0.0
 11
-364.19594
 21
61.599886
 31
0.0
  0
LINE
  5
6DE
330
6DC
100
AcDbEntity
  8
LC-002-003-----0
 62
     2
370
    -2
100
AcDbLine
 10
-218.195942
 20
367.594368
 30
0.0
 11
-218.195942
 21
61.599886
 31
0.0
  0
LINE
  5
6DF
330
6DC
100
AcDbEntity
  8
LC-002-003-----0
 62
     2
370
    -2
100
AcDbLine
 10
-314.19594
 20
70.599886
 30
0.0
 11
-268.195942
 21
70.599886
 31
0.0
  0
SOLID
  5
6E0
330
6DC
100
AcDbEntity
  8
LC-002-003-----0
 62
     2
100
AcDbTrace
 10
-314.19594
 20
78.93322
 30
0.0
 11
-314.19594
 21
62.266553
 31
0.0
 12
-364.19594
 22
70.599886
 32
0.0
 13
-364.19594
 23
70.599886
 33
0.0
  0
SOLID
  5
6E1
330
6DC
100
AcDbEntity
  8
LC-002-003-----0
 62
     2
100
AcDbTrace
 10
-268.195942
 20
62.266553
 30
0.0
 11
-268.195942
 21
78.93322
 31
0.0
 12
-218.195942
 22
70.599886
 32
0.0
 13
-218.195942
 23
70.599886
 33
0.0
  0
MTEXT
  5
6E2
330
6DC
100
AcDbEntity
  8
LC-002-003-----0
 62
     2
100
AcDbMText
 10
-298.181356
 20
125.599886
 30
0.0
 40
50.0
 41
0.0
 71
     5
 72
     1
  1
\A1;146
  7
LCTX15-400-0-0pDIN-Schrift
 73
     1
 44
1.0
  0
POINT
  5
6E3
330
6DC
100
AcDbEntity
  8
Defpoints
 62
     0
100
AcDbPoint
 10
-364.19594
 20
355.716495
 30
0.0
  0
POINT
  5
6E4
330
6DC
100
AcDbEntity
  8
Defpoints
 62
     0
100
AcDbPoint
 10
-218.195942
 20
367.594368
 30
0.0
  0
POINT
  5
6E5
330
6DC
100
AcDbEntity
  8
Defpoints
 62
     0
100
AcDbPoint
 10
-218.195942
 20
70.599886
 30
0.0
  0
ENDBLK
  5
6E7
330
6DC
100
AcDbEntity
  8
0
100
AcDbBlockEnd
  0
BLOCK
  5
6E9
330
6E8
100
AcDbEntity
  8
0
100
AcDbBlockBegin
  2
KLON39
 70
     0
 71
     0
 10
0.0
 20
0.0
 30
0.0
  3
KLON39
  1

  4
KLON39
  0
LINE
  5
6EB
330
6E8
100
AcDbEntity
  8
LC-001-100-D00-0
 62
     7
370
    15
100
AcDbLine
 10
427.995185
 20
-3.281887
 30
0.0
 11
430.98004
 21
-3.462437
 31
0.0
  0
LINE
  5
6EC
330
6E8
100
AcDbEntity
  8
LC-001-100-D00-0
 62
     7
370
    15
100
AcDbLine
 10
430.98004
 20
-3.462437
 30
0.0
 11
433.68291
 21
-3.943933
 31
0.0
  0
ENDBLK
  5
6EA
330
6E8
100
AcDbEntity
  8
0
100
AcDbBlockEnd
  0
BLOCK
  5
6F2
330
6F1
100
AcDbEntity
  8
0
100
AcDbBlockBegin
  2
KLON40
 70
     0
 71
     0
 10
0.0
 20
0.0
 30
0.0
  3
KLON40
  1

  4
KLON40
  0
LINE
  5
6F4
330
6F1
100
AcDbEntity
  8
LC-001-100-D00-0
 62
     7
370
    15
100
AcDbLine
 10
366.995184
 20
-52.808001
 30
0.0
 11
364.010329
 21
-52.627451
 31
0.0
  0
LINE
  5
6F5
330
6F1
100
AcDbEntity
  8
LC-001-100-D00-0
 62
     7
370
    15
100
AcDbLine
 10
364.010329
 20
-52.627451
 30
0.0
 11
362.446337
 21
-52.386615
 31
0.0
  0
ENDBLK
  5
6F3
330
6F1
100
AcDbEntity
  8
0
100
AcDbBlockEnd
  0
BLOCK
  5
6FB
330
6FA
100
AcDbEntity
  8
0
100
AcDbBlockBegin
  2
POLY10
 70
     0
 71
     0
 10
0.0
 20
0.0
 30
0.0
  3
POLY10
  1

  4
POLY10
  0
LINE
  5
6FD
330
6FA
100
AcDbEntity
  8
LC-001-100-D00-0
 62
     7
370
    50
100
AcDbLine
 10
427.995185
 20
-52.844945
 30
0.0
 11
427.995185
 21
-52.844945
 31
0.0
  0
LINE
  5
6FE
330
6FA
100
AcDbEntity
  8
LC-001-100-D00-0
 62
     7
370
    50
100
AcDbLine
 10
427.995185
 20
-52.844945
 30
0.0
 11
429.030909
 21
-52.80738
 31
0.0
  0
LINE
  5
6FF
330
6FA
100
AcDbEntity
  8
LC-001-100-D00-0
 62
     7
370
    50
100
AcDbLine
 10
429.030909
 20
-52.80738
 30
0.0
 11
429.030909
 21
-52.80738
 31
0.0
  0
LINE
  5
700
330
6FA
100
AcDbEntity
  8
LC-001-100-D00-0
 62
     7
370
    50
100
AcDbLine
 10
429.030909
 20
-52.80738
 30
0.0
 11
431.132589
 21
-52.731152
 31
0.0
  0
LINE
  5
701
330
6FA
100
AcDbEntity
  8
LC-001-100-D00-0
 62
     7
370
    50
100
AcDbLine
 10
431.132589
 20
-52.731152
 30
0.0
 11
431.132589
 21
-52.731152
 31
0.0
  0
LINE
  5
702
330
6FA
100
AcDbEntity
  8
LC-001-100-D00-0
 62
     7
370
    50
100
AcDbLine
 10
431.132589
 20
-52.731152
 30
0.0
 11
434.28246
 21
-52.098034
 31
0.0
  0
LINE
  5
703
330
6FA
100
AcDbEntity
  8
LC-001-100-D00-0
 62
     7
370
    50
100
AcDbLine
 10
434.28246
 20
-52.098034
 30
0.0
 11
434.28246
 21
-52.098034
 31
0.0
  0
LINE
  5
704
330
6FA
100
AcDbEntity
  8
LC-001-100-D00-0
 62
     7
370
    50
100
AcDbLine
 10
434.28246
 20
-52.098034
 30
0.0
 11
437.48608
 21
-51.071863
 31
0.0
  0
LINE
  5
705
330
6FA
100
AcDbEntity
  8
LC-001-100-D00-0
 62
     7
370
    50
100
AcDbLine
 10
437.48608
 20
-51.071863
 30
0.0
 11
437.48608
 21
-51.071863
 31
0.0
  0
LINE
  5
706
330
6FA
100
AcDbEntity
  8
LC-001-100-D00-0
 62
     7
370
    50
100
AcDbLine
 10
437.48608
 20
-51.071863
 30
0.0
 11
439.564393
 21
-49.957287
 31
0.0
  0
LINE
  5
707
330
6FA
100
AcDbEntity
  8
LC-001-100-D00-0
 62
     7
370
    50
100
AcDbLine
 10
439.564393
 20
-49.957287
 30
0.0
 11
439.564393
 21
-49.957287
 31
0.0
  0
LINE
  5
708
330
6FA
100
AcDbEntity
  8
LC-001-100-D00-0
 62
     7
370
    50
100
AcDbLine
 10
439.564393
 20
-49.957287
 30
0.0
 11
440.616733
 21
-49.392929
 31
0.0
  0
ENDBLK
  5
6FC
330
6FA
100
AcDbEntity
  8
0
100
AcDbBlockEnd
  0
BLOCK
  5
70B
330
70A
100
AcDbEntity
  8
0
100
AcDbBlockBegin
  2
POLY11
 70
     0
 71
     0
 10
0.0
 20
0.0
 30
0.0
  3
POLY11
  1

  4
POLY11
  0
LINE
  5
70D
330
70A
100
AcDbEntity
  8
LC-001-100-D00-0
 62
     7
370
    50
100
AcDbLine
 10
366.995184
 20
-52.844945
 30
0.0
 11
366.995184
 21
-52.844945
 31
0.0
  0
LINE
  5
70E
330
70A
100
AcDbEntity
  8
LC-001-100-D00-0
 62
     7
370
    50
100
AcDbLine
 10
366.995184
 20
-52.844945
 30
0.0
 11
365.95946
 21
-52.80738
 31
0.0
  0
LINE
  5
70F
330
70A
100
AcDbEntity
  8
LC-001-100-D00-0
 62
     7
370
    50
100
AcDbLine
 10
365.95946
 20
-52.80738
 30
0.0
 11
365.95946
 21
-52.80738
 31
0.0
  0
LINE
  5
710
330
70A
100
AcDbEntity
  8
LC-001-100-D00-0
 62
     7
370
    50
100
AcDbLine
 10
365.95946
 20
-52.80738
 30
0.0
 11
363.85778
 21
-52.731152
 31
0.0
  0
LINE
  5
711
330
70A
100
AcDbEntity
  8
LC-001-100-D00-0
 62
     7
370
    50
100
AcDbLine
 10
363.85778
 20
-52.731152
 30
0.0
 11
363.85778
 21
-52.731152
 31
0.0
  0
LINE
  5
712
330
70A
100
AcDbEntity
  8
LC-001-100-D00-0
 62
     7
370
    50
100
AcDbLine
 10
363.85778
 20
-52.731152
 30
0.0
 11
360.70791
 21
-52.098034
 31
0.0
  0
LINE
  5
713
330
70A
100
AcDbEntity
  8
LC-001-100-D00-0
 62
     7
370
    50
100
AcDbLine
 10
360.70791
 20
-52.098034
 30
0.0
 11
360.70791
 21
-52.098034
 31
0.0
  0
LINE
  5
714
330
70A
100
AcDbEntity
  8
LC-001-100-D00-0
 62
     7
370
    50
100
AcDbLine
 10
360.70791
 20
-52.098034
 30
0.0
 11
357.504289
 21
-51.071863
 31
0.0
  0
LINE
  5
715
330
70A
100
AcDbEntity
  8
LC-001-100-D00-0
 62
     7
370
    50
100
AcDbLine
 10
357.504289
 20
-51.071863
 30
0.0
 11
357.504289
 21
-51.071863
 31
0.0
  0
LINE
  5
716
330
70A
100
AcDbEntity
  8
LC-001-100-D00-0
 62
     7
370
    50
100
AcDbLine
 10
357.504289
 20
-51.071863
 30
0.0
 11
355.425976
 21
-49.957287
 31
0.0
  0
LINE
  5
717
330
70A
100
AcDbEntity
  8
LC-001-100-D00-0
 62
     7
370
    50
100
AcDbLine
 10
355.425976
 20
-49.957287
 30
0.0
 11
355.425976
 21
-49.957287
 31
0.0
  0
LINE
  5
718
330
70A
100
AcDbEntity
  8
LC-001-100-D00-0
 62
     7
370
    50
100
AcDbLine
 10
355.425976
 20
-49.957287
 30
0.0
 11
354.373636
 21
-49.392929
 31
0.0
  0
ENDBLK
  5
70C
330
70A
100
AcDbEntity
  8
0
100
AcDbBlockEnd
  0
BLOCK
  5
71B
330
71A
100
AcDbEntity
  8
0
100
AcDbBlockBegin
  2
POLY12
 70
     0
 71
     0
 10
0.0
 20
0.0
 30
0.0
  3
POLY12
  1

  4
POLY12
  0
LINE
  5
71D
330
71A
100
AcDbEntity
  8
LC-001-100-D00-0
 62
     7
370
    50
100
AcDbLine
 10
354.373636
 20
-6.69696
 30
0.0
 11
354.373636
 21
-6.69696
 31
0.0
  0
LINE
  5
71E
330
71A
100
AcDbEntity
  8
LC-001-100-D00-0
 62
     7
370
    50
100
AcDbLine
 10
354.373636
 20
-6.69696
 30
0.0
 11
355.285924
 21
-6.201352
 31
0.0
  0
LINE
  5
71F
330
71A
100
AcDbEntity
  8
LC-001-100-D00-0
 62
     7
370
    50
100
AcDbLine
 10
355.285924
 20
-6.201352
 30
0.0
 11
355.285924
 21
-6.201352
 31
0.0
  0
LINE
  5
720
330
71A
100
AcDbEntity
  8
LC-001-100-D00-0
 62
     7
370
    50
100
AcDbLine
 10
355.285924
 20
-6.201352
 30
0.0
 11
357.136777
 21
-5.19586
 31
0.0
  0
LINE
  5
721
330
71A
100
AcDbEntity
  8
LC-001-100-D00-0
 62
     7
370
    50
100
AcDbLine
 10
357.136777
 20
-5.19586
 30
0.0
 11
357.136777
 21
-5.19586
 31
0.0
  0
LINE
  5
722
330
71A
100
AcDbEntity
  8
LC-001-100-D00-0
 62
     7
370
    50
100
AcDbLine
 10
357.136777
 20
-5.19586
 30
0.0
 11
360.173875
 21
-4.137845
 31
0.0
  0
LINE
  5
723
330
71A
100
AcDbEntity
  8
LC-001-100-D00-0
 62
     7
370
    50
100
AcDbLine
 10
360.173875
 20
-4.137845
 30
0.0
 11
360.173875
 21
-4.137845
 31
0.0
  0
LINE
  5
724
330
71A
100
AcDbEntity
  8
LC-001-100-D00-0
 62
     7
370
    50
100
AcDbLine
 10
360.173875
 20
-4.137845
 30
0.0
 11
363.450413
 21
-3.392725
 31
0.0
  0
LINE
  5
725
330
71A
100
AcDbEntity
  8
LC-001-100-D00-0
 62
     7
370
    50
100
AcDbLine
 10
363.450413
 20
-3.392725
 30
0.0
 11
363.450413
 21
-3.392725
 31
0.0
  0
LINE
  5
726
330
71A
100
AcDbEntity
  8
LC-001-100-D00-0
 62
     7
370
    50
100
AcDbLine
 10
363.450413
 20
-3.392725
 30
0.0
 11
365.803523
 21
-3.294624
 31
0.0
  0
LINE
  5
727
330
71A
100
AcDbEntity
  8
LC-001-100-D00-0
 62
     7
370
    50
100
AcDbLine
 10
365.803523
 20
-3.294624
 30
0.0
 11
365.803523
 21
-3.294624
 31
0.0
  0
LINE
  5
728
330
71A
100
AcDbEntity
  8
LC-001-100-D00-0
 62
     7
370
    50
100
AcDbLine
 10
365.803523
 20
-3.294624
 30
0.0
 11
366.995184
 21
-3.244944
 31
0.0
  0
ENDBLK
  5
71C
330
71A
100
AcDbEntity
  8
0
100
AcDbBlockEnd
  0
BLOCK
  5
72B
330
72A
100
AcDbEntity
  8
0
100
AcDbBlockBegin
  2
POLY13
 70
     0
 71
     0
 10
0.0
 20
0.0
 30
0.0
  3
POLY13
  1

  4
POLY13
  0
LINE
  5
72D
330
72A
100
AcDbEntity
  8
LC-001-100-D00-0
 62
     7
370
    50
100
AcDbLine
 10
440.616733
 20
-6.69696
 30
0.0
 11
440.616733
 21
-6.69696
 31
0.0
  0
LINE
  5
72E
330
72A
100
AcDbEntity
  8
LC-001-100-D00-0
 62
     7
370
    50
100
AcDbLine
 10
440.616733
 20
-6.69696
 30
0.0
 11
439.704445
 21
-6.201352
 31
0.0
  0
LINE
  5
72F
330
72A
100
AcDbEntity
  8
LC-001-100-D00-0
 62
     7
370
    50
100
AcDbLine
 10
439.704445
 20
-6.201352
 30
0.0
 11
439.704445
 21
-6.201352
 31
0.0
  0
LINE
  5
730
330
72A
100
AcDbEntity
  8
LC-001-100-D00-0
 62
     7
370
    50
100
AcDbLine
 10
439.704445
 20
-6.201352
 30
0.0
 11
437.853592
 21
-5.19586
 31
0.0
  0
LINE
  5
731
330
72A
100
AcDbEntity
  8
LC-001-100-D00-0
 62
     7
370
    50
100
AcDbLine
 10
437.853592
 20
-5.19586
 30
0.0
 11
437.853592
 21
-5.19586
 31
0.0
  0
LINE
  5
732
330
72A
100
AcDbEntity
  8
LC-001-100-D00-0
 62
     7
370
    50
100
AcDbLine
 10
437.853592
 20
-5.19586
 30
0.0
 11
434.816494
 21
-4.137845
 31
0.0
  0
LINE
  5
733
330
72A
100
AcDbEntity
  8
LC-001-100-D00-0
 62
     7
370
    50
100
AcDbLine
 10
434.816494
 20
-4.137845
 30
0.0
 11
434.816494
 21
-4.137845
 31
0.0
  0
LINE
  5
734
330
72A
100
AcDbEntity
  8
LC-001-100-D00-0
 62
     7
370
    50
100
AcDbLine
 10
434.816494
 20
-4.137845
 30
0.0
 11
431.539956
 21
-3.392725
 31
0.0
  0
LINE
  5
735
330
72A
100
AcDbEntity
  8
LC-001-100-D00-0
 62
     7
370
    50
100
AcDbLine
 10
431.539956
 20
-3.392725
 30
0.0
 11
431.539956
 21
-3.392725
 31
0.0
  0
LINE
  5
736
330
72A
100
AcDbEntity
  8
LC-001-100-D00-0
 62
     7
370
    50
100
AcDbLine
 10
431.539956
 20
-3.392725
 30
0.0
 11
429.186846
 21
-3.294624
 31
0.0
  0
LINE
  5
737
330
72A
100
AcDbEntity
  8
LC-001-100-D00-0
 62
     7
370
    50
100
AcDbLine
 10
429.186846
 20
-3.294624
 30
0.0
 11
429.186846
 21
-3.294624
 31
0.0
  0
LINE
  5
738
330
72A
100
AcDbEntity
  8
LC-001-100-D00-0
 62
     7
370
    50
100
AcDbLine
 10
429.186846
 20
-3.294624
 30
0.0
 11
427.995185
 21
-3.244944
 31
0.0
  0
ENDBLK
  5
72C
330
72A
100
AcDbEntity
  8
0
100
AcDbBlockEnd
  0
BLOCK
  5
745
330
744
100
AcDbEntity
  8
0
100
AcDbBlockBegin
  2
POLY14
 70
     0
 71
     0
 10
0.0
 20
0.0
 30
0.0
  3
POLY14
  1

  4
POLY14
  0
LINE
  5
747
330
744
100
AcDbEntity
  8
LC-001-100-D00-0
 62
     7
370
    50
100
AcDbLine
 10
357.445835
 20
-50.584906
 30
0.0
 11
357.445835
 21
-50.584906
 31
0.0
  0
LINE
  5
748
330
744
100
AcDbEntity
  8
LC-001-100-D00-0
 62
     7
370
    50
100
AcDbLine
 10
357.445835
 20
-50.584906
 30
0.0
 11
357.420346
 21
-50.629051
 31
0.0
  0
LINE
  5
749
330
744
100
AcDbEntity
  8
LC-001-100-D00-0
 62
     7
370
    50
100
AcDbLine
 10
357.420346
 20
-50.629051
 30
0.0
 11
357.420346
 21
-50.629051
 31
0.0
  0
LINE
  5
74A
330
744
100
AcDbEntity
  8
LC-001-100-D00-0
 62
     7
370
    50
100
AcDbLine
 10
357.420346
 20
-50.629051
 30
0.0
 11
357.369362
 21
-50.71735
 31
0.0
  0
LINE
  5
74B
330
744
100
AcDbEntity
  8
LC-001-100-D00-0
 62
     7
370
    50
100
AcDbLine
 10
357.369362
 20
-50.71735
 30
0.0
 11
357.369362
 21
-50.71735
 31
0.0
  0
LINE
  5
74C
330
744
100
AcDbEntity
  8
LC-001-100-D00-0
 62
     7
370
    50
100
AcDbLine
 10
357.369362
 20
-50.71735
 30
0.0
 11
357.31479
 21
-50.811883
 31
0.0
  0
LINE
  5
74D
330
744
100
AcDbEntity
  8
LC-001-100-D00-0
 62
     7
370
    50
100
AcDbLine
 10
357.31479
 20
-50.811883
 30
0.0
 11
357.31479
 21
-50.811883
 31
0.0
  0
LINE
  5
74E
330
744
100
AcDbEntity
  8
LC-001-100-D00-0
 62
     7
370
    50
100
AcDbLine
 10
357.31479
 20
-50.811883
 30
0.0
 11
357.287718
 21
-50.858774
 31
0.0
  0
LINE
  5
74F
330
744
100
AcDbEntity
  8
LC-001-100-D00-0
 62
     7
370
    50
100
AcDbLine
 10
357.287718
 20
-50.858774
 30
0.0
 11
357.287718
 21
-50.858774
 31
0.0
  0
LINE
  5
750
330
744
100
AcDbEntity
  8
LC-001-100-D00-0
 62
     7
370
    50
100
AcDbLine
 10
357.287718
 20
-50.858774
 30
0.0
 11
357.28522
 21
-50.863097
 31
0.0
  0
LINE
  5
751
330
744
100
AcDbEntity
  8
LC-001-100-D00-0
 62
     7
370
    50
100
AcDbLine
 10
357.28522
 20
-50.863097
 30
0.0
 11
357.28522
 21
-50.863097
 31
0.0
  0
LINE
  5
752
330
744
100
AcDbEntity
  8
LC-001-100-D00-0
 62
     7
370
    50
100
AcDbLine
 10
357.28522
 20
-50.863097
 30
0.0
 11
357.284321
 21
-50.864653
 31
0.0
  0
ENDBLK
  5
746
330
744
100
AcDbEntity
  8
0
100
AcDbBlockEnd
  0
BLOCK
  5
757
330
756
100
AcDbEntity
  8
0
100
AcDbBlockBegin
  2
POLY15
 70
     0
 71
     0
 10
0.0
 20
0.0
 30
0.0
  3
POLY15
  1

  4
POLY15
  0
LINE
  5
759
330
756
100
AcDbEntity
  8
LC-001-100-D00-0
 62
     7
370
    50
100
AcDbLine
 10
437.706048
 20
-50.864653
 30
0.0
 11
437.706048
 21
-50.864653
 31
0.0
  0
LINE
  5
75A
330
756
100
AcDbEntity
  8
LC-001-100-D00-0
 62
     7
370
    50
100
AcDbLine
 10
437.706048
 20
-50.864653
 30
0.0
 11
437.703298
 21
-50.859891
 31
0.0
  0
LINE
  5
75B
330
756
100
AcDbEntity
  8
LC-001-100-D00-0
 62
     7
370
    50
100
AcDbLine
 10
437.703298
 20
-50.859891
 30
0.0
 11
437.703298
 21
-50.859891
 31
0.0
  0
LINE
  5
75C
330
756
100
AcDbEntity
  8
LC-001-100-D00-0
 62
     7
370
    50
100
AcDbLine
 10
437.703298
 20
-50.859891
 30
0.0
 11
437.697798
 21
-50.850366
 31
0.0
  0
LINE
  5
75D
330
756
100
AcDbEntity
  8
LC-001-100-D00-0
 62
     7
370
    50
100
AcDbLine
 10
437.697798
 20
-50.850366
 30
0.0
 11
437.697798
 21
-50.850366
 31
0.0
  0
LINE
  5
75E
330
756
100
AcDbEntity
  8
LC-001-100-D00-0
 62
     7
370
    50
100
AcDbLine
 10
437.697798
 20
-50.850366
 30
0.0
 11
437.654788
 21
-50.775865
 31
0.0
  0
LINE
  5
75F
330
756
100
AcDbEntity
  8
LC-001-100-D00-0
 62
     7
370
    50
100
AcDbLine
 10
437.654788
 20
-50.775865
 30
0.0
 11
437.654788
 21
-50.775865
 31
0.0
  0
LINE
  5
760
330
756
100
AcDbEntity
  8
LC-001-100-D00-0
 62
     7
370
    50
100
AcDbLine
 10
437.654788
 20
-50.775865
 30
0.0
 11
437.60047
 21
-50.681792
 31
0.0
  0
LINE
  5
761
330
756
100
AcDbEntity
  8
LC-001-100-D00-0
 62
     7
370
    50
100
AcDbLine
 10
437.60047
 20
-50.681792
 30
0.0
 11
437.60047
 21
-50.681792
 31
0.0
  0
LINE
  5
762
330
756
100
AcDbEntity
  8
LC-001-100-D00-0
 62
     7
370
    50
100
AcDbLine
 10
437.60047
 20
-50.681792
 30
0.0
 11
437.55973
 21
-50.611227
 31
0.0
  0
LINE
  5
763
330
756
100
AcDbEntity
  8
LC-001-100-D00-0
 62
     7
370
    50
100
AcDbLine
 10
437.55973
 20
-50.611227
 30
0.0
 11
437.55973
 21
-50.611227
 31
0.0
  0
LINE
  5
764
330
756
100
AcDbEntity
  8
LC-001-100-D00-0
 62
     7
370
    50
100
AcDbLine
 10
437.55973
 20
-50.611227
 30
0.0
 11
437.544534
 21
-50.584906
 31
0.0
  0
ENDBLK
  5
758
330
756
100
AcDbEntity
  8
0
100
AcDbBlockEnd
  0
ENDSEC
  0
SECTION
  2
ENTITIES
  0
LINE
  5
31
330
1F
100
AcDbEntity
  8
LC-001-100-D00-0
 62
     7
370
    50
100
AcDbLine
 10
895.928151
 20
17.955056
 30
0.0
 11
895.928151
 21
16.455056
 31
0.0
  0
LINE
  5
32
330
1F
100
AcDbEntity
  8
LC-001-100-D00-0
 62
     7
370
    50
100
AcDbLine
 10
895.928151
 20
16.455056
 30
0.0
 11
890.928151
 21
16.455056
 31
0.0
  0
LINE
  5
33
330
1F
100
AcDbEntity
  8
LC-001-100-D00-0
 62
     7
370
    50
100
AcDbLine
 10
890.928151
 20
17.955056
 30
0.0
 11
895.928151
 21
17.955056
 31
0.0
  0
LINE
  5
34
330
1F
100
AcDbEntity
  8
LC-001-100-D00-0
 62
     7
370
    50
100
AcDbLine
 10
-99.071849
 20
16.455056
 30
0.0
 11
890.928151
 21
16.455056
 31
0.0
  0
LINE
  5
35
330
1F
100
AcDbEntity
  8
LC-001-100-D00-0
 62
     7
370
    50
100
AcDbLine
 10
-99.071849
 20
17.955056
 30
0.0
 11
890.928151
 21
17.955056
 31
0.0
  0
LINE
  5
36
330
1F
100
AcDbEntity
  8
LC-001-100-D00-0
 62
     7
370
    50
100
AcDbLine
 10
-104.071849
 20
16.455056
 30
0.0
 11
-104.071849
 21
17.955056
 31
0.0
  0
LINE
  5
37
330
1F
100
AcDbEntity
  8
LC-001-100-D00-0
 62
     7
370
    50
100
AcDbLine
 10
-99.071849
 20
16.455056
 30
0.0
 11
-104.071849
 21
16.455056
 31
0.0
  0
LINE
  5
38
330
1F
100
AcDbEntity
  8
LC-001-100-D00-0
 62
     7
370
    50
100
AcDbLine
 10
-104.071849
 20
17.955056
 30
0.0
 11
-99.071849
 21
17.955056
 31
0.0
  0
LINE
  5
39
330
1F
100
AcDbEntity
  8
LC-001-100-D00-0
 62
     7
370
    50
100
AcDbLine
 10
-104.071849
 20
14.955056
 30
0.0
 11
-104.071849
 21
16.455056
 31
0.0
  0
LINE
  5
3A
330
1F
100
AcDbEntity
  8
LC-001-100-D00-0
 62
     7
370
    50
100
AcDbLine
 10
895.928151
 20
16.455056
 30
0.0
 11
895.928151
 21
14.955056
 31
0.0
  0
ARC
  5
3B
330
1F
100
AcDbEntity
  8
LC-001-100-D00-0
 62
     7
370
    50
100
AcDbCircle
 10
843.428151
 20
-51.544944
 30
0.0
 40
2.5
100
AcDbArc
 50
270.0
 51
0.0
  0
ARC
  5
3C
330
1F
100
AcDbEntity
  8
LC-001-100-D00-0
 62
     7
370
    50
100
AcDbCircle
 10
843.428151
 20
-4.544944
 30
0.0
 40
2.5
100
AcDbArc
 50
0.0
 51
90.0
  0
LINE
  5
3D
330
1F
100
AcDbEntity
  8
LC-001-100-D00-0
 62
     7
370
    50
100
AcDbLine
 10
845.928151
 20
-51.544944
 30
0.0
 11
845.928151
 21
-4.544944
 31
0.0
  0
LINE
  5
3E
330
1F
100
AcDbEntity
  8
LC-001-100-D00-0
 62
     7
370
    50
100
AcDbLine
 10
843.428151
 20
-54.044944
 30
0.0
 11
-51.571849
 21
-54.044944
 31
0.0
  0
LINE
  5
3F
330
1F
100
AcDbEntity
  8
LC-001-100-D00-0
 62
     7
370
    50
100
AcDbLine
 10
-51.571849
 20
-2.044944
 30
0.0
 11
843.428151
 21
-2.044944
 31
0.0
  0
ARC
  5
40
330
1F
100
AcDbEntity
  8
LC-001-100-D00-0
 62
     7
370
    50
100
AcDbCircle
 10
-51.571849
 20
-4.544944
 30
0.0
 40
2.5
100
AcDbArc
 50
90.0
 51
180.0
  0
ARC
  5
41
330
1F
100
AcDbEntity
  8
LC-001-100-D00-0
 62
     7
370
    50
100
AcDbCircle
 10
-51.571849
 20
-51.544944
 30
0.0
 40
2.5
100
AcDbArc
 50
180.0
 51
270.0
  0
LINE
  5
42
330
1F
100
AcDbEntity
  8
LC-001-100-D00-0
 62
     7
370
    50
100
AcDbLine
 10
-54.071849
 20
-51.544944
 30
0.0
 11
-54.071849
 21
-4.544944
 31
0.0
  0
LINE
  5
43
330
1F
100
AcDbEntity
  8
LC-001-100-D00-0
 62
     7
370
    50
100
AcDbLine
 10
-99.071849
 20
-105.544944
 30
0.0
 11
890.928151
 21
-105.544944
 31
0.0
  0
ARC
  5
44
330
1F
100
AcDbEntity
  8
LC-001-100-D00-0
 62
     7
370
    50
100
AcDbCircle
 10
-99.071849
 20
-100.544944
 30
0.0
 40
5.0
100
AcDbArc
 50
180.0
 51
270.0
  0
ARC
  5
45
330
1F
100
AcDbEntity
  8
LC-001-100-D00-0
 62
     7
370
    50
100
AcDbCircle
 10
890.928151
 20
-100.544944
 30
0.0
 40
5.0
100
AcDbArc
 50
270.0
 51
0.0
  0
LINE
  5
46
330
1F
100
AcDbEntity
  8
LC-001-100-D00-0
 62
     7
370
    50
100
AcDbLine
 10
-104.071849
 20
14.955056
 30
0.0
 11
-104.071849
 21
-100.544944
 31
0.0
  0
LINE
  5
47
330
1F
100
AcDbEntity
  8
LC-001-100-D00-0
 62
     7
370
    50
100
AcDbLine
 10
895.928151
 20
14.955056
 30
0.0
 11
895.928151
 21
-100.544944
 31
0.0
  0
CIRCLE
  5
48
330
1F
100
AcDbEntity
  8
LC-001-100-D00-0
 62
     7
370
    50
100
AcDbCircle
 10
815.928151
 20
-28.044944
 30
0.0
 40
2.999999999999886
  0
CIRCLE
  5
49
330
1F
100
AcDbEntity
  8
LC-001-100-D00-0
 62
     7
370
    50
100
AcDbCircle
 10
655.928151
 20
-28.044944
 30
0.0
 40
2.999999999999886
  0
CIRCLE
  5
4A
330
1F
100
AcDbEntity
  8
LC-001-100-D00-0
 62
     7
370
    50
100
AcDbCircle
 10
495.928151
 20
-28.044944
 30
0.0
 40
3.000000000000227
  0
CIRCLE
  5
4B
330
1F
100
AcDbEntity
  8
LC-001-100-D00-0
 62
     7
370
    50
100
AcDbCircle
 10
295.928151
 20
-28.044944
 30
0.0
 40
3.000000000000227
  0
CIRCLE
  5
4C
330
1F
100
AcDbEntity
  8
LC-001-100-D00-0
 62
     7
370
    50
100
AcDbCircle
 10
135.928151
 20
-28.044944
 30
0.0
 40
2.999999999999886
  0
CIRCLE
  5
4D
330
1F
100
AcDbEntity
  8
LC-001-100-D00-0
 62
     7
370
    50
100
AcDbCircle
 10
-24.071849
 20
-28.044944
 30
0.0
 40
3.000000000000227
  0
LINE
  5
4E
330
1F
100
AcDbEntity
  8
LC-001-100-D00-0
 62
     7
370
    50
100
AcDbLine
 10
837.901957
 20
-40.367613
 30
0.0
 11
837.901957
 21
-51.544944
 31
0.0
  0
ARC
  5
4F
330
1F
100
AcDbEntity
  8
LC-001-100-D00-0
 62
     7
370
    50
100
AcDbCircle
 10
1601.088209
 20
-159.659124
 30
0.0
 40
772.4530536073216
100
AcDbArc
 50
171.103568
 51
171.116141
  0
INSERT
  5
57
330
1F
100
AcDbEntity
  8
LC-001-100-D00-0
 62
     7
370
    50
100
AcDbBlockReference
  2
KLON1
 10
0.0
 20
0.0
 30
0.0
  0
LINE
  5
58
330
1F
100
AcDbEntity
  8
LC-001-100-D00-0
 62
     7
370
    50
100
AcDbLine
 10
837.901957
 20
-4.559584
 30
0.0
 11
837.901957
 21
-15.722275
 31
0.0
  0
INSERT
  5
5E
330
1F
100
AcDbEntity
  8
LC-001-100-D00-0
 62
     7
370
    50
100
AcDbBlockReference
  2
KLON2
 10
0.0
 20
0.0
 30
0.0
  0
INSERT
  5
64
330
1F
100
AcDbEntity
  8
LC-001-100-D00-0
 62
     7
370
    50
100
AcDbBlockReference
  2
KLON3
 10
0.0
 20
0.0
 30
0.0
  0
INSERT
  5
6A
330
1F
100
AcDbEntity
  8
LC-001-100-D00-0
 62
     7
370
    50
100
AcDbBlockReference
  2
KLON4
 10
0.0
 20
0.0
 30
0.0
  0
LINE
  5
6B
330
1F
100
AcDbEntity
  8
LC-001-100-D00-0
 62
     7
370
    50
100
AcDbLine
 10
-46.045654
 20
-4.559584
 30
0.0
 11
-46.045654
 21
-15.722275
 31
0.0
  0
INSERT
  5
73
330
1F
100
AcDbEntity
  8
LC-001-100-D00-0
 62
     7
370
    50
100
AcDbBlockReference
  2
KLON5
 10
0.0
 20
0.0
 30
0.0
  0
ARC
  5
74
330
1F
100
AcDbEntity
  8
LC-001-100-D00-0
 62
     7
370
    50
100
AcDbCircle
 10
-809.231872
 20
-159.659118
 30
0.0
 40
772.4530192742235
100
AcDbArc
 50
8.883859
 51
8.896432
  0
LINE
  5
75
330
1F
100
AcDbEntity
  8
LC-001-100-D00-0
 62
     7
370
    50
100
AcDbLine
 10
-46.045654
 20
-40.367613
 30
0.0
 11
-46.045654
 21
-51.544944
 31
0.0
  0
INSERT
  5
7B
330
1F
100
AcDbEntity
  8
LC-001-100-D00-0
 62
     7
370
    50
100
AcDbBlockReference
  2
KLON6
 10
0.0
 20
0.0
 30
0.0
  0
ELLIPSE
  5
7C
330
1F
100
AcDbEntity
  8
LC-001-100-D00-0
 62
     7
370
    50
100
AcDbEllipse
 10
837.855183
 20
-51.544944
 30
0.0
 11
0.0
 21
-2.499999633789036
 31
0.0
210
0.0
220
0.0
230
1.0
 40
0.018242
 41
3.141592653584808
 42
4.712388980377511
  0
ELLIPSE
  5
7D
330
1F
100
AcDbEntity
  8
LC-001-100-D00-0
 62
     7
370
    50
100
AcDbEllipse
 10
700.855183
 20
-51.544944
 30
0.0
 11
0.0
 21
-2.499999755859363
 31
0.0
210
0.0
220
0.0
230
0.9999999999999999
 40
0.018242
 41
3.141592653597272
 42
4.712388980380872
  0
ELLIPSE
  5
7E
330
1F
100
AcDbEntity
  8
LC-001-100-D00-0
 62
     7
370
    50
100
AcDbEllipse
 10
906.400788
 20
-51.544944
 30
0.0
 11
68.49999999999631
 21
0.0
 31
0.0
210
0.0
220
0.0
230
1.0
 40
0.036496
 41
3.14159265359743
 42
3.169858841660704
  0
ELLIPSE
  5
7F
330
1F
100
AcDbEntity
  8
LC-001-100-D00-0
 62
     7
370
    50
100
AcDbEllipse
 10
-45.99888
 20
-51.544944
 30
0.0
 11
0.0
 21
-2.500000000476837
 31
0.0
210
0.0
220
0.0
230
1.0
 40
0.018242
 41
1.570796326802306
 42
3.141592653588858
  0
ELLIPSE
  5
80
330
1F
100
AcDbEntity
  8
LC-001-100-D00-0
 62
     7
370
    50
100
AcDbEllipse
 10
91.00112
 20
-51.544944
 30
0.0
 11
0.0
 21
-2.500000022888183
 31
0.0
210
0.0
220
0.0
230
0.9999999999999999
 40
0.018242
 41
1.570796326798583
 42
3.141592653596026
  0
ELLIPSE
  5
81
330
1F
100
AcDbEntity
  8
LC-001-100-D00-0
 62
     7
370
    50
100
AcDbEllipse
 10
-114.544485
 20
-51.544944
 30
0.0
 11
68.50000000327874
 21
0.0
 31
0.0
210
0.0
220
0.0
230
1.0
 40
0.036496
 41
6.254919119109532
 42
6.283185307179737
  0
ELLIPSE
  5
82
330
1F
100
AcDbEntity
  8
LC-001-100-D00-0
 62
     7
370
    50
100
AcDbEllipse
 10
906.400788
 20
-4.544944
 30
0.0
 11
68.49999999999631
 21
0.0
 31
0.0
210
0.0
220
0.0
230
1.0
 40
0.036496
 41
3.141592653589794
 42
3.147448628039452
  0
ELLIPSE
  5
83
330
1F
100
AcDbEntity
  8
LC-001-100-D00-0
 62
     7
370
    50
100
AcDbEllipse
 10
837.855183
 20
-4.544944
 30
0.0
 11
0.0
 21
-2.499999145507666
 31
0.0
210
0.0
220
0.0
230
1.0
 40
0.018242
 41
4.71238898038469
 42
6.283185334710577
  0
ELLIPSE
  5
84
330
1F
100
AcDbEntity
  8
LC-001-100-D00-0
 62
     7
370
    50
100
AcDbEllipse
 10
-114.544485
 20
-4.544944
 30
0.0
 11
68.49999999918296
 21
0.0
 31
0.0
210
0.0
220
0.0
230
1.0
 40
0.036496
 41
6.277329332730766
 42
6.283185307179631
  0
ELLIPSE
  5
85
330
1F
100
AcDbEntity
  8
LC-001-100-D00-0
 62
     7
370
    50
100
AcDbEllipse
 10
-45.99888
 20
-4.544944
 30
0.0
 11
0.0
 21
-2.499999755859363
 31
0.0
210
0.0
220
0.0
230
0.9999999999999999
 40
0.018242
 41
6.283185279648603
 42
7.853981633974483
  0
ELLIPSE
  5
86
330
1F
100
AcDbEntity
  8
LC-001-100-D00-0
 62
     7
370
    50
100
AcDbEllipse
 10
700.855183
 20
-4.544944
 30
0.0
 11
0.0
 21
-2.499999938964843
 31
0.0
210
0.0
220
0.0
230
1.0
 40
0.018242
 41
4.712388980388372
 42
6.283185319803355
  0
ELLIPSE
  5
87
330
1F
100
AcDbEntity
  8
LC-001-100-D00-0
 62
     7
370
    50
100
AcDbEllipse
 10
91.00112
 20
-4.544944
 30
0.0
 11
0.0
 21
-2.5
 31
0.0
210
0.0
220
0.0
230
1.0
 40
0.018242
 41
6.28318529456174
 42
7.853981633970845
  0
LINE
  5
88
330
1F
100
AcDbEntity
  8
LC-001-100-D00-0
 62
     7
370
    50
100
AcDbLine
 10
700.9008
 20
-51.544944
 30
0.0
 11
700.9008
 21
-48.694428
 31
0.0
  0
INSERT
  5
8E
330
1F
100
AcDbEntity
  8
LC-001-100-D00-0
 62
     7
370
    50
100
AcDbBlockReference
  2
KLON7
 10
0.0
 20
0.0
 30
0.0
  0
INSERT
  5
94
330
1F
100
AcDbEntity
  8
LC-001-100-D00-0
 62
     7
370
    50
100
AcDbBlockReference
  2
KLON8
 10
0.0
 20
0.0
 30
0.0
  0
LINE
  5
95
330
1F
100
AcDbEntity
  8
LC-001-100-D00-0
 62
     7
370
    50
100
AcDbLine
 10
90.955503
 20
-51.544944
 30
0.0
 11
90.955503
 21
-48.694428
 31
0.0
  0
INSERT
  5
9C
330
1F
100
AcDbEntity
  8
LC-001-100-D00-0
 62
     7
370
    50
100
AcDbBlockReference
  2
KLON9
 10
0.0
 20
0.0
 30
0.0
  0
INSERT
  5
A3
330
1F
100
AcDbEntity
  8
LC-001-100-D00-0
 62
     7
370
    50
100
AcDbBlockReference
  2
KLON10
 10
0.0
 20
0.0
 30
0.0
  0
INSERT
  5
A9
330
1F
100
AcDbEntity
  8
LC-001-100-D00-0
 62
     7
370
    50
100
AcDbBlockReference
  2
KLON11
 10
0.0
 20
0.0
 30
0.0
  0
INSERT
  5
B0
330
1F
100
AcDbEntity
  8
LC-001-100-D00-0
 62
     7
370
    50
100
AcDbBlockReference
  2
KLON12
 10
0.0
 20
0.0
 30
0.0
  0
INSERT
  5
B7
330
1F
100
AcDbEntity
  8
LC-001-100-D00-0
 62
     7
370
    50
100
AcDbBlockReference
  2
KLON13
 10
0.0
 20
0.0
 30
0.0
  0
INSERT
  5
BD
330
1F
100
AcDbEntity
  8
LC-001-100-D00-0
 62
     7
370
    50
100
AcDbBlockReference
  2
KLON14
 10
0.0
 20
0.0
 30
0.0
  0
LINE
  5
BE
330
1F
100
AcDbEntity
  8
LC-001-100-D00-0
 62
     7
370
    50
100
AcDbLine
 10
700.9008
 20
-7.395461
 30
0.0
 11
700.9008
 21
-4.544945
 31
0.0
  0
LINE
  5
BF
330
1F
100
AcDbEntity
  8
LC-001-100-D00-0
 62
     7
370
    50
100
AcDbLine
 10
90.955503
 20
-7.395461
 30
0.0
 11
90.955503
 21
-4.544945
 31
0.0
  0
LINE
  5
C0
330
1F
100
AcDbEntity
  8
LC-001-100-D00-0
 62
     7
370
    50
100
AcDbLine
 10
700.915075
 20
-47.900622
 30
0.0
 11
700.915075
 21
-33.905895
 31
0.0
  0
ELLIPSE
  5
C1
330
1F
100
AcDbEntity
  8
LC-001-100-D00-0
 62
     7
370
    15
100
AcDbEllipse
 10
185.565665
 20
173.126252
 30
0.0
 11
28.64933027441062
 21
1.713494946258188
 31
0.0
210
0.0
220
0.0
230
1.0
 40
0.016531
 41
6.280994665938902
 42
6.282196627516501
  0
ELLIPSE
  5
C2
330
1F
100
AcDbEntity
  8
LC-001-100-D00-0
 62
     7
370
    15
100
AcDbEllipse
 10
185.565665
 20
184.494575
 30
0.0
 11
28.64933025562669
 21
-1.713494945134736
 31
0.0
210
0.0
220
0.0
230
1.0
 40
0.016531
 41
0.0009886796705905
 42
0.0021906412480008
  0
LINE
  5
C3
330
1F
100
AcDbEntity
  8
LC-001-100-D00-0
 62
     7
370
    50
100
AcDbLine
 10
700.915075
 20
-22.183994
 30
0.0
 11
700.915075
 21
-8.189266
 31
0.0
  0
ELLIPSE
  5
C4
330
1F
100
AcDbEntity
  8
LC-001-100-D00-0
 62
     7
370
    15
100
AcDbEllipse
 10
120.869589
 20
173.126252
 30
0.0
 11
28.64933025118689
 21
-1.713494944869194
 31
0.0
210
0.0
220
0.0
230
1.0
 40
0.016531
 41
3.142581333263061
 42
3.143783294840562
  0
LINE
  5
C5
330
1F
100
AcDbEntity
  8
LC-001-100-D00-0
 62
     7
370
    50
100
AcDbLine
 10
90.941227
 20
-47.900622
 30
0.0
 11
90.941227
 21
-33.905895
 31
0.0
  0
ELLIPSE
  5
C6
330
1F
100
AcDbEntity
  8
LC-001-100-D00-0
 62
     7
370
    15
100
AcDbEllipse
 10
120.869589
 20
184.494575
 30
0.0
 11
28.64933027133689
 21
1.71349494607435
 31
0.0
210
0.0
220
0.0
230
1.0
 40
0.016531
 41
3.139402012349617
 42
3.140603973927016
  0
LINE
  5
C7
330
1F
100
AcDbEntity
  8
LC-001-100-D00-0
 62
     7
370
    50
100
AcDbLine
 10
90.941227
 20
-22.183994
 30
0.0
 11
90.941227
 21
-8.189266
 31
0.0
  0
LINE
  5
C8
330
1F
100
AcDbEntity
  8
LC-001-100-D00-0
 62
     7
370
    50
100
AcDbLine
 10
700.9008
 20
-48.694055
 30
0.0
 11
700.914956
 21
-47.903485
 31
0.0
  0
LINE
  5
C9
330
1F
100
AcDbEntity
  8
LC-001-100-D00-0
 62
     7
370
    50
100
AcDbLine
 10
700.9008
 20
-7.395833
 30
0.0
 11
700.914956
 21
-8.186403
 31
0.0
  0
LINE
  5
CA
330
1F
100
AcDbEntity
  8
LC-001-100-D00-0
 62
     7
370
    50
100
AcDbLine
 10
90.955503
 20
-48.694055
 30
0.0
 11
90.941347
 21
-47.903485
 31
0.0
  0
LINE
  5
CB
330
1F
100
AcDbEntity
  8
LC-001-100-D00-0
 62
     7
370
    50
100
AcDbLine
 10
90.955503
 20
-7.395833
 30
0.0
 11
90.941347
 21
-8.186403
 31
0.0
  0
ARC
  5
CC
330
1F
100
AcDbEntity
  8
LC-001-100-D00-0
 62
     7
370
    50
100
AcDbCircle
 10
509.178151
 20
-14.794944
 30
0.0
 40
5.000000000000227
100
AcDbArc
 50
0.0
 51
90.0
  0
LINE
  5
CD
330
1F
100
AcDbEntity
  8
LC-001-100-D00-0
 62
     7
370
    50
100
AcDbLine
 10
514.178151
 20
-14.794944
 30
0.0
 11
514.178151
 21
-41.294944
 31
0.0
  0
ARC
  5
CE
330
1F
100
AcDbEntity
  8
LC-001-100-D00-0
 62
     7
370
    50
100
AcDbCircle
 10
509.178151
 20
-41.294944
 30
0.0
 40
5.0
100
AcDbArc
 50
270.0
 51
0.0
  0
CIRCLE
  5
CF
330
1F
100
AcDbEntity
  8
LC-001-100-D00-0
 62
     7
370
    50
100
AcDbCircle
 10
495.928151
 20
-28.044944
 30
0.0
 40
3.900000000000205
  0
LINE
  5
D0
330
1F
100
AcDbEntity
  8
LC-001-100-D00-0
 62
     7
370
    50
100
AcDbLine
 10
482.678151
 20
-9.794944
 30
0.0
 11
509.178151
 21
-9.794944
 31
0.0
  0
LINE
  5
D1
330
1F
100
AcDbEntity
  8
LC-001-100-D00-0
 62
     7
370
    50
100
AcDbLine
 10
509.178151
 20
-46.294944
 30
0.0
 11
482.678151
 21
-46.294944
 31
0.0
  0
ARC
  5
D2
330
1F
100
AcDbEntity
  8
LC-001-100-D00-0
 62
     7
370
    50
100
AcDbCircle
 10
482.678151
 20
-41.294944
 30
0.0
 40
5.000000000000341
100
AcDbArc
 50
180.0
 51
270.0
  0
ARC
  5
D3
330
1F
100
AcDbEntity
  8
LC-001-100-D00-0
 62
     7
370
    50
100
AcDbCircle
 10
482.678151
 20
-14.794944
 30
0.0
 40
5.0
100
AcDbArc
 50
90.0
 51
180.0
  0
LINE
  5
D4
330
1F
100
AcDbEntity
  8
LC-001-100-D00-0
 62
     7
370
    50
100
AcDbLine
 10
477.678151
 20
-41.294944
 30
0.0
 11
477.678151
 21
-14.794944
 31
0.0
  0
ARC
  5
D5
330
1F
100
AcDbEntity
  8
LC-001-100-D00-0
 62
     7
370
    50
100
AcDbCircle
 10
-10.821849
 20
-14.794944
 30
0.0
 40
5.0
100
AcDbArc
 50
0.0
 51
90.0
  0
LINE
  5
D6
330
1F
100
AcDbEntity
  8
LC-001-100-D00-0
 62
     7
370
    50
100
AcDbLine
 10
-5.821849
 20
-14.794944
 30
0.0
 11
-5.821849
 21
-41.294944
 31
0.0
  0
ARC
  5
D7
330
1F
100
AcDbEntity
  8
LC-001-100-D00-0
 62
     7
370
    50
100
AcDbCircle
 10
-10.821849
 20
-41.294944
 30
0.0
 40
5.0
100
AcDbArc
 50
270.0
 51
0.0
  0
CIRCLE
  5
D8
330
1F
100
AcDbEntity
  8
LC-001-100-D00-0
 62
     7
370
    50
100
AcDbCircle
 10
-24.071849
 20
-28.044944
 30
0.0
 40
3.900000000000205
  0
LINE
  5
D9
330
1F
100
AcDbEntity
  8
LC-001-100-D00-0
 62
     7
370
    50
100
AcDbLine
 10
-37.321849
 20
-9.794944
 30
0.0
 11
-10.821849
 21
-9.794944
 31
0.0
  0
LINE
  5
DA
330
1F
100
AcDbEntity
  8
LC-001-100-D00-0
 62
     7
370
    50
100
AcDbLine
 10
-10.821849
 20
-46.294944
 30
0.0
 11
-37.321849
 21
-46.294944
 31
0.0
  0
ARC
  5
DB
330
1F
100
AcDbEntity
  8
LC-001-100-D00-0
 62
     7
370
    50
100
AcDbCircle
 10
-37.321849
 20
-14.794944
 30
0.0
 40
5.0
100
AcDbArc
 50
90.0
 51
180.0
  0
ARC
  5
DC
330
1F
100
AcDbEntity
  8
LC-001-100-D00-0
 62
     7
370
    50
100
AcDbCircle
 10
-37.321849
 20
-41.294944
 30
0.0
 40
5.0
100
AcDbArc
 50
180.0
 51
270.0
  0
LINE
  5
DD
330
1F
100
AcDbEntity
  8
LC-001-100-D00-0
 62
     7
370
    50
100
AcDbLine
 10
-42.321849
 20
-41.294944
 30
0.0
 11
-42.321849
 21
-14.794944
 31
0.0
  0
LINE
  5
DE
330
1F
100
AcDbEntity
  8
LC-001-100-D00-0
 62
     7
370
    50
100
AcDbLine
 10
674.178151
 20
-14.794944
 30
0.0
 11
674.178151
 21
-41.294944
 31
0.0
  0
ARC
  5
DF
330
1F
100
AcDbEntity
  8
LC-001-100-D00-0
 62
     7
370
    50
100
AcDbCircle
 10
669.178151
 20
-14.794944
 30
0.0
 40
5.000000000000227
100
AcDbArc
 50
0.0
 51
90.0
  0
ARC
  5
E0
330
1F
100
AcDbEntity
  8
LC-001-100-D00-0
 62
     7
370
    50
100
AcDbCircle
 10
669.178151
 20
-41.294944
 30
0.0
 40
5.0
100
AcDbArc
 50
270.0
 51
0.0
  0
CIRCLE
  5
E1
330
1F
100
AcDbEntity
  8
LC-001-100-D00-0
 62
     7
370
    50
100
AcDbCircle
 10
655.928151
 20
-28.044944
 30
0.0
 40
3.900000000000205
  0
LINE
  5
E2
330
1F
100
AcDbEntity
  8
LC-001-100-D00-0
 62
     7
370
    50
100
AcDbLine
 10
669.178151
 20
-46.294944
 30
0.0
 11
642.678151
 21
-46.294944
 31
0.0
  0
LINE
  5
E3
330
1F
100
AcDbEntity
  8
LC-001-100-D00-0
 62
     7
370
    50
100
AcDbLine
 10
642.678151
 20
-9.794944
 30
0.0
 11
669.178151
 21
-9.794944
 31
0.0
  0
ARC
  5
E4
330
1F
100
AcDbEntity
  8
LC-001-100-D00-0
 62
     7
370
    50
100
AcDbCircle
 10
642.678151
 20
-41.294944
 30
0.0
 40
5.0
100
AcDbArc
 50
180.0
 51
270.0
  0
ARC
  5
E5
330
1F
100
AcDbEntity
  8
LC-001-100-D00-0
 62
     7
370
    50
100
AcDbCircle
 10
642.678151
 20
-14.794944
 30
0.0
 40
5.0
100
AcDbArc
 50
90.0
 51
180.0
  0
LINE
  5
E6
330
1F
100
AcDbEntity
  8
LC-001-100-D00-0
 62
     7
370
    50
100
AcDbLine
 10
637.678151
 20
-41.294944
 30
0.0
 11
637.678151
 21
-14.794944
 31
0.0
  0
ARC
  5
E7
330
1F
100
AcDbEntity
  8
LC-001-100-D00-0
 62
     7
370
    50
100
AcDbCircle
 10
149.178151
 20
-41.294944
 30
0.0
 40
5.0
100
AcDbArc
 50
270.0
 51
0.0
  0
ARC
  5
E8
330
1F
100
AcDbEntity
  8
LC-001-100-D00-0
 62
     7
370
    50
100
AcDbCircle
 10
149.178151
 20
-14.794944
 30
0.0
 40
5.000000000000227
100
AcDbArc
 50
0.0
 51
90.0
  0
LINE
  5
E9
330
1F
100
AcDbEntity
  8
LC-001-100-D00-0
 62
     7
370
    50
100
AcDbLine
 10
154.178151
 20
-14.794944
 30
0.0
 11
154.178151
 21
-41.294944
 31
0.0
  0
CIRCLE
  5
EA
330
1F
100
AcDbEntity
  8
LC-001-100-D00-0
 62
     7
370
    50
100
AcDbCircle
 10
135.928151
 20
-28.044944
 30
0.0
 40
3.900000000000205
  0
LINE
  5
EB
330
1F
100
AcDbEntity
  8
LC-001-100-D00-0
 62
     7
370
    50
100
AcDbLine
 10
149.178151
 20
-46.294944
 30
0.0
 11
122.678151
 21
-46.294944
 31
0.0
  0
LINE
  5
EC
330
1F
100
AcDbEntity
  8
LC-001-100-D00-0
 62
     7
370
    50
100
AcDbLine
 10
122.678151
 20
-9.794944
 30
0.0
 11
149.178151
 21
-9.794944
 31
0.0
  0
ARC
  5
ED
330
1F
100
AcDbEntity
  8
LC-001-100-D00-0
 62
     7
370
    50
100
AcDbCircle
 10
122.678151
 20
-41.294944
 30
0.0
 40
5.000000000000284
100
AcDbArc
 50
180.0
 51
270.0
  0
ARC
  5
EE
330
1F
100
AcDbEntity
  8
LC-001-100-D00-0
 62
     7
370
    50
100
AcDbCircle
 10
122.678151
 20
-14.794944
 30
0.0
 40
5.0
100
AcDbArc
 50
90.0
 51
180.0
  0
LINE
  5
EF
330
1F
100
AcDbEntity
  8
LC-001-100-D00-0
 62
     7
370
    50
100
AcDbLine
 10
117.678151
 20
-41.294944
 30
0.0
 11
117.678151
 21
-14.794944
 31
0.0
  0
ARC
  5
F0
330
1F
100
AcDbEntity
  8
LC-001-100-D00-0
 62
     7
370
    50
100
AcDbCircle
 10
309.178151
 20
-14.794944
 30
0.0
 40
5.000000000000227
100
AcDbArc
 50
0.0
 51
90.0
  0
ARC
  5
F1
330
1F
100
AcDbEntity
  8
LC-001-100-D00-0
 62
     7
370
    50
100
AcDbCircle
 10
309.178151
 20
-41.294944
 30
0.0
 40
5.0
100
AcDbArc
 50
270.0
 51
0.0
  0
LINE
  5
F2
330
1F
100
AcDbEntity
  8
LC-001-100-D00-0
 62
     7
370
    50
100
AcDbLine
 10
314.178151
 20
-14.794944
 30
0.0
 11
314.178151
 21
-41.294944
 31
0.0
  0
CIRCLE
  5
F3
330
1F
100
AcDbEntity
  8
LC-001-100-D00-0
 62
     7
370
    50
100
AcDbCircle
 10
295.928151
 20
-28.044944
 30
0.0
 40
3.900000000000205
  0
LINE
  5
F4
330
1F
100
AcDbEntity
  8
LC-001-100-D00-0
 62
     7
370
    50
100
AcDbLine
 10
282.678151
 20
-9.794944
 30
0.0
 11
309.178151
 21
-9.794944
 31
0.0
  0
LINE
  5
F5
330
1F
100
AcDbEntity
  8
LC-001-100-D00-0
 62
     7
370
    50
100
AcDbLine
 10
309.178151
 20
-46.294944
 30
0.0
 11
282.678151
 21
-46.294944
 31
0.0
  0
ARC
  5
F6
330
1F
100
AcDbEntity
  8
LC-001-100-D00-0
 62
     7
370
    50
100
AcDbCircle
 10
282.678151
 20
-14.794944
 30
0.0
 40
5.0
100
AcDbArc
 50
90.0
 51
180.0
  0
ARC
  5
F7
330
1F
100
AcDbEntity
  8
LC-001-100-D00-0
 62
     7
370
    50
100
AcDbCircle
 10
282.678151
 20
-41.294944
 30
0.0
 40
5.000000000000341
100
AcDbArc
 50
180.0
 51
270.0
  0
LINE
  5
F8
330
1F
100
AcDbEntity
  8
LC-001-100-D00-0
 62
     7
370
    50
100
AcDbLine
 10
277.678151
 20
-41.294944
 30
0.0
 11
277.678151
 21
-14.794944
 31
0.0
  0
LINE
  5
F9
330
1F
100
AcDbEntity
  8
LC-001-100-D00-0
 62
     7
370
    50
100
AcDbLine
 10
834.178151
 20
-14.794944
 30
0.0
 11
834.178151
 21
-41.294944
 31
0.0
  0
ARC
  5
FA
330
1F
100
AcDbEntity
  8
LC-001-100-D00-0
 62
     7
370
    50
100
AcDbCircle
 10
829.178151
 20
-41.294944
 30
0.0
 40
5.0
100
AcDbArc
 50
270.0
 51
0.0
  0
ARC
  5
FB
330
1F
100
AcDbEntity
  8
LC-001-100-D00-0
 62
     7
370
    50
100
AcDbCircle
 10
829.178151
 20
-14.794944
 30
0.0
 40
5.0
100
AcDbArc
 50
0.0
 51
90.0
  0
CIRCLE
  5
FC
330
1F
100
AcDbEntity
  8
LC-001-100-D00-0
 62
     7
370
    50
100
AcDbCircle
 10
815.928151
 20
-28.044944
 30
0.0
 40
3.900000000000205
  0
LINE
  5
FD
330
1F
100
AcDbEntity
  8
LC-001-100-D00-0
 62
     7
370
    50
100
AcDbLine
 10
802.678151
 20
-9.794944
 30
0.0
 11
829.178151
 21
-9.794944
 31
0.0
  0
LINE
  5
FE
330
1F
100
AcDbEntity
  8
LC-001-100-D00-0
 62
     7
370
    50
100
AcDbLine
 10
829.178151
 20
-46.294944
 30
0.0
 11
802.678151
 21
-46.294944
 31
0.0
  0
ARC
  5
FF
330
1F
100
AcDbEntity
  8
LC-001-100-D00-0
 62
     7
370
    50
100
AcDbCircle
 10
802.678151
 20
-14.794944
 30
0.0
 40
5.0
100
AcDbArc
 50
90.0
 51
180.0
  0
ARC
  5
100
330
1F
100
AcDbEntity
  8
LC-001-100-D00-0
 62
     7
370
    50
100
AcDbCircle
 10
802.678151
 20
-41.294944
 30
0.0
 40
4.999999999999886
100
AcDbArc
 50
180.0
 51
270.0
  0
LINE
  5
101
330
1F
100
AcDbEntity
  8
LC-001-100-D00-0
 62
     7
370
    50
100
AcDbLine
 10
797.678151
 20
-41.294944
 30
0.0
 11
797.678151
 21
-14.794944
 31
0.0
  0
DIMENSION
  5
104
330
1F
100
AcDbEntity
  8
LC-001-100-D00-0
 62
     7
370
    25
100
AcDbDimension
  2
*D15
 10
945.792255
 20
16.455056
 30
0.0
 11
890.792255
 21
29.019886
 31
0.0
 70
   160
  1
1,5
 71
     5
 42
1.5
 53
90.0
  3
LC-DIM-L-0100-02-02
100
AcDbAlignedDimension
 13
890.928151
 23
17.955056
 33
0.0
 14
890.928151
 24
16.455056
 34
0.0
 50
90.0
100
AcDbRotatedDimension
  0
DIMENSION
  5
113
330
1F
100
AcDbEntity
  8
LC-001-100-D00-0
 62
     7
370
    25
100
AcDbDimension
  2
*D16
 10
1023.177816
 20
-2.044944
 30
0.0
 11
968.177816
 21
-17.015114
 31
0.0
 70
   160
  1
18,5
 71
     5
 42
18.5
 53
90.0
  3
LC-DIM-L-0100-02-02
100
AcDbAlignedDimension
 13
890.928151
 23
16.455056
 33
0.0
 14
843.428151
 24
-2.044944
 34
0.0
 50
90.0
100
AcDbRotatedDimension
  0
DIMENSION
  5
121
330
1F
100
AcDbEntity
  8
LC-001-100-D00-0
 62
     7
370
    25
100
AcDbDimension
  2
*D17
 10
1105.722413
 20
-105.544944
 30
0.0
 11
1050.722413
 21
-79.385114
 31
0.0
 70
   160
  1
123,5
 71
     5
 42
123.5
 53
90.0
  3
LC-DIM-L-0100-02-02
100
AcDbAlignedDimension
 13
890.928151
 23
17.955056
 33
0.0
 14
890.928151
 24
-105.544944
 34
0.0
 50
90.0
100
AcDbRotatedDimension
  0
LINE
  5
12F
330
1F
100
AcDbEntity
  8
LC-001-100-D00-0
  6
DASHDOT
 62
     7
370
    25
100
AcDbLine
 10
853.428151
 20
-28.044944
 30
0.0
 11
-61.571849
 21
-28.044944
 31
0.0
  0
LINE
  5
130
330
1F
100
AcDbEntity
  8
LC-001-100-D00-0
 62
     7
370
    50
100
AcDbLine
 10
812.52814
 20
408.660616
 30
0.0
 11
811.528153
 21
409.660616
 31
0.0
  0
LINE
  5
131
330
1F
100
AcDbEntity
  8
LC-001-100-D00-0
 62
     7
370
    50
100
AcDbLine
 10
812.52814
 20
408.660616
 30
0.0
 11
812.528151
 21
402.660616
 31
0.0
  0
LINE
  5
132
330
1F
100
AcDbEntity
  8
LC-001-100-D00-0
 62
     7
370
    50
100
AcDbLine
 10
811.528151
 20
401.660616
 30
0.0
 11
812.528151
 21
402.660616
 31
0.0
  0
LINE
  5
133
330
1F
100
AcDbEntity
  8
LC-001-100-D00-0
 62
     7
370
    50
100
AcDbLine
 10
809.577293
 20
403.660615
 30
0.0
 11
809.577293
 21
401.660616
 31
0.0
  0
LINE
  5
134
330
1F
100
AcDbEntity
  8
LC-001-100-D00-0
 62
     7
370
    50
100
AcDbLine
 10
810.283443
 20
403.849827
 30
0.0
 11
809.577293
 21
403.660615
 31
0.0
  0
ARC
  5
135
330
1F
100
AcDbEntity
  8
LC-001-100-D00-0
 62
     7
370
    50
100
AcDbCircle
 10
810.128151
 20
404.429382
 30
0.0
 40
0.6000000000000886
100
AcDbArc
 50
285.0
 51
0.0
  0
LINE
  5
136
330
1F
100
AcDbEntity
  8
LC-001-100-D00-0
 62
     7
370
    50
100
AcDbLine
 10
810.728151
 20
406.891849
 30
0.0
 11
810.728151
 21
404.429382
 31
0.0
  0
ARC
  5
137
330
1F
100
AcDbEntity
  8
LC-001-100-D00-0
 62
     7
370
    50
100
AcDbCircle
 10
810.128151
 20
406.891849
 30
0.0
 40
0.5999999999999091
100
AcDbArc
 50
0.0
 51
75.0
  0
LINE
  5
138
330
1F
100
AcDbEntity
  8
LC-001-100-D00-0
 62
     7
370
    50
100
AcDbLine
 10
809.577293
 20
407.660615
 30
0.0
 11
810.283443
 21
407.471405
 31
0.0
  0
LINE
  5
139
330
1F
100
AcDbEntity
  8
LC-001-100-D00-0
 62
     7
370
    50
100
AcDbLine
 10
809.577293
 20
409.660616
 30
0.0
 11
809.577293
 21
407.660615
 31
0.0
  0
LINE
  5
13A
330
1F
100
AcDbEntity
  8
LC-001-100-D00-0
 62
     7
370
    50
100
AcDbLine
 10
809.577293
 20
401.660616
 30
0.0
 11
811.528151
 21
401.660616
 31
0.0
  0
LINE
  5
13B
330
1F
100
AcDbEntity
  8
LC-001-100-D00-0
 62
     7
370
    50
100
AcDbLine
 10
809.577293
 20
409.660616
 30
0.0
 11
811.528153
 21
409.660616
 31
0.0
  0
LINE
  5
13C
330
1F
100
AcDbEntity
  8
LC-001-100-D00-0
 62
     7
370
    50
100
AcDbLine
 10
821.128151
 20
404.429382
 30
0.0
 11
821.128151
 21
406.891849
 31
0.0
  0
ARC
  5
13D
330
1F
100
AcDbEntity
  8
LC-001-100-D00-0
 62
     7
370
    50
100
AcDbCircle
 10
821.728151
 20
404.429382
 30
0.0
 40
0.6000000000003638
100
AcDbArc
 50
180.0
 51
255.0
  0
LINE
  5
13E
330
1F
100
AcDbEntity
  8
LC-001-100-D00-0
 62
     7
370
    50
100
AcDbLine
 10
822.279013
 20
403.660615
 30
0.0
 11
821.57286
 21
403.849827
 31
0.0
  0
LINE
  5
13F
330
1F
100
AcDbEntity
  8
LC-001-100-D00-0
 62
     7
370
    50
100
AcDbLine
 10
822.279013
 20
403.660615
 30
0.0
 11
822.279013
 21
401.660616
 31
0.0
  0
LINE
  5
140
330
1F
100
AcDbEntity
  8
LC-001-100-D00-0
 62
     7
370
    50
100
AcDbLine
 10
819.328151
 20
402.660616
 30
0.0
 11
820.328151
 21
401.660616
 31
0.0
  0
LINE
  5
141
330
1F
100
AcDbEntity
  8
LC-001-100-D00-0
 62
     7
370
    50
100
AcDbLine
 10
819.328151
 20
402.660616
 30
0.0
 11
819.328166
 21
408.660616
 31
0.0
  0
LINE
  5
142
330
1F
100
AcDbEntity
  8
LC-001-100-D00-0
 62
     7
370
    50
100
AcDbLine
 10
820.328153
 20
409.660616
 30
0.0
 11
819.328166
 21
408.660616
 31
0.0
  0
LINE
  5
143
330
1F
100
AcDbEntity
  8
LC-001-100-D00-0
 62
     7
370
    50
100
AcDbLine
 10
822.279013
 20
409.660616
 30
0.0
 11
822.279013
 21
407.660615
 31
0.0
  0
LINE
  5
144
330
1F
100
AcDbEntity
  8
LC-001-100-D00-0
 62
     7
370
    50
100
AcDbLine
 10
821.57286
 20
407.471405
 30
0.0
 11
822.279013
 21
407.660615
 31
0.0
  0
ARC
  5
145
330
1F
100
AcDbEntity
  8
LC-001-100-D00-0
 62
     7
370
    50
100
AcDbCircle
 10
821.728151
 20
406.891849
 30
0.0
 40
0.6000000000004259
100
AcDbArc
 50
105.0
 51
180.0
  0
LINE
  5
146
330
1F
100
AcDbEntity
  8
LC-001-100-D00-0
 62
     7
370
    50
100
AcDbLine
 10
820.328151
 20
401.660616
 30
0.0
 11
822.279013
 21
401.660616
 31
0.0
  0
LINE
  5
147
330
1F
100
AcDbEntity
  8
LC-001-100-D00-0
 62
     7
370
    50
100
AcDbLine
 10
820.328153
 20
409.660616
 30
0.0
 11
822.279013
 21
409.660616
 31
0.0
  0
LINE
  5
148
330
1F
100
AcDbEntity
  8
LC-001-100-D00-0
 62
     7
370
    50
100
AcDbLine
 10
812.528151
 20
402.660616
 30
0.0
 11
812.685991
 21
402.660616
 31
0.0
  0
LINE
  5
149
330
1F
100
AcDbEntity
  8
LC-001-100-D00-0
 62
     7
370
    50
100
AcDbLine
 10
819.170312
 20
402.660616
 30
0.0
 11
819.328151
 21
402.660616
 31
0.0
  0
LINE
  5
14A
330
1F
100
AcDbEntity
  8
LC-001-100-D00-0
 62
     7
370
    50
100
AcDbLine
 10
820.328151
 20
401.660616
 30
0.0
 11
819.79237
 21
401.660616
 31
0.0
  0
LINE
  5
14B
330
1F
100
AcDbEntity
  8
LC-001-100-D00-0
 62
     7
370
    50
100
AcDbLine
 10
812.063933
 20
401.660616
 30
0.0
 11
811.528151
 21
401.660616
 31
0.0
  0
LINE
  5
14C
330
1F
100
AcDbEntity
  8
LC-001-100-D00-0
 62
     7
370
    50
100
AcDbLine
 10
822.279013
 20
409.660616
 30
0.0
 11
819.82816
 21
409.660616
 31
0.0
  0
LINE
  5
14D
330
1F
100
AcDbEntity
  8
LC-001-100-D00-0
 62
     7
370
    50
100
AcDbLine
 10
819.82816
 20
409.660616
 30
0.0
 11
819.828151
 21
420.660616
 31
0.0
  0
LINE
  5
14E
330
1F
100
AcDbEntity
  8
LC-001-100-D00-0
 62
     7
370
    50
100
AcDbLine
 10
819.828151
 20
420.660616
 30
0.0
 11
833.178151
 21
420.660616
 31
0.0
  0
ARC
  5
14F
330
1F
100
AcDbEntity
  8
LC-001-100-D00-0
 62
     7
370
    50
100
AcDbCircle
 10
833.178151
 20
419.660616
 30
0.0
 40
1.000000000000455
100
AcDbArc
 50
0.0
 51
90.0
  0
LINE
  5
150
330
1F
100
AcDbEntity
  8
LC-001-100-D00-0
 62
     7
370
    50
100
AcDbLine
 10
834.178151
 20
419.660616
 30
0.0
 11
834.178157
 21
413.660616
 31
0.0
  0
LINE
  5
151
330
1F
100
AcDbEntity
  8
LC-001-100-D00-0
 62
     7
370
    50
100
AcDbLine
 10
831.178151
 20
413.660616
 30
0.0
 11
834.178157
 21
413.660616
 31
0.0
  0
LINE
  5
152
330
1F
100
AcDbEntity
  8
LC-001-100-D00-0
 62
     7
370
    50
100
AcDbLine
 10
831.178151
 20
413.660616
 30
0.0
 11
831.178165
 21
417.660616
 31
0.0
  0
LINE
  5
153
330
1F
100
AcDbEntity
  8
LC-001-100-D00-0
 62
     7
370
    50
100
AcDbLine
 10
826.678151
 20
417.660616
 30
0.0
 11
831.178165
 21
417.660616
 31
0.0
  0
ARC
  5
154
330
1F
100
AcDbEntity
  8
LC-001-100-D00-0
 62
     7
370
    50
100
AcDbCircle
 10
826.678151
 20
416.660616
 30
0.0
 40
1.000000000000227
100
AcDbArc
 50
90.0
 51
180.0
  0
LINE
  5
155
330
1F
100
AcDbEntity
  8
LC-001-100-D00-0
 62
     7
370
    50
100
AcDbLine
 10
825.678151
 20
402.660616
 30
0.0
 11
825.678151
 21
416.660616
 31
0.0
  0
ARC
  5
156
330
1F
100
AcDbEntity
  8
LC-001-100-D00-0
 62
     7
370
    50
100
AcDbCircle
 10
824.678151
 20
402.660616
 30
0.0
 40
1.0
100
AcDbArc
 50
270.0
 51
0.0
  0
LINE
  5
157
330
1F
100
AcDbEntity
  8
LC-001-100-D00-0
 62
     7
370
    50
100
AcDbLine
 10
824.678151
 20
401.660616
 30
0.0
 11
822.279013
 21
401.660616
 31
0.0
  0
LINE
  5
158
330
1F
100
AcDbEntity
  8
LC-001-100-D00-0
 62
     7
370
    50
100
AcDbLine
 10
822.279013
 20
403.660615
 30
0.0
 11
822.279013
 21
401.660616
 31
0.0
  0
LINE
  5
159
330
1F
100
AcDbEntity
  8
LC-001-100-D00-0
 62
     7
370
    50
100
AcDbLine
 10
821.628151
 20
403.660616
 30
0.0
 11
822.279013
 21
403.660615
 31
0.0
  0
ARC
  5
15A
330
1F
100
AcDbEntity
  8
LC-001-100-D00-0
 62
     7
370
    50
100
AcDbCircle
 10
821.628151
 20
404.160616
 30
0.0
 40
0.5
100
AcDbArc
 50
180.0
 51
270.0
  0
LINE
  5
15B
330
1F
100
AcDbEntity
  8
LC-001-100-D00-0
 62
     7
370
    50
100
AcDbLine
 10
821.128151
 20
407.160616
 30
0.0
 11
821.128151
 21
404.160616
 31
0.0
  0
ARC
  5
15C
330
1F
100
AcDbEntity
  8
LC-001-100-D00-0
 62
     7
370
    50
100
AcDbCircle
 10
821.628151
 20
407.160616
 30
0.0
 40
0.5000000000002274
100
AcDbArc
 50
90.0
 51
180.0
  0
LINE
  5
15D
330
1F
100
AcDbEntity
  8
LC-001-100-D00-0
 62
     7
370
    50
100
AcDbLine
 10
822.279013
 20
407.660615
 30
0.0
 11
821.628151
 21
407.660616
 31
0.0
  0
LINE
  5
15E
330
1F
100
AcDbEntity
  8
LC-001-100-D00-0
 62
     7
370
    50
100
AcDbLine
 10
822.279013
 20
409.660616
 30
0.0
 11
822.279013
 21
407.660615
 31
0.0
  0
ARC
  5
15F
330
1F
100
AcDbEntity
  8
LC-001-100-D00-0
 62
     7
370
    50
100
AcDbCircle
 10
805.178151
 20
416.660616
 30
0.0
 40
1.000000000000455
100
AcDbArc
 50
0.0
 51
90.0
  0
ARC
  5
160
330
1F
100
AcDbEntity
  8
LC-001-100-D00-0
 62
     7
370
    50
100
AcDbCircle
 10
807.178151
 20
402.660616
 30
0.0
 40
1.0
100
AcDbArc
 50
180.0
 51
270.0
  0
LINE
  5
161
330
1F
100
AcDbEntity
  8
LC-001-100-D00-0
 62
     7
370
    50
100
AcDbLine
 10
806.178151
 20
416.660616
 30
0.0
 11
806.178151
 21
402.660616
 31
0.0
  0
LINE
  5
162
330
1F
100
AcDbEntity
  8
LC-001-100-D00-0
 62
     7
370
    50
100
AcDbLine
 10
810.728151
 20
404.160616
 30
0.0
 11
810.728151
 21
407.160616
 31
0.0
  0
LINE
  5
163
330
1F
100
AcDbEntity
  8
LC-001-100-D00-0
 62
     7
370
    50
100
AcDbLine
 10
812.028151
 20
420.660616
 30
0.0
 11
812.028147
 21
409.660616
 31
0.0
  0
LINE
  5
164
330
1F
100
AcDbEntity
  8
LC-001-100-D00-0
 62
     7
370
    50
100
AcDbLine
 10
812.028151
 20
420.660616
 30
0.0
 11
819.828151
 21
420.660616
 31
0.0
  0
LINE
  5
165
330
1F
100
AcDbEntity
  8
LC-001-100-D00-0
 62
     7
370
    50
100
AcDbLine
 10
809.577293
 20
409.660616
 30
0.0
 11
809.577293
 21
407.660615
 31
0.0
  0
LINE
  5
166
330
1F
100
AcDbEntity
  8
LC-001-100-D00-0
 62
     7
370
    50
100
AcDbLine
 10
809.577293
 20
403.660615
 30
0.0
 11
809.577293
 21
401.660616
 31
0.0
  0
ARC
  5
167
330
1F
100
AcDbEntity
  8
LC-001-100-D00-0
 62
     7
370
    50
100
AcDbCircle
 10
810.228151
 20
404.160616
 30
0.0
 40
0.5000000000002274
100
AcDbArc
 50
270.0
 51
0.0
  0
LINE
  5
168
330
1F
100
AcDbEntity
  8
LC-001-100-D00-0
 62
     7
370
    50
100
AcDbLine
 10
809.577293
 20
403.660615
 30
0.0
 11
810.228151
 21
403.660616
 31
0.0
  0
LINE
  5
169
330
1F
100
AcDbEntity
  8
LC-001-100-D00-0
 62
     7
370
    50
100
AcDbLine
 10
800.678141
 20
417.660616
 30
0.0
 11
800.678151
 21
413.660616
 31
0.0
  0
LINE
  5
16A
330
1F
100
AcDbEntity
  8
LC-001-100-D00-0
 62
     7
370
    50
100
AcDbLine
 10
797.67815
 20
413.660616
 30
0.0
 11
797.678151
 21
419.660616
 31
0.0
  0
ARC
  5
16B
330
1F
100
AcDbEntity
  8
LC-001-100-D00-0
 62
     7
370
    50
100
AcDbCircle
 10
798.678151
 20
419.660616
 30
0.0
 40
1.000000000000227
100
AcDbArc
 50
90.0
 51
180.0
  0
LINE
  5
16C
330
1F
100
AcDbEntity
  8
LC-001-100-D00-0
 62
     7
370
    50
100
AcDbLine
 10
810.228151
 20
407.660616
 30
0.0
 11
809.577293
 21
407.660615
 31
0.0
  0
ARC
  5
16D
330
1F
100
AcDbEntity
  8
LC-001-100-D00-0
 62
     7
370
    50
100
AcDbCircle
 10
810.228151
 20
407.160616
 30
0.0
 40
0.5
100
AcDbArc
 50
0.0
 51
90.0
  0
LINE
  5
16E
330
1F
100
AcDbEntity
  8
LC-001-100-D00-0
 62
     7
370
    50
100
AcDbLine
 10
797.67815
 20
413.660616
 30
0.0
 11
800.678151
 21
413.660616
 31
0.0
  0
LINE
  5
16F
330
1F
100
AcDbEntity
  8
LC-001-100-D00-0
 62
     7
370
    50
100
AcDbLine
 10
812.028147
 20
409.660616
 30
0.0
 11
809.577293
 21
409.660616
 31
0.0
  0
LINE
  5
170
330
1F
100
AcDbEntity
  8
LC-001-100-D00-0
 62
     7
370
    50
100
AcDbLine
 10
809.577293
 20
401.660616
 30
0.0
 11
807.178151
 21
401.660616
 31
0.0
  0
LINE
  5
171
330
1F
100
AcDbEntity
  8
LC-001-100-D00-0
 62
     7
370
    50
100
AcDbLine
 10
800.678141
 20
417.660616
 30
0.0
 11
805.178151
 21
417.660616
 31
0.0
  0
LINE
  5
172
330
1F
100
AcDbEntity
  8
LC-001-100-D00-0
 62
     7
370
    50
100
AcDbLine
 10
798.678151
 20
420.660616
 30
0.0
 11
812.028151
 21
420.660616
 31
0.0
  0
LINE
  5
173
330
1F
100
AcDbEntity
  8
LC-001-100-D00-0
 62
     7
370
    50
100
AcDbLine
 10
829.178151
 20
413.660616
 30
0.0
 11
831.178151
 21
413.660616
 31
0.0
  0
LINE
  5
174
330
1F
100
AcDbEntity
  8
LC-001-100-D00-0
 62
     7
370
    50
100
AcDbLine
 10
800.678151
 20
413.660616
 30
0.0
 11
802.678151
 21
413.660616
 31
0.0
  0
LINE
  5
175
330
1F
100
AcDbEntity
  8
LC-001-100-D00-0
 62
     7
370
    50
100
AcDbLine
 10
802.678151
 20
413.660616
 30
0.0
 11
806.178159
 21
413.660616
 31
0.0
  0
LINE
  5
176
330
1F
100
AcDbEntity
  8
LC-001-100-D00-0
 62
     7
370
    50
100
AcDbLine
 10
825.678147
 20
413.660616
 30
0.0
 11
829.178151
 21
413.660616
 31
0.0
  0
LINE
  5
177
330
1F
100
AcDbEntity
  8
LC-001-100-D00-0
 62
     7
370
    50
100
AcDbLine
 10
-27.471863
 20
408.660616
 30
0.0
 11
-28.47185
 21
409.660616
 31
0.0
  0
LINE
  5
178
330
1F
100
AcDbEntity
  8
LC-001-100-D00-0
 62
     7
370
    50
100
AcDbLine
 10
-27.471863
 20
408.660616
 30
0.0
 11
-27.471849
 21
402.660616
 31
0.0
  0
LINE
  5
179
330
1F
100
AcDbEntity
  8
LC-001-100-D00-0
 62
     7
370
    50
100
AcDbLine
 10
-28.471849
 20
401.660616
 30
0.0
 11
-27.471849
 21
402.660616
 31
0.0
  0
LINE
  5
17A
330
1F
100
AcDbEntity
  8
LC-001-100-D00-0
 62
     7
370
    50
100
AcDbLine
 10
-30.42271
 20
403.660615
 30
0.0
 11
-30.42271
 21
401.660616
 31
0.0
  0
LINE
  5
17B
330
1F
100
AcDbEntity
  8
LC-001-100-D00-0
 62
     7
370
    50
100
AcDbLine
 10
-29.716557
 20
403.849827
 30
0.0
 11
-30.42271
 21
403.660615
 31
0.0
  0
ARC
  5
17C
330
1F
100
AcDbEntity
  8
LC-001-100-D00-0
 62
     7
370
    50
100
AcDbCircle
 10
-29.871849
 20
404.429382
 30
0.0
 40
0.6000000000000886
100
AcDbArc
 50
285.0
 51
0.0
  0
LINE
  5
17D
330
1F
100
AcDbEntity
  8
LC-001-100-D00-0
 62
     7
370
    50
100
AcDbLine
 10
-29.271849
 20
406.891849
 30
0.0
 11
-29.271849
 21
404.429382
 31
0.0
  0
ARC
  5
17E
330
1F
100
AcDbEntity
  8
LC-001-100-D00-0
 62
     7
370
    50
100
AcDbCircle
 10
-29.871849
 20
406.891849
 30
0.0
 40
0.600000000000307
100
AcDbArc
 50
0.0
 51
75.0
  0
LINE
  5
17F
330
1F
100
AcDbEntity
  8
LC-001-100-D00-0
 62
     7
370
    50
100
AcDbLine
 10
-30.42271
 20
407.660615
 30
0.0
 11
-29.716557
 21
407.471405
 31
0.0
  0
LINE
  5
180
330
1F
100
AcDbEntity
  8
LC-001-100-D00-0
 62
     7
370
    50
100
AcDbLine
 10
-30.42271
 20
409.660616
 30
0.0
 11
-30.42271
 21
407.660615
 31
0.0
  0
LINE
  5
181
330
1F
100
AcDbEntity
  8
LC-001-100-D00-0
 62
     7
370
    50
100
AcDbLine
 10
-30.42271
 20
401.660616
 30
0.0
 11
-28.471849
 21
401.660616
 31
0.0
  0
LINE
  5
182
330
1F
100
AcDbEntity
  8
LC-001-100-D00-0
 62
     7
370
    50
100
AcDbLine
 10
-30.42271
 20
409.660616
 30
0.0
 11
-28.47185
 21
409.660616
 31
0.0
  0
LINE
  5
183
330
1F
100
AcDbEntity
  8
LC-001-100-D00-0
 62
     7
370
    50
100
AcDbLine
 10
-18.871849
 20
404.429382
 30
0.0
 11
-18.871849
 21
406.891849
 31
0.0
  0
ARC
  5
184
330
1F
100
AcDbEntity
  8
LC-001-100-D00-0
 62
     7
370
    50
100
AcDbCircle
 10
-18.271849
 20
404.429382
 30
0.0
 40
0.6000000000000796
100
AcDbArc
 50
180.0
 51
255.0
  0
LINE
  5
185
330
1F
100
AcDbEntity
  8
LC-001-100-D00-0
 62
     7
370
    50
100
AcDbLine
 10
-17.72099
 20
403.660615
 30
0.0
 11
-18.42714
 21
403.849827
 31
0.0
  0
LINE
  5
186
330
1F
100
AcDbEntity
  8
LC-001-100-D00-0
 62
     7
370
    50
100
AcDbLine
 10
-17.72099
 20
403.660615
 30
0.0
 11
-17.72099
 21
401.660616
 31
0.0
  0
LINE
  5
187
330
1F
100
AcDbEntity
  8
LC-001-100-D00-0
 62
     7
370
    50
100
AcDbLine
 10
-20.671849
 20
402.660616
 30
0.0
 11
-19.671849
 21
401.660616
 31
0.0
  0
LINE
  5
188
330
1F
100
AcDbEntity
  8
LC-001-100-D00-0
 62
     7
370
    50
100
AcDbLine
 10
-20.671849
 20
402.660616
 30
0.0
 11
-20.671838
 21
408.660616
 31
0.0
  0
LINE
  5
189
330
1F
100
AcDbEntity
  8
LC-001-100-D00-0
 62
     7
370
    50
100
AcDbLine
 10
-19.67185
 20
409.660616
 30
0.0
 11
-20.671838
 21
408.660616
 31
0.0
  0
LINE
  5
18A
330
1F
100
AcDbEntity
  8
LC-001-100-D00-0
 62
     7
370
    50
100
AcDbLine
 10
-17.72099
 20
409.660616
 30
0.0
 11
-17.72099
 21
407.660615
 31
0.0
  0
LINE
  5
18B
330
1F
100
AcDbEntity
  8
LC-001-100-D00-0
 62
     7
370
    50
100
AcDbLine
 10
-18.42714
 20
407.471405
 30
0.0
 11
-17.72099
 21
407.660615
 31
0.0
  0
ARC
  5
18C
330
1F
100
AcDbEntity
  8
LC-001-100-D00-0
 62
     7
370
    50
100
AcDbCircle
 10
-18.271849
 20
406.891849
 30
0.0
 40
0.6000000000003376
100
AcDbArc
 50
105.0
 51
180.0
  0
LINE
  5
18D
330
1F
100
AcDbEntity
  8
LC-001-100-D00-0
 62
     7
370
    50
100
AcDbLine
 10
-19.671849
 20
401.660616
 30
0.0
 11
-17.72099
 21
401.660616
 31
0.0
  0
LINE
  5
18E
330
1F
100
AcDbEntity
  8
LC-001-100-D00-0
 62
     7
370
    50
100
AcDbLine
 10
-19.67185
 20
409.660616
 30
0.0
 11
-17.72099
 21
409.660616
 31
0.0
  0
LINE
  5
18F
330
1F
100
AcDbEntity
  8
LC-001-100-D00-0
 62
     7
370
    50
100
AcDbLine
 10
-27.471849
 20
402.660616
 30
0.0
 11
-27.314009
 21
402.660616
 31
0.0
  0
LINE
  5
190
330
1F
100
AcDbEntity
  8
LC-001-100-D00-0
 62
     7
370
    50
100
AcDbLine
 10
-20.829688
 20
402.660616
 30
0.0
 11
-20.671849
 21
402.660616
 31
0.0
  0
LINE
  5
191
330
1F
100
AcDbEntity
  8
LC-001-100-D00-0
 62
     7
370
    50
100
AcDbLine
 10
-19.671849
 20
401.660616
 30
0.0
 11
-20.20763
 21
401.660616
 31
0.0
  0
LINE
  5
192
330
1F
100
AcDbEntity
  8
LC-001-100-D00-0
 62
     7
370
    50
100
AcDbLine
 10
-27.936067
 20
401.660616
 30
0.0
 11
-28.471849
 21
401.660616
 31
0.0
  0
LINE
  5
193
330
1F
100
AcDbEntity
  8
LC-001-100-D00-0
 62
     7
370
    50
100
AcDbLine
 10
-17.72099
 20
409.660616
 30
0.0
 11
-20.171844
 21
409.660616
 31
0.0
  0
LINE
  5
194
330
1F
100
AcDbEntity
  8
LC-001-100-D00-0
 62
     7
370
    50
100
AcDbLine
 10
-20.171844
 20
409.660616
 30
0.0
 11
-20.171849
 21
420.660616
 31
0.0
  0
LINE
  5
195
330
1F
100
AcDbEntity
  8
LC-001-100-D00-0
 62
     7
370
    50
100
AcDbLine
 10
-20.171849
 20
420.660616
 30
0.0
 11
-6.821849
 21
420.660616
 31
0.0
  0
ARC
  5
196
330
1F
100
AcDbEntity
  8
LC-001-100-D00-0
 62
     7
370
    50
100
AcDbCircle
 10
-6.821849
 20
419.660616
 30
0.0
 40
1.000000000000227
100
AcDbArc
 50
0.0
 51
90.0
  0
LINE
  5
197
330
1F
100
AcDbEntity
  8
LC-001-100-D00-0
 62
     7
370
    50
100
AcDbLine
 10
-5.821849
 20
419.660616
 30
0.0
 11
-5.821847
 21
413.660616
 31
0.0
  0
LINE
  5
198
330
1F
100
AcDbEntity
  8
LC-001-100-D00-0
 62
     7
370
    50
100
AcDbLine
 10
-8.821849
 20
413.660616
 30
0.0
 11
-5.821847
 21
413.660616
 31
0.0
  0
LINE
  5
199
330
1F
100
AcDbEntity
  8
LC-001-100-D00-0
 62
     7
370
    50
100
AcDbLine
 10
-8.821849
 20
413.660616
 30
0.0
 11
-8.821838
 21
417.660616
 31
0.0
  0
LINE
  5
19A
330
1F
100
AcDbEntity
  8
LC-001-100-D00-0
 62
     7
370
    50
100
AcDbLine
 10
-13.321849
 20
417.660616
 30
0.0
 11
-8.821838
 21
417.660616
 31
0.0
  0
ARC
  5
19B
330
1F
100
AcDbEntity
  8
LC-001-100-D00-0
 62
     7
370
    50
100
AcDbCircle
 10
-13.321849
 20
416.660616
 30
0.0
 40
1.000000000000227
100
AcDbArc
 50
90.0
 51
180.0
  0
LINE
  5
19C
330
1F
100
AcDbEntity
  8
LC-001-100-D00-0
 62
     7
370
    50
100
AcDbLine
 10
-14.321849
 20
402.660616
 30
0.0
 11
-14.321849
 21
416.660616
 31
0.0
  0
ARC
  5
19D
330
1F
100
AcDbEntity
  8
LC-001-100-D00-0
 62
     7
370
    50
100
AcDbCircle
 10
-15.321849
 20
402.660616
 30
0.0
 40
1.0
100
AcDbArc
 50
270.0
 51
0.0
  0
LINE
  5
19E
330
1F
100
AcDbEntity
  8
LC-001-100-D00-0
 62
     7
370
    50
100
AcDbLine
 10
-15.321849
 20
401.660616
 30
0.0
 11
-17.72099
 21
401.660616
 31
0.0
  0
LINE
  5
19F
330
1F
100
AcDbEntity
  8
LC-001-100-D00-0
 62
     7
370
    50
100
AcDbLine
 10
-17.72099
 20
403.660615
 30
0.0
 11
-17.72099
 21
401.660616
 31
0.0
  0
LINE
  5
1A0
330
1F
100
AcDbEntity
  8
LC-001-100-D00-0
 62
     7
370
    50
100
AcDbLine
 10
-18.371849
 20
403.660616
 30
0.0
 11
-17.72099
 21
403.660615
 31
0.0
  0
ARC
  5
1A1
330
1F
100
AcDbEntity
  8
LC-001-100-D00-0
 62
     7
370
    50
100
AcDbCircle
 10
-18.371849
 20
404.160616
 30
0.0
 40
0.5000000000000568
100
AcDbArc
 50
180.0
 51
270.0
  0
LINE
  5
1A2
330
1F
100
AcDbEntity
  8
LC-001-100-D00-0
 62
     7
370
    50
100
AcDbLine
 10
-18.871849
 20
407.160616
 30
0.0
 11
-18.871849
 21
404.160616
 31
0.0
  0
ARC
  5
1A3
330
1F
100
AcDbEntity
  8
LC-001-100-D00-0
 62
     7
370
    50
100
AcDbCircle
 10
-18.371849
 20
407.160616
 30
0.0
 40
0.5000000000002274
100
AcDbArc
 50
90.0
 51
180.0
  0
LINE
  5
1A4
330
1F
100
AcDbEntity
  8
LC-001-100-D00-0
 62
     7
370
    50
100
AcDbLine
 10
-17.72099
 20
407.660615
 30
0.0
 11
-18.371849
 21
407.660616
 31
0.0
  0
LINE
  5
1A5
330
1F
100
AcDbEntity
  8
LC-001-100-D00-0
 62
     7
370
    50
100
AcDbLine
 10
-17.72099
 20
409.660616
 30
0.0
 11
-17.72099
 21
407.660615
 31
0.0
  0
ARC
  5
1A6
330
1F
100
AcDbEntity
  8
LC-001-100-D00-0
 62
     7
370
    50
100
AcDbCircle
 10
-34.821849
 20
416.660616
 30
0.0
 40
1.000000000000227
100
AcDbArc
 50
0.0
 51
90.0
  0
LINE
  5
1A7
330
1F
100
AcDbEntity
  8
LC-001-100-D00-0
 62
     7
370
    50
100
AcDbLine
 10
-33.821849
 20
416.660616
 30
0.0
 11
-33.821849
 21
402.660616
 31
0.0
  0
ARC
  5
1A8
330
1F
100
AcDbEntity
  8
LC-001-100-D00-0
 62
     7
370
    50
100
AcDbCircle
 10
-32.821849
 20
402.660616
 30
0.0
 40
1.000000000000227
100
AcDbArc
 50
180.0
 51
270.0
  0
LINE
  5
1A9
330
1F
100
AcDbEntity
  8
LC-001-100-D00-0
 62
     7
370
    50
100
AcDbLine
 10
-29.271849
 20
404.160616
 30
0.0
 11
-29.271849
 21
407.160616
 31
0.0
  0
LINE
  5
1AA
330
1F
100
AcDbEntity
  8
LC-001-100-D00-0
 62
     7
370
    50
100
AcDbLine
 10
-27.971849
 20
420.660616
 30
0.0
 11
-27.971857
 21
409.660616
 31
0.0
  0
LINE
  5
1AB
330
1F
100
AcDbEntity
  8
LC-001-100-D00-0
 62
     7
370
    50
100
AcDbLine
 10
-27.971849
 20
420.660616
 30
0.0
 11
-20.171849
 21
420.660616
 31
0.0
  0
LINE
  5
1AC
330
1F
100
AcDbEntity
  8
LC-001-100-D00-0
 62
     7
370
    50
100
AcDbLine
 10
-30.42271
 20
409.660616
 30
0.0
 11
-30.42271
 21
407.660615
 31
0.0
  0
LINE
  5
1AD
330
1F
100
AcDbEntity
  8
LC-001-100-D00-0
 62
     7
370
    50
100
AcDbLine
 10
-30.42271
 20
403.660615
 30
0.0
 11
-30.42271
 21
401.660616
 31
0.0
  0
ARC
  5
1AE
330
1F
100
AcDbEntity
  8
LC-001-100-D00-0
 62
     7
370
    50
100
AcDbCircle
 10
-29.771849
 20
404.160616
 30
0.0
 40
0.4999999999997726
100
AcDbArc
 50
270.0
 51
0.0
  0
LINE
  5
1AF
330
1F
100
AcDbEntity
  8
LC-001-100-D00-0
 62
     7
370
    50
100
AcDbLine
 10
-30.42271
 20
403.660615
 30
0.0
 11
-29.771849
 21
403.660616
 31
0.0
  0
LINE
  5
1B0
330
1F
100
AcDbEntity
  8
LC-001-100-D00-0
 62
     7
370
    50
100
AcDbLine
 10
-39.321863
 20
417.660616
 30
0.0
 11
-39.321849
 21
413.660616
 31
0.0
  0
LINE
  5
1B1
330
1F
100
AcDbEntity
  8
LC-001-100-D00-0
 62
     7
370
    50
100
AcDbLine
 10
-42.321854
 20
413.660616
 30
0.0
 11
-42.321849
 21
419.660616
 31
0.0
  0
ARC
  5
1B2
330
1F
100
AcDbEntity
  8
LC-001-100-D00-0
 62
     7
370
    50
100
AcDbCircle
 10
-41.321849
 20
419.660616
 30
0.0
 40
1.000000000000227
100
AcDbArc
 50
90.0
 51
180.0
  0
LINE
  5
1B3
330
1F
100
AcDbEntity
  8
LC-001-100-D00-0
 62
     7
370
    50
100
AcDbLine
 10
-29.771849
 20
407.660616
 30
0.0
 11
-30.42271
 21
407.660615
 31
0.0
  0
ARC
  5
1B4
330
1F
100
AcDbEntity
  8
LC-001-100-D00-0
 62
     7
370
    50
100
AcDbCircle
 10
-29.771849
 20
407.160616
 30
0.0
 40
0.5000000000001137
100
AcDbArc
 50
0.0
 51
90.0
  0
LINE
  5
1B5
330
1F
100
AcDbEntity
  8
LC-001-100-D00-0
 62
     7
370
    50
100
AcDbLine
 10
-42.321854
 20
413.660616
 30
0.0
 11
-39.321849
 21
413.660616
 31
0.0
  0
LINE
  5
1B6
330
1F
100
AcDbEntity
  8
LC-001-100-D00-0
 62
     7
370
    50
100
AcDbLine
 10
-27.971857
 20
409.660616
 30
0.0
 11
-30.42271
 21
409.660616
 31
0.0
  0
LINE
  5
1B7
330
1F
100
AcDbEntity
  8
LC-001-100-D00-0
 62
     7
370
    50
100
AcDbLine
 10
-30.42271
 20
401.660616
 30
0.0
 11
-32.821849
 21
401.660616
 31
0.0
  0
LINE
  5
1B8
330
1F
100
AcDbEntity
  8
LC-001-100-D00-0
 62
     7
370
    50
100
AcDbLine
 10
-39.321863
 20
417.660616
 30
0.0
 11
-34.821849
 21
417.660616
 31
0.0
  0
LINE
  5
1B9
330
1F
100
AcDbEntity
  8
LC-001-100-D00-0
 62
     7
370
    50
100
AcDbLine
 10
-41.321849
 20
420.660616
 30
0.0
 11
-27.971849
 21
420.660616
 31
0.0
  0
LINE
  5
1BA
330
1F
100
AcDbEntity
  8
LC-001-100-D00-0
 62
     7
370
    50
100
AcDbLine
 10
-10.821849
 20
413.660616
 30
0.0
 11
-8.821849
 21
413.660616
 31
0.0
  0
LINE
  5
1BB
330
1F
100
AcDbEntity
  8
LC-001-100-D00-0
 62
     7
370
    50
100
AcDbLine
 10
-39.321849
 20
413.660616
 30
0.0
 11
-37.321849
 21
413.660616
 31
0.0
  0
LINE
  5
1BC
330
1F
100
AcDbEntity
  8
LC-001-100-D00-0
 62
     7
370
    50
100
AcDbLine
 10
-37.321849
 20
413.660616
 30
0.0
 11
-33.821844
 21
413.660616
 31
0.0
  0
LINE
  5
1BD
330
1F
100
AcDbEntity
  8
LC-001-100-D00-0
 62
     7
370
    50
100
AcDbLine
 10
-14.321857
 20
413.660616
 30
0.0
 11
-10.821849
 21
413.660616
 31
0.0
  0
LINE
  5
1BE
330
1F
100
AcDbEntity
  8
LC-001-100-D00-0
 62
     7
370
    50
100
AcDbLine
 10
132.528163
 20
408.660616
 30
0.0
 11
131.528146
 21
409.660616
 31
0.0
  0
LINE
  5
1BF
330
1F
100
AcDbEntity
  8
LC-001-100-D00-0
 62
     7
370
    50
100
AcDbLine
 10
132.528163
 20
408.660616
 30
0.0
 11
132.528151
 21
402.660616
 31
0.0
  0
LINE
  5
1C0
330
1F
100
AcDbEntity
  8
LC-001-100-D00-0
 62
     7
370
    50
100
AcDbLine
 10
131.528151
 20
401.660616
 30
0.0
 11
132.528151
 21
402.660616
 31
0.0
  0
LINE
  5
1C1
330
1F
100
AcDbEntity
  8
LC-001-100-D00-0
 62
     7
370
    50
100
AcDbLine
 10
129.577286
 20
403.660615
 30
0.0
 11
129.577286
 21
401.660616
 31
0.0
  0
LINE
  5
1C2
330
1F
100
AcDbEntity
  8
LC-001-100-D00-0
 62
     7
370
    50
100
AcDbLine
 10
130.283443
 20
403.849827
 30
0.0
 11
129.577286
 21
403.660615
 31
0.0
  0
ARC
  5
1C3
330
1F
100
AcDbEntity
  8
LC-001-100-D00-0
 62
     7
370
    50
100
AcDbCircle
 10
130.128151
 20
404.429382
 30
0.0
 40
0.6000000000000886
100
AcDbArc
 50
285.0
 51
0.0
  0
LINE
  5
1C4
330
1F
100
AcDbEntity
  8
LC-001-100-D00-0
 62
     7
370
    50
100
AcDbLine
 10
130.728151
 20
406.891849
 30
0.0
 11
130.728151
 21
404.429382
 31
0.0
  0
ARC
  5
1C5
330
1F
100
AcDbEntity
  8
LC-001-100-D00-0
 62
     7
370
    50
100
AcDbCircle
 10
130.128151
 20
406.891849
 30
0.0
 40
0.6000000000002501
100
AcDbArc
 50
0.0
 51
75.0
  0
LINE
  5
1C6
330
1F
100
AcDbEntity
  8
LC-001-100-D00-0
 62
     7
370
    50
100
AcDbLine
 10
129.577286
 20
407.660615
 30
0.0
 11
130.283443
 21
407.471405
 31
0.0
  0
LINE
  5
1C7
330
1F
100
AcDbEntity
  8
LC-001-100-D00-0
 62
     7
370
    50
100
AcDbLine
 10
129.577286
 20
409.660616
 30
0.0
 11
129.577286
 21
407.660615
 31
0.0
  0
LINE
  5
1C8
330
1F
100
AcDbEntity
  8
LC-001-100-D00-0
 62
     7
370
    50
100
AcDbLine
 10
129.577286
 20
401.660616
 30
0.0
 11
131.528151
 21
401.660616
 31
0.0
  0
LINE
  5
1C9
330
1F
100
AcDbEntity
  8
LC-001-100-D00-0
 62
     7
370
    50
100
AcDbLine
 10
129.577286
 20
409.660616
 30
0.0
 11
131.528146
 21
409.660616
 31
0.0
  0
LINE
  5
1CA
330
1F
100
AcDbEntity
  8
LC-001-100-D00-0
 62
     7
370
    50
100
AcDbLine
 10
141.128151
 20
404.429382
 30
0.0
 11
141.128151
 21
406.891849
 31
0.0
  0
ARC
  5
1CB
330
1F
100
AcDbEntity
  8
LC-001-100-D00-0
 62
     7
370
    50
100
AcDbCircle
 10
141.728151
 20
404.429382
 30
0.0
 40
0.6000000000000796
100
AcDbArc
 50
180.0
 51
255.0
  0
LINE
  5
1CC
330
1F
100
AcDbEntity
  8
LC-001-100-D00-0
 62
     7
370
    50
100
AcDbLine
 10
142.279006
 20
403.660615
 30
0.0
 11
141.57286
 21
403.849827
 31
0.0
  0
LINE
  5
1CD
330
1F
100
AcDbEntity
  8
LC-001-100-D00-0
 62
     7
370
    50
100
AcDbLine
 10
142.279006
 20
403.660615
 30
0.0
 11
142.279006
 21
401.660616
 31
0.0
  0
LINE
  5
1CE
330
1F
100
AcDbEntity
  8
LC-001-100-D00-0
 62
     7
370
    50
100
AcDbLine
 10
139.328151
 20
402.660616
 30
0.0
 11
140.328151
 21
401.660616
 31
0.0
  0
LINE
  5
1CF
330
1F
100
AcDbEntity
  8
LC-001-100-D00-0
 62
     7
370
    50
100
AcDbLine
 10
139.328151
 20
402.660616
 30
0.0
 11
139.328159
 21
408.660616
 31
0.0
  0
LINE
  5
1D0
330
1F
100
AcDbEntity
  8
LC-001-100-D00-0
 62
     7
370
    50
100
AcDbLine
 10
140.328146
 20
409.660616
 30
0.0
 11
139.328159
 21
408.660616
 31
0.0
  0
LINE
  5
1D1
330
1F
100
AcDbEntity
  8
LC-001-100-D00-0
 62
     7
370
    50
100
AcDbLine
 10
142.279006
 20
409.660616
 30
0.0
 11
142.279006
 21
407.660615
 31
0.0
  0
LINE
  5
1D2
330
1F
100
AcDbEntity
  8
LC-001-100-D00-0
 62
     7
370
    50
100
AcDbLine
 10
141.57286
 20
407.471405
 30
0.0
 11
142.279006
 21
407.660615
 31
0.0
  0
ARC
  5
1D3
330
1F
100
AcDbEntity
  8
LC-001-100-D00-0
 62
     7
370
    50
100
AcDbCircle
 10
141.728151
 20
406.891849
 30
0.0
 40
0.6000000000003376
100
AcDbArc
 50
105.0
 51
180.0
  0
LINE
  5
1D4
330
1F
100
AcDbEntity
  8
LC-001-100-D00-0
 62
     7
370
    50
100
AcDbLine
 10
140.328151
 20
401.660616
 30
0.0
 11
142.279006
 21
401.660616
 31
0.0
  0
LINE
  5
1D5
330
1F
100
AcDbEntity
  8
LC-001-100-D00-0
 62
     7
370
    50
100
AcDbLine
 10
140.328146
 20
409.660616
 30
0.0
 11
142.279006
 21
409.660616
 31
0.0
  0
LINE
  5
1D6
330
1F
100
AcDbEntity
  8
LC-001-100-D00-0
 62
     7
370
    50
100
AcDbLine
 10
132.528151
 20
402.660616
 30
0.0
 11
132.685991
 21
402.660616
 31
0.0
  0
LINE
  5
1D7
330
1F
100
AcDbEntity
  8
LC-001-100-D00-0
 62
     7
370
    50
100
AcDbLine
 10
139.170312
 20
402.660616
 30
0.0
 11
139.328151
 21
402.660616
 31
0.0
  0
LINE
  5
1D8
330
1F
100
AcDbEntity
  8
LC-001-100-D00-0
 62
     7
370
    50
100
AcDbLine
 10
140.328151
 20
401.660616
 30
0.0
 11
139.79237
 21
401.660616
 31
0.0
  0
LINE
  5
1D9
330
1F
100
AcDbEntity
  8
LC-001-100-D00-0
 62
     7
370
    50
100
AcDbLine
 10
132.063933
 20
401.660616
 30
0.0
 11
131.528151
 21
401.660616
 31
0.0
  0
LINE
  5
1DA
330
1F
100
AcDbEntity
  8
LC-001-100-D00-0
 62
     7
370
    50
100
AcDbLine
 10
142.279006
 20
409.660616
 30
0.0
 11
139.828152
 21
409.660616
 31
0.0
  0
LINE
  5
1DB
330
1F
100
AcDbEntity
  8
LC-001-100-D00-0
 62
     7
370
    50
100
AcDbLine
 10
139.828152
 20
409.660616
 30
0.0
 11
139.828151
 21
420.660616
 31
0.0
  0
LINE
  5
1DC
330
1F
100
AcDbEntity
  8
LC-001-100-D00-0
 62
     7
370
    50
100
AcDbLine
 10
139.828151
 20
420.660616
 30
0.0
 11
153.178151
 21
420.660616
 31
0.0
  0
ARC
  5
1DD
330
1F
100
AcDbEntity
  8
LC-001-100-D00-0
 62
     7
370
    50
100
AcDbCircle
 10
153.178151
 20
419.660616
 30
0.0
 40
1.000000000000227
100
AcDbArc
 50
0.0
 51
90.0
  0
LINE
  5
1DE
330
1F
100
AcDbEntity
  8
LC-001-100-D00-0
 62
     7
370
    50
100
AcDbLine
 10
154.178151
 20
419.660616
 30
0.0
 11
154.178149
 21
413.660616
 31
0.0
  0
LINE
  5
1DF
330
1F
100
AcDbEntity
  8
LC-001-100-D00-0
 62
     7
370
    50
100
AcDbLine
 10
151.178151
 20
413.660616
 30
0.0
 11
154.178149
 21
413.660616
 31
0.0
  0
LINE
  5
1E0
330
1F
100
AcDbEntity
  8
LC-001-100-D00-0
 62
     7
370
    50
100
AcDbLine
 10
151.178151
 20
413.660616
 30
0.0
 11
151.178158
 21
417.660616
 31
0.0
  0
LINE
  5
1E1
330
1F
100
AcDbEntity
  8
LC-001-100-D00-0
 62
     7
370
    50
100
AcDbLine
 10
146.678151
 20
417.660616
 30
0.0
 11
151.178158
 21
417.660616
 31
0.0
  0
ARC
  5
1E2
330
1F
100
AcDbEntity
  8
LC-001-100-D00-0
 62
     7
370
    50
100
AcDbCircle
 10
146.678151
 20
416.660616
 30
0.0
 40
1.000000000000227
100
AcDbArc
 50
90.0
 51
180.0
  0
LINE
  5
1E3
330
1F
100
AcDbEntity
  8
LC-001-100-D00-0
 62
     7
370
    50
100
AcDbLine
 10
145.678151
 20
402.660616
 30
0.0
 11
145.678151
 21
416.660616
 31
0.0
  0
ARC
  5
1E4
330
1F
100
AcDbEntity
  8
LC-001-100-D00-0
 62
     7
370
    50
100
AcDbCircle
 10
144.678151
 20
402.660616
 30
0.0
 40
1.0
100
AcDbArc
 50
270.0
 51
0.0
  0
LINE
  5
1E5
330
1F
100
AcDbEntity
  8
LC-001-100-D00-0
 62
     7
370
    50
100
AcDbLine
 10
144.678151
 20
401.660616
 30
0.0
 11
142.279006
 21
401.660616
 31
0.0
  0
LINE
  5
1E6
330
1F
100
AcDbEntity
  8
LC-001-100-D00-0
 62
     7
370
    50
100
AcDbLine
 10
142.279006
 20
403.660615
 30
0.0
 11
142.279006
 21
401.660616
 31
0.0
  0
LINE
  5
1E7
330
1F
100
AcDbEntity
  8
LC-001-100-D00-0
 62
     7
370
    50
100
AcDbLine
 10
141.628151
 20
403.660616
 30
0.0
 11
142.279006
 21
403.660615
 31
0.0
  0
ARC
  5
1E8
330
1F
100
AcDbEntity
  8
LC-001-100-D00-0
 62
     7
370
    50
100
AcDbCircle
 10
141.628151
 20
404.160616
 30
0.0
 40
0.5000000000000568
100
AcDbArc
 50
180.0
 51
270.0
  0
LINE
  5
1E9
330
1F
100
AcDbEntity
  8
LC-001-100-D00-0
 62
     7
370
    50
100
AcDbLine
 10
141.128151
 20
407.160616
 30
0.0
 11
141.128151
 21
404.160616
 31
0.0
  0
ARC
  5
1EA
330
1F
100
AcDbEntity
  8
LC-001-100-D00-0
 62
     7
370
    50
100
AcDbCircle
 10
141.628151
 20
407.160616
 30
0.0
 40
0.5000000000002274
100
AcDbArc
 50
90.0
 51
180.0
  0
LINE
  5
1EB
330
1F
100
AcDbEntity
  8
LC-001-100-D00-0
 62
     7
370
    50
100
AcDbLine
 10
142.279006
 20
407.660615
 30
0.0
 11
141.628151
 21
407.660616
 31
0.0
  0
LINE
  5
1EC
330
1F
100
AcDbEntity
  8
LC-001-100-D00-0
 62
     7
370
    50
100
AcDbLine
 10
142.279006
 20
409.660616
 30
0.0
 11
142.279006
 21
407.660615
 31
0.0
  0
ARC
  5
1ED
330
1F
100
AcDbEntity
  8
LC-001-100-D00-0
 62
     7
370
    50
100
AcDbCircle
 10
125.178151
 20
416.660616
 30
0.0
 40
1.000000000000227
100
AcDbArc
 50
0.0
 51
90.0
  0
ARC
  5
1EE
330
1F
100
AcDbEntity
  8
LC-001-100-D00-0
 62
     7
370
    50
100
AcDbCircle
 10
127.178151
 20
402.660616
 30
0.0
 40
1.000000000000227
100
AcDbArc
 50
180.0
 51
270.0
  0
LINE
  5
1EF
330
1F
100
AcDbEntity
  8
LC-001-100-D00-0
 62
     7
370
    50
100
AcDbLine
 10
126.178151
 20
416.660616
 30
0.0
 11
126.178151
 21
402.660616
 31
0.0
  0
LINE
  5
1F0
330
1F
100
AcDbEntity
  8
LC-001-100-D00-0
 62
     7
370
    50
100
AcDbLine
 10
130.728151
 20
404.160616
 30
0.0
 11
130.728151
 21
407.160616
 31
0.0
  0
LINE
  5
1F1
330
1F
100
AcDbEntity
  8
LC-001-100-D00-0
 62
     7
370
    50
100
AcDbLine
 10
132.028151
 20
420.660616
 30
0.0
 11
132.02814
 21
409.660616
 31
0.0
  0
LINE
  5
1F2
330
1F
100
AcDbEntity
  8
LC-001-100-D00-0
 62
     7
370
    50
100
AcDbLine
 10
132.028151
 20
420.660616
 30
0.0
 11
139.828151
 21
420.660616
 31
0.0
  0
LINE
  5
1F3
330
1F
100
AcDbEntity
  8
LC-001-100-D00-0
 62
     7
370
    50
100
AcDbLine
 10
129.577286
 20
403.660615
 30
0.0
 11
129.577286
 21
401.660616
 31
0.0
  0
LINE
  5
1F4
330
1F
100
AcDbEntity
  8
LC-001-100-D00-0
 62
     7
370
    50
100
AcDbLine
 10
129.577286
 20
409.660616
 30
0.0
 11
129.577286
 21
407.660615
 31
0.0
  0
ARC
  5
1F5
330
1F
100
AcDbEntity
  8
LC-001-100-D00-0
 62
     7
370
    50
100
AcDbCircle
 10
130.228151
 20
404.160616
 30
0.0
 40
0.5000000000002274
100
AcDbArc
 50
270.0
 51
0.0
  0
LINE
  5
1F6
330
1F
100
AcDbEntity
  8
LC-001-100-D00-0
 62
     7
370
    50
100
AcDbLine
 10
129.577286
 20
403.660615
 30
0.0
 11
130.228151
 21
403.660616
 31
0.0
  0
LINE
  5
1F7
330
1F
100
AcDbEntity
  8
LC-001-100-D00-0
 62
     7
370
    50
100
AcDbLine
 10
120.678164
 20
417.660616
 30
0.0
 11
120.678151
 21
413.660616
 31
0.0
  0
LINE
  5
1F8
330
1F
100
AcDbEntity
  8
LC-001-100-D00-0
 62
     7
370
    50
100
AcDbLine
 10
117.678143
 20
413.660616
 30
0.0
 11
117.678151
 21
419.660616
 31
0.0
  0
ARC
  5
1F9
330
1F
100
AcDbEntity
  8
LC-001-100-D00-0
 62
     7
370
    50
100
AcDbCircle
 10
118.678151
 20
419.660616
 30
0.0
 40
1.000000000000227
100
AcDbArc
 50
90.0
 51
180.0
  0
LINE
  5
1FA
330
1F
100
AcDbEntity
  8
LC-001-100-D00-0
 62
     7
370
    50
100
AcDbLine
 10
130.228151
 20
407.660616
 30
0.0
 11
129.577286
 21
407.660615
 31
0.0
  0
ARC
  5
1FB
330
1F
100
AcDbEntity
  8
LC-001-100-D00-0
 62
     7
370
    50
100
AcDbCircle
 10
130.228151
 20
407.160616
 30
0.0
 40
0.5000000000001137
100
AcDbArc
 50
0.0
 51
90.0
  0
LINE
  5
1FC
330
1F
100
AcDbEntity
  8
LC-001-100-D00-0
 62
     7
370
    50
100
AcDbLine
 10
132.02814
 20
409.660616
 30
0.0
 11
129.577286
 21
409.660616
 31
0.0
  0
LINE
  5
1FD
330
1F
100
AcDbEntity
  8
LC-001-100-D00-0
 62
     7
370
    50
100
AcDbLine
 10
129.577286
 20
401.660616
 30
0.0
 11
127.178151
 21
401.660616
 31
0.0
  0
LINE
  5
1FE
330
1F
100
AcDbEntity
  8
LC-001-100-D00-0
 62
     7
370
    50
100
AcDbLine
 10
120.678164
 20
417.660616
 30
0.0
 11
125.178151
 21
417.660616
 31
0.0
  0
LINE
  5
1FF
330
1F
100
AcDbEntity
  8
LC-001-100-D00-0
 62
     7
370
    50
100
AcDbLine
 10
118.678151
 20
420.660616
 30
0.0
 11
132.028151
 21
420.660616
 31
0.0
  0
LINE
  5
200
330
1F
100
AcDbEntity
  8
LC-001-100-D00-0
 62
     7
370
    50
100
AcDbLine
 10
117.678143
 20
413.660616
 30
0.0
 11
120.678151
 21
413.660616
 31
0.0
  0
LINE
  5
201
330
1F
100
AcDbEntity
  8
LC-001-100-D00-0
 62
     7
370
    50
100
AcDbLine
 10
149.178151
 20
413.660616
 30
0.0
 11
151.178151
 21
413.660616
 31
0.0
  0
LINE
  5
202
330
1F
100
AcDbEntity
  8
LC-001-100-D00-0
 62
     7
370
    50
100
AcDbLine
 10
120.678151
 20
413.660616
 30
0.0
 11
122.678151
 21
413.660616
 31
0.0
  0
LINE
  5
203
330
1F
100
AcDbEntity
  8
LC-001-100-D00-0
 62
     7
370
    50
100
AcDbLine
 10
122.678151
 20
413.660616
 30
0.0
 11
126.178152
 21
413.660616
 31
0.0
  0
LINE
  5
204
330
1F
100
AcDbEntity
  8
LC-001-100-D00-0
 62
     7
370
    50
100
AcDbLine
 10
145.67814
 20
413.660616
 30
0.0
 11
149.178151
 21
413.660616
 31
0.0
  0
LINE
  5
205
330
1F
100
AcDbEntity
  8
LC-001-100-D00-0
 62
     7
370
    50
100
AcDbLine
 10
652.528144
 20
408.660616
 30
0.0
 11
651.528157
 21
409.660616
 31
0.0
  0
LINE
  5
206
330
1F
100
AcDbEntity
  8
LC-001-100-D00-0
 62
     7
370
    50
100
AcDbLine
 10
652.528144
 20
408.660616
 30
0.0
 11
652.528151
 21
402.660616
 31
0.0
  0
LINE
  5
207
330
1F
100
AcDbEntity
  8
LC-001-100-D00-0
 62
     7
370
    50
100
AcDbLine
 10
651.528151
 20
401.660616
 30
0.0
 11
652.528151
 21
402.660616
 31
0.0
  0
LINE
  5
208
330
1F
100
AcDbEntity
  8
LC-001-100-D00-0
 62
     7
370
    50
100
AcDbLine
 10
649.577297
 20
403.660615
 30
0.0
 11
649.577297
 21
401.660616
 31
0.0
  0
LINE
  5
209
330
1F
100
AcDbEntity
  8
LC-001-100-D00-0
 62
     7
370
    50
100
AcDbLine
 10
650.283443
 20
403.849827
 30
0.0
 11
649.577297
 21
403.660615
 31
0.0
  0
ARC
  5
20A
330
1F
100
AcDbEntity
  8
LC-001-100-D00-0
 62
     7
370
    50
100
AcDbCircle
 10
650.128151
 20
404.429382
 30
0.0
 40
0.6000000000000886
100
AcDbArc
 50
285.0
 51
0.0
  0
LINE
  5
20B
330
1F
100
AcDbEntity
  8
LC-001-100-D00-0
 62
     7
370
    50
100
AcDbLine
 10
650.728151
 20
406.891849
 30
0.0
 11
650.728151
 21
404.429382
 31
0.0
  0
ARC
  5
20C
330
1F
100
AcDbEntity
  8
LC-001-100-D00-0
 62
     7
370
    50
100
AcDbCircle
 10
650.128151
 20
406.891849
 30
0.0
 40
0.6000000000002501
100
AcDbArc
 50
0.0
 51
75.0
  0
LINE
  5
20D
330
1F
100
AcDbEntity
  8
LC-001-100-D00-0
 62
     7
370
    50
100
AcDbLine
 10
649.577297
 20
407.660615
 30
0.0
 11
650.283443
 21
407.471405
 31
0.0
  0
LINE
  5
20E
330
1F
100
AcDbEntity
  8
LC-001-100-D00-0
 62
     7
370
    50
100
AcDbLine
 10
649.577297
 20
409.660616
 30
0.0
 11
649.577297
 21
407.660615
 31
0.0
  0
LINE
  5
20F
330
1F
100
AcDbEntity
  8
LC-001-100-D00-0
 62
     7
370
    50
100
AcDbLine
 10
649.577297
 20
401.660616
 30
0.0
 11
651.528151
 21
401.660616
 31
0.0
  0
LINE
  5
210
330
1F
100
AcDbEntity
  8
LC-001-100-D00-0
 62
     7
370
    50
100
AcDbLine
 10
649.577297
 20
409.660616
 30
0.0
 11
651.528157
 21
409.660616
 31
0.0
  0
LINE
  5
211
330
1F
100
AcDbEntity
  8
LC-001-100-D00-0
 62
     7
370
    50
100
AcDbLine
 10
661.128151
 20
404.429382
 30
0.0
 11
661.128151
 21
406.891849
 31
0.0
  0
ARC
  5
212
330
1F
100
AcDbEntity
  8
LC-001-100-D00-0
 62
     7
370
    50
100
AcDbCircle
 10
661.728151
 20
404.429382
 30
0.0
 40
0.6000000000001364
100
AcDbArc
 50
180.0
 51
255.0
  0
LINE
  5
213
330
1F
100
AcDbEntity
  8
LC-001-100-D00-0
 62
     7
370
    50
100
AcDbLine
 10
662.279017
 20
403.660615
 30
0.0
 11
661.57286
 21
403.849827
 31
0.0
  0
LINE
  5
214
330
1F
100
AcDbEntity
  8
LC-001-100-D00-0
 62
     7
370
    50
100
AcDbLine
 10
662.279017
 20
403.660615
 30
0.0
 11
662.279017
 21
401.660616
 31
0.0
  0
LINE
  5
215
330
1F
100
AcDbEntity
  8
LC-001-100-D00-0
 62
     7
370
    50
100
AcDbLine
 10
659.328151
 20
402.660616
 30
0.0
 11
660.328151
 21
401.660616
 31
0.0
  0
LINE
  5
216
330
1F
100
AcDbEntity
  8
LC-001-100-D00-0
 62
     7
370
    50
100
AcDbLine
 10
659.328151
 20
402.660616
 30
0.0
 11
659.32814
 21
408.660616
 31
0.0
  0
LINE
  5
217
330
1F
100
AcDbEntity
  8
LC-001-100-D00-0
 62
     7
370
    50
100
AcDbLine
 10
660.328157
 20
409.660616
 30
0.0
 11
659.32814
 21
408.660616
 31
0.0
  0
LINE
  5
218
330
1F
100
AcDbEntity
  8
LC-001-100-D00-0
 62
     7
370
    50
100
AcDbLine
 10
662.279017
 20
409.660616
 30
0.0
 11
662.279017
 21
407.660615
 31
0.0
  0
LINE
  5
219
330
1F
100
AcDbEntity
  8
LC-001-100-D00-0
 62
     7
370
    50
100
AcDbLine
 10
661.57286
 20
407.471405
 30
0.0
 11
662.279017
 21
407.660615
 31
0.0
  0
ARC
  5
21A
330
1F
100
AcDbEntity
  8
LC-001-100-D00-0
 62
     7
370
    50
100
AcDbCircle
 10
661.728151
 20
406.891849
 30
0.0
 40
0.600000000000367
100
AcDbArc
 50
105.0
 51
180.0
  0
LINE
  5
21B
330
1F
100
AcDbEntity
  8
LC-001-100-D00-0
 62
     7
370
    50
100
AcDbLine
 10
660.328151
 20
401.660616
 30
0.0
 11
662.279017
 21
401.660616
 31
0.0
  0
LINE
  5
21C
330
1F
100
AcDbEntity
  8
LC-001-100-D00-0
 62
     7
370
    50
100
AcDbLine
 10
660.328157
 20
409.660616
 30
0.0
 11
662.279017
 21
409.660616
 31
0.0
  0
LINE
  5
21D
330
1F
100
AcDbEntity
  8
LC-001-100-D00-0
 62
     7
370
    50
100
AcDbLine
 10
652.528151
 20
402.660616
 30
0.0
 11
652.685991
 21
402.660616
 31
0.0
  0
LINE
  5
21E
330
1F
100
AcDbEntity
  8
LC-001-100-D00-0
 62
     7
370
    50
100
AcDbLine
 10
659.170312
 20
402.660616
 30
0.0
 11
659.328151
 21
402.660616
 31
0.0
  0
LINE
  5
21F
330
1F
100
AcDbEntity
  8
LC-001-100-D00-0
 62
     7
370
    50
100
AcDbLine
 10
660.328151
 20
401.660616
 30
0.0
 11
659.79237
 21
401.660616
 31
0.0
  0
LINE
  5
220
330
1F
100
AcDbEntity
  8
LC-001-100-D00-0
 62
     7
370
    50
100
AcDbLine
 10
652.063933
 20
401.660616
 30
0.0
 11
651.528151
 21
401.660616
 31
0.0
  0
LINE
  5
221
330
1F
100
AcDbEntity
  8
LC-001-100-D00-0
 62
     7
370
    50
100
AcDbLine
 10
662.279017
 20
409.660616
 30
0.0
 11
659.828163
 21
409.660616
 31
0.0
  0
LINE
  5
222
330
1F
100
AcDbEntity
  8
LC-001-100-D00-0
 62
     7
370
    50
100
AcDbLine
 10
659.828163
 20
409.660616
 30
0.0
 11
659.828151
 21
420.660616
 31
0.0
  0
LINE
  5
223
330
1F
100
AcDbEntity
  8
LC-001-100-D00-0
 62
     7
370
    50
100
AcDbLine
 10
659.828151
 20
420.660616
 30
0.0
 11
673.178151
 21
420.660616
 31
0.0
  0
ARC
  5
224
330
1F
100
AcDbEntity
  8
LC-001-100-D00-0
 62
     7
370
    50
100
AcDbCircle
 10
673.178151
 20
419.660616
 30
0.0
 40
1.000000000000227
100
AcDbArc
 50
0.0
 51
90.0
  0
LINE
  5
225
330
1F
100
AcDbEntity
  8
LC-001-100-D00-0
 62
     7
370
    50
100
AcDbLine
 10
674.178151
 20
419.660616
 30
0.0
 11
674.17816
 21
413.660616
 31
0.0
  0
LINE
  5
226
330
1F
100
AcDbEntity
  8
LC-001-100-D00-0
 62
     7
370
    50
100
AcDbLine
 10
671.178151
 20
413.660616
 30
0.0
 11
674.17816
 21
413.660616
 31
0.0
  0
LINE
  5
227
330
1F
100
AcDbEntity
  8
LC-001-100-D00-0
 62
     7
370
    50
100
AcDbLine
 10
671.178151
 20
413.660616
 30
0.0
 11
671.178139
 21
417.660616
 31
0.0
  0
LINE
  5
228
330
1F
100
AcDbEntity
  8
LC-001-100-D00-0
 62
     7
370
    50
100
AcDbLine
 10
666.678151
 20
417.660616
 30
0.0
 11
671.178139
 21
417.660616
 31
0.0
  0
ARC
  5
229
330
1F
100
AcDbEntity
  8
LC-001-100-D00-0
 62
     7
370
    50
100
AcDbCircle
 10
666.678151
 20
416.660616
 30
0.0
 40
1.000000000000227
100
AcDbArc
 50
90.0
 51
180.0
  0
LINE
  5
22A
330
1F
100
AcDbEntity
  8
LC-001-100-D00-0
 62
     7
370
    50
100
AcDbLine
 10
665.678151
 20
402.660616
 30
0.0
 11
665.678151
 21
416.660616
 31
0.0
  0
ARC
  5
22B
330
1F
100
AcDbEntity
  8
LC-001-100-D00-0
 62
     7
370
    50
100
AcDbCircle
 10
664.678151
 20
402.660616
 30
0.0
 40
1.0
100
AcDbArc
 50
270.0
 51
0.0
  0
LINE
  5
22C
330
1F
100
AcDbEntity
  8
LC-001-100-D00-0
 62
     7
370
    50
100
AcDbLine
 10
664.678151
 20
401.660616
 30
0.0
 11
662.279017
 21
401.660616
 31
0.0
  0
LINE
  5
22D
330
1F
100
AcDbEntity
  8
LC-001-100-D00-0
 62
     7
370
    50
100
AcDbLine
 10
662.279017
 20
403.660615
 30
0.0
 11
662.279017
 21
401.660616
 31
0.0
  0
LINE
  5
22E
330
1F
100
AcDbEntity
  8
LC-001-100-D00-0
 62
     7
370
    50
100
AcDbLine
 10
661.628151
 20
403.660616
 30
0.0
 11
662.279017
 21
403.660615
 31
0.0
  0
ARC
  5
22F
330
1F
100
AcDbEntity
  8
LC-001-100-D00-0
 62
     7
370
    50
100
AcDbCircle
 10
661.628151
 20
404.160616
 30
0.0
 40
0.5
100
AcDbArc
 50
180.0
 51
270.0
  0
LINE
  5
230
330
1F
100
AcDbEntity
  8
LC-001-100-D00-0
 62
     7
370
    50
100
AcDbLine
 10
661.128151
 20
407.160616
 30
0.0
 11
661.128151
 21
404.160616
 31
0.0
  0
ARC
  5
231
330
1F
100
AcDbEntity
  8
LC-001-100-D00-0
 62
     7
370
    50
100
AcDbCircle
 10
661.628151
 20
407.160616
 30
0.0
 40
0.5000000000002274
100
AcDbArc
 50
90.0
 51
180.0
  0
LINE
  5
232
330
1F
100
AcDbEntity
  8
LC-001-100-D00-0
 62
     7
370
    50
100
AcDbLine
 10
662.279017
 20
407.660615
 30
0.0
 11
661.628151
 21
407.660616
 31
0.0
  0
LINE
  5
233
330
1F
100
AcDbEntity
  8
LC-001-100-D00-0
 62
     7
370
    50
100
AcDbLine
 10
662.279017
 20
409.660616
 30
0.0
 11
662.279017
 21
407.660615
 31
0.0
  0
ARC
  5
234
330
1F
100
AcDbEntity
  8
LC-001-100-D00-0
 62
     7
370
    50
100
AcDbCircle
 10
645.178151
 20
416.660616
 30
0.0
 40
1.000000000000227
100
AcDbArc
 50
0.0
 51
90.0
  0
ARC
  5
235
330
1F
100
AcDbEntity
  8
LC-001-100-D00-0
 62
     7
370
    50
100
AcDbCircle
 10
647.178151
 20
402.660616
 30
0.0
 40
1.000000000000227
100
AcDbArc
 50
180.0
 51
270.0
  0
LINE
  5
236
330
1F
100
AcDbEntity
  8
LC-001-100-D00-0
 62
     7
370
    50
100
AcDbLine
 10
646.178151
 20
416.660616
 30
0.0
 11
646.178151
 21
402.660616
 31
0.0
  0
LINE
  5
237
330
1F
100
AcDbEntity
  8
LC-001-100-D00-0
 62
     7
370
    50
100
AcDbLine
 10
650.728151
 20
404.160616
 30
0.0
 11
650.728151
 21
407.160616
 31
0.0
  0
LINE
  5
238
330
1F
100
AcDbEntity
  8
LC-001-100-D00-0
 62
     7
370
    50
100
AcDbLine
 10
652.028151
 20
420.660616
 30
0.0
 11
652.02815
 21
409.660616
 31
0.0
  0
LINE
  5
239
330
1F
100
AcDbEntity
  8
LC-001-100-D00-0
 62
     7
370
    50
100
AcDbLine
 10
652.028151
 20
420.660616
 30
0.0
 11
659.828151
 21
420.660616
 31
0.0
  0
LINE
  5
23A
330
1F
100
AcDbEntity
  8
LC-001-100-D00-0
 62
     7
370
    50
100
AcDbLine
 10
649.577297
 20
409.660616
 30
0.0
 11
649.577297
 21
407.660615
 31
0.0
  0
LINE
  5
23B
330
1F
100
AcDbEntity
  8
LC-001-100-D00-0
 62
     7
370
    50
100
AcDbLine
 10
649.577297
 20
403.660615
 30
0.0
 11
649.577297
 21
401.660616
 31
0.0
  0
ARC
  5
23C
330
1F
100
AcDbEntity
  8
LC-001-100-D00-0
 62
     7
370
    50
100
AcDbCircle
 10
650.228151
 20
404.160616
 30
0.0
 40
0.5000000000002274
100
AcDbArc
 50
270.0
 51
0.0
  0
LINE
  5
23D
330
1F
100
AcDbEntity
  8
LC-001-100-D00-0
 62
     7
370
    50
100
AcDbLine
 10
649.577297
 20
403.660615
 30
0.0
 11
650.228151
 21
403.660616
 31
0.0
  0
LINE
  5
23E
330
1F
100
AcDbEntity
  8
LC-001-100-D00-0
 62
     7
370
    50
100
AcDbLine
 10
640.678144
 20
417.660616
 30
0.0
 11
640.678151
 21
413.660616
 31
0.0
  0
LINE
  5
23F
330
1F
100
AcDbEntity
  8
LC-001-100-D00-0
 62
     7
370
    50
100
AcDbLine
 10
637.678153
 20
413.660616
 30
0.0
 11
637.678151
 21
419.660616
 31
0.0
  0
ARC
  5
240
330
1F
100
AcDbEntity
  8
LC-001-100-D00-0
 62
     7
370
    50
100
AcDbCircle
 10
638.678151
 20
419.660616
 30
0.0
 40
1.000000000000227
100
AcDbArc
 50
90.0
 51
180.0
  0
LINE
  5
241
330
1F
100
AcDbEntity
  8
LC-001-100-D00-0
 62
     7
370
    50
100
AcDbLine
 10
650.228151
 20
407.660616
 30
0.0
 11
649.577297
 21
407.660615
 31
0.0
  0
ARC
  5
242
330
1F
100
AcDbEntity
  8
LC-001-100-D00-0
 62
     7
370
    50
100
AcDbCircle
 10
650.228151
 20
407.160616
 30
0.0
 40
0.5
100
AcDbArc
 50
0.0
 51
90.0
  0
LINE
  5
243
330
1F
100
AcDbEntity
  8
LC-001-100-D00-0
 62
     7
370
    50
100
AcDbLine
 10
652.02815
 20
409.660616
 30
0.0
 11
649.577297
 21
409.660616
 31
0.0
  0
LINE
  5
244
330
1F
100
AcDbEntity
  8
LC-001-100-D00-0
 62
     7
370
    50
100
AcDbLine
 10
649.577297
 20
401.660616
 30
0.0
 11
647.178151
 21
401.660616
 31
0.0
  0
LINE
  5
245
330
1F
100
AcDbEntity
  8
LC-001-100-D00-0
 62
     7
370
    50
100
AcDbLine
 10
640.678144
 20
417.660616
 30
0.0
 11
645.178151
 21
417.660616
 31
0.0
  0
LINE
  5
246
330
1F
100
AcDbEntity
  8
LC-001-100-D00-0
 62
     7
370
    50
100
AcDbLine
 10
638.678151
 20
420.660616
 30
0.0
 11
652.028151
 21
420.660616
 31
0.0
  0
LINE
  5
247
330
1F
100
AcDbEntity
  8
LC-001-100-D00-0
 62
     7
370
    50
100
AcDbLine
 10
637.678153
 20
413.660616
 30
0.0
 11
640.678151
 21
413.660616
 31
0.0
  0
LINE
  5
248
330
1F
100
AcDbEntity
  8
LC-001-100-D00-0
 62
     7
370
    50
100
AcDbLine
 10
669.178151
 20
413.660616
 30
0.0
 11
671.178151
 21
413.660616
 31
0.0
  0
LINE
  5
249
330
1F
100
AcDbEntity
  8
LC-001-100-D00-0
 62
     7
370
    50
100
AcDbLine
 10
640.678151
 20
413.660616
 30
0.0
 11
642.678151
 21
413.660616
 31
0.0
  0
LINE
  5
24A
330
1F
100
AcDbEntity
  8
LC-001-100-D00-0
 62
     7
370
    50
100
AcDbLine
 10
642.678151
 20
413.660616
 30
0.0
 11
646.178163
 21
413.660616
 31
0.0
  0
LINE
  5
24B
330
1F
100
AcDbEntity
  8
LC-001-100-D00-0
 62
     7
370
    50
100
AcDbLine
 10
665.67815
 20
413.660616
 30
0.0
 11
669.178151
 21
413.660616
 31
0.0
  0
LINE
  5
24C
330
1F
100
AcDbEntity
  8
LC-001-100-D00-0
 62
     7
370
    50
100
AcDbLine
 10
292.528152
 20
408.660616
 30
0.0
 11
291.52815
 21
409.660616
 31
0.0
  0
LINE
  5
24D
330
1F
100
AcDbEntity
  8
LC-001-100-D00-0
 62
     7
370
    50
100
AcDbLine
 10
292.528152
 20
408.660616
 30
0.0
 11
292.528151
 21
402.660616
 31
0.0
  0
LINE
  5
24E
330
1F
100
AcDbEntity
  8
LC-001-100-D00-0
 62
     7
370
    50
100
AcDbLine
 10
291.528151
 20
401.660616
 30
0.0
 11
292.528151
 21
402.660616
 31
0.0
  0
LINE
  5
24F
330
1F
100
AcDbEntity
  8
LC-001-100-D00-0
 62
     7
370
    50
100
AcDbLine
 10
289.577297
 20
403.660615
 30
0.0
 11
289.577297
 21
401.660616
 31
0.0
  0
LINE
  5
250
330
1F
100
AcDbEntity
  8
LC-001-100-D00-0
 62
     7
370
    50
100
AcDbLine
 10
290.283443
 20
403.849827
 30
0.0
 11
289.577297
 21
403.660615
 31
0.0
  0
ARC
  5
251
330
1F
100
AcDbEntity
  8
LC-001-100-D00-0
 62
     7
370
    50
100
AcDbCircle
 10
290.128151
 20
404.429382
 30
0.0
 40
0.6000000000003082
100
AcDbArc
 50
285.0
 51
0.0
  0
LINE
  5
252
330
1F
100
AcDbEntity
  8
LC-001-100-D00-0
 62
     7
370
    50
100
AcDbLine
 10
290.728151
 20
406.891849
 30
0.0
 11
290.728151
 21
404.429382
 31
0.0
  0
ARC
  5
253
330
1F
100
AcDbEntity
  8
LC-001-100-D00-0
 62
     7
370
    50
100
AcDbCircle
 10
290.128151
 20
406.891849
 30
0.0
 40
0.6000000000002501
100
AcDbArc
 50
0.0
 51
75.0
  0
LINE
  5
254
330
1F
100
AcDbEntity
  8
LC-001-100-D00-0
 62
     7
370
    50
100
AcDbLine
 10
289.577297
 20
407.660615
 30
0.0
 11
290.283443
 21
407.471405
 31
0.0
  0
LINE
  5
255
330
1F
100
AcDbEntity
  8
LC-001-100-D00-0
 62
     7
370
    50
100
AcDbLine
 10
289.577297
 20
409.660616
 30
0.0
 11
289.577297
 21
407.660615
 31
0.0
  0
LINE
  5
256
330
1F
100
AcDbEntity
  8
LC-001-100-D00-0
 62
     7
370
    50
100
AcDbLine
 10
289.577297
 20
401.660616
 30
0.0
 11
291.528151
 21
401.660616
 31
0.0
  0
LINE
  5
257
330
1F
100
AcDbEntity
  8
LC-001-100-D00-0
 62
     7
370
    50
100
AcDbLine
 10
289.577297
 20
409.660616
 30
0.0
 11
291.52815
 21
409.660616
 31
0.0
  0
LINE
  5
258
330
1F
100
AcDbEntity
  8
LC-001-100-D00-0
 62
     7
370
    50
100
AcDbLine
 10
301.128151
 20
404.429382
 30
0.0
 11
301.128151
 21
406.891849
 31
0.0
  0
ARC
  5
259
330
1F
100
AcDbEntity
  8
LC-001-100-D00-0
 62
     7
370
    50
100
AcDbCircle
 10
301.728151
 20
404.429382
 30
0.0
 40
0.6000000000000227
100
AcDbArc
 50
180.0
 51
255.0
  0
LINE
  5
25A
330
1F
100
AcDbEntity
  8
LC-001-100-D00-0
 62
     7
370
    50
100
AcDbLine
 10
302.279002
 20
403.660615
 30
0.0
 11
301.57286
 21
403.849827
 31
0.0
  0
LINE
  5
25B
330
1F
100
AcDbEntity
  8
LC-001-100-D00-0
 62
     7
370
    50
100
AcDbLine
 10
302.279002
 20
403.660615
 30
0.0
 11
302.279002
 21
401.660616
 31
0.0
  0
LINE
  5
25C
330
1F
100
AcDbEntity
  8
LC-001-100-D00-0
 62
     7
370
    50
100
AcDbLine
 10
299.328151
 20
402.660616
 30
0.0
 11
300.328151
 21
401.660616
 31
0.0
  0
LINE
  5
25D
330
1F
100
AcDbEntity
  8
LC-001-100-D00-0
 62
     7
370
    50
100
AcDbLine
 10
299.328151
 20
402.660616
 30
0.0
 11
299.328148
 21
408.660616
 31
0.0
  0
LINE
  5
25E
330
1F
100
AcDbEntity
  8
LC-001-100-D00-0
 62
     7
370
    50
100
AcDbLine
 10
300.32815
 20
409.660616
 30
0.0
 11
299.328148
 21
408.660616
 31
0.0
  0
LINE
  5
25F
330
1F
100
AcDbEntity
  8
LC-001-100-D00-0
 62
     7
370
    50
100
AcDbLine
 10
302.279002
 20
409.660616
 30
0.0
 11
302.279002
 21
407.660615
 31
0.0
  0
LINE
  5
260
330
1F
100
AcDbEntity
  8
LC-001-100-D00-0
 62
     7
370
    50
100
AcDbLine
 10
301.57286
 20
407.471405
 30
0.0
 11
302.279002
 21
407.660615
 31
0.0
  0
ARC
  5
261
330
1F
100
AcDbEntity
  8
LC-001-100-D00-0
 62
     7
370
    50
100
AcDbCircle
 10
301.728151
 20
406.891849
 30
0.0
 40
0.6000000000003376
100
AcDbArc
 50
105.0
 51
180.0
  0
LINE
  5
262
330
1F
100
AcDbEntity
  8
LC-001-100-D00-0
 62
     7
370
    50
100
AcDbLine
 10
300.328151
 20
401.660616
 30
0.0
 11
302.279002
 21
401.660616
 31
0.0
  0
LINE
  5
263
330
1F
100
AcDbEntity
  8
LC-001-100-D00-0
 62
     7
370
    50
100
AcDbLine
 10
300.32815
 20
409.660616
 30
0.0
 11
302.279002
 21
409.660616
 31
0.0
  0
LINE
  5
264
330
1F
100
AcDbEntity
  8
LC-001-100-D00-0
 62
     7
370
    50
100
AcDbLine
 10
292.528151
 20
402.660616
 30
0.0
 11
292.685991
 21
402.660616
 31
0.0
  0
LINE
  5
265
330
1F
100
AcDbEntity
  8
LC-001-100-D00-0
 62
     7
370
    50
100
AcDbLine
 10
299.170312
 20
402.660616
 30
0.0
 11
299.328151
 21
402.660616
 31
0.0
  0
LINE
  5
266
330
1F
100
AcDbEntity
  8
LC-001-100-D00-0
 62
     7
370
    50
100
AcDbLine
 10
300.328151
 20
401.660616
 30
0.0
 11
299.79237
 21
401.660616
 31
0.0
  0
LINE
  5
267
330
1F
100
AcDbEntity
  8
LC-001-100-D00-0
 62
     7
370
    50
100
AcDbLine
 10
292.063933
 20
401.660616
 30
0.0
 11
291.528151
 21
401.660616
 31
0.0
  0
LINE
  5
268
330
1F
100
AcDbEntity
  8
LC-001-100-D00-0
 62
     7
370
    50
100
AcDbLine
 10
302.279002
 20
409.660616
 30
0.0
 11
299.828149
 21
409.660616
 31
0.0
  0
LINE
  5
269
330
1F
100
AcDbEntity
  8
LC-001-100-D00-0
 62
     7
370
    50
100
AcDbLine
 10
299.828149
 20
409.660616
 30
0.0
 11
299.828151
 21
420.660616
 31
0.0
  0
LINE
  5
26A
330
1F
100
AcDbEntity
  8
LC-001-100-D00-0
 62
     7
370
    50
100
AcDbLine
 10
299.828151
 20
420.660616
 30
0.0
 11
313.178151
 21
420.660616
 31
0.0
  0
ARC
  5
26B
330
1F
100
AcDbEntity
  8
LC-001-100-D00-0
 62
     7
370
    50
100
AcDbCircle
 10
313.178151
 20
419.660616
 30
0.0
 40
1.000000000000227
100
AcDbArc
 50
0.0
 51
90.0
  0
LINE
  5
26C
330
1F
100
AcDbEntity
  8
LC-001-100-D00-0
 62
     7
370
    50
100
AcDbLine
 10
314.178151
 20
419.660616
 30
0.0
 11
314.178153
 21
413.660616
 31
0.0
  0
LINE
  5
26D
330
1F
100
AcDbEntity
  8
LC-001-100-D00-0
 62
     7
370
    50
100
AcDbLine
 10
311.178151
 20
413.660616
 30
0.0
 11
314.178153
 21
413.660616
 31
0.0
  0
LINE
  5
26E
330
1F
100
AcDbEntity
  8
LC-001-100-D00-0
 62
     7
370
    50
100
AcDbLine
 10
311.178151
 20
413.660616
 30
0.0
 11
311.178155
 21
417.660616
 31
0.0
  0
LINE
  5
26F
330
1F
100
AcDbEntity
  8
LC-001-100-D00-0
 62
     7
370
    50
100
AcDbLine
 10
306.678151
 20
417.660616
 30
0.0
 11
311.178155
 21
417.660616
 31
0.0
  0
ARC
  5
270
330
1F
100
AcDbEntity
  8
LC-001-100-D00-0
 62
     7
370
    50
100
AcDbCircle
 10
306.678151
 20
416.660616
 30
0.0
 40
1.000000000000227
100
AcDbArc
 50
90.0
 51
180.0
  0
LINE
  5
271
330
1F
100
AcDbEntity
  8
LC-001-100-D00-0
 62
     7
370
    50
100
AcDbLine
 10
305.678151
 20
402.660616
 30
0.0
 11
305.678151
 21
416.660616
 31
0.0
  0
ARC
  5
272
330
1F
100
AcDbEntity
  8
LC-001-100-D00-0
 62
     7
370
    50
100
AcDbCircle
 10
304.678151
 20
402.660616
 30
0.0
 40
1.0
100
AcDbArc
 50
270.0
 51
0.0
  0
LINE
  5
273
330
1F
100
AcDbEntity
  8
LC-001-100-D00-0
 62
     7
370
    50
100
AcDbLine
 10
304.678151
 20
401.660616
 30
0.0
 11
302.279002
 21
401.660616
 31
0.0
  0
LINE
  5
274
330
1F
100
AcDbEntity
  8
LC-001-100-D00-0
 62
     7
370
    50
100
AcDbLine
 10
302.279002
 20
403.660615
 30
0.0
 11
302.279002
 21
401.660616
 31
0.0
  0
LINE
  5
275
330
1F
100
AcDbEntity
  8
LC-001-100-D00-0
 62
     7
370
    50
100
AcDbLine
 10
301.628151
 20
403.660616
 30
0.0
 11
302.279002
 21
403.660615
 31
0.0
  0
ARC
  5
276
330
1F
100
AcDbEntity
  8
LC-001-100-D00-0
 62
     7
370
    50
100
AcDbCircle
 10
301.628151
 20
404.160616
 30
0.0
 40
0.5
100
AcDbArc
 50
180.0
 51
270.0
  0
LINE
  5
277
330
1F
100
AcDbEntity
  8
LC-001-100-D00-0
 62
     7
370
    50
100
AcDbLine
 10
301.128151
 20
407.160616
 30
0.0
 11
301.128151
 21
404.160616
 31
0.0
  0
ARC
  5
278
330
1F
100
AcDbEntity
  8
LC-001-100-D00-0
 62
     7
370
    50
100
AcDbCircle
 10
301.628151
 20
407.160616
 30
0.0
 40
0.5000000000002274
100
AcDbArc
 50
90.0
 51
180.0
  0
LINE
  5
279
330
1F
100
AcDbEntity
  8
LC-001-100-D00-0
 62
     7
370
    50
100
AcDbLine
 10
302.279002
 20
407.660615
 30
0.0
 11
301.628151
 21
407.660616
 31
0.0
  0
LINE
  5
27A
330
1F
100
AcDbEntity
  8
LC-001-100-D00-0
 62
     7
370
    50
100
AcDbLine
 10
302.279002
 20
409.660616
 30
0.0
 11
302.279002
 21
407.660615
 31
0.0
  0
ARC
  5
27B
330
1F
100
AcDbEntity
  8
LC-001-100-D00-0
 62
     7
370
    50
100
AcDbCircle
 10
285.178151
 20
416.660616
 30
0.0
 40
1.000000000000227
100
AcDbArc
 50
0.0
 51
90.0
  0
ARC
  5
27C
330
1F
100
AcDbEntity
  8
LC-001-100-D00-0
 62
     7
370
    50
100
AcDbCircle
 10
287.178151
 20
402.660616
 30
0.0
 40
1.000000000000227
100
AcDbArc
 50
180.0
 51
270.0
  0
LINE
  5
27D
330
1F
100
AcDbEntity
  8
LC-001-100-D00-0
 62
     7
370
    50
100
AcDbLine
 10
286.178151
 20
416.660616
 30
0.0
 11
286.178151
 21
402.660616
 31
0.0
  0
LINE
  5
27E
330
1F
100
AcDbEntity
  8
LC-001-100-D00-0
 62
     7
370
    50
100
AcDbLine
 10
290.728151
 20
404.160616
 30
0.0
 11
290.728151
 21
407.160616
 31
0.0
  0
LINE
  5
27F
330
1F
100
AcDbEntity
  8
LC-001-100-D00-0
 62
     7
370
    50
100
AcDbLine
 10
292.028151
 20
420.660616
 30
0.0
 11
292.028151
 21
409.660616
 31
0.0
  0
LINE
  5
280
330
1F
100
AcDbEntity
  8
LC-001-100-D00-0
 62
     7
370
    50
100
AcDbLine
 10
292.028151
 20
420.660616
 30
0.0
 11
299.828151
 21
420.660616
 31
0.0
  0
LINE
  5
281
330
1F
100
AcDbEntity
  8
LC-001-100-D00-0
 62
     7
370
    50
100
AcDbLine
 10
289.577297
 20
409.660616
 30
0.0
 11
289.577297
 21
407.660615
 31
0.0
  0
LINE
  5
282
330
1F
100
AcDbEntity
  8
LC-001-100-D00-0
 62
     7
370
    50
100
AcDbLine
 10
289.577297
 20
403.660615
 30
0.0
 11
289.577297
 21
401.660616
 31
0.0
  0
ARC
  5
283
330
1F
100
AcDbEntity
  8
LC-001-100-D00-0
 62
     7
370
    50
100
AcDbCircle
 10
290.228151
 20
404.160616
 30
0.0
 40
0.5000000000002274
100
AcDbArc
 50
270.0
 51
0.0
  0
LINE
  5
284
330
1F
100
AcDbEntity
  8
LC-001-100-D00-0
 62
     7
370
    50
100
AcDbLine
 10
289.577297
 20
403.660615
 30
0.0
 11
290.228151
 21
403.660616
 31
0.0
  0
LINE
  5
285
330
1F
100
AcDbEntity
  8
LC-001-100-D00-0
 62
     7
370
    50
100
AcDbLine
 10
280.678153
 20
417.660616
 30
0.0
 11
280.678151
 21
413.660616
 31
0.0
  0
LINE
  5
286
330
1F
100
AcDbEntity
  8
LC-001-100-D00-0
 62
     7
370
    50
100
AcDbLine
 10
277.678154
 20
413.660616
 30
0.0
 11
277.678151
 21
419.660616
 31
0.0
  0
ARC
  5
287
330
1F
100
AcDbEntity
  8
LC-001-100-D00-0
 62
     7
370
    50
100
AcDbCircle
 10
278.678151
 20
419.660616
 30
0.0
 40
1.000000000000227
100
AcDbArc
 50
90.0
 51
180.0
  0
LINE
  5
288
330
1F
100
AcDbEntity
  8
LC-001-100-D00-0
 62
     7
370
    50
100
AcDbLine
 10
290.228151
 20
407.660616
 30
0.0
 11
289.577297
 21
407.660615
 31
0.0
  0
ARC
  5
289
330
1F
100
AcDbEntity
  8
LC-001-100-D00-0
 62
     7
370
    50
100
AcDbCircle
 10
290.228151
 20
407.160616
 30
0.0
 40
0.5
100
AcDbArc
 50
0.0
 51
90.0
  0
LINE
  5
28A
330
1F
100
AcDbEntity
  8
LC-001-100-D00-0
 62
     7
370
    50
100
AcDbLine
 10
292.028151
 20
409.660616
 30
0.0
 11
289.577297
 21
409.660616
 31
0.0
  0
LINE
  5
28B
330
1F
100
AcDbEntity
  8
LC-001-100-D00-0
 62
     7
370
    50
100
AcDbLine
 10
289.577297
 20
401.660616
 30
0.0
 11
287.178151
 21
401.660616
 31
0.0
  0
LINE
  5
28C
330
1F
100
AcDbEntity
  8
LC-001-100-D00-0
 62
     7
370
    50
100
AcDbLine
 10
280.678153
 20
417.660616
 30
0.0
 11
285.178151
 21
417.660616
 31
0.0
  0
LINE
  5
28D
330
1F
100
AcDbEntity
  8
LC-001-100-D00-0
 62
     7
370
    50
100
AcDbLine
 10
278.678151
 20
420.660616
 30
0.0
 11
292.028151
 21
420.660616
 31
0.0
  0
LINE
  5
28E
330
1F
100
AcDbEntity
  8
LC-001-100-D00-0
 62
     7
370
    50
100
AcDbLine
 10
277.678154
 20
413.660616
 30
0.0
 11
280.678151
 21
413.660616
 31
0.0
  0
LINE
  5
28F
330
1F
100
AcDbEntity
  8
LC-001-100-D00-0
 62
     7
370
    50
100
AcDbLine
 10
309.178151
 20
413.660616
 30
0.0
 11
311.178151
 21
413.660616
 31
0.0
  0
LINE
  5
290
330
1F
100
AcDbEntity
  8
LC-001-100-D00-0
 62
     7
370
    50
100
AcDbLine
 10
280.678151
 20
413.660616
 30
0.0
 11
282.678151
 21
413.660616
 31
0.0
  0
LINE
  5
291
330
1F
100
AcDbEntity
  8
LC-001-100-D00-0
 62
     7
370
    50
100
AcDbLine
 10
282.678151
 20
413.660616
 30
0.0
 11
286.178149
 21
413.660616
 31
0.0
  0
LINE
  5
292
330
1F
100
AcDbEntity
  8
LC-001-100-D00-0
 62
     7
370
    50
100
AcDbLine
 10
305.678151
 20
413.660616
 30
0.0
 11
309.178151
 21
413.660616
 31
0.0
  0
LINE
  5
293
330
1F
100
AcDbEntity
  8
LC-001-100-D00-0
 62
     7
370
    50
100
AcDbLine
 10
492.528155
 20
408.660616
 30
0.0
 11
491.528153
 21
409.660616
 31
0.0
  0
LINE
  5
294
330
1F
100
AcDbEntity
  8
LC-001-100-D00-0
 62
     7
370
    50
100
AcDbLine
 10
492.528155
 20
408.660616
 30
0.0
 11
492.528151
 21
402.660616
 31
0.0
  0
LINE
  5
295
330
1F
100
AcDbEntity
  8
LC-001-100-D00-0
 62
     7
370
    50
100
AcDbLine
 10
491.528151
 20
401.660616
 30
0.0
 11
492.528151
 21
402.660616
 31
0.0
  0
LINE
  5
296
330
1F
100
AcDbEntity
  8
LC-001-100-D00-0
 62
     7
370
    50
100
AcDbLine
 10
489.5773
 20
403.660615
 30
0.0
 11
489.5773
 21
401.660616
 31
0.0
  0
LINE
  5
297
330
1F
100
AcDbEntity
  8
LC-001-100-D00-0
 62
     7
370
    50
100
AcDbLine
 10
490.283443
 20
403.849827
 30
0.0
 11
489.5773
 21
403.660615
 31
0.0
  0
ARC
  5
298
330
1F
100
AcDbEntity
  8
LC-001-100-D00-0
 62
     7
370
    50
100
AcDbCircle
 10
490.128151
 20
404.429382
 30
0.0
 40
0.6000000000000886
100
AcDbArc
 50
285.0
 51
0.0
  0
LINE
  5
299
330
1F
100
AcDbEntity
  8
LC-001-100-D00-0
 62
     7
370
    50
100
AcDbLine
 10
490.728151
 20
406.891849
 30
0.0
 11
490.728151
 21
404.429382
 31
0.0
  0
ARC
  5
29A
330
1F
100
AcDbEntity
  8
LC-001-100-D00-0
 62
     7
370
    50
100
AcDbCircle
 10
490.128151
 20
406.891849
 30
0.0
 40
0.6000000000002501
100
AcDbArc
 50
0.0
 51
75.0
  0
LINE
  5
29B
330
1F
100
AcDbEntity
  8
LC-001-100-D00-0
 62
     7
370
    50
100
AcDbLine
 10
489.5773
 20
407.660615
 30
0.0
 11
490.283443
 21
407.471405
 31
0.0
  0
LINE
  5
29C
330
1F
100
AcDbEntity
  8
LC-001-100-D00-0
 62
     7
370
    50
100
AcDbLine
 10
489.5773
 20
409.660616
 30
0.0
 11
489.5773
 21
407.660615
 31
0.0
  0
LINE
  5
29D
330
1F
100
AcDbEntity
  8
LC-001-100-D00-0
 62
     7
370
    50
100
AcDbLine
 10
489.5773
 20
401.660616
 30
0.0
 11
491.528151
 21
401.660616
 31
0.0
  0
LINE
  5
29E
330
1F
100
AcDbEntity
  8
LC-001-100-D00-0
 62
     7
370
    50
100
AcDbLine
 10
489.5773
 20
409.660616
 30
0.0
 11
491.528153
 21
409.660616
 31
0.0
  0
LINE
  5
29F
330
1F
100
AcDbEntity
  8
LC-001-100-D00-0
 62
     7
370
    50
100
AcDbLine
 10
501.128151
 20
404.429382
 30
0.0
 11
501.128151
 21
406.891849
 31
0.0
  0
ARC
  5
2A0
330
1F
100
AcDbEntity
  8
LC-001-100-D00-0
 62
     7
370
    50
100
AcDbCircle
 10
501.728151
 20
404.429382
 30
0.0
 40
0.6000000000000227
100
AcDbArc
 50
180.0
 51
255.0
  0
LINE
  5
2A1
330
1F
100
AcDbEntity
  8
LC-001-100-D00-0
 62
     7
370
    50
100
AcDbLine
 10
502.279005
 20
403.660615
 30
0.0
 11
501.57286
 21
403.849827
 31
0.0
  0
LINE
  5
2A2
330
1F
100
AcDbEntity
  8
LC-001-100-D00-0
 62
     7
370
    50
100
AcDbLine
 10
502.279005
 20
403.660615
 30
0.0
 11
502.279005
 21
401.660616
 31
0.0
  0
LINE
  5
2A3
330
1F
100
AcDbEntity
  8
LC-001-100-D00-0
 62
     7
370
    50
100
AcDbLine
 10
499.328151
 20
402.660616
 30
0.0
 11
500.328151
 21
401.660616
 31
0.0
  0
LINE
  5
2A4
330
1F
100
AcDbEntity
  8
LC-001-100-D00-0
 62
     7
370
    50
100
AcDbLine
 10
499.328151
 20
402.660616
 30
0.0
 11
499.328151
 21
408.660616
 31
0.0
  0
LINE
  5
2A5
330
1F
100
AcDbEntity
  8
LC-001-100-D00-0
 62
     7
370
    50
100
AcDbLine
 10
500.328153
 20
409.660616
 30
0.0
 11
499.328151
 21
408.660616
 31
0.0
  0
LINE
  5
2A6
330
1F
100
AcDbEntity
  8
LC-001-100-D00-0
 62
     7
370
    50
100
AcDbLine
 10
502.279005
 20
409.660616
 30
0.0
 11
502.279005
 21
407.660615
 31
0.0
  0
LINE
  5
2A7
330
1F
100
AcDbEntity
  8
LC-001-100-D00-0
 62
     7
370
    50
100
AcDbLine
 10
501.57286
 20
407.471405
 30
0.0
 11
502.279005
 21
407.660615
 31
0.0
  0
ARC
  5
2A8
330
1F
100
AcDbEntity
  8
LC-001-100-D00-0
 62
     7
370
    50
100
AcDbCircle
 10
501.728151
 20
406.891849
 30
0.0
 40
0.6000000000003376
100
AcDbArc
 50
105.0
 51
180.0
  0
LINE
  5
2A9
330
1F
100
AcDbEntity
  8
LC-001-100-D00-0
 62
     7
370
    50
100
AcDbLine
 10
500.328151
 20
401.660616
 30
0.0
 11
502.279005
 21
401.660616
 31
0.0
  0
LINE
  5
2AA
330
1F
100
AcDbEntity
  8
LC-001-100-D00-0
 62
     7
370
    50
100
AcDbLine
 10
500.328153
 20
409.660616
 30
0.0
 11
502.279005
 21
409.660616
 31
0.0
  0
LINE
  5
2AB
330
1F
100
AcDbEntity
  8
LC-001-100-D00-0
 62
     7
370
    50
100
AcDbLine
 10
492.528151
 20
402.660616
 30
0.0
 11
492.685991
 21
402.660616
 31
0.0
  0
LINE
  5
2AC
330
1F
100
AcDbEntity
  8
LC-001-100-D00-0
 62
     7
370
    50
100
AcDbLine
 10
499.170312
 20
402.660616
 30
0.0
 11
499.328151
 21
402.660616
 31
0.0
  0
LINE
  5
2AD
330
1F
100
AcDbEntity
  8
LC-001-100-D00-0
 62
     7
370
    50
100
AcDbLine
 10
500.328151
 20
401.660616
 30
0.0
 11
499.79237
 21
401.660616
 31
0.0
  0
LINE
  5
2AE
330
1F
100
AcDbEntity
  8
LC-001-100-D00-0
 62
     7
370
    50
100
AcDbLine
 10
492.063933
 20
401.660616
 30
0.0
 11
491.528151
 21
401.660616
 31
0.0
  0
LINE
  5
2AF
330
1F
100
AcDbEntity
  8
LC-001-100-D00-0
 62
     7
370
    50
100
AcDbLine
 10
502.279005
 20
409.660616
 30
0.0
 11
499.828152
 21
409.660616
 31
0.0
  0
LINE
  5
2B0
330
1F
100
AcDbEntity
  8
LC-001-100-D00-0
 62
     7
370
    50
100
AcDbLine
 10
499.828152
 20
409.660616
 30
0.0
 11
499.828151
 21
420.660616
 31
0.0
  0
LINE
  5
2B1
330
1F
100
AcDbEntity
  8
LC-001-100-D00-0
 62
     7
370
    50
100
AcDbLine
 10
499.828151
 20
420.660616
 30
0.0
 11
513.178151
 21
420.660616
 31
0.0
  0
ARC
  5
2B2
330
1F
100
AcDbEntity
  8
LC-001-100-D00-0
 62
     7
370
    50
100
AcDbCircle
 10
513.178151
 20
419.660616
 30
0.0
 40
1.000000000000227
100
AcDbArc
 50
0.0
 51
90.0
  0
LINE
  5
2B3
330
1F
100
AcDbEntity
  8
LC-001-100-D00-0
 62
     7
370
    50
100
AcDbLine
 10
514.178151
 20
419.660616
 30
0.0
 11
514.178149
 21
413.660616
 31
0.0
  0
LINE
  5
2B4
330
1F
100
AcDbEntity
  8
LC-001-100-D00-0
 62
     7
370
    50
100
AcDbLine
 10
511.178151
 20
413.660616
 30
0.0
 11
514.178149
 21
413.660616
 31
0.0
  0
LINE
  5
2B5
330
1F
100
AcDbEntity
  8
LC-001-100-D00-0
 62
     7
370
    50
100
AcDbLine
 10
511.178151
 20
413.660616
 30
0.0
 11
511.17815
 21
417.660616
 31
0.0
  0
LINE
  5
2B6
330
1F
100
AcDbEntity
  8
LC-001-100-D00-0
 62
     7
370
    50
100
AcDbLine
 10
506.678151
 20
417.660616
 30
0.0
 11
511.17815
 21
417.660616
 31
0.0
  0
ARC
  5
2B7
330
1F
100
AcDbEntity
  8
LC-001-100-D00-0
 62
     7
370
    50
100
AcDbCircle
 10
506.678151
 20
416.660616
 30
0.0
 40
1.000000000000227
100
AcDbArc
 50
90.0
 51
180.0
  0
LINE
  5
2B8
330
1F
100
AcDbEntity
  8
LC-001-100-D00-0
 62
     7
370
    50
100
AcDbLine
 10
505.678151
 20
402.660616
 30
0.0
 11
505.678151
 21
416.660616
 31
0.0
  0
ARC
  5
2B9
330
1F
100
AcDbEntity
  8
LC-001-100-D00-0
 62
     7
370
    50
100
AcDbCircle
 10
504.678151
 20
402.660616
 30
0.0
 40
1.0
100
AcDbArc
 50
270.0
 51
0.0
  0
LINE
  5
2BA
330
1F
100
AcDbEntity
  8
LC-001-100-D00-0
 62
     7
370
    50
100
AcDbLine
 10
504.678151
 20
401.660616
 30
0.0
 11
502.279005
 21
401.660616
 31
0.0
  0
LINE
  5
2BB
330
1F
100
AcDbEntity
  8
LC-001-100-D00-0
 62
     7
370
    50
100
AcDbLine
 10
502.279005
 20
403.660615
 30
0.0
 11
502.279005
 21
401.660616
 31
0.0
  0
LINE
  5
2BC
330
1F
100
AcDbEntity
  8
LC-001-100-D00-0
 62
     7
370
    50
100
AcDbLine
 10
501.628151
 20
403.660616
 30
0.0
 11
502.279005
 21
403.660615
 31
0.0
  0
ARC
  5
2BD
330
1F
100
AcDbEntity
  8
LC-001-100-D00-0
 62
     7
370
    50
100
AcDbCircle
 10
501.628151
 20
404.160616
 30
0.0
 40
0.5
100
AcDbArc
 50
180.0
 51
270.0
  0
LINE
  5
2BE
330
1F
100
AcDbEntity
  8
LC-001-100-D00-0
 62
     7
370
    50
100
AcDbLine
 10
501.128151
 20
407.160616
 30
0.0
 11
501.128151
 21
404.160616
 31
0.0
  0
ARC
  5
2BF
330
1F
100
AcDbEntity
  8
LC-001-100-D00-0
 62
     7
370
    50
100
AcDbCircle
 10
501.628151
 20
407.160616
 30
0.0
 40
0.5000000000002274
100
AcDbArc
 50
90.0
 51
180.0
  0
LINE
  5
2C0
330
1F
100
AcDbEntity
  8
LC-001-100-D00-0
 62
     7
370
    50
100
AcDbLine
 10
502.279005
 20
407.660615
 30
0.0
 11
501.628151
 21
407.660616
 31
0.0
  0
LINE
  5
2C1
330
1F
100
AcDbEntity
  8
LC-001-100-D00-0
 62
     7
370
    50
100
AcDbLine
 10
502.279005
 20
409.660616
 30
0.0
 11
502.279005
 21
407.660615
 31
0.0
  0
ARC
  5
2C2
330
1F
100
AcDbEntity
  8
LC-001-100-D00-0
 62
     7
370
    50
100
AcDbCircle
 10
485.178151
 20
416.660616
 30
0.0
 40
1.000000000000227
100
AcDbArc
 50
0.0
 51
90.0
  0
LINE
  5
2C3
330
1F
100
AcDbEntity
  8
LC-001-100-D00-0
 62
     7
370
    50
100
AcDbLine
 10
486.178151
 20
416.660616
 30
0.0
 11
486.178151
 21
402.660616
 31
0.0
  0
ARC
  5
2C4
330
1F
100
AcDbEntity
  8
LC-001-100-D00-0
 62
     7
370
    50
100
AcDbCircle
 10
487.178151
 20
402.660616
 30
0.0
 40
1.000000000000227
100
AcDbArc
 50
180.0
 51
270.0
  0
LINE
  5
2C5
330
1F
100
AcDbEntity
  8
LC-001-100-D00-0
 62
     7
370
    50
100
AcDbLine
 10
490.728151
 20
404.160616
 30
0.0
 11
490.728151
 21
407.160616
 31
0.0
  0
LINE
  5
2C6
330
1F
100
AcDbEntity
  8
LC-001-100-D00-0
 62
     7
370
    50
100
AcDbLine
 10
492.028151
 20
420.660616
 30
0.0
 11
492.028154
 21
409.660616
 31
0.0
  0
LINE
  5
2C7
330
1F
100
AcDbEntity
  8
LC-001-100-D00-0
 62
     7
370
    50
100
AcDbLine
 10
492.028151
 20
420.660616
 30
0.0
 11
499.828151
 21
420.660616
 31
0.0
  0
LINE
  5
2C8
330
1F
100
AcDbEntity
  8
LC-001-100-D00-0
 62
     7
370
    50
100
AcDbLine
 10
489.5773
 20
409.660616
 30
0.0
 11
489.5773
 21
407.660615
 31
0.0
  0
LINE
  5
2C9
330
1F
100
AcDbEntity
  8
LC-001-100-D00-0
 62
     7
370
    50
100
AcDbLine
 10
489.5773
 20
403.660615
 30
0.0
 11
489.5773
 21
401.660616
 31
0.0
  0
ARC
  5
2CA
330
1F
100
AcDbEntity
  8
LC-001-100-D00-0
 62
     7
370
    50
100
AcDbCircle
 10
490.228151
 20
404.160616
 30
0.0
 40
0.4999999999997726
100
AcDbArc
 50
270.0
 51
0.0
  0
LINE
  5
2CB
330
1F
100
AcDbEntity
  8
LC-001-100-D00-0
 62
     7
370
    50
100
AcDbLine
 10
489.5773
 20
403.660615
 30
0.0
 11
490.228151
 21
403.660616
 31
0.0
  0
LINE
  5
2CC
330
1F
100
AcDbEntity
  8
LC-001-100-D00-0
 62
     7
370
    50
100
AcDbLine
 10
480.678148
 20
417.660616
 30
0.0
 11
480.678151
 21
413.660616
 31
0.0
  0
LINE
  5
2CD
330
1F
100
AcDbEntity
  8
LC-001-100-D00-0
 62
     7
370
    50
100
AcDbLine
 10
477.678149
 20
413.660616
 30
0.0
 11
477.678151
 21
419.660616
 31
0.0
  0
ARC
  5
2CE
330
1F
100
AcDbEntity
  8
LC-001-100-D00-0
 62
     7
370
    50
100
AcDbCircle
 10
478.678151
 20
419.660616
 30
0.0
 40
1.000000000000227
100
AcDbArc
 50
90.0
 51
180.0
  0
LINE
  5
2CF
330
1F
100
AcDbEntity
  8
LC-001-100-D00-0
 62
     7
370
    50
100
AcDbLine
 10
490.228151
 20
407.660616
 30
0.0
 11
489.5773
 21
407.660615
 31
0.0
  0
ARC
  5
2D0
330
1F
100
AcDbEntity
  8
LC-001-100-D00-0
 62
     7
370
    50
100
AcDbCircle
 10
490.228151
 20
407.160616
 30
0.0
 40
0.5
100
AcDbArc
 50
0.0
 51
90.0
  0
LINE
  5
2D1
330
1F
100
AcDbEntity
  8
LC-001-100-D00-0
 62
     7
370
    50
100
AcDbLine
 10
492.028154
 20
409.660616
 30
0.0
 11
489.5773
 21
409.660616
 31
0.0
  0
LINE
  5
2D2
330
1F
100
AcDbEntity
  8
LC-001-100-D00-0
 62
     7
370
    50
100
AcDbLine
 10
489.5773
 20
401.660616
 30
0.0
 11
487.178151
 21
401.660616
 31
0.0
  0
LINE
  5
2D3
330
1F
100
AcDbEntity
  8
LC-001-100-D00-0
 62
     7
370
    50
100
AcDbLine
 10
480.678148
 20
417.660616
 30
0.0
 11
485.178151
 21
417.660616
 31
0.0
  0
LINE
  5
2D4
330
1F
100
AcDbEntity
  8
LC-001-100-D00-0
 62
     7
370
    50
100
AcDbLine
 10
478.678151
 20
420.660616
 30
0.0
 11
492.028151
 21
420.660616
 31
0.0
  0
LINE
  5
2D5
330
1F
100
AcDbEntity
  8
LC-001-100-D00-0
 62
     7
370
    50
100
AcDbLine
 10
477.678149
 20
413.660616
 30
0.0
 11
480.678151
 21
413.660616
 31
0.0
  0
LINE
  5
2D6
330
1F
100
AcDbEntity
  8
LC-001-100-D00-0
 62
     7
370
    50
100
AcDbLine
 10
509.178151
 20
413.660616
 30
0.0
 11
511.178151
 21
413.660616
 31
0.0
  0
LINE
  5
2D7
330
1F
100
AcDbEntity
  8
LC-001-100-D00-0
 62
     7
370
    50
100
AcDbLine
 10
480.678151
 20
413.660616
 30
0.0
 11
482.678151
 21
413.660616
 31
0.0
  0
LINE
  5
2D8
330
1F
100
AcDbEntity
  8
LC-001-100-D00-0
 62
     7
370
    50
100
AcDbLine
 10
482.678151
 20
413.660616
 30
0.0
 11
486.178152
 21
413.660616
 31
0.0
  0
LINE
  5
2D9
330
1F
100
AcDbEntity
  8
LC-001-100-D00-0
 62
     7
370
    50
100
AcDbLine
 10
505.678154
 20
413.660616
 30
0.0
 11
509.178151
 21
413.660616
 31
0.0
  0
LINE
  5
2DA
330
1F
100
AcDbEntity
  8
LC-001-100-D00-0
 62
     7
370
    50
100
AcDbLine
 10
489.270489
 20
398.57543
 30
0.0
 11
471.436818
 21
393.796912
 31
0.0
  0
ARC
  5
2DB
330
1F
100
AcDbEntity
  8
LC-001-100-D00-0
 62
     7
370
    50
100
AcDbCircle
 10
470.401541
 20
397.660616
 30
0.0
 40
4.000000000000227
100
AcDbArc
 50
270.0
 51
285.0
  0
ARC
  5
2DC
330
1F
100
AcDbEntity
  8
LC-001-100-D00-0
 62
     7
370
    50
100
AcDbCircle
 10
470.401541
 20
397.660616
 30
0.0
 40
2.5
100
AcDbArc
 50
270.0
 51
285.0
  0
LINE
  5
2DD
330
1F
100
AcDbEntity
  8
LC-001-100-D00-0
 62
     7
370
    50
100
AcDbLine
 10
488.88226
 20
400.024319
 30
0.0
 11
471.048589
 21
395.245801
 31
0.0
  0
ARC
  5
2DE
330
1F
100
AcDbEntity
  8
LC-001-100-D00-0
 62
     7
370
    50
100
AcDbCircle
 10
489.917537
 20
396.160616
 30
0.0
 40
4.0
100
AcDbArc
 50
90.0
 51
105.0
  0
LINE
  5
2DF
330
1F
100
AcDbEntity
  8
LC-001-100-D00-0
 62
     7
370
    50
100
AcDbLine
 10
489.917537
 20
400.160616
 30
0.0
 11
491.428151
 21
400.160615
 31
0.0
  0
LINE
  5
2E0
330
1F
100
AcDbEntity
  8
LC-001-100-D00-0
 62
     7
370
    50
100
AcDbLine
 10
491.428151
 20
400.160615
 30
0.0
 11
491.428151
 21
401.560617
 31
0.0
  0
LINE
  5
2E1
330
1F
100
AcDbEntity
  8
LC-001-100-D00-0
 62
     7
370
    50
100
AcDbLine
 10
491.928151
 20
401.560616
 30
0.0
 11
491.428151
 21
401.560617
 31
0.0
  0
ARC
  5
2E2
330
1F
100
AcDbEntity
  8
LC-001-100-D00-0
 62
     7
370
    50
100
AcDbCircle
 10
490.928151
 20
403.060616
 30
0.0
 40
1.802775637732058
100
AcDbArc
 50
303.690068
 51
56.309932
  0
LINE
  5
2E3
330
1F
100
AcDbEntity
  8
LC-001-100-D00-0
 62
     7
370
    50
100
AcDbLine
 10
491.928152
 20
419.160616
 30
0.0
 11
491.928151
 21
404.560616
 31
0.0
  0
LINE
  5
2E4
330
1F
100
AcDbEntity
  8
LC-001-100-D00-0
 62
     7
370
    50
100
AcDbLine
 10
492.928154
 20
420.160616
 30
0.0
 11
491.928152
 21
419.160616
 31
0.0
  0
LINE
  5
2E5
330
1F
100
AcDbEntity
  8
LC-001-100-D00-0
 62
     7
370
    50
100
AcDbLine
 10
498.928152
 20
420.160616
 30
0.0
 11
492.928154
 21
420.160616
 31
0.0
  0
LINE
  5
2E6
330
1F
100
AcDbEntity
  8
LC-001-100-D00-0
 62
     7
370
    50
100
AcDbLine
 10
499.928154
 20
419.160616
 30
0.0
 11
498.928152
 21
420.160616
 31
0.0
  0
LINE
  5
2E7
330
1F
100
AcDbEntity
  8
LC-001-100-D00-0
 62
     7
370
    50
100
AcDbLine
 10
499.928151
 20
404.560616
 30
0.0
 11
499.928154
 21
419.160616
 31
0.0
  0
ARC
  5
2E8
330
1F
100
AcDbEntity
  8
LC-001-100-D00-0
 62
     7
370
    50
100
AcDbCircle
 10
500.928151
 20
403.060616
 30
0.0
 40
1.802775637732121
100
AcDbArc
 50
123.690068
 51
236.309932
  0
LINE
  5
2E9
330
1F
100
AcDbEntity
  8
LC-001-100-D00-0
 62
     7
370
    50
100
AcDbLine
 10
500.428155
 20
401.560617
 30
0.0
 11
499.928151
 21
401.560616
 31
0.0
  0
LINE
  5
2EA
330
1F
100
AcDbEntity
  8
LC-001-100-D00-0
 62
     7
370
    50
100
AcDbLine
 10
500.428155
 20
401.560617
 30
0.0
 11
500.428155
 21
400.160615
 31
0.0
  0
LINE
  5
2EB
330
1F
100
AcDbEntity
  8
LC-001-100-D00-0
 62
     7
370
    50
100
AcDbLine
 10
500.428155
 20
400.160615
 30
0.0
 11
651.42814
 21
400.160615
 31
0.0
  0
LINE
  5
2EC
330
1F
100
AcDbEntity
  8
LC-001-100-D00-0
 62
     7
370
    50
100
AcDbLine
 10
651.42814
 20
400.160615
 30
0.0
 11
651.42814
 21
401.560617
 31
0.0
  0
LINE
  5
2ED
330
1F
100
AcDbEntity
  8
LC-001-100-D00-0
 62
     7
370
    50
100
AcDbLine
 10
651.928151
 20
401.560616
 30
0.0
 11
651.42814
 21
401.560617
 31
0.0
  0
ARC
  5
2EE
330
1F
100
AcDbEntity
  8
LC-001-100-D00-0
 62
     7
370
    50
100
AcDbCircle
 10
650.928151
 20
403.060616
 30
0.0
 40
1.802775637732058
100
AcDbArc
 50
303.690068
 51
56.309932
  0
LINE
  5
2EF
330
1F
100
AcDbEntity
  8
LC-001-100-D00-0
 62
     7
370
    50
100
AcDbLine
 10
651.928164
 20
419.160616
 30
0.0
 11
651.928151
 21
404.560616
 31
0.0
  0
LINE
  5
2F0
330
1F
100
AcDbEntity
  8
LC-001-100-D00-0
 62
     7
370
    50
100
AcDbLine
 10
652.928151
 20
420.160616
 30
0.0
 11
651.928164
 21
419.160616
 31
0.0
  0
LINE
  5
2F1
330
1F
100
AcDbEntity
  8
LC-001-100-D00-0
 62
     7
370
    50
100
AcDbLine
 10
658.928163
 20
420.160616
 30
0.0
 11
652.928151
 21
420.160616
 31
0.0
  0
LINE
  5
2F2
330
1F
100
AcDbEntity
  8
LC-001-100-D00-0
 62
     7
370
    50
100
AcDbLine
 10
659.92815
 20
419.160616
 30
0.0
 11
658.928163
 21
420.160616
 31
0.0
  0
LINE
  5
2F3
330
1F
100
AcDbEntity
  8
LC-001-100-D00-0
 62
     7
370
    50
100
AcDbLine
 10
659.928151
 20
404.560616
 30
0.0
 11
659.92815
 21
419.160616
 31
0.0
  0
ARC
  5
2F4
330
1F
100
AcDbEntity
  8
LC-001-100-D00-0
 62
     7
370
    50
100
AcDbCircle
 10
660.928151
 20
403.060616
 30
0.0
 40
1.802775637732058
100
AcDbArc
 50
123.690068
 51
236.309932
  0
LINE
  5
2F5
330
1F
100
AcDbEntity
  8
LC-001-100-D00-0
 62
     7
370
    50
100
AcDbLine
 10
660.428144
 20
401.560617
 30
0.0
 11
659.928151
 21
401.560616
 31
0.0
  0
LINE
  5
2F6
330
1F
100
AcDbEntity
  8
LC-001-100-D00-0
 62
     7
370
    50
100
AcDbLine
 10
660.428144
 20
401.560617
 30
0.0
 11
660.428144
 21
400.160615
 31
0.0
  0
LINE
  5
2F7
330
1F
100
AcDbEntity
  8
LC-001-100-D00-0
 62
     7
370
    50
100
AcDbLine
 10
660.428144
 20
400.160615
 30
0.0
 11
811.428137
 21
400.160615
 31
0.0
  0
LINE
  5
2F8
330
1F
100
AcDbEntity
  8
LC-001-100-D00-0
 62
     7
370
    50
100
AcDbLine
 10
811.428137
 20
400.160615
 30
0.0
 11
811.428137
 21
401.560617
 31
0.0
  0
LINE
  5
2F9
330
1F
100
AcDbEntity
  8
LC-001-100-D00-0
 62
     7
370
    50
100
AcDbLine
 10
811.928151
 20
401.560616
 30
0.0
 11
811.428137
 21
401.560617
 31
0.0
  0
ARC
  5
2FA
330
1F
100
AcDbEntity
  8
LC-001-100-D00-0
 62
     7
370
    50
100
AcDbCircle
 10
810.928151
 20
403.060616
 30
0.0
 40
1.802775637731868
100
AcDbArc
 50
303.690068
 51
56.309932
  0
LINE
  5
2FB
330
1F
100
AcDbEntity
  8
LC-001-100-D00-0
 62
     7
370
    50
100
AcDbLine
 10
811.92816
 20
419.160616
 30
0.0
 11
811.928151
 21
404.560616
 31
0.0
  0
LINE
  5
2FC
330
1F
100
AcDbEntity
  8
LC-001-100-D00-0
 62
     7
370
    50
100
AcDbLine
 10
812.928147
 20
420.160616
 30
0.0
 11
811.92816
 21
419.160616
 31
0.0
  0
LINE
  5
2FD
330
1F
100
AcDbEntity
  8
LC-001-100-D00-0
 62
     7
370
    50
100
AcDbLine
 10
818.928159
 20
420.160616
 30
0.0
 11
812.928147
 21
420.160616
 31
0.0
  0
LINE
  5
2FE
330
1F
100
AcDbEntity
  8
LC-001-100-D00-0
 62
     7
370
    50
100
AcDbLine
 10
819.928146
 20
419.160616
 30
0.0
 11
818.928159
 21
420.160616
 31
0.0
  0
LINE
  5
2FF
330
1F
100
AcDbEntity
  8
LC-001-100-D00-0
 62
     7
370
    50
100
AcDbLine
 10
819.928151
 20
404.560616
 30
0.0
 11
819.928146
 21
419.160616
 31
0.0
  0
ARC
  5
300
330
1F
100
AcDbEntity
  8
LC-001-100-D00-0
 62
     7
370
    50
100
AcDbCircle
 10
820.928151
 20
403.060616
 30
0.0
 40
1.802775637731868
100
AcDbArc
 50
123.690068
 51
236.309932
  0
LINE
  5
301
330
1F
100
AcDbEntity
  8
LC-001-100-D00-0
 62
     7
370
    50
100
AcDbLine
 10
820.42814
 20
401.560617
 30
0.0
 11
819.928151
 21
401.560616
 31
0.0
  0
LINE
  5
302
330
1F
100
AcDbEntity
  8
LC-001-100-D00-0
 62
     7
370
    50
100
AcDbLine
 10
820.42814
 20
401.560617
 30
0.0
 11
820.42814
 21
400.160615
 31
0.0
  0
LINE
  5
303
330
1F
100
AcDbEntity
  8
LC-001-100-D00-0
 62
     7
370
    50
100
AcDbLine
 10
820.42814
 20
400.160615
 30
0.0
 11
837.928151
 21
400.160616
 31
0.0
  0
ARC
  5
304
330
1F
100
AcDbEntity
  8
LC-001-100-D00-0
 62
     7
370
    50
100
AcDbCircle
 10
837.928151
 20
408.160616
 30
0.0
 40
8.000000000000227
100
AcDbArc
 50
270.0
 51
0.0
  0
LINE
  5
305
330
1F
100
AcDbEntity
  8
LC-001-100-D00-0
 62
     7
370
    50
100
AcDbLine
 10
845.928151
 20
408.160616
 30
0.0
 11
845.928151
 21
417.660616
 31
0.0
  0
ARC
  5
306
330
1F
100
AcDbEntity
  8
LC-001-100-D00-0
 62
     7
370
    50
100
AcDbCircle
 10
848.928151
 20
417.660616
 30
0.0
 40
3.000000000000227
100
AcDbArc
 50
90.0
 51
180.0
  0
LINE
  5
307
330
1F
100
AcDbEntity
  8
LC-001-100-D00-0
 62
     7
370
    50
100
AcDbLine
 10
895.928151
 20
420.660616
 30
0.0
 11
848.928151
 21
420.660616
 31
0.0
  0
LINE
  5
308
330
1F
100
AcDbEntity
  8
LC-001-100-D00-0
 62
     7
370
    50
100
AcDbLine
 10
895.928151
 20
419.160616
 30
0.0
 11
895.928151
 21
420.660616
 31
0.0
  0
LINE
  5
309
330
1F
100
AcDbEntity
  8
LC-001-100-D00-0
 62
     7
370
    50
100
AcDbLine
 10
895.928151
 20
419.160616
 30
0.0
 11
848.928151
 21
419.160616
 31
0.0
  0
ARC
  5
30A
330
1F
100
AcDbEntity
  8
LC-001-100-D00-0
 62
     7
370
    50
100
AcDbCircle
 10
848.928151
 20
417.660616
 30
0.0
 40
1.500000000000455
100
AcDbArc
 50
90.0
 51
180.0
  0
LINE
  5
30B
330
1F
100
AcDbEntity
  8
LC-001-100-D00-0
 62
     7
370
    50
100
AcDbLine
 10
847.428151
 20
408.160616
 30
0.0
 11
847.428151
 21
417.660616
 31
0.0
  0
ARC
  5
30C
330
1F
100
AcDbEntity
  8
LC-001-100-D00-0
 62
     7
370
    50
100
AcDbCircle
 10
837.928151
 20
408.160616
 30
0.0
 40
9.500000000000227
100
AcDbArc
 50
270.0
 51
0.0
  0
LINE
  5
30D
330
1F
100
AcDbEntity
  8
LC-001-100-D00-0
 62
     7
370
    50
100
AcDbLine
 10
489.917537
 20
398.660616
 30
0.0
 11
837.928151
 21
398.660616
 31
0.0
  0
ARC
  5
30E
330
1F
100
AcDbEntity
  8
LC-001-100-D00-0
 62
     7
370
    50
100
AcDbCircle
 10
489.917537
 20
396.160616
 30
0.0
 40
2.5
100
AcDbArc
 50
90.0
 51
105.0
  0
LINE
  5
30F
330
1F
100
AcDbEntity
  8
LC-001-100-D00-0
 62
     7
370
    50
100
AcDbLine
 10
-19.571834
 20
401.560617
 30
0.0
 11
-20.071849
 21
401.560616
 31
0.0
  0
LINE
  5
310
330
1F
100
AcDbEntity
  8
LC-001-100-D00-0
 62
     7
370
    50
100
AcDbLine
 10
-19.571834
 20
401.560617
 30
0.0
 11
-19.571834
 21
400.160615
 31
0.0
  0
LINE
  5
311
330
1F
100
AcDbEntity
  8
LC-001-100-D00-0
 62
     7
370
    50
100
AcDbLine
 10
-19.571834
 20
400.160615
 30
0.0
 11
131.428159
 21
400.160615
 31
0.0
  0
LINE
  5
312
330
1F
100
AcDbEntity
  8
LC-001-100-D00-0
 62
     7
370
    50
100
AcDbLine
 10
131.428159
 20
400.160615
 30
0.0
 11
131.428159
 21
401.560617
 31
0.0
  0
LINE
  5
313
330
1F
100
AcDbEntity
  8
LC-001-100-D00-0
 62
     7
370
    50
100
AcDbLine
 10
131.928151
 20
401.560616
 30
0.0
 11
131.428159
 21
401.560617
 31
0.0
  0
ARC
  5
314
330
1F
100
AcDbEntity
  8
LC-001-100-D00-0
 62
     7
370
    50
100
AcDbCircle
 10
130.928151
 20
403.060616
 30
0.0
 40
1.802775637732121
100
AcDbArc
 50
303.690068
 51
56.309932
  0
LINE
  5
315
330
1F
100
AcDbEntity
  8
LC-001-100-D00-0
 62
     7
370
    50
100
AcDbLine
 10
131.928153
 20
419.160616
 30
0.0
 11
131.928151
 21
404.560616
 31
0.0
  0
LINE
  5
316
330
1F
100
AcDbEntity
  8
LC-001-100-D00-0
 62
     7
370
    50
100
AcDbLine
 10
132.92814
 20
420.160616
 30
0.0
 11
131.928153
 21
419.160616
 31
0.0
  0
LINE
  5
317
330
1F
100
AcDbEntity
  8
LC-001-100-D00-0
 62
     7
370
    50
100
AcDbLine
 10
138.928152
 20
420.160616
 30
0.0
 11
132.92814
 21
420.160616
 31
0.0
  0
LINE
  5
318
330
1F
100
AcDbEntity
  8
LC-001-100-D00-0
 62
     7
370
    50
100
AcDbLine
 10
139.928139
 20
419.160616
 30
0.0
 11
138.928152
 21
420.160616
 31
0.0
  0
LINE
  5
319
330
1F
100
AcDbEntity
  8
LC-001-100-D00-0
 62
     7
370
    50
100
AcDbLine
 10
139.928151
 20
404.560616
 30
0.0
 11
139.928139
 21
419.160616
 31
0.0
  0
ARC
  5
31A
330
1F
100
AcDbEntity
  8
LC-001-100-D00-0
 62
     7
370
    50
100
AcDbCircle
 10
140.928151
 20
403.060616
 30
0.0
 40
1.802775637732152
100
AcDbArc
 50
123.690068
 51
236.309932
  0
LINE
  5
31B
330
1F
100
AcDbEntity
  8
LC-001-100-D00-0
 62
     7
370
    50
100
AcDbLine
 10
140.428163
 20
401.560617
 30
0.0
 11
139.928151
 21
401.560616
 31
0.0
  0
LINE
  5
31C
330
1F
100
AcDbEntity
  8
LC-001-100-D00-0
 62
     7
370
    50
100
AcDbLine
 10
140.428163
 20
401.560617
 30
0.0
 11
140.428163
 21
400.160615
 31
0.0
  0
LINE
  5
31D
330
1F
100
AcDbEntity
  8
LC-001-100-D00-0
 62
     7
370
    50
100
AcDbLine
 10
140.428163
 20
400.160615
 30
0.0
 11
291.428148
 21
400.160615
 31
0.0
  0
LINE
  5
31E
330
1F
100
AcDbEntity
  8
LC-001-100-D00-0
 62
     7
370
    50
100
AcDbLine
 10
291.428148
 20
400.160615
 30
0.0
 11
291.428148
 21
401.560617
 31
0.0
  0
LINE
  5
31F
330
1F
100
AcDbEntity
  8
LC-001-100-D00-0
 62
     7
370
    50
100
AcDbLine
 10
291.928151
 20
401.560616
 30
0.0
 11
291.428148
 21
401.560617
 31
0.0
  0
ARC
  5
320
330
1F
100
AcDbEntity
  8
LC-001-100-D00-0
 62
     7
370
    50
100
AcDbCircle
 10
290.928151
 20
403.060616
 30
0.0
 40
1.802775637732058
100
AcDbArc
 50
303.690068
 51
56.309932
  0
LINE
  5
321
330
1F
100
AcDbEntity
  8
LC-001-100-D00-0
 62
     7
370
    50
100
AcDbLine
 10
291.928149
 20
419.160616
 30
0.0
 11
291.928151
 21
404.560616
 31
0.0
  0
LINE
  5
322
330
1F
100
AcDbEntity
  8
LC-001-100-D00-0
 62
     7
370
    50
100
AcDbLine
 10
292.928151
 20
420.160616
 30
0.0
 11
291.928149
 21
419.160616
 31
0.0
  0
LINE
  5
323
330
1F
100
AcDbEntity
  8
LC-001-100-D00-0
 62
     7
370
    50
100
AcDbLine
 10
298.928149
 20
420.160616
 30
0.0
 11
292.928151
 21
420.160616
 31
0.0
  0
LINE
  5
324
330
1F
100
AcDbEntity
  8
LC-001-100-D00-0
 62
     7
370
    50
100
AcDbLine
 10
299.928151
 20
419.160616
 30
0.0
 11
298.928149
 21
420.160616
 31
0.0
  0
LINE
  5
325
330
1F
100
AcDbEntity
  8
LC-001-100-D00-0
 62
     7
370
    50
100
AcDbLine
 10
299.928151
 20
404.560616
 30
0.0
 11
299.928151
 21
419.160616
 31
0.0
  0
ARC
  5
326
330
1F
100
AcDbEntity
  8
LC-001-100-D00-0
 62
     7
370
    50
100
AcDbCircle
 10
300.928151
 20
403.060616
 30
0.0
 40
1.802775637732121
100
AcDbArc
 50
123.690068
 51
236.309932
  0
LINE
  5
327
330
1F
100
AcDbEntity
  8
LC-001-100-D00-0
 62
     7
370
    50
100
AcDbLine
 10
300.428152
 20
401.560617
 30
0.0
 11
299.928151
 21
401.560616
 31
0.0
  0
LINE
  5
328
330
1F
100
AcDbEntity
  8
LC-001-100-D00-0
 62
     7
370
    50
100
AcDbLine
 10
300.428152
 20
401.560617
 30
0.0
 11
300.428152
 21
400.160615
 31
0.0
  0
LINE
  5
329
330
1F
100
AcDbEntity
  8
LC-001-100-D00-0
 62
     7
370
    50
100
AcDbLine
 10
300.428152
 20
400.160615
 30
0.0
 11
301.938766
 21
400.160616
 31
0.0
  0
ARC
  5
32A
330
1F
100
AcDbEntity
  8
LC-001-100-D00-0
 62
     7
370
    50
100
AcDbCircle
 10
301.938766
 20
396.160616
 30
0.0
 40
4.000000000000122
100
AcDbArc
 50
75.0
 51
90.0
  0
LINE
  5
32B
330
1F
100
AcDbEntity
  8
LC-001-100-D00-0
 62
     7
370
    50
100
AcDbLine
 10
320.807714
 20
395.245801
 30
0.0
 11
302.974042
 21
400.024319
 31
0.0
  0
ARC
  5
32C
330
1F
100
AcDbEntity
  8
LC-001-100-D00-0
 62
     7
370
    50
100
AcDbCircle
 10
321.454761
 20
397.660616
 30
0.0
 40
2.500000000000091
100
AcDbArc
 50
255.0
 51
270.0
  0
ARC
  5
32D
330
1F
100
AcDbEntity
  8
LC-001-100-D00-0
 62
     7
370
    50
100
AcDbCircle
 10
321.454761
 20
397.660616
 30
0.0
 40
4.000000000000122
100
AcDbArc
 50
255.0
 51
270.0
  0
LINE
  5
32E
330
1F
100
AcDbEntity
  8
LC-001-100-D00-0
 62
     7
370
    50
100
AcDbLine
 10
320.419485
 20
393.796912
 30
0.0
 11
302.585814
 21
398.57543
 31
0.0
  0
ARC
  5
32F
330
1F
100
AcDbEntity
  8
LC-001-100-D00-0
 62
     7
370
    50
100
AcDbCircle
 10
301.938766
 20
396.160616
 30
0.0
 40
2.500000000000091
100
AcDbArc
 50
75.0
 51
90.0
  0
LINE
  5
330
330
1F
100
AcDbEntity
  8
LC-001-100-D00-0
 62
     7
370
    50
100
AcDbLine
 10
-46.071849
 20
398.660616
 30
0.0
 11
301.938766
 21
398.660616
 31
0.0
  0
ARC
  5
331
330
1F
100
AcDbEntity
  8
LC-001-100-D00-0
 62
     7
370
    50
100
AcDbCircle
 10
-46.071849
 20
408.160616
 30
0.0
 40
9.5
100
AcDbArc
 50
180.0
 51
270.0
  0
LINE
  5
332
330
1F
100
AcDbEntity
  8
LC-001-100-D00-0
 62
     7
370
    50
100
AcDbLine
 10
-55.571849
 20
417.660616
 30
0.0
 11
-55.571849
 21
408.160616
 31
0.0
  0
ARC
  5
333
330
1F
100
AcDbEntity
  8
LC-001-100-D00-0
 62
     7
370
    50
100
AcDbCircle
 10
-57.071849
 20
417.660616
 30
0.0
 40
1.499999999999943
100
AcDbArc
 50
0.0
 51
90.0
  0
LINE
  5
334
330
1F
100
AcDbEntity
  8
LC-001-100-D00-0
 62
     7
370
    50
100
AcDbLine
 10
-104.071849
 20
420.660616
 30
0.0
 11
-104.071849
 21
419.160616
 31
0.0
  0
ARC
  5
335
330
1F
100
AcDbEntity
  8
LC-001-100-D00-0
 62
     7
370
    50
100
AcDbCircle
 10
-57.071849
 20
417.660616
 30
0.0
 40
2.999999999999943
100
AcDbArc
 50
0.0
 51
90.0
  0
LINE
  5
336
330
1F
100
AcDbEntity
  8
LC-001-100-D00-0
 62
     7
370
    50
100
AcDbLine
 10
-54.071849
 20
417.660616
 30
0.0
 11
-54.071849
 21
408.160616
 31
0.0
  0
ARC
  5
337
330
1F
100
AcDbEntity
  8
LC-001-100-D00-0
 62
     7
370
    50
100
AcDbCircle
 10
-46.071849
 20
408.160616
 30
0.0
 40
8.0
100
AcDbArc
 50
180.0
 51
270.0
  0
LINE
  5
338
330
1F
100
AcDbEntity
  8
LC-001-100-D00-0
 62
     7
370
    50
100
AcDbLine
 10
-46.071849
 20
400.160616
 30
0.0
 11
-28.571837
 21
400.160615
 31
0.0
  0
LINE
  5
339
330
1F
100
AcDbEntity
  8
LC-001-100-D00-0
 62
     7
370
    50
100
AcDbLine
 10
-28.571837
 20
400.160615
 30
0.0
 11
-28.571837
 21
401.560617
 31
0.0
  0
LINE
  5
33A
330
1F
100
AcDbEntity
  8
LC-001-100-D00-0
 62
     7
370
    50
100
AcDbLine
 10
-28.071849
 20
401.560616
 30
0.0
 11
-28.571837
 21
401.560617
 31
0.0
  0
ARC
  5
33B
330
1F
100
AcDbEntity
  8
LC-001-100-D00-0
 62
     7
370
    50
100
AcDbCircle
 10
-29.071849
 20
403.060616
 30
0.0
 40
1.802775637731837
100
AcDbArc
 50
303.690068
 51
56.309932
  0
LINE
  5
33C
330
1F
100
AcDbEntity
  8
LC-001-100-D00-0
 62
     7
370
    50
100
AcDbLine
 10
-28.071844
 20
419.160616
 30
0.0
 11
-28.071849
 21
404.560616
 31
0.0
  0
LINE
  5
33D
330
1F
100
AcDbEntity
  8
LC-001-100-D00-0
 62
     7
370
    50
100
AcDbLine
 10
-27.071856
 20
420.160616
 30
0.0
 11
-28.071844
 21
419.160616
 31
0.0
  0
LINE
  5
33E
330
1F
100
AcDbEntity
  8
LC-001-100-D00-0
 62
     7
370
    50
100
AcDbLine
 10
-21.071844
 20
420.160616
 30
0.0
 11
-27.071856
 21
420.160616
 31
0.0
  0
LINE
  5
33F
330
1F
100
AcDbEntity
  8
LC-001-100-D00-0
 62
     7
370
    50
100
AcDbLine
 10
-20.071857
 20
419.160616
 30
0.0
 11
-21.071844
 21
420.160616
 31
0.0
  0
LINE
  5
340
330
1F
100
AcDbEntity
  8
LC-001-100-D00-0
 62
     7
370
    50
100
AcDbLine
 10
-20.071849
 20
404.560616
 30
0.0
 11
-20.071857
 21
419.160616
 31
0.0
  0
ARC
  5
341
330
1F
100
AcDbEntity
  8
LC-001-100-D00-0
 62
     7
370
    50
100
AcDbCircle
 10
-19.071849
 20
403.060616
 30
0.0
 40
1.802775637731868
100
AcDbArc
 50
123.690068
 51
236.309932
  0
LINE
  5
342
330
1F
100
AcDbEntity
  8
LC-001-100-D00-0
 62
     7
370
    50
100
AcDbLine
 10
-57.071849
 20
420.660616
 30
0.0
 11
-104.071849
 21
420.660616
 31
0.0
  0
LINE
  5
343
330
1F
100
AcDbEntity
  8
LC-001-100-D00-0
 62
     7
370
    50
100
AcDbLine
 10
-57.071849
 20
419.160616
 30
0.0
 11
-104.071849
 21
419.160616
 31
0.0
  0
ELLIPSE
  5
344
330
1F
100
AcDbEntity
  8
LC-001-100-D00-0
 62
     7
370
    50
100
AcDbEllipse
 10
700.949969
 20
396.160616
 30
0.0
 11
0.0
 21
-2.500000350952124
 31
0.0
210
0.0
220
0.0
230
1.0
 40
0.027578
 41
0.0000000000131917
 42
0.321750554409181
  0
ELLIPSE
  5
345
330
1F
100
AcDbEntity
  8
LC-001-100-D00-0
 62
     7
370
    50
100
AcDbEllipse
 10
90.906334
 20
396.160616
 30
0.0
 11
0.0
 21
-2.500000012397766
 31
0.0
210
0.0
220
0.0
230
1.0
 40
0.027578
 41
5.961434752785901
 42
6.283185307182266
  0
LINE
  5
346
330
1F
100
AcDbEntity
  8
LC-001-100-D00-0
 62
     7
370
    50
100
AcDbLine
 10
700.928159
 20
398.531963
 30
0.0
 11
700.928159
 21
393.866575
 31
0.0
  0
LINE
  5
347
330
1F
100
AcDbEntity
  8
LC-001-100-D00-0
 62
     7
370
    50
100
AcDbLine
 10
90.928144
 20
398.531963
 30
0.0
 11
90.928144
 21
393.866575
 31
0.0
  0
INSERT
  5
351
330
1F
100
AcDbEntity
  8
LC-001-100-D00-0
 62
     7
370
    50
100
AcDbBlockReference
  2
KLON15
 10
0.0
 20
0.0
 30
0.0
  0
INSERT
  5
35B
330
1F
100
AcDbEntity
  8
LC-001-100-D00-0
 62
     7
370
    50
100
AcDbBlockReference
  2
KLON16
 10
0.0
 20
0.0
 30
0.0
  0
LINE
  5
35C
330
1F
100
AcDbEntity
  8
LC-001-100-D00-0
 62
     7
370
    50
100
AcDbLine
 10
700.928129
 20
393.660615
 30
0.0
 11
700.928129
 21
393.865882
 31
0.0
  0
LINE
  5
35D
330
1F
100
AcDbEntity
  8
LC-001-100-D00-0
 62
     7
370
    50
100
AcDbLine
 10
700.928159
 20
393.660615
 30
0.0
 11
828.835822
 21
398.32878
 31
0.0
  0
LINE
  5
35E
330
1F
100
AcDbEntity
  8
LC-001-100-D00-0
 62
     7
370
    50
100
AcDbLine
 10
700.928129
 20
393.660615
 30
0.0
 11
700.928129
 21
393.660615
 31
0.0
  0
LINE
  5
35F
330
1F
100
AcDbEntity
  8
LC-001-100-D00-0
 62
     7
370
    50
100
AcDbLine
 10
90.928174
 20
393.660615
 30
0.0
 11
90.928174
 21
393.865882
 31
0.0
  0
LINE
  5
360
330
1F
100
AcDbEntity
  8
LC-001-100-D00-0
 62
     7
370
    50
100
AcDbLine
 10
90.928144
 20
393.660615
 30
0.0
 11
-36.979519
 21
398.32878
 31
0.0
  0
LINE
  5
361
330
1F
100
AcDbEntity
  8
LC-001-100-D00-0
 62
     7
370
    50
100
AcDbLine
 10
90.928174
 20
393.660615
 30
0.0
 11
90.928174
 21
393.660615
 31
0.0
  0
LINE
  5
362
330
1F
100
AcDbEntity
  8
LC-001-100-D00-0
 62
     7
370
    50
100
AcDbLine
 10
470.401541
 20
393.660616
 30
0.0
 11
472.502142
 21
393.660615
 31
0.0
  0
LINE
  5
363
330
1F
100
AcDbEntity
  8
LC-001-100-D00-0
 62
     7
370
    50
100
AcDbLine
 10
321.454761
 20
393.660616
 30
0.0
 11
319.354161
 21
393.660615
 31
0.0
  0
LINE
  5
364
330
1F
100
AcDbEntity
  8
LC-001-100-D00-0
 62
     7
370
    50
100
AcDbLine
 10
472.502142
 20
393.660615
 30
0.0
 11
700.928129
 21
393.660615
 31
0.0
  0
LINE
  5
365
330
1F
100
AcDbEntity
  8
LC-001-100-D00-0
 62
     7
370
    50
100
AcDbLine
 10
319.354161
 20
393.660615
 30
0.0
 11
90.928174
 21
393.660615
 31
0.0
  0
INSERT
  5
372
330
1F
100
AcDbEntity
  8
LC-001-100-D00-0
 62
     7
370
    50
100
AcDbBlockReference
  2
KLON17
 10
0.0
 20
0.0
 30
0.0
  0
INSERT
  5
37F
330
1F
100
AcDbEntity
  8
LC-001-100-D00-0
 62
     7
370
    50
100
AcDbBlockReference
  2
KLON18
 10
0.0
 20
0.0
 30
0.0
  0
LINE
  5
380
330
1F
100
AcDbEntity
  8
LC-001-100-D00-0
 62
     7
370
    50
100
AcDbLine
 10
843.428151
 20
420.660616
 30
0.0
 11
848.928151
 21
420.660616
 31
0.0
  0
LINE
  5
381
330
1F
100
AcDbEntity
  8
LC-001-100-D00-0
 62
     7
370
    50
100
AcDbLine
 10
-51.571849
 20
420.660616
 30
0.0
 11
-57.071849
 21
420.660616
 31
0.0
  0
LINE
  5
382
330
1F
100
AcDbEntity
  8
LC-001-100-D00-0
 62
     7
370
    50
100
AcDbLine
 10
843.428151
 20
420.660616
 30
0.0
 11
833.178151
 21
420.660616
 31
0.0
  0
LINE
  5
383
330
1F
100
AcDbEntity
  8
LC-001-100-D00-0
 62
     7
370
    50
100
AcDbLine
 10
798.678151
 20
420.660616
 30
0.0
 11
673.178151
 21
420.660616
 31
0.0
  0
LINE
  5
384
330
1F
100
AcDbEntity
  8
LC-001-100-D00-0
 62
     7
370
    50
100
AcDbLine
 10
638.678151
 20
420.660616
 30
0.0
 11
513.178151
 21
420.660616
 31
0.0
  0
LINE
  5
385
330
1F
100
AcDbEntity
  8
LC-001-100-D00-0
 62
     7
370
    50
100
AcDbLine
 10
478.678151
 20
420.660616
 30
0.0
 11
313.178151
 21
420.660616
 31
0.0
  0
LINE
  5
386
330
1F
100
AcDbEntity
  8
LC-001-100-D00-0
 62
     7
370
    50
100
AcDbLine
 10
278.678151
 20
420.660616
 30
0.0
 11
153.178151
 21
420.660616
 31
0.0
  0
LINE
  5
387
330
1F
100
AcDbEntity
  8
LC-001-100-D00-0
 62
     7
370
    50
100
AcDbLine
 10
118.678151
 20
420.660616
 30
0.0
 11
-6.821849
 21
420.660616
 31
0.0
  0
LINE
  5
388
330
1F
100
AcDbEntity
  8
LC-001-100-D00-0
 62
     7
370
    50
100
AcDbLine
 10
-41.321849
 20
420.660616
 30
0.0
 11
-51.571849
 21
420.660616
 31
0.0
  0
LINE
  5
389
330
1F
100
AcDbEntity
  8
LC-001-100-D00-0
 62
     7
370
    50
100
AcDbLine
 10
-104.071849
 20
420.660616
 30
0.0
 11
-104.071849
 21
422.160616
 31
0.0
  0
LINE
  5
38A
330
1F
100
AcDbEntity
  8
LC-001-100-D00-0
 62
     7
370
    50
100
AcDbLine
 10
895.928151
 20
422.160616
 30
0.0
 11
895.928151
 21
420.660616
 31
0.0
  0
ARC
  5
38B
330
1F
100
AcDbEntity
  8
LC-001-100-D00-0
 62
     7
370
    50
100
AcDbCircle
 10
-99.071849
 20
461.660616
 30
0.0
 40
5.0
100
AcDbArc
 50
90.0
 51
180.0
  0
LINE
  5
38C
330
1F
100
AcDbEntity
  8
LC-001-100-D00-0
 62
     7
370
    50
100
AcDbLine
 10
-99.071849
 20
466.660616
 30
0.0
 11
890.928151
 21
466.660616
 31
0.0
  0
ARC
  5
38D
330
1F
100
AcDbEntity
  8
LC-001-100-D00-0
 62
     7
370
    50
100
AcDbCircle
 10
890.928151
 20
461.660616
 30
0.0
 40
5.0
100
AcDbArc
 50
0.0
 51
90.0
  0
LINE
  5
38E
330
1F
100
AcDbEntity
  8
LC-001-100-D00-0
 62
     7
370
    50
100
AcDbLine
 10
-104.071849
 20
461.660616
 30
0.0
 11
-104.071849
 21
422.160616
 31
0.0
  0
LINE
  5
38F
330
1F
100
AcDbEntity
  8
LC-001-100-D00-0
 62
     7
370
    50
100
AcDbLine
 10
895.928151
 20
461.660616
 30
0.0
 11
895.928151
 21
422.160616
 31
0.0
  0
DIMENSION
  5
390
330
1F
100
AcDbEntity
  8
LC-001-100-D00-0
 62
     7
370
    25
100
AcDbDimension
  2
*D22
 10
-140.464837
 20
466.660616
 30
0.0
 11
-195.464837
 21
448.943914
 31
0.0
 70
   160
  1
46
 71
     5
 42
46.0
 53
90.0
  3
LC-DIM-L-0100-02-02
100
AcDbAlignedDimension
 13
-104.071849
 23
420.660616
 33
0.0
 14
-99.071849
 24
466.660616
 34
0.0
 50
90.0
100
AcDbRotatedDimension
  0
DIMENSION
  5
39F
330
1F
100
AcDbEntity
  8
LC-001-100-D00-0
 62
     7
370
    25
100
AcDbDimension
  2
*D23
 10
895.928151
 20
561.104886
 30
0.0
 11
404.093332
 21
616.104886
 31
0.0
 70
   160
  1
1000
 71
     5
 42
1000.0
  3
LC-DIM-L-0100-02-02
100
AcDbAlignedDimension
 13
-104.071849
 23
461.660616
 33
0.0
 14
895.928151
 24
461.660616
 34
0.0
100
AcDbRotatedDimension
  0
DIMENSION
  5
3AC
330
1F
100
AcDbEntity
  8
LC-001-100-D00-0
 62
     7
370
    25
100
AcDbDimension
  2
*D24
 10
845.928151
 20
482.502343
 30
0.0
 11
399.347255
 21
537.502343
 31
0.0
 70
   160
  1
900
 71
     5
 42
900.0
  3
LC-DIM-L-0100-02-02
100
AcDbAlignedDimension
 13
-54.071849
 23
417.660616
 33
0.0
 14
845.928151
 24
417.660616
 34
0.0
100
AcDbRotatedDimension
  0
INSERT
  5
3D4
330
1F
100
AcDbEntity
  8
LC-001-100-D00-0
 62
     7
370
    25
100
AcDbBlockReference
  2
KLON19
 10
0.0
 20
0.0
 30
0.0
  0
INSERT
  5
3F0
330
1F
100
AcDbEntity
  8
LC-001-100-D00-0
 62
     7
370
    25
100
AcDbBlockReference
  2
KLON20
 10
0.0
 20
0.0
 30
0.0
  0
LINE
  5
3F1
330
1F
100
AcDbEntity
  8
LC-001-100-D00-0
 62
     7
370
    50
100
AcDbLine
 10
819.61093
 20
402.377837
 30
0.0
 11
821.272322
 21
404.039229
 31
0.0
  0
LINE
  5
3F2
330
1F
100
AcDbEntity
  8
LC-001-100-D00-0
 62
     7
370
    25
100
AcDbLine
 10
806.178151
 20
411.395698
 30
0.0
 11
812.028151
 21
417.245699
 31
0.0
  0
INSERT
  5
3F8
330
1F
100
AcDbEntity
  8
LC-001-100-D00-0
 62
     7
370
    25
100
AcDbBlockReference
  2
KLON21
 10
0.0
 20
0.0
 30
0.0
  0
LINE
  5
3F9
330
1F
100
AcDbEntity
  8
LC-001-100-D00-0
 62
     7
370
    50
100
AcDbLine
 10
489.577298
 20
409.103798
 30
0.0
 11
490.134116
 21
409.660616
 31
0.0
  0
INSERT
  5
400
330
1F
100
AcDbEntity
  8
LC-001-100-D00-0
 62
     7
370
    25
100
AcDbBlockReference
  2
KLON22
 10
0.0
 20
0.0
 30
0.0
  0
INSERT
  5
406
330
1F
100
AcDbEntity
  8
LC-001-100-D00-0
 62
     7
370
    25
100
AcDbBlockReference
  2
KLON23
 10
0.0
 20
0.0
 30
0.0
  0
LINE
  5
407
330
1F
100
AcDbEntity
  8
LC-001-100-D00-0
 62
     7
370
    50
100
AcDbLine
 10
-29.271849
 20
406.619359
 30
0.0
 11
-27.471849
 21
408.419359
 31
0.0
  0
INSERT
  5
40D
330
1F
100
AcDbEntity
  8
LC-001-100-D00-0
 62
     7
370
    25
100
AcDbBlockReference
  2
KLON24
 10
0.0
 20
0.0
 30
0.0
  0
LINE
  5
40E
330
1F
100
AcDbEntity
  8
LC-001-100-D00-0
 62
     7
370
    25
100
AcDbLine
 10
-20.171849
 20
415.719359
 30
0.0
 11
-15.230593
 21
420.660616
 31
0.0
  0
LINE
  5
40F
330
1F
100
AcDbEntity
  8
LC-001-100-D00-0
 62
     7
370
    50
100
AcDbLine
 10
129.577298
 20
408.314029
 30
0.0
 11
130.923885
 21
409.660616
 31
0.0
  0
INSERT
  5
416
330
1F
100
AcDbEntity
  8
LC-001-100-D00-0
 62
     7
370
    25
100
AcDbBlockReference
  2
KLON25
 10
0.0
 20
0.0
 30
0.0
  0
LINE
  5
417
330
1F
100
AcDbEntity
  8
LC-001-100-D00-0
 62
     7
370
    25
100
AcDbLine
 10
139.828151
 20
418.564883
 30
0.0
 11
141.923884
 21
420.660616
 31
0.0
  0
LINE
  5
418
330
1F
100
AcDbEntity
  8
LC-001-100-D00-0
 62
     7
370
    50
100
AcDbLine
 10
661.739233
 20
401.660616
 30
0.0
 11
662.279004
 21
402.200387
 31
0.0
  0
LINE
  5
419
330
1F
100
AcDbEntity
  8
LC-001-100-D00-0
 62
     7
370
    25
100
AcDbLine
 10
646.178151
 20
408.550174
 30
0.0
 11
652.028151
 21
414.400175
 31
0.0
  0
INSERT
  5
41F
330
1F
100
AcDbEntity
  8
LC-001-100-D00-0
 62
     7
370
    25
100
AcDbBlockReference
  2
KLON26
 10
0.0
 20
0.0
 30
0.0
  0
LINE
  5
420
330
1F
100
AcDbEntity
  8
LC-001-100-D00-0
 62
     7
370
    25
100
AcDbLine
 10
286.178151
 20
407.760406
 30
0.0
 11
292.028151
 21
413.610406
 31
0.0
  0
LINE
  5
421
330
1F
100
AcDbEntity
  8
LC-001-100-D00-0
 62
     7
370
    25
100
AcDbLine
 10
302.529001
 20
401.660616
 30
0.0
 11
305.678151
 21
404.809766
 31
0.0
  0
LINE
  5
422
330
1F
100
AcDbEntity
  8
LC-001-100-D00-0
  6
DASHDOT
 62
     7
370
    25
100
AcDbLine
 10
815.928151
 20
392.660616
 30
0.0
 11
815.928151
 21
426.660616
 31
0.0
  0
LINE
  5
423
330
1F
100
AcDbEntity
  8
LC-001-100-D00-0
  6
DASHDOT
 62
     7
370
    25
100
AcDbLine
 10
655.928151
 20
392.660616
 30
0.0
 11
655.928151
 21
426.660616
 31
0.0
  0
LINE
  5
424
330
1F
100
AcDbEntity
  8
LC-001-100-D00-0
  6
DASHDOT
 62
     7
370
    25
100
AcDbLine
 10
495.928151
 20
392.660616
 30
0.0
 11
495.928151
 21
426.660616
 31
0.0
  0
LINE
  5
425
330
1F
100
AcDbEntity
  8
LC-001-100-D00-0
  6
DASHDOT
 62
     7
370
    25
100
AcDbLine
 10
295.928151
 20
392.660616
 30
0.0
 11
295.928151
 21
426.660616
 31
0.0
  0
LINE
  5
426
330
1F
100
AcDbEntity
  8
LC-001-100-D00-0
  6
DASHDOT
 62
     7
370
    25
100
AcDbLine
 10
135.928151
 20
392.660616
 30
0.0
 11
135.928151
 21
426.660616
 31
0.0
  0
LINE
  5
427
330
1F
100
AcDbEntity
  8
LC-001-100-D00-0
  6
DASHDOT
 62
     7
370
    25
100
AcDbLine
 10
-24.071849
 20
392.660616
 30
0.0
 11
-24.071849
 21
426.660616
 31
0.0
  0
LINE
  5
428
102
{ACAD_REACTORS
330
786
102
}
330
1F
100
AcDbEntity
  8
LC-001-100-D00-0
 62
     7
370
    50
100
AcDbLine
 10
445.370769
 20
362.660616
 30
0.0
 11
445.370769
 21
386.660616
 31
0.0
  0
LINE
  5
429
102
{ACAD_REACTORS
330
786
102
}
330
1F
100
AcDbEntity
  8
LC-001-100-D00-0
 62
     7
370
    50
100
AcDbLine
 10
346.485534
 20
386.660616
 30
0.0
 11
346.485534
 21
362.660616
 31
0.0
  0
ARC
  5
42A
102
{ACAD_REACTORS
330
786
102
}
330
1F
100
AcDbEntity
  8
LC-001-100-D00-0
 62
     7
370
    50
100
AcDbCircle
 10
470.401541
 20
397.660616
 30
0.0
 40
4.000000000000114
100
AcDbArc
 50
270.0
 51
285.0
  0
LINE
  5
42B
102
{ACAD_REACTORS
330
786
102
}
330
1F
100
AcDbEntity
  8
LC-001-100-D00-0
 62
     7
370
    50
100
AcDbLine
 10
470.401538
 20
393.660616
 30
0.0
 11
453.728152
 21
393.660616
 31
0.0
  0
ARC
  5
42C
102
{ACAD_REACTORS
330
786
102
}
330
1F
100
AcDbEntity
  8
LC-001-100-D00-0
 62
     7
370
    50
100
AcDbCircle
 10
453.728151
 20
392.660616
 30
0.0
 40
1.0
100
AcDbArc
 50
90.0
 51
180.0
  0
LINE
  5
42D
102
{ACAD_REACTORS
330
786
102
}
330
1F
100
AcDbEntity
  8
LC-001-100-D00-0
 62
     7
370
    50
100
AcDbLine
 10
452.72815
 20
392.660616
 30
0.0
 11
452.72815
 21
388.660616
 31
0.0
  0
LINE
  5
42E
102
{ACAD_REACTORS
330
786
102
}
330
1F
100
AcDbEntity
  8
LC-001-100-D00-0
 62
     7
370
    50
100
AcDbLine
 10
452.72815
 20
388.660616
 30
0.0
 11
451.228151
 21
388.660616
 31
0.0
  0
LINE
  5
42F
102
{ACAD_REACTORS
330
786
102
}
330
1F
100
AcDbEntity
  8
LC-001-100-D00-0
 62
     7
370
    50
100
AcDbLine
 10
451.228151
 20
392.660616
 30
0.0
 11
451.228151
 21
388.660616
 31
0.0
  0
ARC
  5
430
102
{ACAD_REACTORS
330
786
102
}
330
1F
100
AcDbEntity
  8
LC-001-100-D00-0
 62
     7
370
    50
100
AcDbCircle
 10
453.728151
 20
392.660616
 30
0.0
 40
2.5
100
AcDbArc
 50
90.0
 51
180.0
  0
LINE
  5
431
102
{ACAD_REACTORS
330
786
102
}
330
1F
100
AcDbEntity
  8
LC-001-100-D00-0
 62
     7
370
    50
100
AcDbLine
 10
470.401538
 20
395.160616
 30
0.0
 11
453.728152
 21
395.160616
 31
0.0
  0
ARC
  5
432
102
{ACAD_REACTORS
330
786
102
}
330
1F
100
AcDbEntity
  8
LC-001-100-D00-0
 62
     7
370
    50
100
AcDbCircle
 10
470.401541
 20
397.660616
 30
0.0
 40
2.500000000000227
100
AcDbArc
 50
270.0
 51
285.0
  0
ARC
  5
433
102
{ACAD_REACTORS
330
786
102
}
330
1F
100
AcDbEntity
  8
LC-001-100-D00-0
 62
     7
370
    50
100
AcDbCircle
 10
321.454761
 20
397.660616
 30
0.0
 40
2.500000000000062
100
AcDbArc
 50
255.0
 51
270.0
  0
LINE
  5
434
102
{ACAD_REACTORS
330
786
102
}
330
1F
100
AcDbEntity
  8
LC-001-100-D00-0
 62
     7
370
    50
100
AcDbLine
 10
326.850941
 20
395.160616
 30
0.0
 11
321.454761
 21
395.160616
 31
0.0
  0
LINE
  5
435
102
{ACAD_REACTORS
330
786
102
}
330
1F
100
AcDbEntity
  8
LC-001-100-D00-0
 62
     7
370
    50
100
AcDbLine
 10
338.128151
 20
395.160616
 30
0.0
 11
326.850941
 21
395.160616
 31
0.0
  0
ARC
  5
436
102
{ACAD_REACTORS
330
786
102
}
330
1F
100
AcDbEntity
  8
LC-001-100-D00-0
 62
     7
370
    50
100
AcDbCircle
 10
338.128151
 20
392.660616
 30
0.0
 40
2.5
100
AcDbArc
 50
0.0
 51
90.0
  0
LINE
  5
437
102
{ACAD_REACTORS
330
786
102
}
330
1F
100
AcDbEntity
  8
LC-001-100-D00-0
 62
     7
370
    50
100
AcDbLine
 10
340.628152
 20
388.660616
 30
0.0
 11
340.628152
 21
392.660616
 31
0.0
  0
LINE
  5
438
102
{ACAD_REACTORS
330
786
102
}
330
1F
100
AcDbEntity
  8
LC-001-100-D00-0
 62
     7
370
    50
100
AcDbLine
 10
340.628152
 20
388.660616
 30
0.0
 11
339.128153
 21
388.660616
 31
0.0
  0
LINE
  5
439
102
{ACAD_REACTORS
330
786
102
}
330
1F
100
AcDbEntity
  8
LC-001-100-D00-0
 62
     7
370
    50
100
AcDbLine
 10
339.128153
 20
388.660616
 30
0.0
 11
339.128153
 21
392.660616
 31
0.0
  0
ARC
  5
43A
102
{ACAD_REACTORS
330
786
102
}
330
1F
100
AcDbEntity
  8
LC-001-100-D00-0
 62
     7
370
    50
100
AcDbCircle
 10
338.128151
 20
392.660616
 30
0.0
 40
1.0
100
AcDbArc
 50
0.0
 51
90.0
  0
LINE
  5
43B
102
{ACAD_REACTORS
330
786
102
}
330
1F
100
AcDbEntity
  8
LC-001-100-D00-0
 62
     7
370
    50
100
AcDbLine
 10
338.128151
 20
393.660616
 30
0.0
 11
321.454761
 21
393.660616
 31
0.0
  0
ARC
  5
43C
102
{ACAD_REACTORS
330
786
102
}
330
1F
100
AcDbEntity
  8
LC-001-100-D00-0
 62
     7
370
    50
100
AcDbCircle
 10
321.454761
 20
397.660616
 30
0.0
 40
4.000000000000122
100
AcDbArc
 50
255.0
 51
270.0
  0
LINE
  5
43D
102
{ACAD_REACTORS
330
786
102
}
330
1F
100
AcDbEntity
  8
LC-001-100-D00-0
 62
     7
370
    50
100
AcDbLine
 10
343.428151
 20
388.660616
 30
0.0
 11
340.628152
 21
388.660616
 31
0.0
  0
LINE
  5
43E
102
{ACAD_REACTORS
330
786
102
}
330
1F
100
AcDbEntity
  8
LC-001-100-D00-0
 62
     7
370
    50
100
AcDbLine
 10
451.228151
 20
388.660616
 30
0.0
 11
448.428152
 21
388.660616
 31
0.0
  0
LINE
  5
43F
102
{ACAD_REACTORS
330
786
102
}
330
1F
100
AcDbEntity
  8
LC-001-100-D00-0
 62
     7
370
    50
100
AcDbLine
 10
446.428151
 20
395.160616
 30
0.0
 11
453.728152
 21
395.160616
 31
0.0
  0
LINE
  5
440
102
{ACAD_REACTORS
330
786
102
}
330
1F
100
AcDbEntity
  8
LC-001-100-D00-0
 62
     7
370
    50
100
AcDbLine
 10
345.428152
 20
395.160616
 30
0.0
 11
338.128151
 21
395.160616
 31
0.0
  0
LINE
  5
441
102
{ACAD_REACTORS
330
786
102
}
330
1F
100
AcDbEntity
  8
LC-001-100-D00-0
 62
     7
370
    50
100
AcDbLine
 10
444.928152
 20
397.660615
 30
0.0
 11
444.928152
 21
386.660616
 31
0.0
  0
LINE
  5
442
102
{ACAD_REACTORS
330
786
102
}
330
1F
100
AcDbEntity
  8
LC-001-100-D00-0
 62
     7
370
    50
100
AcDbLine
 10
346.928151
 20
386.660616
 30
0.0
 11
346.928151
 21
397.660615
 31
0.0
  0
LINE
  5
443
102
{ACAD_REACTORS
330
786
102
}
330
1F
100
AcDbEntity
  8
LC-001-100-D00-0
 62
     7
370
    50
100
AcDbLine
 10
450.428152
 20
388.160615
 30
0.0
 11
450.428152
 21
386.660616
 31
0.0
  0
LINE
  5
444
102
{ACAD_REACTORS
330
786
102
}
330
1F
100
AcDbEntity
  8
LC-001-100-D00-0
 62
     7
370
    50
100
AcDbLine
 10
341.428151
 20
386.660616
 30
0.0
 11
341.428151
 21
388.160615
 31
0.0
  0
LINE
  5
445
102
{ACAD_REACTORS
330
786
102
}
330
1F
100
AcDbEntity
  8
LC-001-100-D00-0
 62
     7
370
    50
100
AcDbLine
 10
341.428151
 20
386.660616
 30
0.0
 11
346.928151
 21
386.660616
 31
0.0
  0
LINE
  5
446
102
{ACAD_REACTORS
330
786
102
}
330
1F
100
AcDbEntity
  8
LC-001-100-D00-0
 62
     7
370
    50
100
AcDbLine
 10
341.428151
 20
388.160615
 30
0.0
 11
343.428151
 21
388.160615
 31
0.0
  0
LINE
  5
447
102
{ACAD_REACTORS
330
786
102
}
330
1F
100
AcDbEntity
  8
LC-001-100-D00-0
 62
     7
370
    50
100
AcDbLine
 10
343.428151
 20
388.160615
 30
0.0
 11
343.428151
 21
391.660616
 31
0.0
  0
LINE
  5
448
102
{ACAD_REACTORS
330
786
102
}
330
1F
100
AcDbEntity
  8
LC-001-100-D00-0
 62
     7
370
    50
100
AcDbLine
 10
341.428151
 20
391.660616
 30
0.0
 11
343.428151
 21
391.660616
 31
0.0
  0
LINE
  5
449
102
{ACAD_REACTORS
330
786
102
}
330
1F
100
AcDbEntity
  8
LC-001-100-D00-0
 62
     7
370
    50
100
AcDbLine
 10
341.428151
 20
393.160615
 30
0.0
 11
341.428151
 21
391.660616
 31
0.0
  0
LINE
  5
44A
102
{ACAD_REACTORS
330
786
102
}
330
1F
100
AcDbEntity
  8
LC-001-100-D00-0
 62
     7
370
    50
100
AcDbLine
 10
341.428151
 20
393.160615
 30
0.0
 11
345.428152
 21
393.160615
 31
0.0
  0
LINE
  5
44B
102
{ACAD_REACTORS
330
786
102
}
330
1F
100
AcDbEntity
  8
LC-001-100-D00-0
 62
     7
370
    50
100
AcDbLine
 10
345.428152
 20
393.160615
 30
0.0
 11
345.428152
 21
397.660615
 31
0.0
  0
ARC
  5
44C
102
{ACAD_REACTORS
330
786
102
}
330
1F
100
AcDbEntity
  8
LC-001-100-D00-0
 62
     7
370
    50
100
AcDbCircle
 10
350.928151
 20
397.660616
 30
0.0
 40
5.499999999999886
100
AcDbArc
 50
90.0
 51
180.0
  0
LINE
  5
44D
102
{ACAD_REACTORS
330
786
102
}
330
1F
100
AcDbEntity
  8
LC-001-100-D00-0
 62
     7
370
    50
100
AcDbLine
 10
440.928151
 20
403.160615
 30
0.0
 11
350.928152
 21
403.160615
 31
0.0
  0
ARC
  5
44E
102
{ACAD_REACTORS
330
786
102
}
330
1F
100
AcDbEntity
  8
LC-001-100-D00-0
 62
     7
370
    50
100
AcDbCircle
 10
440.928151
 20
397.660616
 30
0.0
 40
5.5
100
AcDbArc
 50
0.0
 51
90.0
  0
LINE
  5
44F
102
{ACAD_REACTORS
330
786
102
}
330
1F
100
AcDbEntity
  8
LC-001-100-D00-0
 62
     7
370
    50
100
AcDbLine
 10
446.428151
 20
397.660615
 30
0.0
 11
446.428151
 21
393.160615
 31
0.0
  0
LINE
  5
450
102
{ACAD_REACTORS
330
786
102
}
330
1F
100
AcDbEntity
  8
LC-001-100-D00-0
 62
     7
370
    50
100
AcDbLine
 10
446.428151
 20
393.160615
 30
0.0
 11
450.428152
 21
393.160615
 31
0.0
  0
LINE
  5
451
102
{ACAD_REACTORS
330
786
102
}
330
1F
100
AcDbEntity
  8
LC-001-100-D00-0
 62
     7
370
    50
100
AcDbLine
 10
450.428152
 20
391.660616
 30
0.0
 11
450.428152
 21
393.160615
 31
0.0
  0
LINE
  5
452
102
{ACAD_REACTORS
330
786
102
}
330
1F
100
AcDbEntity
  8
LC-001-100-D00-0
 62
     7
370
    50
100
AcDbLine
 10
448.428152
 20
391.660616
 30
0.0
 11
450.428152
 21
391.660616
 31
0.0
  0
LINE
  5
453
102
{ACAD_REACTORS
330
786
102
}
330
1F
100
AcDbEntity
  8
LC-001-100-D00-0
 62
     7
370
    50
100
AcDbLine
 10
448.428152
 20
391.660616
 30
0.0
 11
448.428152
 21
388.160615
 31
0.0
  0
LINE
  5
454
102
{ACAD_REACTORS
330
786
102
}
330
1F
100
AcDbEntity
  8
LC-001-100-D00-0
 62
     7
370
    50
100
AcDbLine
 10
448.428152
 20
388.160615
 30
0.0
 11
450.428152
 21
388.160615
 31
0.0
  0
LINE
  5
455
102
{ACAD_REACTORS
330
786
102
}
330
1F
100
AcDbEntity
  8
LC-001-100-D00-0
 62
     7
370
    50
100
AcDbLine
 10
444.928152
 20
386.660616
 30
0.0
 11
450.428152
 21
386.660616
 31
0.0
  0
ARC
  5
456
102
{ACAD_REACTORS
330
786
102
}
330
1F
100
AcDbEntity
  8
LC-001-100-D00-0
 62
     7
370
    50
100
AcDbCircle
 10
440.928151
 20
397.660616
 30
0.0
 40
4.000000000000114
100
AcDbArc
 50
0.0
 51
90.0
  0
LINE
  5
457
102
{ACAD_REACTORS
330
786
102
}
330
1F
100
AcDbEntity
  8
LC-001-100-D00-0
 62
     7
370
    50
100
AcDbLine
 10
440.928151
 20
401.660616
 30
0.0
 11
350.928152
 21
401.660616
 31
0.0
  0
ARC
  5
458
102
{ACAD_REACTORS
330
786
102
}
330
1F
100
AcDbEntity
  8
LC-001-100-D00-0
 62
     7
370
    50
100
AcDbCircle
 10
350.928151
 20
397.660616
 30
0.0
 40
4.0
100
AcDbArc
 50
90.0
 51
180.0
  0
LINE
  5
459
102
{ACAD_REACTORS
330
786
102
}
330
1F
100
AcDbEntity
  8
LC-001-100-D00-0
 62
     7
370
    50
100
AcDbLine
 10
445.370769
 20
362.660616
 30
0.0
 11
444.370767
 21
362.660616
 31
0.0
  0
LINE
  5
45A
102
{ACAD_REACTORS
330
786
102
}
330
1F
100
AcDbEntity
  8
LC-001-100-D00-0
 62
     7
370
    50
100
AcDbLine
 10
347.485536
 20
362.660616
 30
0.0
 11
444.370767
 21
362.660616
 31
0.0
  0
LINE
  5
45B
102
{ACAD_REACTORS
330
786
102
}
330
1F
100
AcDbEntity
  8
LC-001-100-D00-0
 62
     7
370
    50
100
AcDbLine
 10
347.485536
 20
362.660616
 30
0.0
 11
346.485534
 21
362.660616
 31
0.0
  0
LINE
  5
45C
102
{ACAD_REACTORS
330
786
102
}
330
1F
100
AcDbEntity
  8
LC-001-100-D00-0
 62
     7
370
    50
100
AcDbLine
 10
454.92815
 20
389.660616
 30
0.0
 11
452.72815
 21
389.660616
 31
0.0
  0
LINE
  5
45D
102
{ACAD_REACTORS
330
786
102
}
330
1F
100
AcDbEntity
  8
LC-001-100-D00-0
 62
     7
370
    50
100
AcDbLine
 10
454.92815
 20
390.28663
 30
0.0
 11
454.92815
 21
389.660616
 31
0.0
  0
LINE
  5
45E
102
{ACAD_REACTORS
330
786
102
}
330
1F
100
AcDbEntity
  8
LC-001-100-D00-0
 62
     7
370
    50
100
AcDbLine
 10
330.928152
 20
389.660616
 30
0.0
 11
330.928152
 21
393.660616
 31
0.0
  0
LINE
  5
45F
102
{ACAD_REACTORS
330
786
102
}
330
1F
100
AcDbEntity
  8
LC-001-100-D00-0
 62
     7
370
    50
100
AcDbLine
 10
336.547954
 20
393.660616
 30
0.0
 11
330.928152
 21
393.660616
 31
0.0
  0
ARC
  5
460
102
{ACAD_REACTORS
330
786
102
}
330
1F
100
AcDbEntity
  8
LC-001-100-D00-0
 62
     7
370
    50
100
AcDbCircle
 10
336.547952
 20
392.660616
 30
0.0
 40
0.9999999999999849
100
AcDbArc
 50
48.366461
 51
90.0
  0
LINE
  5
461
102
{ACAD_REACTORS
330
786
102
}
330
1F
100
AcDbEntity
  8
LC-001-100-D00-0
 62
     7
370
    50
100
AcDbLine
 10
340.564405
 20
390.428392
 30
0.0
 11
337.212314
 21
393.408025
 31
0.0
  0
ARC
  5
462
102
{ACAD_REACTORS
330
786
102
}
330
1F
100
AcDbEntity
  8
LC-001-100-D00-0
 62
     7
370
    50
100
AcDbCircle
 10
340.365094
 20
390.204169
 30
0.0
 40
0.3000000000001588
100
AcDbArc
 50
257.471192
 51
48.366461
  0
LINE
  5
463
102
{ACAD_REACTORS
330
786
102
}
330
1F
100
AcDbEntity
  8
LC-001-100-D00-0
 62
     7
370
    50
100
AcDbLine
 10
337.293231
 20
390.579487
 30
0.0
 11
340.300014
 21
389.911313
 31
0.0
  0
ARC
  5
464
102
{ACAD_REACTORS
330
786
102
}
330
1F
100
AcDbEntity
  8
LC-001-100-D00-0
 62
     7
370
    50
100
AcDbCircle
 10
337.228151
 20
390.286631
 30
0.0
 40
0.2999999999999368
100
AcDbArc
 50
77.471192
 51
180.0
  0
LINE
  5
465
102
{ACAD_REACTORS
330
786
102
}
330
1F
100
AcDbEntity
  8
LC-001-100-D00-0
 62
     7
370
    50
100
AcDbLine
 10
336.928153
 20
389.660616
 30
0.0
 11
336.928153
 21
390.28663
 31
0.0
  0
LINE
  5
466
102
{ACAD_REACTORS
330
786
102
}
330
1F
100
AcDbEntity
  8
LC-001-100-D00-0
 62
     7
370
    50
100
AcDbLine
 10
336.928153
 20
389.660616
 30
0.0
 11
330.928152
 21
389.660616
 31
0.0
  0
LINE
  5
467
102
{ACAD_REACTORS
330
786
102
}
330
1F
100
AcDbEntity
  8
LC-001-100-D00-0
 62
     7
370
    50
100
AcDbLine
 10
460.928155
 20
393.660616
 30
0.0
 11
460.928155
 21
389.660616
 31
0.0
  0
LINE
  5
468
102
{ACAD_REACTORS
330
786
102
}
330
1F
100
AcDbEntity
  8
LC-001-100-D00-0
 62
     7
370
    50
100
AcDbLine
 10
339.128153
 20
389.660616
 30
0.0
 11
336.928153
 21
389.660616
 31
0.0
  0
LINE
  5
469
102
{ACAD_REACTORS
330
786
102
}
330
1F
100
AcDbEntity
  8
LC-001-100-D00-0
 62
     7
370
    50
100
AcDbLine
 10
451.556289
 20
389.911313
 30
0.0
 11
454.563071
 21
390.579487
 31
0.0
  0
ARC
  5
46A
102
{ACAD_REACTORS
330
786
102
}
330
1F
100
AcDbEntity
  8
LC-001-100-D00-0
 62
     7
370
    50
100
AcDbCircle
 10
451.491208
 20
390.204169
 30
0.0
 40
0.300000000000087
100
AcDbArc
 50
131.633539
 51
282.528808
  0
LINE
  5
46B
102
{ACAD_REACTORS
330
786
102
}
330
1F
100
AcDbEntity
  8
LC-001-100-D00-0
 62
     7
370
    50
100
AcDbLine
 10
454.643989
 20
393.408025
 30
0.0
 11
451.291898
 21
390.428392
 31
0.0
  0
ARC
  5
46C
102
{ACAD_REACTORS
330
786
102
}
330
1F
100
AcDbEntity
  8
LC-001-100-D00-0
 62
     7
370
    50
100
AcDbCircle
 10
455.308351
 20
392.660616
 30
0.0
 40
0.9999999999998863
100
AcDbArc
 50
90.0
 51
131.633539
  0
ARC
  5
46D
102
{ACAD_REACTORS
330
786
102
}
330
1F
100
AcDbEntity
  8
LC-001-100-D00-0
 62
     7
370
    50
100
AcDbCircle
 10
454.628151
 20
390.286631
 30
0.0
 40
0.3000000000000682
100
AcDbArc
 50
0.0
 51
102.528808
  0
LINE
  5
46E
102
{ACAD_REACTORS
330
786
102
}
330
1F
100
AcDbEntity
  8
LC-001-100-D00-0
 62
     7
370
    50
100
AcDbLine
 10
460.928155
 20
393.660616
 30
0.0
 11
455.308349
 21
393.660616
 31
0.0
  0
LINE
  5
46F
102
{ACAD_REACTORS
330
786
102
}
330
1F
100
AcDbEntity
  8
LC-001-100-D00-0
 62
     7
370
    50
100
AcDbLine
 10
460.928155
 20
389.660616
 30
0.0
 11
454.92815
 21
389.660616
 31
0.0
  0
LINE
  5
470
102
{ACAD_REACTORS
330
786
102
}
330
1F
100
AcDbEntity
  8
LC-001-100-D00-0
 62
     7
370
    50
100
AcDbLine
 10
463.428152
 20
390.660616
 30
0.0
 11
463.428152
 21
386.660616
 31
0.0
  0
LINE
  5
471
102
{ACAD_REACTORS
330
786
102
}
330
1F
100
AcDbEntity
  8
LC-001-100-D00-0
 62
     7
370
    50
100
AcDbLine
 10
457.428151
 20
389.660616
 30
0.0
 11
457.428151
 21
386.660616
 31
0.0
  0
LINE
  5
472
102
{ACAD_REACTORS
330
786
102
}
330
1F
100
AcDbEntity
  8
LC-001-100-D00-0
 62
     7
370
    50
100
AcDbLine
 10
450.428152
 20
386.660616
 30
0.0
 11
457.428151
 21
386.660616
 31
0.0
  0
LINE
  5
473
102
{ACAD_REACTORS
330
786
102
}
330
1F
100
AcDbEntity
  8
LC-001-100-D00-0
 62
     7
370
    50
100
AcDbLine
 10
334.428152
 20
389.660616
 30
0.0
 11
331.428153
 21
389.660616
 31
0.0
  0
LINE
  5
474
102
{ACAD_REACTORS
330
786
102
}
330
1F
100
AcDbEntity
  8
LC-001-100-D00-0
 62
     7
370
    50
100
AcDbLine
 10
334.428152
 20
386.660616
 30
0.0
 11
334.428152
 21
389.660616
 31
0.0
  0
LINE
  5
475
102
{ACAD_REACTORS
330
786
102
}
330
1F
100
AcDbEntity
  8
LC-001-100-D00-0
 62
     7
370
    50
100
AcDbLine
 10
328.428154
 20
386.660616
 30
0.0
 11
328.428154
 21
390.660616
 31
0.0
  0
LINE
  5
476
102
{ACAD_REACTORS
330
786
102
}
330
1F
100
AcDbEntity
  8
LC-001-100-D00-0
 62
     7
370
    50
100
AcDbLine
 10
325.428148
 20
389.160616
 30
0.0
 11
325.428148
 21
390.660616
 31
0.0
  0
LINE
  5
477
102
{ACAD_REACTORS
330
786
102
}
330
1F
100
AcDbEntity
  8
LC-001-100-D00-0
 62
     7
370
    50
100
AcDbLine
 10
322.42815
 20
389.160616
 30
0.0
 11
322.42815
 21
393.660616
 31
0.0
  0
LINE
  5
478
102
{ACAD_REACTORS
330
786
102
}
330
1F
100
AcDbEntity
  8
LC-001-100-D00-0
 62
     7
370
    50
100
AcDbLine
 10
331.428153
 20
393.660616
 30
0.0
 11
322.42815
 21
393.660616
 31
0.0
  0
LINE
  5
479
102
{ACAD_REACTORS
330
786
102
}
330
1F
100
AcDbEntity
  8
LC-001-100-D00-0
 62
     7
370
    50
100
AcDbLine
 10
331.428153
 20
393.660616
 30
0.0
 11
331.428153
 21
389.660616
 31
0.0
  0
LINE
  5
47A
102
{ACAD_REACTORS
330
786
102
}
330
1F
100
AcDbEntity
  8
LC-001-100-D00-0
 62
     7
370
    50
100
AcDbLine
 10
322.42815
 20
389.160616
 30
0.0
 11
325.428148
 21
389.160616
 31
0.0
  0
LINE
  5
47B
102
{ACAD_REACTORS
330
786
102
}
330
1F
100
AcDbEntity
  8
LC-001-100-D00-0
 62
     7
370
    50
100
AcDbLine
 10
328.428154
 20
386.660616
 30
0.0
 11
334.428152
 21
386.660616
 31
0.0
  0
LINE
  5
47C
102
{ACAD_REACTORS
330
786
102
}
330
1F
100
AcDbEntity
  8
LC-001-100-D00-0
 62
     7
370
    50
100
AcDbLine
 10
325.428148
 20
390.660616
 30
0.0
 11
328.428154
 21
390.660616
 31
0.0
  0
LINE
  5
47D
102
{ACAD_REACTORS
330
786
102
}
330
1F
100
AcDbEntity
  8
LC-001-100-D00-0
 62
     7
370
    50
100
AcDbLine
 10
469.42815
 20
393.660616
 30
0.0
 11
460.428154
 21
393.660616
 31
0.0
  0
LINE
  5
47E
102
{ACAD_REACTORS
330
786
102
}
330
1F
100
AcDbEntity
  8
LC-001-100-D00-0
 62
     7
370
    50
100
AcDbLine
 10
469.42815
 20
393.660616
 30
0.0
 11
469.42815
 21
389.160616
 31
0.0
  0
LINE
  5
47F
102
{ACAD_REACTORS
330
786
102
}
330
1F
100
AcDbEntity
  8
LC-001-100-D00-0
 62
     7
370
    50
100
AcDbLine
 10
466.428151
 20
390.660616
 30
0.0
 11
466.428151
 21
389.160616
 31
0.0
  0
LINE
  5
480
102
{ACAD_REACTORS
330
786
102
}
330
1F
100
AcDbEntity
  8
LC-001-100-D00-0
 62
     7
370
    50
100
AcDbLine
 10
460.428154
 20
389.660616
 30
0.0
 11
457.428151
 21
389.660616
 31
0.0
  0
LINE
  5
481
102
{ACAD_REACTORS
330
786
102
}
330
1F
100
AcDbEntity
  8
LC-001-100-D00-0
 62
     7
370
    50
100
AcDbLine
 10
460.428154
 20
389.660616
 30
0.0
 11
460.428154
 21
393.660616
 31
0.0
  0
LINE
  5
482
102
{ACAD_REACTORS
330
786
102
}
330
1F
100
AcDbEntity
  8
LC-001-100-D00-0
 62
     7
370
    50
100
AcDbLine
 10
466.428151
 20
389.160616
 30
0.0
 11
469.42815
 21
389.160616
 31
0.0
  0
LINE
  5
483
102
{ACAD_REACTORS
330
786
102
}
330
1F
100
AcDbEntity
  8
LC-001-100-D00-0
 62
     7
370
    50
100
AcDbLine
 10
457.428151
 20
386.660616
 30
0.0
 11
463.428152
 21
386.660616
 31
0.0
  0
LINE
  5
484
102
{ACAD_REACTORS
330
786
102
}
330
1F
100
AcDbEntity
  8
LC-001-100-D00-0
 62
     7
370
    50
100
AcDbLine
 10
463.428152
 20
390.660616
 30
0.0
 11
466.428151
 21
390.660616
 31
0.0
  0
LINE
  5
485
102
{ACAD_REACTORS
330
786
102
}
330
1F
100
AcDbEntity
  8
LC-001-100-D00-0
 62
     7
370
    50
100
AcDbLine
 10
334.428152
 20
386.660616
 30
0.0
 11
341.428151
 21
386.660616
 31
0.0
  0
LINE
  5
486
102
{ACAD_REACTORS
330
786
102
}
330
1F
100
AcDbEntity
  8
LC-001-100-D00-0
 62
     7
370
    50
100
AcDbLine
 10
463.428152
 20
389.160616
 30
0.0
 11
466.428151
 21
389.160616
 31
0.0
  0
LINE
  5
487
102
{ACAD_REACTORS
330
786
102
}
330
1F
100
AcDbEntity
  8
LC-001-100-D00-0
 62
     7
370
    50
100
AcDbLine
 10
325.428148
 20
389.160616
 30
0.0
 11
328.428154
 21
389.160616
 31
0.0
  0
ARC
  5
488
102
{ACAD_REACTORS
330
786
102
}
330
1F
100
AcDbEntity
  8
LC-001-100-D00-0
 62
     7
370
    50
100
AcDbCircle
 10
459.428151
 20
362.660616
 30
0.0
 40
7.0
100
AcDbArc
 50
270.0
 51
0.0
  0
LINE
  5
489
102
{ACAD_REACTORS
330
786
102
}
330
1F
100
AcDbEntity
  8
LC-001-100-D00-0
 62
     7
370
    50
100
AcDbLine
 10
466.428151
 20
390.660616
 30
0.0
 11
466.428151
 21
362.660616
 31
0.0
  0
LINE
  5
48A
102
{ACAD_REACTORS
330
786
102
}
330
1F
100
AcDbEntity
  8
LC-001-100-D00-0
 62
     7
370
    50
100
AcDbLine
 10
325.428148
 20
362.660616
 30
0.0
 11
325.428148
 21
390.660616
 31
0.0
  0
ARC
  5
48B
102
{ACAD_REACTORS
330
786
102
}
330
1F
100
AcDbEntity
  8
LC-001-100-D00-0
 62
     7
370
    50
100
AcDbCircle
 10
332.428151
 20
362.660616
 30
0.0
 40
7.0
100
AcDbArc
 50
180.0
 51
270.0
  0
LINE
  5
48C
102
{ACAD_REACTORS
330
786
102
}
330
1F
100
AcDbEntity
  8
LC-001-100-D00-0
 62
     7
370
    50
100
AcDbLine
 10
459.428152
 20
355.660616
 30
0.0
 11
332.428155
 21
355.660616
 31
0.0
  0
LINE
  5
48D
102
{ACAD_REACTORS
330
786
102
}
330
1F
100
AcDbEntity
  8
LC-001-100-D00-0
 62
     7
370
    50
100
AcDbLine
 10
469.42815
 20
390.660616
 30
0.0
 11
469.42815
 21
362.660616
 31
0.0
  0
ARC
  5
48E
102
{ACAD_REACTORS
330
786
102
}
330
1F
100
AcDbEntity
  8
LC-001-100-D00-0
 62
     7
370
    50
100
AcDbCircle
 10
459.428151
 20
362.660616
 30
0.0
 40
10.0
100
AcDbArc
 50
270.0
 51
0.0
  0
LINE
  5
48F
102
{ACAD_REACTORS
330
786
102
}
330
1F
100
AcDbEntity
  8
LC-001-100-D00-0
 62
     7
370
    50
100
AcDbLine
 10
459.428152
 20
352.660615
 30
0.0
 11
332.428155
 21
352.660615
 31
0.0
  0
ARC
  5
490
102
{ACAD_REACTORS
330
786
102
}
330
1F
100
AcDbEntity
  8
LC-001-100-D00-0
 62
     7
370
    50
100
AcDbCircle
 10
332.428151
 20
362.660616
 30
0.0
 40
10.0
100
AcDbArc
 50
180.0
 51
270.0
  0
LINE
  5
491
102
{ACAD_REACTORS
330
786
102
}
330
1F
100
AcDbEntity
  8
LC-001-100-D00-0
 62
     7
370
    50
100
AcDbLine
 10
322.42815
 20
362.660616
 30
0.0
 11
322.42815
 21
390.660616
 31
0.0
  0
LINE
  5
492
102
{ACAD_REACTORS
330
786
102
}
330
1F
100
AcDbEntity
  8
LC-001-100-D00-0
 62
     7
370
    50
100
AcDbLine
 10
325.428148
 20
390.660616
 30
0.0
 11
322.42815
 21
390.660616
 31
0.0
  0
LINE
  5
493
102
{ACAD_REACTORS
330
786
102
}
330
1F
100
AcDbEntity
  8
LC-001-100-D00-0
 62
     7
370
    50
100
AcDbLine
 10
469.42815
 20
390.660616
 30
0.0
 11
466.428151
 21
390.660616
 31
0.0
  0
INSERT
  5
4A0
102
{ACAD_REACTORS
330
786
102
}
330
1F
100
AcDbEntity
  8
LC-001-100-D00-0
 62
     7
370
    25
100
AcDbBlockReference
  2
KLON27
 10
0.0
 20
0.0
 30
0.0
  0
LINE
  5
4A1
102
{ACAD_REACTORS
330
786
102
}
330
1F
100
AcDbEntity
  8
LC-001-100-D00-0
 62
     7
370
    25
100
AcDbLine
 10
453.584529
 20
390.362033
 30
0.0
 11
456.883112
 21
393.660616
 31
0.0
  0
INSERT
  5
4AD
102
{ACAD_REACTORS
330
786
102
}
330
1F
100
AcDbEntity
  8
LC-001-100-D00-0
 62
     7
370
    25
100
AcDbBlockReference
  2
KLON28
 10
0.0
 20
0.0
 30
0.0
  0
DIMENSION
  5
4AE
102
{ACAD_REACTORS
330
786
102
}
330
1F
100
AcDbEntity
  8
LC-001-100-D00-0
 62
     7
370
    25
100
AcDbDimension
  2
*D35
 10
469.428151
 20
250.284886
 30
0.0
 11
383.341238
 21
305.284886
 31
0.0
 70
   160
  1
147
 71
     5
 42
147.0
  3
LC-DIM-L-0100-02-02
100
AcDbAlignedDimension
 13
322.428151
 23
362.660616
 33
0.0
 14
469.428151
 24
362.660616
 34
0.0
100
AcDbRotatedDimension
  0
LINE
  5
4BB
102
{ACAD_REACTORS
330
786
102
}
330
1F
100
AcDbEntity
  8
LC-001-100-D00-0
  6
DASHDOT
 62
     7
370
    25
100
AcDbLine
 10
397.495184
 20
420.660615
 30
0.0
 11
397.495184
 21
352.660615
 31
0.0
  0
DIMENSION
  5
4BC
330
1F
100
AcDbEntity
  8
LC-001-100-D00-0
 62
     7
370
    25
100
AcDbDimension
  2
*D36
 10
990.322299
 20
352.660616
 30
0.0
 11
935.322299
 21
435.909886
 31
0.0
 70
   160
  1
68
 71
     5
 42
68.0
 53
90.0
  3
LC-DIM-L-0100-02-02
100
AcDbAlignedDimension
 13
695.928151
 23
420.660616
 33
0.0
 14
459.428151
 24
352.660616
 34
0.0
 50
90.0
100
AcDbRotatedDimension
  0
LINE
  5
4CA
330
1F
100
AcDbEntity
  8
LC-001-100-D00-0
 62
     7
370
    50
100
AcDbLine
 10
-276.485904
 20
385.160616
 30
0.0
 11
-276.485904
 21
386.660616
 31
0.0
  0
LINE
  5
4CB
330
1F
100
AcDbEntity
  8
LC-001-100-D00-0
 62
     7
370
    50
100
AcDbLine
 10
-361.195941
 20
352.660615
 30
0.0
 11
-288.19594
 21
352.660615
 31
0.0
  0
LINE
  5
4CC
330
1F
100
AcDbEntity
  8
LC-001-100-D00-0
 62
     7
370
    50
100
AcDbLine
 10
-313.92799
 20
402.660616
 30
0.0
 11
-361.195941
 21
402.660616
 31
0.0
  0
LINE
  5
4CD
330
1F
100
AcDbEntity
  8
LC-001-100-D00-0
 62
     7
370
    50
100
AcDbLine
 10
-361.195941
 20
402.660616
 30
0.0
 11
-364.19594
 21
401.856767
 31
0.0
  0
LINE
  5
4CE
330
1F
100
AcDbEntity
  8
LC-001-100-D00-0
 62
     7
370
    50
100
AcDbLine
 10
-364.19594
 20
353.464464
 30
0.0
 11
-361.195941
 21
352.660615
 31
0.0
  0
LINE
  5
4CF
330
1F
100
AcDbEntity
  8
LC-001-100-D00-0
 62
     7
370
    50
100
AcDbLine
 10
-267.945941
 20
413.660616
 30
0.0
 11
-267.945941
 21
403.160615
 31
0.0
  0
LINE
  5
4D0
330
1F
100
AcDbEntity
  8
LC-001-100-D00-0
 62
     7
370
    50
100
AcDbLine
 10
-248.445941
 20
402.660616
 30
0.0
 11
-248.445941
 21
413.660616
 31
0.0
  0
ARC
  5
4D1
330
1F
100
AcDbEntity
  8
LC-001-100-D00-0
 62
     7
370
    50
100
AcDbCircle
 10
-249.445941
 20
402.660616
 30
0.0
 40
1.000000000000114
100
AcDbArc
 50
270.0
 51
0.0
  0
ARC
  5
4D2
330
1F
100
AcDbEntity
  8
LC-001-100-D00-0
 62
     7
370
    50
100
AcDbCircle
 10
-331.695941
 20
298.660616
 30
0.0
 40
0.5
100
AcDbArc
 50
90.0
 51
180.0
  0
ARC
  5
4D3
330
1F
100
AcDbEntity
  8
LC-001-100-D00-0
 62
     7
370
    50
100
AcDbCircle
 10
-313.695941
 20
298.660616
 30
0.0
 40
0.5
100
AcDbArc
 50
0.0
 51
90.0
  0
LINE
  5
4D4
330
1F
100
AcDbEntity
  8
LC-001-100-D00-0
 62
     7
370
    50
100
AcDbLine
 10
-332.195942
 20
298.660614
 30
0.0
 11
-332.195942
 21
291.160614
 31
0.0
  0
LINE
  5
4D5
330
1F
100
AcDbEntity
  8
LC-001-100-D00-0
 62
     7
370
    50
100
AcDbLine
 10
-313.195941
 20
291.160614
 30
0.0
 11
-313.195941
 21
298.660614
 31
0.0
  0
LINE
  5
4D6
330
1F
100
AcDbEntity
  8
LC-001-100-D00-0
 62
     7
370
    50
100
AcDbLine
 10
-332.695943
 20
352.660615
 30
0.0
 11
-332.695943
 21
314.160615
 31
0.0
  0
LINE
  5
4D7
330
1F
100
AcDbEntity
  8
LC-001-100-D00-0
 62
     7
370
    50
100
AcDbLine
 10
-312.69594
 20
314.160615
 30
0.0
 11
-312.69594
 21
352.660615
 31
0.0
  0
LINE
  5
4D8
330
1F
100
AcDbEntity
  8
LC-001-100-D00-0
 62
     7
370
    50
100
AcDbLine
 10
-332.695943
 20
310.660616
 30
0.0
 11
-332.695943
 21
300.160617
 31
0.0
  0
LINE
  5
4D9
330
1F
100
AcDbEntity
  8
LC-001-100-D00-0
 62
     7
370
    50
100
AcDbLine
 10
-312.69594
 20
300.160617
 30
0.0
 11
-312.69594
 21
310.660616
 31
0.0
  0
LINE
  5
4DA
330
1F
100
AcDbEntity
  8
LC-001-100-D00-0
 62
     7
370
    50
100
AcDbLine
 10
-332.695943
 20
300.160617
 30
0.0
 11
-331.695941
 21
299.160615
 31
0.0
  0
LINE
  5
4DB
330
1F
100
AcDbEntity
  8
LC-001-100-D00-0
 62
     7
370
    50
100
AcDbLine
 10
-313.695942
 20
299.160615
 30
0.0
 11
-312.69594
 21
300.160617
 31
0.0
  0
LINE
  5
4DC
330
1F
100
AcDbEntity
  8
LC-001-100-D00-0
 62
     7
370
    50
100
AcDbLine
 10
-330.595945
 20
314.160615
 30
0.0
 11
-330.595945
 21
310.660616
 31
0.0
  0
LINE
  5
4DD
330
1F
100
AcDbEntity
  8
LC-001-100-D00-0
 62
     7
370
    50
100
AcDbLine
 10
-314.795942
 20
310.660616
 30
0.0
 11
-314.795942
 21
314.160615
 31
0.0
  0
ARC
  5
4DE
330
1F
100
AcDbEntity
  8
LC-001-100-D00-0
 62
     7
370
    50
100
AcDbCircle
 10
-229.195941
 20
417.660616
 30
0.0
 40
3.0
100
AcDbArc
 50
90.0
 51
180.0
  0
LINE
  5
4DF
330
1F
100
AcDbEntity
  8
LC-001-100-D00-0
 62
     7
370
    50
100
AcDbLine
 10
-229.195942
 20
420.660615
 30
0.0
 11
-215.19594
 21
420.660615
 31
0.0
  0
ARC
  5
4E0
330
1F
100
AcDbEntity
  8
LC-001-100-D00-0
 62
     7
370
    50
100
AcDbCircle
 10
-215.195941
 20
422.160616
 30
0.0
 40
1.500000000000114
100
AcDbArc
 50
270.0
 51
0.0
  0
LINE
  5
4E1
330
1F
100
AcDbEntity
  8
LC-001-100-D00-0
 62
     7
370
    50
100
AcDbLine
 10
-213.69594
 20
422.160615
 30
0.0
 11
-213.69594
 21
466.660619
 31
0.0
  0
LINE
  5
4E2
330
1F
100
AcDbEntity
  8
LC-001-100-D00-0
 62
     7
370
    50
100
AcDbLine
 10
-213.69594
 20
466.660619
 30
0.0
 11
-212.195941
 21
466.660619
 31
0.0
  0
LINE
  5
4E3
330
1F
100
AcDbEntity
  8
LC-001-100-D00-0
 62
     7
370
    50
100
AcDbLine
 10
-212.195941
 20
466.660619
 30
0.0
 11
-212.195941
 21
421.660617
 31
0.0
  0
ARC
  5
4E4
330
1F
100
AcDbEntity
  8
LC-001-100-D00-0
 62
     7
370
    50
100
AcDbCircle
 10
-214.695941
 20
421.660616
 30
0.0
 40
2.5
100
AcDbArc
 50
270.0
 51
0.0
  0
LINE
  5
4E5
330
1F
100
AcDbEntity
  8
LC-001-100-D00-0
 62
     7
370
    50
100
AcDbLine
 10
-229.195942
 20
419.160616
 30
0.0
 11
-214.695942
 21
419.160616
 31
0.0
  0
ARC
  5
4E6
330
1F
100
AcDbEntity
  8
LC-001-100-D00-0
 62
     7
370
    50
100
AcDbCircle
 10
-229.195941
 20
417.660616
 30
0.0
 40
1.5
100
AcDbArc
 50
90.0
 51
180.0
  0
LINE
  5
4E7
330
1F
100
AcDbEntity
  8
LC-001-100-D00-0
 62
     7
370
    50
100
AcDbLine
 10
-230.695941
 20
417.660617
 30
0.0
 11
-230.695941
 21
397.660615
 31
0.0
  0
ARC
  5
4E8
330
1F
100
AcDbEntity
  8
LC-001-100-D00-0
 62
     7
370
    50
100
AcDbCircle
 10
-234.695941
 20
397.660616
 30
0.0
 40
4.000000000000073
100
AcDbArc
 50
319.464198
 51
360.0
  0
ARC
  5
4E9
330
1F
100
AcDbEntity
  8
LC-001-100-D00-0
 62
     7
370
    50
100
AcDbCircle
 10
-230.895941
 20
394.411
 30
0.0
 40
0.9999999999999845
100
AcDbArc
 50
139.464198
 51
180.0
  0
LINE
  5
4EA
330
1F
100
AcDbEntity
  8
LC-001-100-D00-0
 62
     7
370
    50
100
AcDbLine
 10
-231.895941
 20
388.660616
 30
0.0
 11
-231.895941
 21
394.411
 31
0.0
  0
LINE
  5
4EB
330
1F
100
AcDbEntity
  8
LC-001-100-D00-0
 62
     7
370
    50
100
AcDbLine
 10
-233.39594
 20
388.660616
 30
0.0
 11
-231.895941
 21
388.660616
 31
0.0
  0
LINE
  5
4EC
330
1F
100
AcDbEntity
  8
LC-001-100-D00-0
 62
     7
370
    50
100
AcDbLine
 10
-233.39594
 20
388.660616
 30
0.0
 11
-233.39594
 21
394.411
 31
0.0
  0
ARC
  5
4ED
330
1F
100
AcDbEntity
  8
LC-001-100-D00-0
 62
     7
370
    50
100
AcDbCircle
 10
-230.895941
 20
394.411
 30
0.0
 40
2.499999999999955
100
AcDbArc
 50
139.464198
 51
180.0
  0
ARC
  5
4EE
330
1F
100
AcDbEntity
  8
LC-001-100-D00-0
 62
     7
370
    50
100
AcDbCircle
 10
-234.695941
 20
397.660616
 30
0.0
 40
2.500000000000029
100
AcDbArc
 50
319.464198
 51
360.0
  0
LINE
  5
4EF
330
1F
100
AcDbEntity
  8
LC-001-100-D00-0
 62
     7
370
    50
100
AcDbLine
 10
-232.19594
 20
417.660617
 30
0.0
 11
-232.19594
 21
397.660615
 31
0.0
  0
LINE
  5
4F0
330
1F
100
AcDbEntity
  8
LC-001-100-D00-0
 62
     7
370
    50
100
AcDbLine
 10
-285.695941
 20
397.660615
 30
0.0
 11
-285.695941
 21
417.660617
 31
0.0
  0
ARC
  5
4F1
330
1F
100
AcDbEntity
  8
LC-001-100-D00-0
 62
     7
370
    50
100
AcDbCircle
 10
-287.195941
 20
417.660616
 30
0.0
 40
1.5
100
AcDbArc
 50
0.0
 51
90.0
  0
LINE
  5
4F2
330
1F
100
AcDbEntity
  8
LC-001-100-D00-0
 62
     7
370
    50
100
AcDbLine
 10
-335.695942
 20
419.160616
 30
0.0
 11
-287.19594
 21
419.160616
 31
0.0
  0
LINE
  5
4F3
330
1F
100
AcDbEntity
  8
LC-001-100-D00-0
 62
     7
370
    50
100
AcDbLine
 10
-335.695942
 20
419.160616
 30
0.0
 11
-335.695942
 21
420.660615
 31
0.0
  0
LINE
  5
4F4
330
1F
100
AcDbEntity
  8
LC-001-100-D00-0
 62
     7
370
    50
100
AcDbLine
 10
-335.695942
 20
420.660615
 30
0.0
 11
-287.19594
 21
420.660615
 31
0.0
  0
ARC
  5
4F5
330
1F
100
AcDbEntity
  8
LC-001-100-D00-0
 62
     7
370
    50
100
AcDbCircle
 10
-287.195941
 20
417.660616
 30
0.0
 40
3.000000000000057
100
AcDbArc
 50
0.0
 51
90.0
  0
LINE
  5
4F6
330
1F
100
AcDbEntity
  8
LC-001-100-D00-0
 62
     7
370
    50
100
AcDbLine
 10
-284.195942
 20
397.660615
 30
0.0
 11
-284.195942
 21
417.660617
 31
0.0
  0
ARC
  5
4F7
330
1F
100
AcDbEntity
  8
LC-001-100-D00-0
 62
     7
370
    50
100
AcDbCircle
 10
-281.695941
 20
397.660616
 30
0.0
 40
2.5
100
AcDbArc
 50
180.0
 51
220.535802
  0
ARC
  5
4F8
330
1F
100
AcDbEntity
  8
LC-001-100-D00-0
 62
     7
370
    50
100
AcDbCircle
 10
-285.495941
 20
394.411
 30
0.0
 40
2.5
100
AcDbArc
 50
0.0
 51
40.535802
  0
LINE
  5
4F9
330
1F
100
AcDbEntity
  8
LC-001-100-D00-0
 62
     7
370
    50
100
AcDbLine
 10
-282.995942
 20
394.411
 30
0.0
 11
-282.995942
 21
388.660616
 31
0.0
  0
LINE
  5
4FA
330
1F
100
AcDbEntity
  8
LC-001-100-D00-0
 62
     7
370
    50
100
AcDbLine
 10
-284.495941
 20
388.660616
 30
0.0
 11
-282.995942
 21
388.660616
 31
0.0
  0
LINE
  5
4FB
330
1F
100
AcDbEntity
  8
LC-001-100-D00-0
 62
     7
370
    50
100
AcDbLine
 10
-284.495941
 20
394.411
 30
0.0
 11
-284.495941
 21
388.660616
 31
0.0
  0
ARC
  5
4FC
330
1F
100
AcDbEntity
  8
LC-001-100-D00-0
 62
     7
370
    50
100
AcDbCircle
 10
-285.495941
 20
394.411
 30
0.0
 40
1.0
100
AcDbArc
 50
0.0
 51
40.535802
  0
ARC
  5
4FD
330
1F
100
AcDbEntity
  8
LC-001-100-D00-0
 62
     7
370
    50
100
AcDbCircle
 10
-281.695941
 20
397.660616
 30
0.0
 40
4.0
100
AcDbArc
 50
180.0
 51
220.535802
  0
LINE
  5
4FE
330
1F
100
AcDbEntity
  8
LC-001-100-D00-0
 62
     7
370
    50
100
AcDbLine
 10
-282.323745
 20
387.160615
 30
0.0
 11
-282.323745
 21
388.660616
 31
0.0
  0
LINE
  5
4FF
330
1F
100
AcDbEntity
  8
LC-001-100-D00-0
 62
     7
370
    50
100
AcDbLine
 10
-234.068137
 20
387.160615
 30
0.0
 11
-234.068137
 21
388.660616
 31
0.0
  0
LINE
  5
500
330
1F
100
AcDbEntity
  8
LC-001-100-D00-0
 62
     7
370
    50
100
AcDbLine
 10
-281.01565
 20
388.160615
 30
0.0
 11
-281.01565
 21
388.660616
 31
0.0
  0
LINE
  5
501
330
1F
100
AcDbEntity
  8
LC-001-100-D00-0
 62
     7
370
    50
100
AcDbLine
 10
-235.376232
 20
388.160615
 30
0.0
 11
-235.376232
 21
388.660616
 31
0.0
  0
LINE
  5
502
330
1F
100
AcDbEntity
  8
LC-001-100-D00-0
 62
     7
370
    50
100
AcDbLine
 10
-281.01565
 20
388.660616
 30
0.0
 11
-282.995942
 21
388.660616
 31
0.0
  0
LINE
  5
503
330
1F
100
AcDbEntity
  8
LC-001-100-D00-0
 62
     7
370
    50
100
AcDbLine
 10
-233.39594
 20
388.660616
 30
0.0
 11
-235.376232
 21
388.660616
 31
0.0
  0
INSERT
  5
513
330
1F
100
AcDbEntity
  8
LC-001-100-D00-0
 62
     7
370
    50
100
AcDbBlockReference
  2
POLY1
 10
0.0
 20
0.0
 30
0.0
  0
INSERT
  5
523
330
1F
100
AcDbEntity
  8
LC-001-100-D00-0
 62
     7
370
    50
100
AcDbBlockReference
  2
POLY2
 10
0.0
 20
0.0
 30
0.0
  0
LINE
  5
524
330
1F
100
AcDbEntity
  8
LC-001-100-D00-0
 62
     7
370
    50
100
AcDbLine
 10
-235.815058
 20
385.160616
 30
0.0
 11
-235.655979
 21
385.168677
 31
0.0
  0
LINE
  5
525
330
1F
100
AcDbEntity
  8
LC-001-100-D00-0
 62
     7
370
    50
100
AcDbLine
 10
-235.815058
 20
385.160616
 30
0.0
 11
-238.195941
 21
385.160616
 31
0.0
  0
LINE
  5
526
330
1F
100
AcDbEntity
  8
LC-001-100-D00-0
 62
     7
370
    50
100
AcDbLine
 10
-277.295577
 20
385.160616
 30
0.0
 11
-280.576824
 21
385.160616
 31
0.0
  0
LINE
  5
527
330
1F
100
AcDbEntity
  8
LC-001-100-D00-0
 62
     7
370
    50
100
AcDbLine
 10
-280.735903
 20
385.168677
 30
0.0
 11
-280.576824
 21
385.160616
 31
0.0
  0
INSERT
  5
539
330
1F
100
AcDbEntity
  8
LC-001-100-D00-0
 62
     7
370
    50
100
AcDbBlockReference
  2
POLY3
 10
0.0
 20
0.0
 30
0.0
  0
INSERT
  5
54B
330
1F
100
AcDbEntity
  8
LC-001-100-D00-0
 62
     7
370
    50
100
AcDbBlockReference
  2
POLY4
 10
0.0
 20
0.0
 30
0.0
  0
LINE
  5
54C
330
1F
100
AcDbEntity
  8
LC-001-100-D00-0
 62
     7
370
    50
100
AcDbLine
 10
-276.847019
 20
385.160616
 30
0.0
 11
-277.295577
 21
385.160616
 31
0.0
  0
LINE
  5
54D
330
1F
100
AcDbEntity
  8
LC-001-100-D00-0
 62
     7
370
    50
100
AcDbLine
 10
-276.485904
 20
385.160616
 30
0.0
 11
-276.847019
 21
385.160616
 31
0.0
  0
LINE
  5
54E
330
1F
100
AcDbEntity
  8
LC-001-100-D00-0
 62
     7
370
    50
100
AcDbLine
 10
-234.695942
 20
395.160616
 30
0.0
 11
-251.445941
 21
395.160616
 31
0.0
  0
LINE
  5
54F
330
1F
100
AcDbEntity
  8
LC-001-100-D00-0
 62
     7
370
    50
100
AcDbLine
 10
-278.195941
 20
395.160616
 30
0.0
 11
-281.69594
 21
395.160616
 31
0.0
  0
ARC
  5
550
330
1F
100
AcDbEntity
  8
LC-001-100-D00-0
 62
     7
370
    50
100
AcDbCircle
 10
-237.54683
 20
397.660616
 30
0.0
 40
2.500000000000079
100
AcDbArc
 50
251.565051
 51
270.0
  0
ARC
  5
551
330
1F
100
AcDbEntity
  8
LC-001-100-D00-0
 62
     7
370
    50
100
AcDbCircle
 10
-278.845052
 20
397.660616
 30
0.0
 40
2.5
100
AcDbArc
 50
270.0
 51
285.048955
  0
LINE
  5
552
330
1F
100
AcDbEntity
  8
LC-001-100-D00-0
 62
     7
370
    50
100
AcDbLine
 10
-238.3374
 20
395.288907
 30
0.0
 11
-251.880463
 21
399.803262
 31
0.0
  0
ARC
  5
553
330
1F
100
AcDbEntity
  8
LC-001-100-D00-0
 62
     7
370
    50
100
AcDbCircle
 10
-281.695941
 20
402.660616
 30
0.0
 40
2.5
100
AcDbArc
 50
180.0
 51
270.0
  0
ARC
  5
554
330
1F
100
AcDbEntity
  8
LC-001-100-D00-0
 62
     7
370
    50
100
AcDbCircle
 10
-234.695941
 20
402.660616
 30
0.0
 40
2.5
100
AcDbArc
 50
270.0
 51
360.0
  0
INSERT
  5
560
330
1F
100
AcDbEntity
  8
LC-001-100-D00-0
 62
     7
370
    50
100
AcDbBlockReference
  2
POLY5
 10
0.0
 20
0.0
 30
0.0
  0
LINE
  5
561
330
1F
100
AcDbEntity
  8
LC-001-100-D00-0
 62
     7
370
    50
100
AcDbLine
 10
-277.594899
 20
400.160659
 30
0.0
 11
-281.69594
 21
400.160659
 31
0.0
  0
LINE
  5
562
330
1F
100
AcDbEntity
  8
LC-001-100-D00-0
 62
     7
370
    50
100
AcDbLine
 10
-234.71058
 20
400.160659
 30
0.0
 11
-245.902234
 21
400.160659
 31
0.0
  0
ARC
  5
563
330
1F
100
AcDbEntity
  8
LC-001-100-D00-0
 62
     7
370
    50
100
AcDbCircle
 10
-234.695941
 20
402.660616
 30
0.0
 40
2.50000000000069
100
AcDbArc
 50
269.664477
 51
270.0
  0
LINE
  5
564
330
1F
100
AcDbEntity
  8
LC-001-100-D00-0
 62
     7
370
    50
100
AcDbLine
 10
-246.044773
 20
400.160617
 30
0.0
 11
-252.046961
 21
400.160617
 31
0.0
  0
LINE
  5
565
330
1F
100
AcDbEntity
  8
LC-001-100-D00-0
 62
     7
370
    50
100
AcDbLine
 10
-309.695941
 20
417.160616
 30
0.0
 11
-335.695942
 21
417.160616
 31
0.0
  0
LINE
  5
566
330
1F
100
AcDbEntity
  8
LC-001-100-D00-0
 62
     7
370
    50
100
AcDbLine
 10
-309.695941
 20
417.160616
 30
0.0
 11
-309.695941
 21
419.160616
 31
0.0
  0
LINE
  5
567
330
1F
100
AcDbEntity
  8
LC-001-100-D00-0
 62
     7
370
    50
100
AcDbLine
 10
-335.695942
 20
417.160616
 30
0.0
 11
-335.695942
 21
419.160616
 31
0.0
  0
LINE
  5
568
330
1F
100
AcDbEntity
  8
LC-001-100-D00-0
 62
     7
370
    50
100
AcDbLine
 10
-309.695941
 20
417.160616
 30
0.0
 11
-309.695941
 21
415.160615
 31
0.0
  0
LINE
  5
569
330
1F
100
AcDbEntity
  8
LC-001-100-D00-0
 62
     7
370
    50
100
AcDbLine
 10
-335.695942
 20
415.160615
 30
0.0
 11
-335.695942
 21
417.160616
 31
0.0
  0
LINE
  5
56A
330
1F
100
AcDbEntity
  8
LC-001-100-D00-0
 62
     7
370
    50
100
AcDbLine
 10
-309.695941
 20
398.330489
 30
0.0
 11
-309.695941
 21
415.160615
 31
0.0
  0
LINE
  5
56B
330
1F
100
AcDbEntity
  8
LC-001-100-D00-0
 62
     7
370
    50
100
AcDbLine
 10
-335.695942
 20
402.660616
 30
0.0
 11
-335.695942
 21
415.160615
 31
0.0
  0
LINE
  5
56C
330
1F
100
AcDbEntity
  8
LC-001-100-D00-0
 62
     7
370
    50
100
AcDbLine
 10
-229.195942
 20
420.660615
 30
0.0
 11
-234.695942
 21
420.660615
 31
0.0
  0
LINE
  5
56D
330
1F
100
AcDbEntity
  8
LC-001-100-D00-0
 62
     7
370
    50
100
AcDbLine
 10
-281.69594
 20
420.660615
 30
0.0
 11
-287.19594
 21
420.660615
 31
0.0
  0
LINE
  5
56E
330
1F
100
AcDbEntity
  8
LC-001-100-D00-0
 62
     7
370
    50
100
AcDbLine
 10
-234.695942
 20
420.660615
 30
0.0
 11
-240.945941
 21
420.660615
 31
0.0
  0
LINE
  5
56F
330
1F
100
AcDbEntity
  8
LC-001-100-D00-0
 62
     7
370
    50
100
AcDbLine
 10
-275.445941
 20
420.660615
 30
0.0
 11
-281.69594
 21
420.660615
 31
0.0
  0
LINE
  5
570
330
1F
100
AcDbEntity
  8
LC-001-100-D00-0
 62
     7
370
    50
100
AcDbLine
 10
-279.895941
 20
391.660616
 30
0.0
 11
-282.195941
 21
391.660616
 31
0.0
  0
LINE
  5
571
330
1F
100
AcDbEntity
  8
LC-001-100-D00-0
 62
     7
370
    50
100
AcDbLine
 10
-282.195941
 20
391.660616
 30
0.0
 11
-282.195941
 21
393.160615
 31
0.0
  0
LINE
  5
572
330
1F
100
AcDbEntity
  8
LC-001-100-D00-0
 62
     7
370
    50
100
AcDbLine
 10
-278.195941
 20
393.160615
 30
0.0
 11
-282.195941
 21
393.160615
 31
0.0
  0
LINE
  5
573
330
1F
100
AcDbEntity
  8
LC-001-100-D00-0
 62
     7
370
    50
100
AcDbLine
 10
-278.195941
 20
397.660615
 30
0.0
 11
-278.195941
 21
393.160615
 31
0.0
  0
ARC
  5
574
330
1F
100
AcDbEntity
  8
LC-001-100-D00-0
 62
     7
370
    50
100
AcDbCircle
 10
-272.695941
 20
397.660616
 30
0.0
 40
5.5
100
AcDbArc
 50
90.0
 51
180.0
  0
LINE
  5
575
330
1F
100
AcDbEntity
  8
LC-001-100-D00-0
 62
     7
370
    50
100
AcDbLine
 10
-272.695941
 20
403.160615
 30
0.0
 11
-256.945941
 21
403.160615
 31
0.0
  0
ARC
  5
576
330
1F
100
AcDbEntity
  8
LC-001-100-D00-0
 62
     7
370
    50
100
AcDbCircle
 10
-256.945941
 20
397.660616
 30
0.0
 40
5.500000000000057
100
AcDbArc
 50
0.0
 51
90.0
  0
LINE
  5
577
330
1F
100
AcDbEntity
  8
LC-001-100-D00-0
 62
     7
370
    50
100
AcDbLine
 10
-251.445941
 20
397.660615
 30
0.0
 11
-251.445941
 21
362.660616
 31
0.0
  0
LINE
  5
578
330
1F
100
AcDbEntity
  8
LC-001-100-D00-0
 62
     7
370
    50
100
AcDbLine
 10
-251.445941
 20
362.660616
 30
0.0
 11
-252.945941
 21
362.660616
 31
0.0
  0
LINE
  5
579
330
1F
100
AcDbEntity
  8
LC-001-100-D00-0
 62
     7
370
    50
100
AcDbLine
 10
-252.945941
 20
397.660615
 30
0.0
 11
-252.945941
 21
362.660616
 31
0.0
  0
ARC
  5
57A
330
1F
100
AcDbEntity
  8
LC-001-100-D00-0
 62
     7
370
    50
100
AcDbCircle
 10
-256.945941
 20
397.660616
 30
0.0
 40
4.000000000000085
100
AcDbArc
 50
0.0
 51
90.0
  0
LINE
  5
57B
330
1F
100
AcDbEntity
  8
LC-001-100-D00-0
 62
     7
370
    50
100
AcDbLine
 10
-272.695941
 20
401.660616
 30
0.0
 11
-256.945941
 21
401.660616
 31
0.0
  0
ARC
  5
57C
330
1F
100
AcDbEntity
  8
LC-001-100-D00-0
 62
     7
370
    50
100
AcDbCircle
 10
-272.695941
 20
397.660616
 30
0.0
 40
4.0
100
AcDbArc
 50
90.0
 51
180.0
  0
LINE
  5
57D
330
1F
100
AcDbEntity
  8
LC-001-100-D00-0
 62
     7
370
    50
100
AcDbLine
 10
-276.695941
 20
397.660615
 30
0.0
 11
-276.695941
 21
386.660616
 31
0.0
  0
LINE
  5
57E
330
1F
100
AcDbEntity
  8
LC-001-100-D00-0
 62
     7
370
    50
100
AcDbLine
 10
-276.695941
 20
386.660616
 30
0.0
 11
-282.195941
 21
386.660616
 31
0.0
  0
LINE
  5
57F
330
1F
100
AcDbEntity
  8
LC-001-100-D00-0
 62
     7
370
    50
100
AcDbLine
 10
-282.195941
 20
388.160615
 30
0.0
 11
-282.195941
 21
386.660616
 31
0.0
  0
LINE
  5
580
330
1F
100
AcDbEntity
  8
LC-001-100-D00-0
 62
     7
370
    50
100
AcDbLine
 10
-279.895941
 20
388.160615
 30
0.0
 11
-282.195941
 21
388.160615
 31
0.0
  0
LINE
  5
581
330
1F
100
AcDbEntity
  8
LC-001-100-D00-0
 62
     7
370
    50
100
AcDbLine
 10
-279.895941
 20
391.660616
 30
0.0
 11
-279.895941
 21
388.160615
 31
0.0
  0
LINE
  5
582
330
1F
100
AcDbEntity
  8
LC-001-100-D00-0
 62
     7
370
    50
100
AcDbLine
 10
-234.195941
 20
386.660616
 30
0.0
 11
-234.195941
 21
388.160615
 31
0.0
  0
LINE
  5
583
330
1F
100
AcDbEntity
  8
LC-001-100-D00-0
 62
     7
370
    50
100
AcDbLine
 10
-234.195941
 20
386.660616
 30
0.0
 11
-238.195941
 21
386.660616
 31
0.0
  0
LINE
  5
584
330
1F
100
AcDbEntity
  8
LC-001-100-D00-0
 62
     7
370
    50
100
AcDbLine
 10
-238.195941
 20
362.660616
 30
0.0
 11
-238.195941
 21
386.660616
 31
0.0
  0
LINE
  5
585
330
1F
100
AcDbEntity
  8
LC-001-100-D00-0
 62
     7
370
    50
100
AcDbLine
 10
-238.195941
 20
362.660616
 30
0.0
 11
-239.695941
 21
362.660616
 31
0.0
  0
LINE
  5
586
330
1F
100
AcDbEntity
  8
LC-001-100-D00-0
 62
     7
370
    50
100
AcDbLine
 10
-239.695941
 20
362.660616
 30
0.0
 11
-239.695941
 21
392.160615
 31
0.0
  0
ARC
  5
587
330
1F
100
AcDbEntity
  8
LC-001-100-D00-0
 62
     7
370
    50
100
AcDbCircle
 10
-238.695941
 20
392.160616
 30
0.0
 40
0.9999999999998863
100
AcDbArc
 50
90.0
 51
180.0
  0
LINE
  5
588
330
1F
100
AcDbEntity
  8
LC-001-100-D00-0
 62
     7
370
    50
100
AcDbLine
 10
-234.195941
 20
393.160615
 30
0.0
 11
-238.695941
 21
393.160615
 31
0.0
  0
LINE
  5
589
330
1F
100
AcDbEntity
  8
LC-001-100-D00-0
 62
     7
370
    50
100
AcDbLine
 10
-234.195941
 20
393.160615
 30
0.0
 11
-234.195941
 21
391.660616
 31
0.0
  0
LINE
  5
58A
330
1F
100
AcDbEntity
  8
LC-001-100-D00-0
 62
     7
370
    50
100
AcDbLine
 10
-234.195941
 20
391.660616
 30
0.0
 11
-236.495941
 21
391.660616
 31
0.0
  0
LINE
  5
58B
330
1F
100
AcDbEntity
  8
LC-001-100-D00-0
 62
     7
370
    50
100
AcDbLine
 10
-236.495941
 20
388.160615
 30
0.0
 11
-236.495941
 21
391.660616
 31
0.0
  0
LINE
  5
58C
330
1F
100
AcDbEntity
  8
LC-001-100-D00-0
 62
     7
370
    50
100
AcDbLine
 10
-234.195941
 20
388.160615
 30
0.0
 11
-236.495941
 21
388.160615
 31
0.0
  0
LINE
  5
58D
330
1F
100
AcDbEntity
  8
LC-001-100-D00-0
 62
     7
370
    50
100
AcDbLine
 10
-251.464604
 20
393.160615
 30
0.0
 11
-238.695941
 21
393.160615
 31
0.0
  0
LINE
  5
58E
330
1F
100
AcDbEntity
  8
LC-001-100-D00-0
 62
     7
370
    50
100
AcDbLine
 10
-276.695941
 20
386.660616
 30
0.0
 11
-265.820941
 21
386.660616
 31
0.0
  0
LINE
  5
58F
330
1F
100
AcDbEntity
  8
LC-001-100-D00-0
 62
     7
370
    50
100
AcDbLine
 10
-263.820941
 20
386.660616
 30
0.0
 11
-253.703084
 21
386.660616
 31
0.0
  0
LINE
  5
590
330
1F
100
AcDbEntity
  8
LC-001-100-D00-0
 62
     7
370
    50
100
AcDbLine
 10
-251.445941
 20
362.660616
 30
0.0
 11
-239.695941
 21
362.660616
 31
0.0
  0
LINE
  5
591
330
1F
100
AcDbEntity
  8
LC-001-100-D00-0
 62
     7
370
    50
100
AcDbLine
 10
-252.945941
 20
386.660616
 30
0.0
 11
-253.703084
 21
386.660616
 31
0.0
  0
ARC
  5
592
330
1F
100
AcDbEntity
  8
LC-001-100-D00-0
 62
     7
370
    50
100
AcDbCircle
 10
-233.132884
 20
390.204169
 30
0.0
 40
0.3000000000000115
100
AcDbArc
 50
131.633539
 51
282.528808
  0
LINE
  5
593
330
1F
100
AcDbEntity
  8
LC-001-100-D00-0
 62
     7
370
    50
100
AcDbLine
 10
-233.332193
 20
390.428392
 30
0.0
 11
-229.980106
 21
393.408025
 31
0.0
  0
ARC
  5
594
330
1F
100
AcDbEntity
  8
LC-001-100-D00-0
 62
     7
370
    50
100
AcDbCircle
 10
-229.315742
 20
392.660616
 30
0.0
 40
1.0
100
AcDbArc
 50
90.0
 51
131.633539
  0
LINE
  5
595
330
1F
100
AcDbEntity
  8
LC-001-100-D00-0
 62
     7
370
    50
100
AcDbLine
 10
-229.315742
 20
393.660616
 30
0.0
 11
-226.695941
 21
393.660616
 31
0.0
  0
LINE
  5
596
330
1F
100
AcDbEntity
  8
LC-001-100-D00-0
 62
     7
370
    50
100
AcDbLine
 10
-226.695941
 20
393.660616
 30
0.0
 11
-226.695941
 21
389.660616
 31
0.0
  0
LINE
  5
597
330
1F
100
AcDbEntity
  8
LC-001-100-D00-0
 62
     7
370
    50
100
AcDbLine
 10
-229.695941
 20
389.660616
 30
0.0
 11
-226.695941
 21
389.660616
 31
0.0
  0
LINE
  5
598
330
1F
100
AcDbEntity
  8
LC-001-100-D00-0
 62
     7
370
    50
100
AcDbLine
 10
-229.695941
 20
389.660616
 30
0.0
 11
-229.695941
 21
390.28663
 31
0.0
  0
ARC
  5
599
330
1F
100
AcDbEntity
  8
LC-001-100-D00-0
 62
     7
370
    50
100
AcDbCircle
 10
-229.995941
 20
390.286631
 30
0.0
 40
0.3000000000000114
100
AcDbArc
 50
0.0
 51
102.528808
  0
LINE
  5
59A
330
1F
100
AcDbEntity
  8
LC-001-100-D00-0
 62
     7
370
    50
100
AcDbLine
 10
-230.061019
 20
390.579487
 30
0.0
 11
-233.067806
 21
389.911313
 31
0.0
  0
LINE
  5
59B
330
1F
100
AcDbEntity
  8
LC-001-100-D00-0
 62
     7
370
    50
100
AcDbLine
 10
-286.695941
 20
390.28663
 30
0.0
 11
-286.695941
 21
389.660616
 31
0.0
  0
LINE
  5
59C
330
1F
100
AcDbEntity
  8
LC-001-100-D00-0
 62
     7
370
    50
100
AcDbLine
 10
-289.695942
 20
389.660616
 30
0.0
 11
-289.695942
 21
393.660616
 31
0.0
  0
ARC
  5
59D
330
1F
100
AcDbEntity
  8
LC-001-100-D00-0
 62
     7
370
    50
100
AcDbCircle
 10
-287.07614
 20
392.660616
 30
0.0
 40
1.000000000000023
100
AcDbArc
 50
48.366461
 51
90.0
  0
LINE
  5
59E
330
1F
100
AcDbEntity
  8
LC-001-100-D00-0
 62
     7
370
    50
100
AcDbLine
 10
-283.059689
 20
390.428392
 30
0.0
 11
-286.411776
 21
393.408025
 31
0.0
  0
ARC
  5
59F
330
1F
100
AcDbEntity
  8
LC-001-100-D00-0
 62
     7
370
    50
100
AcDbCircle
 10
-283.258998
 20
390.204169
 30
0.0
 40
0.3000000000001464
100
AcDbArc
 50
257.471192
 51
48.366461
  0
LINE
  5
5A0
330
1F
100
AcDbEntity
  8
LC-001-100-D00-0
 62
     7
370
    50
100
AcDbLine
 10
-286.330863
 20
390.579487
 30
0.0
 11
-283.324076
 21
389.911313
 31
0.0
  0
ARC
  5
5A1
330
1F
100
AcDbEntity
  8
LC-001-100-D00-0
 62
     7
370
    50
100
AcDbCircle
 10
-286.395941
 20
390.286631
 30
0.0
 40
0.3000000000001464
100
AcDbArc
 50
77.471192
 51
180.0
  0
LINE
  5
5A2
330
1F
100
AcDbEntity
  8
LC-001-100-D00-0
 62
     7
370
    50
100
AcDbLine
 10
-289.695942
 20
389.660616
 30
0.0
 11
-286.695941
 21
389.660616
 31
0.0
  0
LINE
  5
5A3
330
1F
100
AcDbEntity
  8
LC-001-100-D00-0
 62
     7
370
    50
100
AcDbLine
 10
-289.695942
 20
393.660616
 30
0.0
 11
-287.07614
 21
393.660616
 31
0.0
  0
LINE
  5
5A4
330
1F
100
AcDbEntity
  8
LC-001-100-D00-0
 62
     7
370
    50
100
AcDbLine
 10
-230.19594
 20
389.660616
 30
0.0
 11
-231.895941
 21
389.660616
 31
0.0
  0
LINE
  5
5A5
330
1F
100
AcDbEntity
  8
LC-001-100-D00-0
 62
     7
370
    50
100
AcDbLine
 10
-284.495941
 20
389.660616
 30
0.0
 11
-286.195942
 21
389.660616
 31
0.0
  0
LINE
  5
5A6
330
1F
100
AcDbEntity
  8
LC-001-100-D00-0
 62
     7
370
    50
100
AcDbLine
 10
-230.19594
 20
386.660616
 30
0.0
 11
-230.19594
 21
389.660616
 31
0.0
  0
LINE
  5
5A7
330
1F
100
AcDbEntity
  8
LC-001-100-D00-0
 62
     7
370
    50
100
AcDbLine
 10
-230.19594
 20
389.660616
 30
0.0
 11
-227.195942
 21
389.660616
 31
0.0
  0
LINE
  5
5A8
330
1F
100
AcDbEntity
  8
LC-001-100-D00-0
 62
     7
370
    50
100
AcDbLine
 10
-227.195942
 20
393.660616
 30
0.0
 11
-227.195942
 21
389.660616
 31
0.0
  0
LINE
  5
5A9
330
1F
100
AcDbEntity
  8
LC-001-100-D00-0
 62
     7
370
    50
100
AcDbLine
 10
-227.195942
 20
393.660616
 30
0.0
 11
-222.195943
 21
393.660616
 31
0.0
  0
ARC
  5
5AA
330
1F
100
AcDbEntity
  8
LC-001-100-D00-0
 62
     7
370
    50
100
AcDbCircle
 10
-222.195941
 20
394.660616
 30
0.0
 40
1.0
100
AcDbArc
 50
270.0
 51
0.0
  0
LINE
  5
5AB
330
1F
100
AcDbEntity
  8
LC-001-100-D00-0
 62
     7
370
    50
100
AcDbLine
 10
-221.195941
 20
419.160616
 30
0.0
 11
-221.195941
 21
394.660617
 31
0.0
  0
LINE
  5
5AC
330
1F
100
AcDbEntity
  8
LC-001-100-D00-0
 62
     7
370
    50
100
AcDbLine
 10
-218.195942
 20
419.160616
 30
0.0
 11
-221.195941
 21
419.160616
 31
0.0
  0
LINE
  5
5AD
330
1F
100
AcDbEntity
  8
LC-001-100-D00-0
 62
     7
370
    50
100
AcDbLine
 10
-218.195942
 20
419.160616
 30
0.0
 11
-218.195942
 21
389.160616
 31
0.0
  0
LINE
  5
5AE
330
1F
100
AcDbEntity
  8
LC-001-100-D00-0
 62
     7
370
    50
100
AcDbLine
 10
-218.195942
 20
389.160616
 30
0.0
 11
-221.195941
 21
389.160616
 31
0.0
  0
LINE
  5
5AF
330
1F
100
AcDbEntity
  8
LC-001-100-D00-0
 62
     7
370
    50
100
AcDbLine
 10
-221.195941
 20
389.160616
 30
0.0
 11
-221.195941
 21
390.660616
 31
0.0
  0
LINE
  5
5B0
330
1F
100
AcDbEntity
  8
LC-001-100-D00-0
 62
     7
370
    50
100
AcDbLine
 10
-221.195941
 20
390.660616
 30
0.0
 11
-224.195939
 21
390.660616
 31
0.0
  0
LINE
  5
5B1
330
1F
100
AcDbEntity
  8
LC-001-100-D00-0
 62
     7
370
    50
100
AcDbLine
 10
-224.195939
 20
386.660616
 30
0.0
 11
-224.195939
 21
390.660616
 31
0.0
  0
LINE
  5
5B2
330
1F
100
AcDbEntity
  8
LC-001-100-D00-0
 62
     7
370
    50
100
AcDbLine
 10
-224.195939
 20
386.660616
 30
0.0
 11
-230.19594
 21
386.660616
 31
0.0
  0
LINE
  5
5B3
330
1F
100
AcDbEntity
  8
LC-001-100-D00-0
 62
     7
370
    50
100
AcDbLine
 10
-295.195942
 20
390.660616
 30
0.0
 11
-295.195942
 21
389.160616
 31
0.0
  0
LINE
  5
5B4
330
1F
100
AcDbEntity
  8
LC-001-100-D00-0
 62
     7
370
    50
100
AcDbLine
 10
-295.195942
 20
389.160616
 30
0.0
 11
-298.19594
 21
389.160616
 31
0.0
  0
LINE
  5
5B5
330
1F
100
AcDbEntity
  8
LC-001-100-D00-0
 62
     7
370
    50
100
AcDbLine
 10
-298.19594
 20
389.160616
 30
0.0
 11
-298.19594
 21
419.160616
 31
0.0
  0
LINE
  5
5B6
330
1F
100
AcDbEntity
  8
LC-001-100-D00-0
 62
     7
370
    50
100
AcDbLine
 10
-295.195942
 20
419.160616
 30
0.0
 11
-298.19594
 21
419.160616
 31
0.0
  0
LINE
  5
5B7
330
1F
100
AcDbEntity
  8
LC-001-100-D00-0
 62
     7
370
    50
100
AcDbLine
 10
-295.195942
 20
394.660617
 30
0.0
 11
-295.195942
 21
419.160616
 31
0.0
  0
ARC
  5
5B8
330
1F
100
AcDbEntity
  8
LC-001-100-D00-0
 62
     7
370
    50
100
AcDbCircle
 10
-294.195941
 20
394.660616
 30
0.0
 40
1.0
100
AcDbArc
 50
180.0
 51
270.0
  0
LINE
  5
5B9
330
1F
100
AcDbEntity
  8
LC-001-100-D00-0
 62
     7
370
    50
100
AcDbLine
 10
-294.195939
 20
393.660616
 30
0.0
 11
-289.195941
 21
393.660616
 31
0.0
  0
LINE
  5
5BA
330
1F
100
AcDbEntity
  8
LC-001-100-D00-0
 62
     7
370
    50
100
AcDbLine
 10
-289.195941
 20
389.660616
 30
0.0
 11
-289.195941
 21
393.660616
 31
0.0
  0
LINE
  5
5BB
330
1F
100
AcDbEntity
  8
LC-001-100-D00-0
 62
     7
370
    50
100
AcDbLine
 10
-289.195941
 20
389.660616
 30
0.0
 11
-286.195942
 21
389.660616
 31
0.0
  0
LINE
  5
5BC
330
1F
100
AcDbEntity
  8
LC-001-100-D00-0
 62
     7
370
    50
100
AcDbLine
 10
-286.195942
 20
389.660616
 30
0.0
 11
-286.195942
 21
386.660616
 31
0.0
  0
LINE
  5
5BD
330
1F
100
AcDbEntity
  8
LC-001-100-D00-0
 62
     7
370
    50
100
AcDbLine
 10
-286.195942
 20
386.660616
 30
0.0
 11
-292.195943
 21
386.660616
 31
0.0
  0
LINE
  5
5BE
330
1F
100
AcDbEntity
  8
LC-001-100-D00-0
 62
     7
370
    50
100
AcDbLine
 10
-292.195943
 20
390.660616
 30
0.0
 11
-292.195943
 21
386.660616
 31
0.0
  0
LINE
  5
5BF
330
1F
100
AcDbEntity
  8
LC-001-100-D00-0
 62
     7
370
    50
100
AcDbLine
 10
-292.195943
 20
390.660616
 30
0.0
 11
-295.195942
 21
390.660616
 31
0.0
  0
LINE
  5
5C0
330
1F
100
AcDbEntity
  8
LC-001-100-D00-0
 62
     7
370
    50
100
AcDbLine
 10
-223.727856
 20
389.160616
 30
0.0
 11
-221.195941
 21
389.160616
 31
0.0
  0
LINE
  5
5C1
330
1F
100
AcDbEntity
  8
LC-001-100-D00-0
 62
     7
370
    50
100
AcDbLine
 10
-231.38743
 20
386.660616
 30
0.0
 11
-230.19594
 21
386.660616
 31
0.0
  0
LINE
  5
5C2
330
1F
100
AcDbEntity
  8
LC-001-100-D00-0
 62
     7
370
    50
100
AcDbLine
 10
-286.195942
 20
386.660616
 30
0.0
 11
-285.004452
 21
386.660616
 31
0.0
  0
LINE
  5
5C3
330
1F
100
AcDbEntity
  8
LC-001-100-D00-0
 62
     7
370
    50
100
AcDbLine
 10
-295.195942
 20
389.160616
 30
0.0
 11
-292.664026
 21
389.160616
 31
0.0
  0
LINE
  5
5C4
330
1F
100
AcDbEntity
  8
LC-001-100-D00-0
 62
     7
370
    50
100
AcDbLine
 10
-285.004452
 20
386.660616
 30
0.0
 11
-282.369411
 21
386.660616
 31
0.0
  0
LINE
  5
5C5
330
1F
100
AcDbEntity
  8
LC-001-100-D00-0
 62
     7
370
    50
100
AcDbLine
 10
-234.123942
 20
386.660616
 30
0.0
 11
-231.38743
 21
386.660616
 31
0.0
  0
INSERT
  5
5D3
330
1F
100
AcDbEntity
  8
LC-001-100-D00-0
 62
     7
370
    50
100
AcDbBlockReference
  2
POLY6
 10
0.0
 20
0.0
 30
0.0
  0
LINE
  5
5D4
330
1F
100
AcDbEntity
  8
LC-001-100-D00-0
 62
     7
370
    50
100
AcDbLine
 10
-292.664026
 20
389.160616
 30
0.0
 11
-292.195943
 21
389.160616
 31
0.0
  0
LINE
  5
5D5
330
1F
100
AcDbEntity
  8
LC-001-100-D00-0
 62
     7
370
    50
100
AcDbLine
 10
-224.195939
 20
389.160616
 30
0.0
 11
-223.727856
 21
389.160616
 31
0.0
  0
LINE
  5
5D6
330
1F
100
AcDbEntity
  8
LC-001-100-D00-0
 62
     7
370
    50
100
AcDbLine
 10
-364.19594
 20
355.716495
 30
0.0
 11
-289.078661
 21
355.716495
 31
0.0
  0
ARC
  5
5D7
330
1F
100
AcDbEntity
  8
LC-001-100-D00-0
 62
     7
370
    50
100
AcDbCircle
 10
-288.195941
 20
362.660616
 30
0.0
 40
7.00000000000002
100
AcDbArc
 50
262.755545
 51
270.0
  0
LINE
  5
5D8
330
1F
100
AcDbEntity
  8
LC-001-100-D00-0
 62
     7
370
    50
100
AcDbLine
 10
-288.19594
 20
355.660616
 30
0.0
 11
-267.344746
 21
355.660616
 31
0.0
  0
ARC
  5
5D9
330
1F
100
AcDbEntity
  8
LC-001-100-D00-0
 62
     7
370
    50
100
AcDbCircle
 10
-267.344745
 20
356.660616
 30
0.0
 40
1.0
100
AcDbArc
 50
270.0
 51
359.0
  0
LINE
  5
5DA
330
1F
100
AcDbEntity
  8
LC-001-100-D00-0
 62
     7
370
    50
100
AcDbLine
 10
-266.344898
 20
356.643163
 30
0.0
 11
-265.820941
 21
386.660616
 31
0.0
  0
LINE
  5
5DB
330
1F
100
AcDbEntity
  8
LC-001-100-D00-0
 62
     7
370
    50
100
AcDbLine
 10
-265.820941
 20
386.660616
 30
0.0
 11
-263.820941
 21
386.660616
 31
0.0
  0
LINE
  5
5DC
330
1F
100
AcDbEntity
  8
LC-001-100-D00-0
 62
     7
370
    50
100
AcDbLine
 10
-263.820941
 20
386.660616
 30
0.0
 11
-263.296984
 21
356.643163
 31
0.0
  0
ARC
  5
5DD
330
1F
100
AcDbEntity
  8
LC-001-100-D00-0
 62
     7
370
    50
100
AcDbCircle
 10
-262.297137
 20
356.660616
 30
0.0
 40
1.000000000000014
100
AcDbArc
 50
181.0
 51
270.0
  0
LINE
  5
5DE
330
1F
100
AcDbEntity
  8
LC-001-100-D00-0
 62
     7
370
    50
100
AcDbLine
 10
-262.297137
 20
355.660616
 30
0.0
 11
-228.195942
 21
355.660616
 31
0.0
  0
ARC
  5
5DF
330
1F
100
AcDbEntity
  8
LC-001-100-D00-0
 62
     7
370
    50
100
AcDbCircle
 10
-228.195941
 20
362.660616
 30
0.0
 40
7.0
100
AcDbArc
 50
270.0
 51
0.0
  0
LINE
  5
5E0
330
1F
100
AcDbEntity
  8
LC-001-100-D00-0
 62
     7
370
    50
100
AcDbLine
 10
-221.195941
 20
362.660616
 30
0.0
 11
-221.195941
 21
390.660616
 31
0.0
  0
LINE
  5
5E1
330
1F
100
AcDbEntity
  8
LC-001-100-D00-0
 62
     7
370
    50
100
AcDbLine
 10
-221.195941
 20
390.660616
 30
0.0
 11
-218.195942
 21
390.660616
 31
0.0
  0
LINE
  5
5E2
330
1F
100
AcDbEntity
  8
LC-001-100-D00-0
 62
     7
370
    50
100
AcDbLine
 10
-218.195942
 20
362.660616
 30
0.0
 11
-218.195942
 21
390.660616
 31
0.0
  0
ARC
  5
5E3
330
1F
100
AcDbEntity
  8
LC-001-100-D00-0
 62
     7
370
    50
100
AcDbCircle
 10
-228.195941
 20
362.660616
 30
0.0
 40
10.0
100
AcDbArc
 50
270.0
 51
0.0
  0
LINE
  5
5E4
330
1F
100
AcDbEntity
  8
LC-001-100-D00-0
 62
     7
370
    50
100
AcDbLine
 10
-288.19594
 20
352.660615
 30
0.0
 11
-228.195942
 21
352.660615
 31
0.0
  0
ARC
  5
5E5
330
1F
100
AcDbEntity
  8
LC-001-100-D00-0
 62
     7
370
    50
100
AcDbCircle
 10
-288.195941
 20
362.660616
 30
0.0
 40
10.0000000000001
100
AcDbArc
 50
264.316413
 51
270.0
  0
LINE
  5
5E6
330
1F
100
AcDbEntity
  8
LC-001-100-D00-0
 62
     7
370
    50
100
AcDbLine
 10
-361.195941
 20
352.709776
 30
0.0
 11
-289.186288
 21
352.709776
 31
0.0
  0
INSERT
  5
5EC
330
1F
100
AcDbEntity
  8
LC-001-100-D00-0
 62
     7
370
    50
100
AcDbBlockReference
  2
KLON29
 10
0.0
 20
0.0
 30
0.0
  0
LINE
  5
5ED
330
1F
100
AcDbEntity
  8
LC-001-100-D00-0
 62
     7
370
    50
100
AcDbLine
 10
-364.19594
 20
353.51526
 30
0.0
 11
-364.19594
 21
355.716495
 31
0.0
  0
LINE
  5
5EE
330
1F
100
AcDbEntity
  8
LC-001-100-D00-0
 62
     7
370
    50
100
AcDbLine
 10
-361.195941
 20
352.709776
 30
0.0
 11
-361.195941
 21
352.660615
 31
0.0
  0
LINE
  5
5EF
330
1F
100
AcDbEntity
  8
LC-001-100-D00-0
 62
     7
370
    50
100
AcDbLine
 10
-361.195941
 20
402.660616
 30
0.0
 11
-361.195941
 21
402.611455
 31
0.0
  0
LINE
  5
5F0
330
1F
100
AcDbEntity
  8
LC-001-100-D00-0
 62
     7
370
    50
100
AcDbLine
 10
-313.903016
 20
402.611455
 30
0.0
 11
-361.195941
 21
402.611455
 31
0.0
  0
LINE
  5
5F1
330
1F
100
AcDbEntity
  8
LC-001-100-D00-0
 62
     7
370
    50
100
AcDbLine
 10
-295.195942
 20
386.160616
 30
0.0
 11
-295.195942
 21
362.660616
 31
0.0
  0
INSERT
  5
605
330
1F
100
AcDbEntity
  8
LC-001-100-D00-0
 62
     7
370
    50
100
AcDbBlockReference
  2
POLY7
 10
0.0
 20
0.0
 30
0.0
  0
LINE
  5
606
330
1F
100
AcDbEntity
  8
LC-001-100-D00-0
 62
     7
370
    50
100
AcDbLine
 10
-364.19594
 20
399.604736
 30
0.0
 11
-364.19594
 21
355.716495
 31
0.0
  0
LINE
  5
607
330
1F
100
AcDbEntity
  8
LC-001-100-D00-0
 62
     7
370
    50
100
AcDbLine
 10
-313.895729
 20
399.604736
 30
0.0
 11
-364.19594
 21
399.604736
 31
0.0
  0
INSERT
  5
60D
330
1F
100
AcDbEntity
  8
LC-001-100-D00-0
 62
     7
370
    50
100
AcDbBlockReference
  2
KLON30
 10
0.0
 20
0.0
 30
0.0
  0
LINE
  5
60E
330
1F
100
AcDbEntity
  8
LC-001-100-D00-0
 62
     7
370
    50
100
AcDbLine
 10
-364.19594
 20
401.805971
 30
0.0
 11
-364.19594
 21
401.856767
 31
0.0
  0
LINE
  5
60F
330
1F
100
AcDbEntity
  8
LC-001-100-D00-0
 62
     7
370
    50
100
AcDbLine
 10
-364.19594
 20
353.464464
 30
0.0
 11
-364.19594
 21
353.51526
 31
0.0
  0
LINE
  5
610
330
1F
100
AcDbEntity
  8
LC-001-100-D00-0
 62
     7
370
    50
100
AcDbLine
 10
-298.19594
 20
389.160616
 30
0.0
 11
-302.66966
 21
389.160616
 31
0.0
  0
LINE
  5
611
330
1F
100
AcDbEntity
  8
LC-001-100-D00-0
 62
     7
370
    50
100
AcDbLine
 10
-298.19594
 20
390.660616
 30
0.0
 11
-298.19594
 21
389.160616
 31
0.0
  0
LINE
  5
612
330
1F
100
AcDbEntity
  8
LC-001-100-D00-0
 62
     7
370
    50
100
AcDbLine
 10
-295.195942
 20
390.660616
 30
0.0
 11
-295.195942
 21
386.160616
 31
0.0
  0
LINE
  5
613
330
1F
100
AcDbEntity
  8
LC-001-100-D00-0
 62
     7
370
    50
100
AcDbLine
 10
-295.195942
 20
386.160616
 30
0.0
 11
-302.66966
 21
386.160616
 31
0.0
  0
ARC
  5
614
330
1F
100
AcDbEntity
  8
LC-001-100-D00-0
 62
     7
370
    50
100
AcDbCircle
 10
-302.669662
 20
392.160616
 30
0.0
 40
5.999999999999969
100
AcDbArc
 50
210.0
 51
270.0
  0
LINE
  5
615
330
1F
100
AcDbEntity
  8
LC-001-100-D00-0
 62
     7
370
    50
100
AcDbLine
 10
-307.865814
 20
389.160616
 30
0.0
 11
-313.895729
 21
399.604736
 31
0.0
  0
INSERT
  5
623
330
1F
100
AcDbEntity
  8
LC-001-100-D00-0
 62
     7
370
    50
100
AcDbBlockReference
  2
POLY8
 10
0.0
 20
0.0
 30
0.0
  0
LINE
  5
624
330
1F
100
AcDbEntity
  8
LC-001-100-D00-0
 62
     7
370
    50
100
AcDbLine
 10
-305.267737
 20
390.660616
 30
0.0
 11
-311.297652
 21
401.104735
 31
0.0
  0
ARC
  5
625
330
1F
100
AcDbEntity
  8
LC-001-100-D00-0
 62
     7
370
    50
100
AcDbCircle
 10
-302.669662
 20
392.160616
 30
0.0
 40
2.99999999999996
100
AcDbArc
 50
210.0
 51
270.0
  0
LINE
  5
626
330
1F
100
AcDbEntity
  8
LC-001-100-D00-0
 62
     7
370
    50
100
AcDbLine
 10
-364.19594
 20
399.604736
 30
0.0
 11
-364.19594
 21
401.805971
 31
0.0
  0
LINE
  5
627
330
1F
100
AcDbEntity
  8
LC-001-100-D00-0
 62
     7
370
    50
100
AcDbLine
 10
-298.19594
 20
390.660616
 30
0.0
 11
-295.195942
 21
390.660616
 31
0.0
  0
ARC
  5
628
330
1F
100
AcDbEntity
  8
LC-001-100-D00-0
 62
     7
370
    50
100
AcDbCircle
 10
-313.927992
 20
399.660616
 30
0.0
 40
2.999999999999903
100
AcDbArc
 50
30.0
 51
90.0
  0
LINE
  5
629
330
1F
100
AcDbEntity
  8
LC-001-100-D00-0
 62
     7
370
    50
100
AcDbLine
 10
-244.945941
 20
420.660615
 30
0.0
 11
-240.945941
 21
420.660615
 31
0.0
  0
ARC
  5
62A
330
1F
100
AcDbEntity
  8
LC-001-100-D00-0
 62
     7
370
    50
100
AcDbCircle
 10
-240.945941
 20
419.660616
 30
0.0
 40
1.000000000000114
100
AcDbArc
 50
0.0
 51
90.0
  0
LINE
  5
62B
330
1F
100
AcDbEntity
  8
LC-001-100-D00-0
 62
     7
370
    50
100
AcDbLine
 10
-239.945941
 20
413.660616
 30
0.0
 11
-244.945941
 21
413.660616
 31
0.0
  0
LINE
  5
62C
330
1F
100
AcDbEntity
  8
LC-001-100-D00-0
 62
     7
370
    50
100
AcDbLine
 10
-239.945941
 20
419.660617
 30
0.0
 11
-239.945941
 21
413.660616
 31
0.0
  0
LINE
  5
62D
330
1F
100
AcDbEntity
  8
LC-001-100-D00-0
 62
     7
370
    50
100
AcDbLine
 10
-271.445941
 20
420.660615
 30
0.0
 11
-244.945941
 21
420.660615
 31
0.0
  0
LINE
  5
62E
330
1F
100
AcDbEntity
  8
LC-001-100-D00-0
 62
     7
370
    50
100
AcDbLine
 10
-244.945941
 20
413.660616
 30
0.0
 11
-271.445941
 21
413.660616
 31
0.0
  0
LINE
  5
62F
330
1F
100
AcDbEntity
  8
LC-001-100-D00-0
 62
     7
370
    50
100
AcDbLine
 10
-275.445941
 20
420.660615
 30
0.0
 11
-271.445941
 21
420.660615
 31
0.0
  0
ARC
  5
630
330
1F
100
AcDbEntity
  8
LC-001-100-D00-0
 62
     7
370
    50
100
AcDbCircle
 10
-275.445941
 20
419.660616
 30
0.0
 40
1.0
100
AcDbArc
 50
90.0
 51
180.0
  0
LINE
  5
631
330
1F
100
AcDbEntity
  8
LC-001-100-D00-0
 62
     7
370
    50
100
AcDbLine
 10
-276.445941
 20
413.660616
 30
0.0
 11
-276.445941
 21
419.660617
 31
0.0
  0
LINE
  5
632
330
1F
100
AcDbEntity
  8
LC-001-100-D00-0
 62
     7
370
    50
100
AcDbLine
 10
-271.445941
 20
413.660616
 30
0.0
 11
-276.445941
 21
413.660616
 31
0.0
  0
LINE
  5
633
330
1F
100
AcDbEntity
  8
LC-001-100-D00-0
 62
     7
370
    50
100
AcDbLine
 10
-249.445941
 20
401.660616
 30
0.0
 11
-253.171024
 21
401.660616
 31
0.0
  0
INSERT
  5
655
330
1F
100
AcDbEntity
  8
LC-001-100-D00-0
 62
     7
370
    50
100
AcDbBlockReference
  2
POLY9
 10
0.0
 20
0.0
 30
0.0
  0
LINE
  5
656
330
1F
100
AcDbEntity
  8
LC-001-100-D00-0
 62
     7
370
    50
100
AcDbLine
 10
-320.75822
 20
291.160614
 30
0.0
 11
-332.195942
 21
291.160614
 31
0.0
  0
LINE
  5
657
330
1F
100
AcDbEntity
  8
LC-001-100-D00-0
 62
     7
370
    50
100
AcDbLine
 10
-313.195941
 20
291.160614
 30
0.0
 11
-320.75822
 21
291.160614
 31
0.0
  0
LINE
  5
658
330
1F
100
AcDbEntity
  8
LC-001-100-D00-0
 62
     7
370
    50
100
AcDbLine
 10
-332.695943
 20
314.160615
 30
0.0
 11
-312.69594
 21
314.160615
 31
0.0
  0
LINE
  5
659
330
1F
100
AcDbEntity
  8
LC-001-100-D00-0
 62
     7
370
    50
100
AcDbLine
 10
-332.695943
 20
310.660616
 30
0.0
 11
-312.69594
 21
310.660616
 31
0.0
  0
LINE
  5
65A
330
1F
100
AcDbEntity
  8
LC-001-100-D00-0
 62
     7
370
    50
100
AcDbLine
 10
-320.656237
 20
300.160617
 30
0.0
 11
-312.69594
 21
300.160617
 31
0.0
  0
LINE
  5
65B
330
1F
100
AcDbEntity
  8
LC-001-100-D00-0
 62
     7
370
    50
100
AcDbLine
 10
-332.695943
 20
300.160617
 30
0.0
 11
-320.656237
 21
300.160617
 31
0.0
  0
LINE
  5
65C
330
1F
100
AcDbEntity
  8
LC-001-100-D00-0
 62
     7
370
    50
100
AcDbLine
 10
-320.860204
 20
299.160615
 30
0.0
 11
-331.695941
 21
299.160615
 31
0.0
  0
LINE
  5
65D
330
1F
100
AcDbEntity
  8
LC-001-100-D00-0
 62
     7
370
    50
100
AcDbLine
 10
-313.695942
 20
299.160615
 30
0.0
 11
-320.860204
 21
299.160615
 31
0.0
  0
INSERT
  5
665
330
1F
100
AcDbEntity
  8
LC-001-100-D00-0
 62
     7
370
    25
100
AcDbBlockReference
  2
KLON31
 10
0.0
 20
0.0
 30
0.0
  0
INSERT
  5
672
330
1F
100
AcDbEntity
  8
LC-001-100-D00-0
 62
     7
370
    25
100
AcDbBlockReference
  2
KLON32
 10
0.0
 20
0.0
 30
0.0
  0
INSERT
  5
678
330
1F
100
AcDbEntity
  8
LC-001-100-D00-0
 62
     7
370
    25
100
AcDbBlockReference
  2
KLON33
 10
0.0
 20
0.0
 30
0.0
  0
INSERT
  5
67E
330
1F
100
AcDbEntity
  8
LC-001-100-D00-0
 62
     7
370
    25
100
AcDbBlockReference
  2
KLON34
 10
0.0
 20
0.0
 30
0.0
  0
LINE
  5
67F
330
1F
100
AcDbEntity
  8
LC-001-100-D00-0
 62
     7
370
    25
100
AcDbLine
 10
-285.252926
 20
390.339946
 30
0.0
 11
-284.17399
 21
391.418881
 31
0.0
  0
INSERT
  5
687
330
1F
100
AcDbEntity
  8
LC-001-100-D00-0
 62
     7
370
    25
100
AcDbBlockReference
  2
KLON35
 10
0.0
 20
0.0
 30
0.0
  0
INSERT
  5
68D
330
1F
100
AcDbEntity
  8
LC-001-100-D00-0
 62
     7
370
    25
100
AcDbBlockReference
  2
KLON36
 10
0.0
 20
0.0
 30
0.0
  0
INSERT
  5
694
330
1F
100
AcDbEntity
  8
LC-001-100-D00-0
 62
     7
370
    25
100
AcDbBlockReference
  2
KLON37
 10
0.0
 20
0.0
 30
0.0
  0
INSERT
  5
69C
330
1F
100
AcDbEntity
  8
LC-001-100-D00-0
 62
     7
370
    25
100
AcDbBlockReference
  2
KLON38
 10
0.0
 20
0.0
 30
0.0
  0
DIMENSION
  5
69D
330
1F
100
AcDbEntity
  8
LC-001-100-D00-0
 62
     7
370
    25
100
AcDbDimension
  2
*D56
 10
-179.793345
 20
386.660616
 30
0.0
 11
-234.793345
 21
327.852616
 31
0.0
 70
   160
  1
24
 71
     5
 42
24.0
 53
90.0
  3
LC-DIM-L-0100-02-02
100
AcDbAlignedDimension
 13
-238.195941
 23
362.660616
 33
0.0
 14
-253.703084
 24
386.660616
 34
0.0
 50
90.0
100
AcDbRotatedDimension
  0
DIMENSION
  5
6AB
330
1F
100
AcDbEntity
  8
LC-001-100-D00-0
 62
     7
370
    25
100
AcDbDimension
  2
*D57
 10
-404.669261
 20
352.709776
 30
0.0
 11
-459.669261
 21
456.699886
 31
0.0
 70
   160
  1
DN50
 71
     5
 42
49.90168
 53
90.0
  3
LC-DIM-L-0100-02-02
100
AcDbAlignedDimension
 13
-361.195941
 23
402.611456
 33
0.0
 14
-361.195941
 24
352.709776
 34
0.0
 50
90.0
100
AcDbRotatedDimension
  0
DIMENSION
  5
6BA
330
1F
100
AcDbEntity
  8
LC-001-100-D00-0
 62
     7
370
    25
100
AcDbDimension
  2
*D58
 10
-508.494969
 20
291.160616
 30
0.0
 11
-563.494969
 21
444.819886
 31
0.0
 70
   160
  1
68-129,5
 71
     5
 42
129.5
 53
90.0
  3
LC-DIM-L-0100-01-02
100
AcDbAlignedDimension
 13
-335.695941
 23
420.660616
 33
0.0
 14
-332.195941
 24
291.160616
 34
0.0
 50
90.0
100
AcDbRotatedDimension
  0
LINE
  5
6C8
330
1F
100
AcDbEntity
  8
LC-001-100-D00-0
  6
DASHDOT
 62
     7
370
    25
100
AcDbLine
 10
-374.195941
 20
377.660616
 30
0.0
 11
-291.487196
 21
377.660616
 31
0.0
  0
LINE
  5
6C9
330
1F
100
AcDbEntity
  8
LC-001-100-D00-0
  6
DASHDOT
 62
     7
370
    25
100
AcDbLine
 10
-258.195941
 20
420.660615
 30
0.0
 11
-258.195941
 21
352.660615
 31
0.0
  0
LINE
  5
6CA
330
1F
100
AcDbEntity
  8
LC-001-100-D00-0
  6
DASHDOT
 62
     7
370
    25
100
AcDbLine
 10
-322.801057
 20
291.160614
 30
0.0
 11
-322.801057
 21
352.660615
 31
0.0
  0
DIMENSION
  5
6CC
330
1F
100
AcDbEntity
  8
LC-002-003-----0
 62
     7
370
    25
100
AcDbDimension
  2
*D59
 10
-258.195941
 20
189.399886
 30
0.0
 11
-348.763111
 21
244.399886
 31
0.0
 70
   160
 71
     5
 42
105.999999
  3
LC-DIM-L-0100-02-02
100
AcDbAlignedDimension
 13
-364.19594
 23
355.716495
 33
0.0
 14
-258.195941
 24
355.660616
 34
0.0
100
AcDbRotatedDimension
  0
DIMENSION
  5
6DB
330
1F
100
AcDbEntity
  8
LC-002-003-----0
 62
     7
370
    25
100
AcDbDimension
  2
*D60
 10
-218.195942
 20
70.599886
 30
0.0
 11
-298.181356
 21
125.599886
 31
0.0
 70
   160
 71
     5
 42
145.999998
  3
LC-DIM-L-0100-02-02
100
AcDbAlignedDimension
 13
-364.19594
 23
355.716495
 33
0.0
 14
-218.195942
 24
367.594368
 34
0.0
100
AcDbRotatedDimension
  0
INSERT
  5
6ED
330
1F
100
AcDbEntity
  8
LC-001-100-D00-0
 62
     7
370
    50
100
AcDbBlockReference
  2
KLON39
 10
0.0
 20
0.0
 30
0.0
  0
ARC
  5
6EE
330
1F
100
AcDbEntity
  8
LC-001-100-D00-0
 62
     7
370
    50
100
AcDbCircle
 10
427.995184
 20
-28.044944
 30
0.0
 40
24.76305695180431
100
AcDbArc
 50
286.637155
 51
62.523751
  0
LINE
  5
6EF
330
1F
100
AcDbEntity
  8
LC-001-100-D00-0
 62
     7
370
    50
100
AcDbLine
 10
429.132563
 20
-52.781867
 30
0.0
 11
427.995185
 21
-52.808001
 31
0.0
  0
LINE
  5
6F0
330
1F
100
AcDbEntity
  8
LC-001-100-D00-0
 62
     7
370
    50
100
AcDbLine
 10
366.995184
 20
-3.281887
 30
0.0
 11
427.995185
 21
-3.281887
 31
0.0
  0
INSERT
  5
6F6
330
1F
100
AcDbEntity
  8
LC-001-100-D00-0
 62
     7
370
    50
100
AcDbBlockReference
  2
KLON40
 10
0.0
 20
0.0
 30
0.0
  0
ARC
  5
6F7
330
1F
100
AcDbEntity
  8
LC-001-100-D00-0
 62
     7
370
    50
100
AcDbCircle
 10
366.995184
 20
-28.044944
 30
0.0
 40
24.76305695180422
100
AcDbArc
 50
109.469149
 51
245.19649
  0
LINE
  5
6F8
330
1F
100
AcDbEntity
  8
LC-001-100-D00-0
 62
     7
370
    50
100
AcDbLine
 10
365.399292
 20
-3.333365
 30
0.0
 11
366.995184
 21
-3.281887
 31
0.0
  0
LINE
  5
6F9
330
1F
100
AcDbEntity
  8
LC-001-100-D00-0
 62
     7
370
    50
100
AcDbLine
 10
427.995185
 20
-52.808001
 30
0.0
 11
366.995184
 21
-52.808001
 31
0.0
  0
INSERT
  5
709
330
1F
100
AcDbEntity
  8
LC-001-100-D00-0
 62
     7
370
    50
100
AcDbBlockReference
  2
POLY10
 10
0.0
 20
0.0
 30
0.0
  0
INSERT
  5
719
330
1F
100
AcDbEntity
  8
LC-001-100-D00-0
 62
     7
370
    50
100
AcDbBlockReference
  2
POLY11
 10
0.0
 20
0.0
 30
0.0
  0
INSERT
  5
729
330
1F
100
AcDbEntity
  8
LC-001-100-D00-0
 62
     7
370
    50
100
AcDbBlockReference
  2
POLY12
 10
0.0
 20
0.0
 30
0.0
  0
INSERT
  5
739
330
1F
100
AcDbEntity
  8
LC-001-100-D00-0
 62
     7
370
    50
100
AcDbBlockReference
  2
POLY13
 10
0.0
 20
0.0
 30
0.0
  0
LINE
  5
73A
330
1F
100
AcDbEntity
  8
LC-001-100-D00-0
 62
     7
370
    50
100
AcDbLine
 10
366.995184
 20
-3.244944
 30
0.0
 11
427.995185
 21
-3.244944
 31
0.0
  0
LINE
  5
73B
330
1F
100
AcDbEntity
  8
LC-001-100-D00-0
 62
     7
370
    50
100
AcDbLine
 10
427.995185
 20
-52.844945
 30
0.0
 11
366.995184
 21
-52.844945
 31
0.0
  0
ARC
  5
73C
330
1F
100
AcDbEntity
  8
LC-001-100-D00-0
 62
     7
370
    50
100
AcDbCircle
 10
427.995184
 20
-28.044944
 30
0.0
 40
24.7999999999944
100
AcDbArc
 50
300.592814
 51
59.407186
  0
ARC
  5
73D
330
1F
100
AcDbEntity
  8
LC-001-100-D00-0
 62
     7
370
    50
100
AcDbCircle
 10
366.995184
 20
-28.044944
 30
0.0
 40
24.79999999999429
100
AcDbArc
 50
120.592814
 51
239.407186
  0
LINE
  5
73E
330
1F
100
AcDbEntity
  8
LC-001-100-D00-0
 62
     7
370
    50
100
AcDbLine
 10
442.740689
 20
-8.504983
 30
0.0
 11
442.645101
 21
-8.657578
 31
0.0
  0
LINE
  5
73F
330
1F
100
AcDbEntity
  8
LC-001-100-D00-0
 62
     7
370
    50
100
AcDbLine
 10
437.460179
 20
-5.664061
 30
0.0
 11
437.544534
 21
-5.504982
 31
0.0
  0
LINE
  5
740
330
1F
100
AcDbEntity
  8
LC-001-100-D00-0
 62
     7
370
    50
100
AcDbLine
 10
357.445835
 20
-5.504982
 30
0.0
 11
357.53019
 21
-5.664061
 31
0.0
  0
LINE
  5
741
330
1F
100
AcDbEntity
  8
LC-001-100-D00-0
 62
     7
370
    50
100
AcDbLine
 10
352.345268
 20
-8.657578
 30
0.0
 11
352.249681
 21
-8.504983
 31
0.0
  0
LINE
  5
742
330
1F
100
AcDbEntity
  8
LC-001-100-D00-0
 62
     7
370
    50
100
AcDbLine
 10
352.249681
 20
-47.584906
 30
0.0
 11
352.345268
 21
-47.432311
 31
0.0
  0
LINE
  5
743
330
1F
100
AcDbEntity
  8
LC-001-100-D00-0
 62
     7
370
    50
100
AcDbLine
 10
357.53019
 20
-50.425827
 30
0.0
 11
357.445835
 21
-50.584906
 31
0.0
  0
INSERT
  5
753
330
1F
100
AcDbEntity
  8
LC-001-100-D00-0
 62
     7
370
    50
100
AcDbBlockReference
  2
POLY14
 10
0.0
 20
0.0
 30
0.0
  0
LINE
  5
754
330
1F
100
AcDbEntity
  8
LC-001-100-D00-0
 62
     7
370
    50
100
AcDbLine
 10
437.544534
 20
-50.584906
 30
0.0
 11
437.460179
 21
-50.425827
 31
0.0
  0
LINE
  5
755
330
1F
100
AcDbEntity
  8
LC-001-100-D00-0
 62
     7
370
    50
100
AcDbLine
 10
442.645101
 20
-47.432311
 30
0.0
 11
442.740689
 21
-47.584906
 31
0.0
  0
INSERT
  5
765
330
1F
100
AcDbEntity
  8
LC-001-100-D00-0
 62
     7
370
    50
100
AcDbBlockReference
  2
POLY15
 10
0.0
 20
0.0
 30
0.0
  0
LINE
  5
766
330
1F
100
AcDbEntity
  8
LC-001-100-D00-0
 62
     7
370
    50
100
AcDbLine
 10
437.460179
 20
-5.664061
 30
0.0
 11
437.345697
 21
-5.941372
 31
0.0
  0
LINE
  5
767
330
1F
100
AcDbEntity
  8
LC-001-100-D00-0
 62
     7
370
    50
100
AcDbLine
 10
442.462182
 20
-8.895376
 30
0.0
 11
442.645101
 21
-8.657578
 31
0.0
  0
LINE
  5
768
330
1F
100
AcDbEntity
  8
LC-001-100-D00-0
 62
     7
370
    50
100
AcDbLine
 10
352.345268
 20
-8.657578
 30
0.0
 11
352.528183
 21
-8.895376
 31
0.0
  0
LINE
  5
769
330
1F
100
AcDbEntity
  8
LC-001-100-D00-0
 62
     7
370
    50
100
AcDbLine
 10
357.644672
 20
-5.941372
 30
0.0
 11
357.53019
 21
-5.664061
 31
0.0
  0
LINE
  5
76A
330
1F
100
AcDbEntity
  8
LC-001-100-D00-0
 62
     7
370
    50
100
AcDbLine
 10
357.53019
 20
-50.425827
 30
0.0
 11
357.644672
 21
-50.148517
 31
0.0
  0
LINE
  5
76B
330
1F
100
AcDbEntity
  8
LC-001-100-D00-0
 62
     7
370
    50
100
AcDbLine
 10
352.528183
 20
-47.194512
 30
0.0
 11
352.345268
 21
-47.432311
 31
0.0
  0
LINE
  5
76C
330
1F
100
AcDbEntity
  8
LC-001-100-D00-0
 62
     7
370
    50
100
AcDbLine
 10
437.345697
 20
-50.148517
 30
0.0
 11
437.460179
 21
-50.425827
 31
0.0
  0
LINE
  5
76D
330
1F
100
AcDbEntity
  8
LC-001-100-D00-0
 62
     7
370
    50
100
AcDbLine
 10
442.645101
 20
-47.432311
 30
0.0
 11
442.462182
 21
-47.194512
 31
0.0
  0
ARC
  5
76E
330
1F
100
AcDbEntity
  8
LC-001-100-D00-0
 62
     7
370
    50
100
AcDbCircle
 10
446.104229
 20
-22.294944
 30
0.0
 40
1.000000000000185
100
AcDbArc
 50
17.615731
 51
90.0
  0
ARC
  5
76F
330
1F
100
AcDbEntity
  8
LC-001-100-D00-0
 62
     7
370
    50
100
AcDbCircle
 10
427.995184
 20
-28.044944
 30
0.0
 40
20.00000000000017
100
AcDbArc
 50
270.0
 51
17.615731
  0
ARC
  5
770
330
1F
100
AcDbEntity
  8
LC-001-100-D00-0
 62
     7
370
    50
100
AcDbCircle
 10
366.995184
 20
-28.044944
 30
0.0
 40
20.00000000000007
100
AcDbArc
 50
162.384269
 51
270.0
  0
ARC
  5
771
330
1F
100
AcDbEntity
  8
LC-001-100-D00-0
 62
     7
370
    50
100
AcDbCircle
 10
348.88614
 20
-22.294944
 30
0.0
 40
1.0
100
AcDbArc
 50
90.0
 51
162.384269
  0
LINE
  5
772
330
1F
100
AcDbEntity
  8
LC-001-100-D00-0
 62
     7
370
    50
100
AcDbLine
 10
348.886138
 20
-21.294944
 30
0.0
 11
446.104231
 21
-21.294944
 31
0.0
  0
LINE
  5
773
330
1F
100
AcDbEntity
  8
LC-001-100-D00-0
 62
     7
370
    50
100
AcDbLine
 10
427.995185
 20
-48.044944
 30
0.0
 11
366.995184
 21
-48.044944
 31
0.0
  0
ARC
  5
774
330
1F
100
AcDbEntity
  8
LC-001-100-D00-0
 62
     7
370
    50
100
AcDbCircle
 10
427.995184
 20
-28.044944
 30
0.0
 40
18.50000000000021
100
AcDbArc
 50
21.399266
 51
90.0
  0
ARC
  5
775
330
1F
100
AcDbEntity
  8
LC-001-100-D00-0
 62
     7
370
    50
100
AcDbCircle
 10
366.995184
 20
-28.044944
 30
0.0
 40
18.49999999999994
100
AcDbArc
 50
90.0
 51
158.600734
  0
LINE
  5
776
330
1F
100
AcDbEntity
  8
LC-001-100-D00-0
 62
     7
370
    50
100
AcDbLine
 10
427.995185
 20
-4.044944
 30
0.0
 11
366.995184
 21
-4.044944
 31
0.0
  0
ARC
  5
777
330
1F
100
AcDbEntity
  8
LC-001-100-D00-0
 62
     7
370
    50
100
AcDbCircle
 10
427.995184
 20
-28.044944
 30
0.0
 40
24.0
100
AcDbArc
 50
270.0
 51
90.0
  0
LINE
  5
778
330
1F
100
AcDbEntity
  8
LC-001-100-D00-0
 62
     7
370
    50
100
AcDbLine
 10
366.995184
 20
-52.044945
 30
0.0
 11
427.995185
 21
-52.044945
 31
0.0
  0
ARC
  5
779
330
1F
100
AcDbEntity
  8
LC-001-100-D00-0
 62
     7
370
    50
100
AcDbCircle
 10
366.995184
 20
-28.044944
 30
0.0
 40
24.0
100
AcDbArc
 50
90.0
 51
270.0
  0
LINE
  5
77A
330
1F
100
AcDbEntity
  8
LC-001-100-D00-0
 62
     7
370
    50
100
AcDbLine
 10
427.995185
 20
-9.544944
 30
0.0
 11
366.995184
 21
-9.544944
 31
0.0
  0
LINE
  5
77B
330
1F
100
AcDbEntity
  8
LC-001-100-D00-0
 62
     7
370
    50
100
AcDbLine
 10
342.879454
 20
-33.669945
 30
0.0
 11
343.663672
 21
-33.669945
 31
0.0
  0
LINE
  5
77C
330
1F
100
AcDbEntity
  8
LC-001-100-D00-0
 62
     7
370
    50
100
AcDbLine
 10
451.326697
 20
-33.669945
 30
0.0
 11
452.110911
 21
-33.669945
 31
0.0
  0
LINE
  5
77D
330
1F
100
AcDbEntity
  8
LC-001-100-D00-0
 62
     7
370
    50
100
AcDbLine
 10
343.435297
 20
-35.669944
 30
0.0
 11
344.23866
 21
-35.669944
 31
0.0
  0
LINE
  5
77E
330
1F
100
AcDbEntity
  8
LC-001-100-D00-0
 62
     7
370
    50
100
AcDbLine
 10
450.751709
 20
-35.669944
 30
0.0
 11
451.555072
 21
-35.669944
 31
0.0
  0
LINE
  5
77F
330
1F
100
AcDbEntity
  8
LC-001-100-D00-0
 62
     7
370
    50
100
AcDbLine
 10
422.495185
 20
-131.044944
 30
0.0
 11
422.495185
 21
-105.544945
 31
0.0
  0
LINE
  5
780
330
1F
100
AcDbEntity
  8
LC-001-100-D00-0
 62
     7
370
    50
100
AcDbLine
 10
372.495184
 20
-105.544945
 30
0.0
 11
372.495184
 21
-131.044944
 31
0.0
  0
LINE
  5
781
330
1F
100
AcDbEntity
  8
LC-001-100-D00-0
 62
     7
370
    50
100
AcDbLine
 10
372.495184
 20
-131.044944
 30
0.0
 11
373.299033
 21
-134.044943
 31
0.0
  0
LINE
  5
782
330
1F
100
AcDbEntity
  8
LC-001-100-D00-0
 62
     7
370
    50
100
AcDbLine
 10
421.691336
 20
-134.044943
 30
0.0
 11
422.495185
 21
-131.044944
 31
0.0
  0
LINE
  5
783
330
1F
100
AcDbEntity
  8
LC-001-100-D00-0
 62
     7
370
    50
100
AcDbLine
 10
372.495184
 20
-131.044944
 30
0.0
 11
422.495185
 21
-131.044944
 31
0.0
  0
LINE
  5
784
330
1F
100
AcDbEntity
  8
LC-001-100-D00-0
 62
     7
370
    50
100
AcDbLine
 10
421.691336
 20
-134.044943
 30
0.0
 11
373.299033
 21
-134.044943
 31
0.0
  0
LINE
  5
785
102
{ACAD_REACTORS
330
786
102
}
330
1F
100
AcDbEntity
  8
LC-001-100-D00-0
  6
DASHDOT
 62
     7
370
    25
100
AcDbLine
 10
397.495184
 20
17.955056
 30
0.0
 11
397.495184
 21
-134.044943
 31
0.0
  0
ENDSEC
  0
SECTION
  2
OBJECTS
  0
DICTIONARY
  5
C
330
0
100
AcDbDictionary
281
     1
  3
ACAD_GROUP
350
D
  3
ACAD_LAYOUT
350
1A
  3
ACAD_MLINESTYLE
350
17
  3
ACAD_PLOTSETTINGS
350
19
  3
ACAD_PLOTSTYLENAME
350
E
  0
DICTIONARY
  5
D
102
{ACAD_REACTORS
330
C
102
}
330
C
100
AcDbDictionary
281
     1
  3
LCGROUP1364
350
786
  0
DICTIONARY
  5
1A
102
{ACAD_REACTORS
330
C
102
}
330
C
100
AcDbDictionary
281
     1
  3
Layout1
350
1E
  3
Layout2
350
26
  3
Model
350
22
  0
DICTIONARY
  5
17
102
{ACAD_REACTORS
330
C
102
}
330
C
100
AcDbDictionary
281
     1
  3
Standard
350
18
  0
DICTIONARY
  5
19
102
{ACAD_REACTORS
330
C
102
}
330
C
100
AcDbDictionary
281
     1
  0
ACDBDICTIONARYWDFLT
  5
E
102
{ACAD_REACTORS
330
C
102
}
330
C
100
AcDbDictionary
281
     1
  3
Normal
350
F
100
AcDbDictionaryWithDefault
340
F
  0
GROUP
  5
786
102
{ACAD_REACTORS
330
D
102
}
330
D
100
AcDbGroup
300
Gehäuse
 70
     1
 71
     1
340
428
340
429
340
42A
340
42B
340
42C
340
42D
340
42E
340
42F
340
430
340
431
340
432
340
433
340
434
340
435
340
436
340
437
340
438
340
439
340
43A
340
43B
340
43C
340
43D
340
43E
340
43F
340
440
340
441
340
442
340
443
340
444
340
445
340
446
340
447
340
448
340
449
340
44A
340
44B
340
44C
340
44D
340
44E
340
44F
340
450
340
451
340
452
340
453
340
454
340
455
340
456
340
457
340
458
340
459
340
45A
340
45B
340
45C
340
45D
340
45E
340
45F
340
460
340
461
340
462
340
463
340
464
340
465
340
466
340
467
340
468
340
469
340
46A
340
46B
340
46C
340
46D
340
46E
340
46F
340
470
340
471
340
472
340
473
340
474
340
475
340
476
340
477
340
478
340
479
340
47A
340
47B
340
47C
340
47D
340
47E
340
47F
340
480
340
481
340
482
340
483
340
484
340
485
340
486
340
487
340
488
340
489
340
48A
340
48B
340
48C
340
48D
340
48E
340
48F
340
490
340
491
340
492
340
493
340
4A0
340
4A1
340
4AD
340
4AE
340
4BB
340
785
  0
LAYOUT
  5
1E
102
{ACAD_REACTORS
330
1A
102
}
330
1A
100
AcDbPlotSettings
  1

  2

  4

  6

 40
0.0
 41
0.0
 42
0.0
 43
0.0
 44
0.0
 45
0.0
 46
0.0
 47
0.0
 48
0.0
 49
0.0
140
0.0
141
0.0
142
1.0
143
1.0
 70
   688
 72
     0
 73
     0
 74
     5
  7

 75
    16
147
1.0
148
0.0
149
0.0
100
AcDbLayout
  1
Layout1
 70
     1
 71
     1
 10
-839.701608
 20
-611.015114
 11
1260.298392
 21
873.984886
 12
0.0
 22
0.0
 32
0.0
 14
-839.701608
 24
-611.015114
 34
0.0
 15
1260.298392
 25
873.984886
 35
0.0
146
0.0
 13
0.0
 23
0.0
 33
0.0
 16
1.0
 26
0.0
 36
0.0
 17
0.0
 27
1.0
 37
0.0
 76
     0
330
1B
  0
LAYOUT
  5
26
102
{ACAD_REACTORS
330
1A
102
}
330
1A
100
AcDbPlotSettings
  1

  2

  4

  6

 40
0.0
 41
0.0
 42
0.0
 43
0.0
 44
0.0
 45
0.0
 46
0.0
 47
0.0
 48
0.0
 49
0.0
140
0.0
141
0.0
142
1.0
143
1.0
 70
   688
 72
     0
 73
     0
 74
     5
  7

 75
    16
147
1.0
148
0.0
149
0.0
100
AcDbLayout
  1
Layout2
 70
     1
 71
     2
 10
0.0
 20
0.0
 11
0.0
 21
0.0
 12
0.0
 22
0.0
 32
0.0
 14
0.0
 24
0.0
 34
0.0
 15
0.0
 25
0.0
 35
0.0
146
0.0
 13
0.0
 23
0.0
 33
0.0
 16
1.0
 26
0.0
 36
0.0
 17
0.0
 27
1.0
 37
0.0
 76
     0
330
23
  0
LAYOUT
  5
22
102
{ACAD_REACTORS
330
1A
102
}
330
1A
100
AcDbPlotSettings
  1

  2

  4

  6

 40
0.0
 41
0.0
 42
0.0
 43
0.0
 44
0.0
 45
0.0
 46
0.0
 47
0.0
 48
0.0
 49
0.0
140
0.0
141
0.0
142
1.0
143
1.0
 70
  1776
 72
     0
 73
     0
 74
     0
  7

 75
     0
147
1.0
148
0.0
149
0.0
100
AcDbLayout
  1
Model
 70
     1
 71
     0
 10
-839.701608
 20
-611.015114
 11
1260.298392
 21
873.984886
 12
0.0
 22
0.0
 32
0.0
 14
-839.701608
 24
-611.015114
 34
0.0
 15
1260.298392
 25
873.984886
 35
0.0
146
0.0
 13
0.0
 23
0.0
 33
0.0
 16
1.0
 26
0.0
 36
0.0
 17
0.0
 27
1.0
 37
0.0
 76
     0
330
1F
  0
MLINESTYLE
  5
18
102
{ACAD_REACTORS
330
17
102
}
330
17
100
AcDbMlineStyle
  2
Standard
 70
     0
  3

 62
   256
 51
90.0
 52
90.0
 71
     2
 49
0.5
 62
   256
  6
BYLAYER
 49
-0.5
 62
   256
  6
BYLAYER
  0
ACDBPLACEHOLDER
  5
F
102
{ACAD_REACTORS
330
E
102
}
330
E
  0
ENDSEC
  0
EOF
