  0
SECTION
  2
HEADER
  9
$ACADVER
  1
AC1009
  9
$INSBASE
 10
60.77929
 20
53.097589
 30
0.0
  9
$EXTMIN
 10
-106.145225
 20
-131.868
 30
0.0
  9
$EXTMAX
 10
733.854775
 20
462.132
 30
0.0
  9
$LIMMIN
 10
-106.145225
 20
-131.868
  9
$LIMMAX
 10
733.854775
 20
462.132
  9
$ORTHOMODE
 70
     0
  9
$REGENMODE
 70
     1
  9
$FILLMODE
 70
     1
  9
$QTEXTMODE
 70
     0
  9
$MIRRTEXT
 70
     1
  9
$DRAGMODE
 70
     2
  9
$LTSCALE
 40
2.0
  9
$OSMODE
 70
     0
  9
$ATTMODE
 70
     1
  9
$TEXTSIZE
 40
0.2
  9
$TRACEWID
 40
0.05
  9
$TEXTSTYLE
  7
STANDARD
  9
$CLAYER
  8
0
  9
$CELTYPE
  6
BYLAYER
  9
$CECOLOR
 62
     7
  9
$DIMSCALE
 40
2.0
  9
$DIMASZ
 40
3.5
  9
$DIMEXO
 40
0.0625
  9
$DIMDLI
 40
0.38
  9
$DIMRND
 40
0.0
  9
$DIMDLE
 40
0.0
  9
$DIMEXE
 40
0.18
  9
$DIMTP
 40
0.0
  9
$DIMTM
 40
0.0
  9
$DIMTXT
 40
3.5
  9
$DIMCEN
 40
0.09
  9
$DIMTSZ
 40
0.0
  9
$DIMTOL
 70
     0
  9
$DIMLIM
 70
     0
  9
$DIMTIH
 70
     1
  9
$DIMTOH
 70
     1
  9
$DIMSE1
 70
     0
  9
$DIMSE2
 70
     0
  9
$DIMTAD
 70
     1
  9
$DIMZIN
 70
     0
  9
$DIMBLK
  1

  9
$DIMASO
 70
     1
  9
$DIMSHO
 70
     1
  9
$DIMPOST
  1

  9
$DIMAPOST
  1

  9
$DIMALT
 70
     0
  9
$DIMALTD
 70
     2
  9
$DIMALTF
 40
25.4
  9
$DIMLFAC
 40
1.0
  9
$DIMTOFL
 70
     0
  9
$DIMTVP
 40
0.0
  9
$DIMTIX
 70
     0
  9
$DIMSOXD
 70
     0
  9
$DIMSAH
 70
     0
  9
$DIMBLK1
  1

  9
$DIMBLK2
  1

  9
$DIMSTYLE
  2
STANDARD
  9
$DIMCLRD
 70
     0
  9
$DIMCLRE
 70
     0
  9
$DIMCLRT
 70
     0
  9
$DIMTFAC
 40
1.0
  9
$DIMGAP
 40
0.09
  9
$LUNITS
 70
     2
  9
$LUPREC
 70
     2
  9
$AXISMODE
 70
     0
  9
$AXISUNIT
 10
0.0
 20
0.0
  9
$SKETCHINC
 40
0.1
  9
$FILLETRAD
 40
0.0
  9
$AUNITS
 70
     0
  9
$AUPREC
 70
     0
  9
$MENU
  1
acad
  9
$ELEVATION
 40
0.0
  9
$PELEVATION
 40
0.0
  9
$THICKNESS
 40
0.0
  9
$LIMCHECK
 70
     0
  9
$BLIPMODE
 70
     1
  9
$CHAMFERA
 40
0.0
  9
$CHAMFERB
 40
0.0
  9
$SKPOLY
 70
     0
  9
$TDCREATE
 40
0.000000000
  9
$TDUPDATE
 40
0.000000000
  9
$TDINDWG
 40
0.0000000000
  9
$TDUSRTIMER
 40
0.0000000000
  9
$USRTIMER
 70
     1
  9
$ANGBASE
 50
0.0
  9
$ANGDIR
 70
     0
  9
$PDMODE
 70
     0
  9
$PDSIZE
 40
0.0
  9
$PLINEWID
 40
0.0
  9
$COORDS
 70
     0
  9
$SPLFRAME
 70
     0
  9
$SPLINETYPE
 70
     6
  9
$SPLINESEGS
 70
     8
  9
$ATTDIA
 70
     0
  9
$ATTREQ
 70
     1
  9
$HANDLING
 70
     1
  9
$HANDSEED
  5
337
  9
$SURFTAB1
 70
     6
  9
$SURFTAB2
 70
     6
  9
$SURFTYPE
 70
     6
  9
$SURFU
 70
     6
  9
$SURFV
 70
     6
  9
$UCSNAME
  2

  9
$UCSORG
 10
0.0
 20
0.0
 30
0.0
  9
$UCSXDIR
 10
1.0
 20
0.0
 30
0.0
  9
$UCSYDIR
 10
0.0
 20
1.0
 30
0.0
  9
$PUCSNAME
  2

  9
$PUCSORG
 10
0.0
 20
0.0
 30
0.0
  9
$PUCSXDIR
 10
1.0
 20
0.0
 30
0.0
  9
$PUCSYDIR
 10
0.0
 20
1.0
 30
0.0
  9
$USERI1
 70
     0
  9
$USERI2
 70
     0
  9
$USERI3
 70
     0
  9
$USERI4
 70
     0
  9
$USERI5
 70
     0
  9
$USERR1
 40
0.0
  9
$USERR2
 40
0.0
  9
$USERR3
 40
0.0
  9
$USERR4
 40
0.0
  9
$USERR5
 40
0.0
  9
$WORLDVIEW
 70
     1
  9
$SHADEDGE
 70
     3
  9
$SHADEDIF
 70
    70
  9
$TILEMODE
 70
     1
  9
$MAXACTVP
 70
    16
  9
$PINSBASE
 10
0.0
 20
0.0
 30
0.0
  9
$PLIMCHECK
 70
     0
  9
$PEXTMIN
 10
1.000000E+20
 20
1.000000E+20
 30
1.000000E+20
  9
$PEXTMAX
 10
-1.000000E+20
 20
-1.000000E+20
 30
-1.000000E+20
  9
$PLIMMIN
 10
-106.145225
 20
-131.868
  9
$PLIMMAX
 10
733.854775
 20
462.132
  9
$UNITMODE
 70
     0
  9
$VISRETAIN
 70
     0
  9
$PLINEGEN
 70
     1
  9
$PSLTSCALE
 70
     0
  9
$TREEDEPTH
 70
  3020
  9
$DWGCODEPAGE
  3
dos850
  0
ENDSEC
  0
SECTION
  2
TABLES
  0
TABLE
  2
VPORT
 70
     1
  0
VPORT
  2
*ACTIVE
 70
     0
 10
0.0
 20
0.0
 11
1.0
 21
1.0
 12
420.0
 22
297.0
 13
0.0
 23
0.0
 14
1.0
 24
1.0
 15
0.0
 25
0.0
 16
0.0
 26
0.0
 36
1.0
 17
-106.145225
 27
-131.868
 37
0.0
 40
594.0
 41
1.604229
 42
50.0
 43
0.0
 44
0.0
 50
0.0
 51
0.0
 71
     0
 72
   100
 73
     1
 74
     1
 75
     0
 76
     0
 77
     0
 78
     0
  0
ENDTAB
  0
TABLE
  2
LTYPE
 70
     4
  0
LTYPE
  2
CONTINUOUS
 70
    64
  3
Solid line
 72
    65
 73
     0
 40
0.0
  0
LTYPE
  2
DASHED
 70
    64
  3
__ __ __ __ __
 72
    65
 73
     2
 40
6.25
 49
5.0
 49
-1.25
  0
LTYPE
  2
DASHDOT
 70
    64
  3
__ . __ . __ . __ . __
 72
    65
 73
     4
 40
7.5
 49
5.0
 49
-1.25
 49
0.0
 49
-1.25
  0
LTYPE
  2
CENTER
 70
    64
  3
__ . __ . __ . __ . __
 72
    65
 73
     4
 40
7.5
 49
5.0
 49
-1.25
 49
0.0
 49
-1.25
  0
ENDTAB
  0
TABLE
  2
LAYER
 70
    12
  0
LAYER
  2
0
 70
     0
 62
     7
  6
CONTINUOUS
  0
LAYER
  2
LC-INFO-1-2-MM-A3-0
 70
     1
 62
    -1
  6
CONTINUOUS
  0
LAYER
  2
LC-003-005-----0
 70
     0
 62
     2
  6
CONTINUOUS
  0
LAYER
  2
LC-008-003-MTH-0
 70
     0
 62
     2
  6
CONTINUOUS
  0
LAYER
  2
LC-009-003-MTG-0
 70
     0
 62
     2
  6
CONTINUOUS
  0
LAYER
  2
LC-007-003-----0
 70
     0
 62
     2
  6
CONTINUOUS
  0
LAYER
  2
LC-006-000-----0
 70
     0
 62
     7
  6
CONTINUOUS
  0
LAYER
  2
LC-001-002-----0
 70
     0
 62
     1
  6
CONTINUOUS
  0
LAYER
  2
LC-002-002-RND-0
 70
     0
 62
     1
  6
CONTINUOUS
  0
LAYER
  2
LC-004-006-MLN-0
 70
     0
 62
     2
  6
CENTER
  0
LAYER
  2
LC-005-002-----0
 70
     0
 62
     2
  6
CONTINUOUS
  0
LAYER
  2
LC-000
 70
     0
 62
     7
  6
CONTINUOUS
  0
ENDTAB
  0
TABLE
  2
STYLE
 70
     3
  0
STYLE
  2
STANDARD
 70
     0
 40
0.0
 41
1.0
 50
0.0
 71
     0
 42
0.0
  3
txt
  4

  0
STYLE
  2
LC-TXTSTYLE-150-400-0-0-A1
 70
    64
 40
0.0
 41
1.0
 50
15.0
 71
     0
 42
3.5
  3
Arial
  4

  0
STYLE
  2
LC-STANDARD
 70
    64
 40
0.0
 41
1.0
 50
0.0
 71
     0
 42
3.5
  3
MONOTXT
  4

  0
ENDTAB
  0
TABLE
  2
VIEW
 70
     0
  0
ENDTAB
  0
TABLE
  2
UCS
 70
     0
  0
ENDTAB
  0
TABLE
  2
APPID
 70
     1
  0
APPID
  2
ACAD
 70
     0
  0
ENDTAB
  0
TABLE
  2
DIMSTYLE
 70
     3
  0
DIMSTYLE
  2
STANDARD
 70
     0
  3

  4

  5

  6

  7

 40
1.0
 41
0.18
 42
0.0625
 43
0.38
 44
0.18
 45
0.0
 46
0.0
 47
0.0
 48
0.0
 71
     0
 72
     0
 73
     1
 74
     1
 75
     0
 76
     0
 77
     0
 78
     0
140
0.18
141
0.09
142
0.0
143
25.4
144
1.0
145
0.0
146
1.0
147
0.09
170
     0
171
     2
172
     0
173
     0
174
     0
175
     0
176
     0
177
     0
178
     0
  0
DIMSTYLE
  2
LC-STANDARD
 70
     0
  3

  4

  5

  6

  7

 40
1.0
 41
3.5
 42
0.0
 43
7.5
 44
1.8
 45
0.0
 46
0.0
 47
0.0
 48
0.0
 71
     0
 72
     0
 73
     0
 74
     0
 75
     0
 76
     0
 77
     1
 78
     8
140
3.5
141
0.0
142
0.0
143
25.4
144
1.0
145
0.0
146
0.71
147
1.5
170
     0
171
     2
172
     1
173
     0
174
     0
175
     0
176
     0
177
     0
178
     3
  0
DIMSTYLE
  2
LC-DIM-L-0140-02-02
 70
     0
  3

  4

  5

  6

  7

 40
2.0
 41
3.5
 42
0.0
 43
7.5
 44
1.8
 45
0.0
 46
0.0
 47
0.0
 48
0.0
 71
     0
 72
     0
 73
     0
 74
     0
 75
     0
 76
     0
 77
     1
 78
     8
140
14.0
141
0.0
142
0.0
143
25.4
144
1.0
145
0.0
146
0.71
147
1.5
170
     0
171
     2
172
     0
173
     0
174
     0
175
     0
176
     2
177
     2
178
     8
  0
ENDTAB
  0
ENDSEC
  0
SECTION
  2
BLOCKS
  0
BLOCK
  8
0
  5
23
  2
*X0
 70
    65
 10
61.821933
 20
145.90104
 30
0.0
  3
*X0
  0
LINE
  8
LC-003-005-----0
  6
DASHED
  5
26
 10
71.086112
 20
149.531204
 30
0.0
 11
63.288677
 21
157.328638
 31
0.0
  0
LINE
  8
LC-003-005-----0
  6
DASHED
  5
27
 10
66.971365
 20
150.817524
 30
0.0
 11
61.885937
 21
155.902952
 31
0.0
  0
LINE
  8
LC-003-005-----0
  6
CONTINUOUS
  5
28
 10
66.230995
 20
145.90104
 30
0.0
 11
62.321934
 21
149.810101
 31
0.0
  0
LINE
  8
LC-003-005-----0
  6
CONTINUOUS
  5
29
 10
63.344826
 20
145.958781
 30
0.0
 11
61.879675
 21
147.423932
 31
0.0
  0
ENDBLK
  8
0
  5
2A
  0
BLOCK
  8
0
  5
2C
  2
*X1
 70
    65
 10
58.321934
 20
84.189299
 30
0.0
  3
*X1
  0
LINE
  8
LC-003-005-----0
  6
CONTINUOUS
  5
2D
 10
234.071934
 20
167.564718
 30
0.0
 11
232.442719
 21
169.193933
 31
0.0
  0
LINE
  8
LC-003-005-----0
  6
CONTINUOUS
  5
2E
 10
240.321934
 20
158.486291
 30
0.0
 11
236.614292
 21
162.193933
 31
0.0
  0
LINE
  8
LC-003-005-----0
  6
CONTINUOUS
  5
2F
 10
234.071934
 20
164.736291
 30
0.0
 11
230.321934
 21
168.486291
 31
0.0
  0
LINE
  8
LC-003-005-----0
  6
CONTINUOUS
  5
30
 10
240.321934
 20
155.657864
 30
0.0
 11
230.321934
 21
165.657864
 31
0.0
  0
LINE
  8
LC-003-005-----0
  6
CONTINUOUS
  5
31
 10
240.321934
 20
152.829437
 30
0.0
 11
236.153037
 21
156.998333
 31
0.0
  0
LINE
  8
LC-003-005-----0
  6
CONTINUOUS
  5
32
 10
235.126334
 20
158.025036
 30
0.0
 11
230.321934
 21
162.829437
 31
0.0
  0
LINE
  8
LC-003-005-----0
  6
CONTINUOUS
  5
33
 10
240.321934
 20
150.00101
 30
0.0
 11
236.321934
 21
154.00101
 31
0.0
  0
LINE
  8
LC-003-005-----0
  6
CONTINUOUS
  5
34
 10
232.12901
 20
158.193933
 30
0.0
 11
230.321934
 21
160.00101
 31
0.0
  0
LINE
  8
LC-003-005-----0
  6
CONTINUOUS
  5
35
 10
240.321934
 20
147.172582
 30
0.0
 11
236.321934
 21
151.172582
 31
0.0
  0
LINE
  8
LC-003-005-----0
  6
CONTINUOUS
  5
36
 10
240.225743
 20
144.440346
 30
0.0
 11
236.321934
 21
148.344155
 31
0.0
  0
LINE
  8
LC-003-005-----0
  6
CONTINUOUS
  5
37
 10
239.076873
 20
142.760789
 30
0.0
 11
235.355788
 21
146.481874
 31
0.0
  0
LINE
  8
LC-003-005-----0
  6
CONTINUOUS
  5
38
 10
236.815302
 20
142.193933
 30
0.0
 11
232.815302
 21
146.193933
 31
0.0
  0
LINE
  8
LC-003-005-----0
  6
CONTINUOUS
  5
39
 10
234.323578
 20
141.85723
 30
0.0
 11
230.321934
 21
145.858874
 31
0.0
  0
LINE
  8
LC-003-005-----0
  6
CONTINUOUS
  5
3A
 10
234.071934
 20
139.280447
 30
0.0
 11
230.321934
 21
143.030447
 31
0.0
  0
LINE
  8
LC-003-005-----0
  6
CONTINUOUS
  5
3B
 10
234.071934
 20
136.45202
 30
0.0
 11
230.321934
 21
140.20202
 31
0.0
  0
LINE
  8
LC-003-005-----0
  6
CONTINUOUS
  5
3C
 10
234.071934
 20
133.623593
 30
0.0
 11
230.321934
 21
137.373593
 31
0.0
  0
LINE
  8
LC-003-005-----0
  6
CONTINUOUS
  5
3D
 10
234.071934
 20
130.795165
 30
0.0
 11
230.321934
 21
134.545165
 31
0.0
  0
LINE
  8
LC-003-005-----0
  6
CONTINUOUS
  5
3E
 10
234.071934
 20
127.966738
 30
0.0
 11
230.321934
 21
131.716738
 31
0.0
  0
LINE
  8
LC-003-005-----0
  6
CONTINUOUS
  5
3F
 10
234.071934
 20
125.138311
 30
0.0
 11
230.321934
 21
128.888311
 31
0.0
  0
LINE
  8
LC-003-005-----0
  6
CONTINUOUS
  5
40
 10
234.071934
 20
122.309884
 30
0.0
 11
230.321934
 21
126.059884
 31
0.0
  0
LINE
  8
LC-003-005-----0
  6
CONTINUOUS
  5
41
 10
234.071934
 20
119.481457
 30
0.0
 11
230.321934
 21
123.231457
 31
0.0
  0
LINE
  8
LC-003-005-----0
  6
CONTINUOUS
  5
42
 10
235.406887
 20
115.318076
 30
0.0
 11
230.321934
 21
120.40303
 31
0.0
  0
LINE
  8
LC-003-005-----0
  6
CONTINUOUS
  5
43
 10
234.071934
 20
113.824603
 30
0.0
 11
230.321934
 21
117.574603
 31
0.0
  0
LINE
  8
LC-003-005-----0
  6
CONTINUOUS
  5
44
 10
234.071934
 20
110.996176
 30
0.0
 11
230.321934
 21
114.746176
 31
0.0
  0
LINE
  8
LC-003-005-----0
  6
CONTINUOUS
  5
45
 10
234.071934
 20
108.167748
 30
0.0
 11
230.321934
 21
111.917748
 31
0.0
  0
LINE
  8
LC-003-005-----0
  6
CONTINUOUS
  5
46
 10
234.071934
 20
105.339321
 30
0.0
 11
230.321934
 21
109.089321
 31
0.0
  0
LINE
  8
LC-003-005-----0
  6
CONTINUOUS
  5
47
 10
234.071934
 20
102.510894
 30
0.0
 11
230.321934
 21
106.260894
 31
0.0
  0
LINE
  8
LC-003-005-----0
  6
CONTINUOUS
  5
48
 10
234.071934
 20
99.682467
 30
0.0
 11
230.321934
 21
103.432467
 31
0.0
  0
LINE
  8
LC-003-005-----0
  6
CONTINUOUS
  5
49
 10
234.071934
 20
96.85404
 30
0.0
 11
230.321934
 21
100.60404
 31
0.0
  0
LINE
  8
LC-003-005-----0
  6
CONTINUOUS
  5
4A
 10
234.071934
 20
94.025613
 30
0.0
 11
230.321934
 21
97.775613
 31
0.0
  0
LINE
  8
LC-003-005-----0
  6
CONTINUOUS
  5
4B
 10
234.071934
 20
91.197186
 30
0.0
 11
230.321934
 21
94.947186
 31
0.0
  0
LINE
  8
LC-003-005-----0
  6
CONTINUOUS
  5
4C
 10
234.071934
 20
88.368759
 30
0.0
 11
230.321934
 21
92.118759
 31
0.0
  0
LINE
  8
LC-003-005-----0
  6
CONTINUOUS
  5
4D
 10
234.071934
 20
85.540331
 30
0.0
 11
230.321934
 21
89.290331
 31
0.0
  0
LINE
  8
LC-003-005-----0
  6
CONTINUOUS
  5
4E
 10
232.594539
 20
84.189299
 30
0.0
 11
230.321934
 21
86.461904
 31
0.0
  0
LINE
  8
LC-003-005-----0
  6
CONTINUOUS
  5
4F
 10
68.321934
 20
166.437518
 30
0.0
 11
65.565519
 21
169.193933
 31
0.0
  0
LINE
  8
LC-003-005-----0
  6
CONTINUOUS
  5
50
 10
68.321934
 20
163.609091
 30
0.0
 11
64.571934
 21
167.359091
 31
0.0
  0
LINE
  8
LC-003-005-----0
  6
CONTINUOUS
  5
51
 10
68.321934
 20
160.780663
 30
0.0
 11
64.571934
 21
164.530663
 31
0.0
  0
LINE
  8
LC-003-005-----0
  6
CONTINUOUS
  5
52
 10
68.080237
 20
158.193933
 30
0.0
 11
63.989078
 21
162.285092
 31
0.0
  0
LINE
  8
LC-003-005-----0
  6
CONTINUOUS
  5
53
 10
65.25181
 20
158.193933
 30
0.0
 11
61.252611
 21
162.193132
 31
0.0
  0
LINE
  8
LC-003-005-----0
  6
CONTINUOUS
  5
54
 10
62.959355
 20
157.657961
 30
0.0
 11
59.251945
 21
161.365371
 31
0.0
  0
LINE
  8
LC-003-005-----0
  6
CONTINUOUS
  5
55
 10
62.321934
 20
155.466955
 30
0.0
 11
58.333361
 21
159.455528
 31
0.0
  0
LINE
  8
LC-003-005-----0
  6
CONTINUOUS
  5
56
 10
62.321934
 20
152.638528
 30
0.0
 11
58.321934
 21
156.638528
 31
0.0
  0
LINE
  8
LC-003-005-----0
  6
CONTINUOUS
  5
57
 10
68.321934
 20
143.810101
 30
0.0
 11
65.938102
 21
146.193933
 31
0.0
  0
LINE
  8
LC-003-005-----0
  6
CONTINUOUS
  5
58
 10
62.321934
 20
149.810101
 30
0.0
 11
58.321934
 21
153.810101
 31
0.0
  0
LINE
  8
LC-003-005-----0
  6
CONTINUOUS
  5
59
 10
68.321934
 20
140.981674
 30
0.0
 11
58.321934
 21
150.981674
 31
0.0
  0
LINE
  8
LC-003-005-----0
  6
CONTINUOUS
  5
5A
 10
68.321934
 20
138.153246
 30
0.0
 11
58.321934
 21
148.153246
 31
0.0
  0
LINE
  8
LC-003-005-----0
  6
CONTINUOUS
  5
5B
 10
68.321934
 20
135.324819
 30
0.0
 11
64.571934
 21
139.074819
 31
0.0
  0
LINE
  8
LC-003-005-----0
  6
CONTINUOUS
  5
5C
 10
61.45282
 20
142.193933
 30
0.0
 11
58.321934
 21
145.324819
 31
0.0
  0
LINE
  8
LC-003-005-----0
  6
CONTINUOUS
  5
5D
 10
68.321934
 20
132.496392
 30
0.0
 11
64.571934
 21
136.246392
 31
0.0
  0
LINE
  8
LC-003-005-----0
  6
CONTINUOUS
  5
5E
 10
68.321934
 20
129.667965
 30
0.0
 11
64.571934
 21
133.417965
 31
0.0
  0
LINE
  8
LC-003-005-----0
  6
CONTINUOUS
  5
5F
 10
68.321934
 20
126.839538
 30
0.0
 11
64.571934
 21
130.589538
 31
0.0
  0
LINE
  8
LC-003-005-----0
  6
CONTINUOUS
  5
60
 10
68.321934
 20
124.011111
 30
0.0
 11
64.571934
 21
127.761111
 31
0.0
  0
LINE
  8
LC-003-005-----0
  6
CONTINUOUS
  5
61
 10
68.321934
 20
121.182684
 30
0.0
 11
64.571934
 21
124.932684
 31
0.0
  0
LINE
  8
LC-003-005-----0
  6
CONTINUOUS
  5
62
 10
68.321934
 20
118.354257
 30
0.0
 11
64.571934
 21
122.104257
 31
0.0
  0
LINE
  8
LC-003-005-----0
  6
CONTINUOUS
  5
63
 10
68.321934
 20
115.525829
 30
0.0
 11
64.571934
 21
119.275829
 31
0.0
  0
LINE
  8
LC-003-005-----0
  6
CONTINUOUS
  5
64
 10
68.321934
 20
112.697402
 30
0.0
 11
63.248628
 21
117.770708
 31
0.0
  0
LINE
  8
LC-003-005-----0
  6
CONTINUOUS
  5
65
 10
68.321934
 20
109.868975
 30
0.0
 11
64.571934
 21
113.618975
 31
0.0
  0
LINE
  8
LC-003-005-----0
  6
CONTINUOUS
  5
66
 10
68.321934
 20
107.040548
 30
0.0
 11
64.571934
 21
110.790548
 31
0.0
  0
LINE
  8
LC-003-005-----0
  6
CONTINUOUS
  5
67
 10
68.321934
 20
104.212121
 30
0.0
 11
64.571934
 21
107.962121
 31
0.0
  0
LINE
  8
LC-003-005-----0
  6
CONTINUOUS
  5
68
 10
68.321934
 20
101.383694
 30
0.0
 11
64.571934
 21
105.133694
 31
0.0
  0
LINE
  8
LC-003-005-----0
  6
CONTINUOUS
  5
69
 10
68.321934
 20
98.555267
 30
0.0
 11
64.571934
 21
102.305267
 31
0.0
  0
LINE
  8
LC-003-005-----0
  6
CONTINUOUS
  5
6A
 10
68.321934
 20
95.72684
 30
0.0
 11
64.571934
 21
99.47684
 31
0.0
  0
LINE
  8
LC-003-005-----0
  6
CONTINUOUS
  5
6B
 10
68.321934
 20
92.898412
 30
0.0
 11
64.571934
 21
96.648412
 31
0.0
  0
LINE
  8
LC-003-005-----0
  6
CONTINUOUS
  5
6C
 10
68.321934
 20
90.069985
 30
0.0
 11
64.571934
 21
93.819985
 31
0.0
  0
LINE
  8
LC-003-005-----0
  6
CONTINUOUS
  5
6D
 10
68.321934
 20
87.241558
 30
0.0
 11
64.571934
 21
90.991558
 31
0.0
  0
LINE
  8
LC-003-005-----0
  6
CONTINUOUS
  5
6E
 10
68.321934
 20
84.413131
 30
0.0
 11
64.571934
 21
88.163131
 31
0.0
  0
LINE
  8
LC-003-005-----0
  6
CONTINUOUS
  5
6F
 10
65.717339
 20
84.189299
 30
0.0
 11
64.571934
 21
85.334704
 31
0.0
  0
ENDBLK
  8
0
  5
70
  0
BLOCK
  8
0
  5
72
  2
*X2
 70
    65
 10
227.025917
 20
145.90104
 30
0.0
  3
*X2
  0
LINE
  8
LC-003-005-----0
  6
DASHED
  5
73
 10
236.321934
 20
151.172582
 30
0.0
 11
231.226102
 21
156.268414
 31
0.0
  0
LINE
  8
LC-003-005-----0
  6
DASHED
  5
74
 10
236.821147
 20
147.844942
 30
0.0
 11
230.071743
 21
154.594346
 31
0.0
  0
LINE
  8
LC-003-005-----0
  6
CONTINUOUS
  5
75
 10
233.108195
 20
145.90104
 30
0.0
 11
231.459113
 21
147.550122
 31
0.0
  0
LINE
  8
LC-003-005-----0
  6
CONTINUOUS
  5
76
 10
228.901599
 20
150.107636
 30
0.0
 11
227.763025
 21
151.246209
 31
0.0
  0
ENDBLK
  8
0
  5
77
  0
BLOCK
  8
0
  5
79
  2
*X3
 70
    65
 10
-35.401535
 20
83.189299
 30
0.0
  3
*X3
  0
LINE
  8
LC-003-005-----0
  6
CONTINUOUS
  5
7A
 10
80.360872
 20
83.189299
 30
0.0
 11
81.360872
 21
84.189299
 31
0.0
  0
LINE
  8
LC-003-005-----0
  6
CONTINUOUS
  5
7B
 10
77.532444
 20
83.189299
 30
0.0
 11
78.532444
 21
84.189299
 31
0.0
  0
LINE
  8
LC-003-005-----0
  6
CONTINUOUS
  5
7C
 10
74.704017
 20
83.189299
 30
0.0
 11
75.704017
 21
84.189299
 31
0.0
  0
LINE
  8
LC-003-005-----0
  6
CONTINUOUS
  5
7D
 10
71.87559
 20
83.189299
 30
0.0
 11
72.87559
 21
84.189299
 31
0.0
  0
LINE
  8
LC-003-005-----0
  6
CONTINUOUS
  5
7E
 10
69.047163
 20
83.189299
 30
0.0
 11
70.047163
 21
84.189299
 31
0.0
  0
LINE
  8
LC-003-005-----0
  6
CONTINUOUS
  5
7F
 10
66.218736
 20
83.189299
 30
0.0
 11
67.218736
 21
84.189299
 31
0.0
  0
LINE
  8
LC-003-005-----0
  6
CONTINUOUS
  5
80
 10
63.390309
 20
83.189299
 30
0.0
 11
64.390309
 21
84.189299
 31
0.0
  0
LINE
  8
LC-003-005-----0
  6
CONTINUOUS
  5
81
 10
60.561882
 20
83.189299
 30
0.0
 11
61.561882
 21
84.189299
 31
0.0
  0
LINE
  8
LC-003-005-----0
  6
CONTINUOUS
  5
82
 10
57.733455
 20
83.189299
 30
0.0
 11
58.733455
 21
84.189299
 31
0.0
  0
LINE
  8
LC-003-005-----0
  6
CONTINUOUS
  5
83
 10
55.400941
 20
83.685213
 30
0.0
 11
56.161822
 21
84.446093
 31
0.0
  0
LINE
  8
LC-003-005-----0
  6
CONTINUOUS
  5
84
 10
53.797418
 20
84.910117
 30
0.0
 11
54.506704
 21
85.619402
 31
0.0
  0
LINE
  8
LC-003-005-----0
  6
CONTINUOUS
  5
85
 10
52.789452
 20
86.730577
 30
0.0
 11
53.603554
 21
87.54468
 31
0.0
  0
LINE
  8
LC-003-005-----0
  6
CONTINUOUS
  5
86
 10
52.189341
 20
88.958893
 30
0.0
 11
53.005837
 21
89.77539
 31
0.0
  0
LINE
  8
LC-003-005-----0
  6
CONTINUOUS
  5
87
 10
51.591624
 20
91.189603
 30
0.0
 11
52.40812
 21
92.0061
 31
0.0
  0
LINE
  8
LC-003-005-----0
  6
CONTINUOUS
  5
88
 10
50.993907
 20
93.420313
 30
0.0
 11
51.810403
 21
94.23681
 31
0.0
  0
LINE
  8
LC-003-005-----0
  6
CONTINUOUS
  5
89
 10
50.39619
 20
95.651024
 30
0.0
 11
51.212686
 21
96.46752
 31
0.0
  0
LINE
  8
LC-003-005-----0
  6
CONTINUOUS
  5
8A
 10
49.798473
 20
97.881734
 30
0.0
 11
50.614969
 21
98.69823
 31
0.0
  0
LINE
  8
LC-003-005-----0
  6
CONTINUOUS
  5
8B
 10
49.200756
 20
100.112444
 30
0.0
 11
50.017252
 21
100.92894
 31
0.0
  0
LINE
  8
LC-003-005-----0
  6
CONTINUOUS
  5
8C
 10
48.603039
 20
102.343154
 30
0.0
 11
49.419535
 21
103.159651
 31
0.0
  0
LINE
  8
LC-003-005-----0
  6
CONTINUOUS
  5
8D
 10
48.005322
 20
104.573864
 30
0.0
 11
48.821818
 21
105.390361
 31
0.0
  0
LINE
  8
LC-003-005-----0
  6
CONTINUOUS
  5
8E
 10
47.407605
 20
106.804574
 30
0.0
 11
48.224101
 21
107.621071
 31
0.0
  0
LINE
  8
LC-003-005-----0
  6
CONTINUOUS
  5
8F
 10
46.809888
 20
109.035284
 30
0.0
 11
47.626384
 21
109.851781
 31
0.0
  0
LINE
  8
LC-003-005-----0
  6
CONTINUOUS
  5
90
 10
46.212171
 20
111.265995
 30
0.0
 11
47.028667
 21
112.082491
 31
0.0
  0
LINE
  8
LC-003-005-----0
  6
CONTINUOUS
  5
91
 10
45.614454
 20
113.496705
 30
0.0
 11
46.43095
 21
114.313201
 31
0.0
  0
LINE
  8
LC-003-005-----0
  6
CONTINUOUS
  5
92
 10
45.016737
 20
115.727415
 30
0.0
 11
45.833233
 21
116.543912
 31
0.0
  0
LINE
  8
LC-003-005-----0
  6
CONTINUOUS
  5
93
 10
44.41902
 20
117.958125
 30
0.0
 11
45.235516
 21
118.774622
 31
0.0
  0
LINE
  8
LC-003-005-----0
  6
CONTINUOUS
  5
94
 10
43.821303
 20
120.188835
 30
0.0
 11
44.637799
 21
121.005332
 31
0.0
  0
LINE
  8
LC-003-005-----0
  6
CONTINUOUS
  5
95
 10
43.223586
 20
122.419545
 30
0.0
 11
44.040082
 21
123.236042
 31
0.0
  0
LINE
  8
LC-003-005-----0
  6
CONTINUOUS
  5
96
 10
42.625869
 20
124.650255
 30
0.0
 11
43.442365
 21
125.466752
 31
0.0
  0
LINE
  8
LC-003-005-----0
  6
CONTINUOUS
  5
97
 10
42.028152
 20
126.880966
 30
0.0
 11
42.844648
 21
127.697462
 31
0.0
  0
LINE
  8
LC-003-005-----0
  6
CONTINUOUS
  5
98
 10
41.430435
 20
129.111676
 30
0.0
 11
42.246931
 21
129.928172
 31
0.0
  0
LINE
  8
LC-003-005-----0
  6
CONTINUOUS
  5
99
 10
40.832718
 20
131.342386
 30
0.0
 11
41.649215
 21
132.158883
 31
0.0
  0
LINE
  8
LC-003-005-----0
  6
CONTINUOUS
  5
9A
 10
40.235001
 20
133.573096
 30
0.0
 11
41.051498
 21
134.389593
 31
0.0
  0
LINE
  8
LC-003-005-----0
  6
CONTINUOUS
  5
9B
 10
39.637284
 20
135.803806
 30
0.0
 11
40.453781
 21
136.620303
 31
0.0
  0
LINE
  8
LC-003-005-----0
  6
CONTINUOUS
  5
9C
 10
39.039567
 20
138.034516
 30
0.0
 11
39.856064
 21
138.851013
 31
0.0
  0
LINE
  8
LC-003-005-----0
  6
CONTINUOUS
  5
9D
 10
38.44185
 20
140.265226
 30
0.0
 11
39.258347
 21
141.081723
 31
0.0
  0
LINE
  8
LC-003-005-----0
  6
CONTINUOUS
  5
9E
 10
37.844133
 20
142.495937
 30
0.0
 11
38.66063
 21
143.312433
 31
0.0
  0
LINE
  8
LC-003-005-----0
  6
CONTINUOUS
  5
9F
 10
37.246416
 20
144.726647
 30
0.0
 11
38.062913
 21
145.543143
 31
0.0
  0
LINE
  8
LC-003-005-----0
  6
CONTINUOUS
  5
A0
 10
36.648699
 20
146.957357
 30
0.0
 11
37.465196
 21
147.773854
 31
0.0
  0
LINE
  8
LC-003-005-----0
  6
CONTINUOUS
  5
A1
 10
36.050982
 20
149.188067
 30
0.0
 11
36.867479
 21
150.004564
 31
0.0
  0
LINE
  8
LC-003-005-----0
  6
CONTINUOUS
  5
A2
 10
35.453265
 20
151.418777
 30
0.0
 11
36.269762
 21
152.235274
 31
0.0
  0
LINE
  8
LC-003-005-----0
  6
CONTINUOUS
  5
A3
 10
34.855548
 20
153.649487
 30
0.0
 11
35.672045
 21
154.465984
 31
0.0
  0
LINE
  8
LC-003-005-----0
  6
CONTINUOUS
  5
A4
 10
34.257831
 20
155.880198
 30
0.0
 11
35.074328
 21
156.696694
 31
0.0
  0
LINE
  8
LC-003-005-----0
  6
CONTINUOUS
  5
A5
 10
33.660114
 20
158.110908
 30
0.0
 11
34.476611
 21
158.927404
 31
0.0
  0
LINE
  8
LC-003-005-----0
  6
CONTINUOUS
  5
A6
 10
33.062397
 20
160.341618
 30
0.0
 11
33.878894
 21
161.158114
 31
0.0
  0
LINE
  8
LC-003-005-----0
  6
CONTINUOUS
  5
A7
 10
32.46468
 20
162.572328
 30
0.0
 11
33.281177
 21
163.388825
 31
0.0
  0
LINE
  8
LC-003-005-----0
  6
CONTINUOUS
  5
A8
 10
31.866963
 20
164.803038
 30
0.0
 11
32.68346
 21
165.619535
 31
0.0
  0
LINE
  8
LC-003-005-----0
  6
CONTINUOUS
  5
A9
 10
31.269246
 20
167.033748
 30
0.0
 11
32.085743
 21
167.850245
 31
0.0
  0
LINE
  8
LC-003-005-----0
  6
CONTINUOUS
  5
AA
 10
30.671529
 20
169.264458
 30
0.0
 11
31.488026
 21
170.080955
 31
0.0
  0
LINE
  8
LC-003-005-----0
  6
CONTINUOUS
  5
AB
 10
30.073812
 20
171.495169
 30
0.0
 11
30.890309
 21
172.311665
 31
0.0
  0
LINE
  8
LC-003-005-----0
  6
CONTINUOUS
  5
AC
 10
29.476095
 20
173.725879
 30
0.0
 11
30.292592
 21
174.542375
 31
0.0
  0
LINE
  8
LC-003-005-----0
  6
CONTINUOUS
  5
AD
 10
28.878378
 20
175.956589
 30
0.0
 11
29.694875
 21
176.773085
 31
0.0
  0
LINE
  8
LC-003-005-----0
  6
CONTINUOUS
  5
AE
 10
28.280661
 20
178.187299
 30
0.0
 11
29.097158
 21
179.003796
 31
0.0
  0
LINE
  8
LC-003-005-----0
  6
CONTINUOUS
  5
AF
 10
27.682944
 20
180.418009
 30
0.0
 11
28.499441
 21
181.234506
 31
0.0
  0
LINE
  8
LC-003-005-----0
  6
CONTINUOUS
  5
B0
 10
27.085227
 20
182.648719
 30
0.0
 11
27.901724
 21
183.465216
 31
0.0
  0
LINE
  8
LC-003-005-----0
  6
CONTINUOUS
  5
B1
 10
26.48751
 20
184.879429
 30
0.0
 11
27.304007
 21
185.695926
 31
0.0
  0
LINE
  8
LC-003-005-----0
  6
CONTINUOUS
  5
B2
 10
25.889793
 20
187.11014
 30
0.0
 11
26.70629
 21
187.926636
 31
0.0
  0
LINE
  8
LC-003-005-----0
  6
CONTINUOUS
  5
B3
 10
25.292076
 20
189.34085
 30
0.0
 11
26.108573
 21
190.157346
 31
0.0
  0
LINE
  8
LC-003-005-----0
  6
CONTINUOUS
  5
B4
 10
24.694359
 20
191.57156
 30
0.0
 11
25.510856
 21
192.388056
 31
0.0
  0
LINE
  8
LC-003-005-----0
  6
CONTINUOUS
  5
B5
 10
24.096642
 20
193.80227
 30
0.0
 11
24.913139
 21
194.618767
 31
0.0
  0
LINE
  8
LC-003-005-----0
  6
CONTINUOUS
  5
B6
 10
23.498925
 20
196.03298
 30
0.0
 11
24.315422
 21
196.849477
 31
0.0
  0
LINE
  8
LC-003-005-----0
  6
CONTINUOUS
  5
B7
 10
22.901208
 20
198.26369
 30
0.0
 11
23.717705
 21
199.080187
 31
0.0
  0
LINE
  8
LC-003-005-----0
  6
CONTINUOUS
  5
B8
 10
22.303492
 20
200.4944
 30
0.0
 11
23.119988
 21
201.310897
 31
0.0
  0
LINE
  8
LC-003-005-----0
  6
CONTINUOUS
  5
B9
 10
21.705775
 20
202.725111
 30
0.0
 11
22.522271
 21
203.541607
 31
0.0
  0
LINE
  8
LC-003-005-----0
  6
CONTINUOUS
  5
BA
 10
21.108058
 20
204.955821
 30
0.0
 11
21.9102
 21
205.757964
 31
0.0
  0
LINE
  8
LC-003-005-----0
  6
CONTINUOUS
  5
BB
 10
19.313109
 20
205.989299
 30
0.0
 11
20.299207
 21
206.975398
 31
0.0
  0
LINE
  8
LC-003-005-----0
  6
CONTINUOUS
  5
BC
 10
16.484681
 20
205.989299
 30
0.0
 11
17.484681
 21
206.989299
 31
0.0
  0
LINE
  8
LC-003-005-----0
  6
CONTINUOUS
  5
BD
 10
13.656254
 20
205.989299
 30
0.0
 11
14.656254
 21
206.989299
 31
0.0
  0
LINE
  8
LC-003-005-----0
  6
CONTINUOUS
  5
BE
 10
10.827827
 20
205.989299
 30
0.0
 11
11.827827
 21
206.989299
 31
0.0
  0
LINE
  8
LC-003-005-----0
  6
CONTINUOUS
  5
BF
 10
7.9994
 20
205.989299
 30
0.0
 11
8.9994
 21
206.989299
 31
0.0
  0
LINE
  8
LC-003-005-----0
  6
CONTINUOUS
  5
C0
 10
5.170973
 20
205.989299
 30
0.0
 11
6.170973
 21
206.989299
 31
0.0
  0
LINE
  8
LC-003-005-----0
  6
CONTINUOUS
  5
C1
 10
2.342546
 20
205.989299
 30
0.0
 11
3.342546
 21
206.989299
 31
0.0
  0
LINE
  8
LC-003-005-----0
  6
CONTINUOUS
  5
C2
 10
-0.485881
 20
205.989299
 30
0.0
 11
0.514119
 21
206.989299
 31
0.0
  0
LINE
  8
LC-003-005-----0
  6
CONTINUOUS
  5
C3
 10
-3.314308
 20
205.989299
 30
0.0
 11
-2.314308
 21
206.989299
 31
0.0
  0
LINE
  8
LC-003-005-----0
  6
CONTINUOUS
  5
C4
 10
-6.142736
 20
205.989299
 30
0.0
 11
-5.142736
 21
206.989299
 31
0.0
  0
LINE
  8
LC-003-005-----0
  6
CONTINUOUS
  5
C5
 10
-8.971163
 20
205.989299
 30
0.0
 11
-7.971163
 21
206.989299
 31
0.0
  0
LINE
  8
LC-003-005-----0
  6
CONTINUOUS
  5
C6
 10
-11.79959
 20
205.989299
 30
0.0
 11
-10.79959
 21
206.989299
 31
0.0
  0
LINE
  8
LC-003-005-----0
  6
CONTINUOUS
  5
C7
 10
-14.628017
 20
205.989299
 30
0.0
 11
-13.628017
 21
206.989299
 31
0.0
  0
LINE
  8
LC-003-005-----0
  6
CONTINUOUS
  5
C8
 10
-17.456444
 20
205.989299
 30
0.0
 11
-16.456444
 21
206.989299
 31
0.0
  0
LINE
  8
LC-003-005-----0
  6
CONTINUOUS
  5
C9
 10
-20.284871
 20
205.989299
 30
0.0
 11
-19.284871
 21
206.989299
 31
0.0
  0
LINE
  8
LC-003-005-----0
  6
CONTINUOUS
  5
CA
 10
-23.113298
 20
205.989299
 30
0.0
 11
-22.113298
 21
206.989299
 31
0.0
  0
LINE
  8
LC-003-005-----0
  6
CONTINUOUS
  5
CB
 10
-25.941725
 20
205.989299
 30
0.0
 11
-24.941725
 21
206.989299
 31
0.0
  0
LINE
  8
LC-003-005-----0
  6
CONTINUOUS
  5
CC
 10
-28.770153
 20
205.989299
 30
0.0
 11
-27.770153
 21
206.989299
 31
0.0
  0
LINE
  8
LC-003-005-----0
  6
CONTINUOUS
  5
CD
 10
-31.59858
 20
205.989299
 30
0.0
 11
-30.59858
 21
206.989299
 31
0.0
  0
LINE
  8
LC-003-005-----0
  6
CONTINUOUS
  5
CE
 10
-34.427007
 20
205.989299
 30
0.0
 11
-33.427007
 21
206.989299
 31
0.0
  0
ENDBLK
  8
0
  5
CF
  0
BLOCK
  8
0
  5
D1
  2
*X4
 70
    65
 10
192.321934
 20
16.189299
 30
0.0
  3
*X4
  0
LINE
  8
LC-003-005-----0
  6
CONTINUOUS
  5
D2
 10
200.413372
 20
16.565609
 30
0.0
 11
203.945623
 21
20.09786
 31
0.0
  0
LINE
  8
LC-003-005-----0
  6
CONTINUOUS
  5
D3
 10
197.208635
 20
16.189299
 30
0.0
 11
197.908635
 21
16.889299
 31
0.0
  0
LINE
  8
LC-003-005-----0
  6
CONTINUOUS
  5
D4
 10
203.621934
 20
22.602598
 30
0.0
 11
204.321934
 21
23.302598
 31
0.0
  0
LINE
  8
LC-003-005-----0
  6
CONTINUOUS
  5
D5
 10
203.621934
 20
25.431025
 30
0.0
 11
204.321934
 21
26.131025
 31
0.0
  0
LINE
  8
LC-003-005-----0
  6
CONTINUOUS
  5
D6
 10
203.621934
 20
28.259452
 30
0.0
 11
204.321934
 21
28.959452
 31
0.0
  0
LINE
  8
LC-003-005-----0
  6
CONTINUOUS
  5
D7
 10
203.621934
 20
31.087879
 30
0.0
 11
204.321934
 21
31.787879
 31
0.0
  0
LINE
  8
LC-003-005-----0
  6
CONTINUOUS
  5
D8
 10
203.621934
 20
33.916306
 30
0.0
 11
204.321934
 21
34.616306
 31
0.0
  0
LINE
  8
LC-003-005-----0
  6
CONTINUOUS
  5
D9
 10
203.621934
 20
36.744733
 30
0.0
 11
204.321934
 21
37.444733
 31
0.0
  0
LINE
  8
LC-003-005-----0
  6
CONTINUOUS
  5
DA
 10
203.621934
 20
39.57316
 30
0.0
 11
204.321934
 21
40.27316
 31
0.0
  0
LINE
  8
LC-003-005-----0
  6
CONTINUOUS
  5
DB
 10
203.621934
 20
42.401588
 30
0.0
 11
204.321934
 21
43.101588
 31
0.0
  0
LINE
  8
LC-003-005-----0
  6
CONTINUOUS
  5
DC
 10
244.097078
 20
82.876732
 30
0.0
 11
247.384501
 21
86.164155
 31
0.0
  0
LINE
  8
LC-003-005-----0
  6
CONTINUOUS
  5
DD
 10
203.621934
 20
45.230015
 30
0.0
 11
204.321934
 21
45.930015
 31
0.0
  0
LINE
  8
LC-003-005-----0
  6
CONTINUOUS
  5
DE
 10
240.581218
 20
82.189299
 30
0.0
 11
241.284815
 21
82.892896
 31
0.0
  0
LINE
  8
LC-003-005-----0
  6
CONTINUOUS
  5
DF
 10
247.368336
 20
88.976417
 30
0.0
 11
247.581218
 21
89.189299
 31
0.0
  0
LINE
  8
LC-003-005-----0
  6
CONTINUOUS
  5
E0
 10
203.621934
 20
48.058442
 30
0.0
 11
204.321934
 21
48.758442
 31
0.0
  0
LINE
  8
LC-003-005-----0
  6
CONTINUOUS
  5
E1
 10
237.752791
 20
82.189299
 30
0.0
 11
238.452791
 21
82.889299
 31
0.0
  0
LINE
  8
LC-003-005-----0
  6
CONTINUOUS
  5
E2
 10
203.621934
 20
50.886869
 30
0.0
 11
204.321934
 21
51.586869
 31
0.0
  0
LINE
  8
LC-003-005-----0
  6
CONTINUOUS
  5
E3
 10
234.924363
 20
82.189299
 30
0.0
 11
235.624363
 21
82.889299
 31
0.0
  0
LINE
  8
LC-003-005-----0
  6
CONTINUOUS
  5
E4
 10
203.621934
 20
53.715296
 30
0.0
 11
204.321934
 21
54.415296
 31
0.0
  0
LINE
  8
LC-003-005-----0
  6
CONTINUOUS
  5
E5
 10
232.095936
 20
82.189299
 30
0.0
 11
232.795936
 21
82.889299
 31
0.0
  0
LINE
  8
LC-003-005-----0
  6
CONTINUOUS
  5
E6
 10
203.621934
 20
56.543723
 30
0.0
 11
204.321934
 21
57.243723
 31
0.0
  0
LINE
  8
LC-003-005-----0
  6
CONTINUOUS
  5
E7
 10
229.267509
 20
82.189299
 30
0.0
 11
229.967509
 21
82.889299
 31
0.0
  0
LINE
  8
LC-003-005-----0
  6
CONTINUOUS
  5
E8
 10
203.621934
 20
59.37215
 30
0.0
 11
204.321934
 21
60.07215
 31
0.0
  0
LINE
  8
LC-003-005-----0
  6
CONTINUOUS
  5
E9
 10
226.439082
 20
82.189299
 30
0.0
 11
227.139082
 21
82.889299
 31
0.0
  0
LINE
  8
LC-003-005-----0
  6
CONTINUOUS
  5
EA
 10
203.621934
 20
62.200577
 30
0.0
 11
204.321934
 21
62.900577
 31
0.0
  0
LINE
  8
LC-003-005-----0
  6
CONTINUOUS
  5
EB
 10
223.610655
 20
82.189299
 30
0.0
 11
224.310655
 21
82.889299
 31
0.0
  0
LINE
  8
LC-003-005-----0
  6
CONTINUOUS
  5
EC
 10
203.621934
 20
65.029005
 30
0.0
 11
204.321934
 21
65.729005
 31
0.0
  0
LINE
  8
LC-003-005-----0
  6
CONTINUOUS
  5
ED
 10
220.782228
 20
82.189299
 30
0.0
 11
221.482228
 21
82.889299
 31
0.0
  0
LINE
  8
LC-003-005-----0
  6
CONTINUOUS
  5
EE
 10
203.621934
 20
67.857432
 30
0.0
 11
204.321934
 21
68.557432
 31
0.0
  0
LINE
  8
LC-003-005-----0
  6
CONTINUOUS
  5
EF
 10
217.953801
 20
82.189299
 30
0.0
 11
218.653801
 21
82.889299
 31
0.0
  0
LINE
  8
LC-003-005-----0
  6
CONTINUOUS
  5
F0
 10
203.621934
 20
70.685859
 30
0.0
 11
204.321934
 21
71.385859
 31
0.0
  0
LINE
  8
LC-003-005-----0
  6
CONTINUOUS
  5
F1
 10
215.125374
 20
82.189299
 30
0.0
 11
215.825374
 21
82.889299
 31
0.0
  0
LINE
  8
LC-003-005-----0
  6
CONTINUOUS
  5
F2
 10
203.621934
 20
73.514286
 30
0.0
 11
204.321934
 21
74.214286
 31
0.0
  0
LINE
  8
LC-003-005-----0
  6
CONTINUOUS
  5
F3
 10
212.296946
 20
82.189299
 30
0.0
 11
212.996946
 21
82.889299
 31
0.0
  0
LINE
  8
LC-003-005-----0
  6
CONTINUOUS
  5
F4
 10
203.621934
 20
76.342713
 30
0.0
 11
204.321934
 21
77.042713
 31
0.0
  0
LINE
  8
LC-003-005-----0
  6
CONTINUOUS
  5
F5
 10
209.468519
 20
82.189299
 30
0.0
 11
210.168519
 21
82.889299
 31
0.0
  0
LINE
  8
LC-003-005-----0
  6
CONTINUOUS
  5
F6
 10
204.259404
 20
79.808611
 30
0.0
 11
206.702622
 21
82.251828
 31
0.0
  0
ENDBLK
  8
0
  5
F7
  0
BLOCK
  8
0
  5
F9
  2
*X5
 70
    65
 10
50.571934
 20
16.189299
 30
0.0
  3
*X5
  0
LINE
  8
LC-003-005-----0
  6
CONTINUOUS
  5
FA
 10
101.042112
 20
16.189299
 30
0.0
 11
101.742112
 21
16.889299
 31
0.0
  0
LINE
  8
LC-003-005-----0
  6
CONTINUOUS
  5
FB
 10
98.497721
 20
16.473334
 30
0.0
 11
99.06491
 21
17.040523
 31
0.0
  0
LINE
  8
LC-003-005-----0
  6
CONTINUOUS
  5
FC
 10
96.644399
 20
17.44844
 30
0.0
 11
97.143834
 21
17.947874
 31
0.0
  0
LINE
  8
LC-003-005-----0
  6
CONTINUOUS
  5
FD
 10
95.289551
 20
18.922018
 30
0.0
 11
95.797116
 21
19.429584
 31
0.0
  0
LINE
  8
LC-003-005-----0
  6
CONTINUOUS
  5
FE
 10
94.457975
 20
20.91887
 30
0.0
 11
95.063772
 21
21.524667
 31
0.0
  0
LINE
  8
LC-003-005-----0
  6
CONTINUOUS
  5
FF
 10
94.321934
 20
23.611256
 30
0.0
 11
95.021934
 21
24.311256
 31
0.0
  0
LINE
  8
LC-003-005-----0
  6
CONTINUOUS
  5
100
 10
94.321934
 20
26.439683
 30
0.0
 11
95.021934
 21
27.139683
 31
0.0
  0
LINE
  8
LC-003-005-----0
  6
CONTINUOUS
  5
101
 10
94.321934
 20
29.26811
 30
0.0
 11
95.021934
 21
29.96811
 31
0.0
  0
LINE
  8
LC-003-005-----0
  6
CONTINUOUS
  5
102
 10
94.321934
 20
32.096537
 30
0.0
 11
95.021934
 21
32.796537
 31
0.0
  0
LINE
  8
LC-003-005-----0
  6
CONTINUOUS
  5
103
 10
94.321934
 20
34.924964
 30
0.0
 11
95.021934
 21
35.624964
 31
0.0
  0
LINE
  8
LC-003-005-----0
  6
CONTINUOUS
  5
104
 10
94.321934
 20
37.753391
 30
0.0
 11
95.021934
 21
38.453391
 31
0.0
  0
LINE
  8
LC-003-005-----0
  6
CONTINUOUS
  5
105
 10
94.321934
 20
40.581818
 30
0.0
 11
95.021934
 21
41.281818
 31
0.0
  0
LINE
  8
LC-003-005-----0
  6
CONTINUOUS
  5
106
 10
94.321934
 20
43.410245
 30
0.0
 11
95.021934
 21
44.110245
 31
0.0
  0
LINE
  8
LC-003-005-----0
  6
CONTINUOUS
  5
107
 10
94.321934
 20
46.238673
 30
0.0
 11
95.021934
 21
46.938673
 31
0.0
  0
LINE
  8
LC-003-005-----0
  6
CONTINUOUS
  5
108
 10
94.321934
 20
49.0671
 30
0.0
 11
95.021934
 21
49.7671
 31
0.0
  0
LINE
  8
LC-003-005-----0
  6
CONTINUOUS
  5
109
 10
94.321934
 20
51.895527
 30
0.0
 11
95.021934
 21
52.595527
 31
0.0
  0
LINE
  8
LC-003-005-----0
  6
CONTINUOUS
  5
10A
 10
94.321934
 20
54.723954
 30
0.0
 11
95.021934
 21
55.423954
 31
0.0
  0
LINE
  8
LC-003-005-----0
  6
CONTINUOUS
  5
10B
 10
94.321934
 20
57.552381
 30
0.0
 11
95.021934
 21
58.252381
 31
0.0
  0
LINE
  8
LC-003-005-----0
  6
CONTINUOUS
  5
10C
 10
94.321934
 20
60.380808
 30
0.0
 11
95.021934
 21
61.080808
 31
0.0
  0
LINE
  8
LC-003-005-----0
  6
CONTINUOUS
  5
10D
 10
94.321934
 20
63.209235
 30
0.0
 11
95.021934
 21
63.909235
 31
0.0
  0
LINE
  8
LC-003-005-----0
  6
CONTINUOUS
  5
10E
 10
94.321934
 20
66.037662
 30
0.0
 11
95.021934
 21
66.737662
 31
0.0
  0
LINE
  8
LC-003-005-----0
  6
CONTINUOUS
  5
10F
 10
94.321934
 20
68.86609
 30
0.0
 11
95.021934
 21
69.56609
 31
0.0
  0
LINE
  8
LC-003-005-----0
  6
CONTINUOUS
  5
110
 10
94.321934
 20
71.694517
 30
0.0
 11
95.021934
 21
72.394517
 31
0.0
  0
LINE
  8
LC-003-005-----0
  6
CONTINUOUS
  5
111
 10
94.321934
 20
74.522944
 30
0.0
 11
95.021934
 21
75.222944
 31
0.0
  0
LINE
  8
LC-003-005-----0
  6
CONTINUOUS
  5
112
 10
94.319388
 20
77.348825
 30
0.0
 11
94.96481
 21
77.994248
 31
0.0
  0
LINE
  8
LC-003-005-----0
  6
CONTINUOUS
  5
113
 10
93.716445
 20
79.574309
 30
0.0
 11
94.229949
 21
80.087813
 31
0.0
  0
LINE
  8
LC-003-005-----0
  6
CONTINUOUS
  5
114
 10
92.424214
 20
81.110505
 30
0.0
 11
92.922126
 21
81.608418
 31
0.0
  0
LINE
  8
LC-003-005-----0
  6
CONTINUOUS
  5
115
 10
90.527152
 20
82.04187
 30
0.0
 11
91.092586
 21
82.607305
 31
0.0
  0
LINE
  8
LC-003-005-----0
  6
CONTINUOUS
  5
116
 10
87.846153
 20
82.189299
 30
0.0
 11
88.546153
 21
82.889299
 31
0.0
  0
LINE
  8
LC-003-005-----0
  6
CONTINUOUS
  5
117
 10
85.017726
 20
82.189299
 30
0.0
 11
85.717726
 21
82.889299
 31
0.0
  0
LINE
  8
LC-003-005-----0
  6
CONTINUOUS
  5
118
 10
82.189299
 20
82.189299
 30
0.0
 11
82.889299
 21
82.889299
 31
0.0
  0
LINE
  8
LC-003-005-----0
  6
CONTINUOUS
  5
119
 10
79.360872
 20
82.189299
 30
0.0
 11
80.060872
 21
82.889299
 31
0.0
  0
LINE
  8
LC-003-005-----0
  6
CONTINUOUS
  5
11A
 10
76.532444
 20
82.189299
 30
0.0
 11
77.232444
 21
82.889299
 31
0.0
  0
LINE
  8
LC-003-005-----0
  6
CONTINUOUS
  5
11B
 10
73.704017
 20
82.189299
 30
0.0
 11
74.404017
 21
82.889299
 31
0.0
  0
LINE
  8
LC-003-005-----0
  6
CONTINUOUS
  5
11C
 10
70.87559
 20
82.189299
 30
0.0
 11
71.57559
 21
82.889299
 31
0.0
  0
LINE
  8
LC-003-005-----0
  6
CONTINUOUS
  5
11D
 10
68.047163
 20
82.189299
 30
0.0
 11
68.747163
 21
82.889299
 31
0.0
  0
LINE
  8
LC-003-005-----0
  6
CONTINUOUS
  5
11E
 10
65.218736
 20
82.189299
 30
0.0
 11
65.918736
 21
82.889299
 31
0.0
  0
LINE
  8
LC-003-005-----0
  6
CONTINUOUS
  5
11F
 10
62.390309
 20
82.189299
 30
0.0
 11
63.090309
 21
82.889299
 31
0.0
  0
LINE
  8
LC-003-005-----0
  6
CONTINUOUS
  5
120
 10
59.561882
 20
82.189299
 30
0.0
 11
60.261882
 21
82.889299
 31
0.0
  0
LINE
  8
LC-003-005-----0
  6
CONTINUOUS
  5
121
 10
56.77856
 20
82.234404
 30
0.0
 11
57.434944
 21
82.890788
 31
0.0
  0
LINE
  8
LC-003-005-----0
  6
CONTINUOUS
  5
122
 10
54.577727
 20
82.861999
 30
0.0
 11
55.107183
 21
83.391454
 31
0.0
  0
LINE
  8
LC-003-005-----0
  6
CONTINUOUS
  5
123
 10
52.880956
 20
83.993654
 30
0.0
 11
53.376647
 21
84.489345
 31
0.0
  0
LINE
  8
LC-003-005-----0
  6
CONTINUOUS
  5
124
 10
51.598605
 20
85.539731
 30
0.0
 11
52.109468
 21
86.050594
 31
0.0
  0
LINE
  8
LC-003-005-----0
  6
CONTINUOUS
  5
125
 10
50.769288
 20
87.538841
 30
0.0
 11
51.361457
 21
88.131009
 31
0.0
  0
ENDBLK
  8
0
  5
126
  0
BLOCK
  8
0
  5
128
  2
*X6
 70
    65
 10
234.771934
 20
82.889299
 30
0.0
  3
*X6
  0
LINE
  8
LC-003-005-----0
  6
CONTINUOUS
  5
129
 10
239.251393
 20
83.189299
 30
0.0
 11
239.551393
 21
82.889299
 31
0.0
  0
LINE
  8
LC-003-005-----0
  6
CONTINUOUS
  5
12A
 10
242.006577
 20
83.262542
 30
0.0
 11
242.265688
 21
83.003432
 31
0.0
  0
LINE
  8
LC-003-005-----0
  6
CONTINUOUS
  5
12B
 10
244.092482
 20
84.005064
 30
0.0
 11
244.311504
 21
83.786042
 31
0.0
  0
LINE
  8
LC-003-005-----0
  6
CONTINUOUS
  5
12C
 10
245.633906
 20
85.292068
 30
0.0
 11
245.846661
 21
85.079313
 31
0.0
  0
LINE
  8
LC-003-005-----0
  6
CONTINUOUS
  5
12D
 10
246.684969
 20
87.069432
 30
0.0
 11
246.91662
 21
86.83778
 31
0.0
  0
LINE
  8
LC-003-005-----0
  6
CONTINUOUS
  5
12E
 10
247.170874
 20
89.411953
 30
0.0
 11
247.388965
 21
89.193862
 31
0.0
  0
LINE
  8
LC-003-005-----0
  6
CONTINUOUS
  5
12F
 10
249.374727
 20
90.036528
 30
0.0
 11
249.619676
 21
89.791579
 31
0.0
  0
LINE
  8
LC-003-005-----0
  6
CONTINUOUS
  5
130
 10
251.605437
 20
90.634245
 30
0.0
 11
251.850386
 21
90.389296
 31
0.0
  0
LINE
  8
LC-003-005-----0
  6
CONTINUOUS
  5
131
 10
253.836147
 20
91.231962
 30
0.0
 11
254.081096
 21
90.987013
 31
0.0
  0
LINE
  8
LC-003-005-----0
  6
CONTINUOUS
  5
132
 10
256.066857
 20
91.829679
 30
0.0
 11
256.311806
 21
91.58473
 31
0.0
  0
LINE
  8
LC-003-005-----0
  6
CONTINUOUS
  5
133
 10
258.297567
 20
92.427396
 30
0.0
 11
258.542516
 21
92.182447
 31
0.0
  0
LINE
  8
LC-003-005-----0
  6
CONTINUOUS
  5
134
 10
260.528277
 20
93.025113
 30
0.0
 11
260.773226
 21
92.780164
 31
0.0
  0
LINE
  8
LC-003-005-----0
  6
CONTINUOUS
  5
135
 10
262.758987
 20
93.62283
 30
0.0
 11
263.003936
 21
93.377881
 31
0.0
  0
ENDBLK
  8
0
  5
136
  0
BLOCK
  8
0
  5
138
  2
*X7
 70
    65
 10
35.633646
 20
82.889299
 30
0.0
  3
*X7
  0
LINE
  8
LC-003-005-----0
  6
CONTINUOUS
  5
139
 10
36.70441
 20
93.403238
 30
0.0
 11
37.128674
 21
92.978974
 31
0.0
  0
LINE
  8
LC-003-005-----0
  6
CONTINUOUS
  5
13A
 10
40.568113
 20
92.367962
 30
0.0
 11
40.992377
 21
91.943698
 31
0.0
  0
LINE
  8
LC-003-005-----0
  6
CONTINUOUS
  5
13B
 10
44.431817
 20
91.332685
 30
0.0
 11
44.856081
 21
90.908421
 31
0.0
  0
LINE
  8
LC-003-005-----0
  6
CONTINUOUS
  5
13C
 10
48.29552
 20
90.297409
 30
0.0
 11
48.719784
 21
89.873145
 31
0.0
  0
LINE
  8
LC-003-005-----0
  6
CONTINUOUS
  5
13D
 10
51.70882
 20
86.884109
 30
0.0
 11
52.338998
 21
86.253931
 31
0.0
  0
LINE
  8
LC-003-005-----0
  6
CONTINUOUS
  5
13E
 10
54.636566
 20
83.956363
 30
0.0
 11
55.266744
 21
83.326185
 31
0.0
  0
LINE
  8
LC-003-005-----0
  6
CONTINUOUS
  5
13F
 10
58.232057
 20
83.189299
 30
0.0
 11
58.532057
 21
82.889299
 31
0.0
  0
ENDBLK
  8
0
  5
140
  0
BLOCK
  8
0
  5
142
  2
BLK1
 70
    64
 10
0.0
 20
0.0
 30
0.0
  3
BLK1
  0
ENDBLK
  8
0
  5
143
  0
BLOCK
  8
0
  5
145
  2
*X9
 70
    65
 10
51.571934
 20
16.889299
 30
0.0
  3
*X9
  0
LINE
  8
LC-003-005-----0
  6
CONTINUOUS
  5
146
 10
195.321934
 20
17.131025
 30
0.0
 11
203.621934
 21
25.431025
 31
0.0
  0
LINE
  8
LC-003-005-----0
  6
CONTINUOUS
  5
147
 10
195.321934
 20
25.616306
 30
0.0
 11
203.621934
 21
33.916306
 31
0.0
  0
LINE
  8
LC-003-005-----0
  6
CONTINUOUS
  5
148
 10
195.321934
 20
34.101588
 30
0.0
 11
203.621934
 21
42.401588
 31
0.0
  0
LINE
  8
LC-003-005-----0
  6
CONTINUOUS
  5
149
 10
195.321934
 20
42.586869
 30
0.0
 11
203.621934
 21
50.886869
 31
0.0
  0
LINE
  8
LC-003-005-----0
  6
CONTINUOUS
  5
14A
 10
235.624363
 20
82.889299
 30
0.0
 11
241.924363
 21
89.189299
 31
0.0
  0
LINE
  8
LC-003-005-----0
  6
CONTINUOUS
  5
14B
 10
195.321934
 20
51.07215
 30
0.0
 11
203.621934
 21
59.37215
 31
0.0
  0
LINE
  8
LC-003-005-----0
  6
CONTINUOUS
  5
14C
 10
227.139082
 20
82.889299
 30
0.0
 11
230.321934
 21
86.07215
 31
0.0
  0
LINE
  8
LC-003-005-----0
  6
CONTINUOUS
  5
14D
 10
195.321934
 20
59.557432
 30
0.0
 11
203.621934
 21
67.857432
 31
0.0
  0
LINE
  8
LC-003-005-----0
  6
CONTINUOUS
  5
14E
 10
218.653801
 20
82.889299
 30
0.0
 11
224.953801
 21
89.189299
 31
0.0
  0
LINE
  8
LC-003-005-----0
  6
CONTINUOUS
  5
14F
 10
195.321934
 20
68.042713
 30
0.0
 11
203.621934
 21
76.342713
 31
0.0
  0
LINE
  8
LC-003-005-----0
  6
CONTINUOUS
  5
150
 10
210.168519
 20
82.889299
 30
0.0
 11
216.468519
 21
89.189299
 31
0.0
  0
LINE
  8
LC-003-005-----0
  6
CONTINUOUS
  5
151
 10
195.321934
 20
76.527994
 30
0.0
 11
207.983238
 21
89.189299
 31
0.0
  0
LINE
  8
LC-003-005-----0
  6
CONTINUOUS
  5
152
 10
195.321934
 20
85.013276
 30
0.0
 11
199.497957
 21
89.189299
 31
0.0
  0
LINE
  8
LC-003-005-----0
  6
CONTINUOUS
  5
153
 10
101.742112
 20
16.889299
 30
0.0
 11
103.321934
 21
18.46912
 31
0.0
  0
LINE
  8
LC-003-005-----0
  6
CONTINUOUS
  5
154
 10
95.797116
 20
19.429584
 30
0.0
 11
103.321934
 21
26.954401
 31
0.0
  0
LINE
  8
LC-003-005-----0
  6
CONTINUOUS
  5
155
 10
95.021934
 20
27.139683
 30
0.0
 11
103.321934
 21
35.439683
 31
0.0
  0
LINE
  8
LC-003-005-----0
  6
CONTINUOUS
  5
156
 10
95.021934
 20
35.624964
 30
0.0
 11
103.321934
 21
43.924964
 31
0.0
  0
LINE
  8
LC-003-005-----0
  6
CONTINUOUS
  5
157
 10
95.021934
 20
44.110245
 30
0.0
 11
103.321934
 21
52.410245
 31
0.0
  0
LINE
  8
LC-003-005-----0
  6
CONTINUOUS
  5
158
 10
95.021934
 20
52.595527
 30
0.0
 11
103.321934
 21
60.895527
 31
0.0
  0
LINE
  8
LC-003-005-----0
  6
CONTINUOUS
  5
159
 10
95.021934
 20
61.080808
 30
0.0
 11
103.321934
 21
69.380808
 31
0.0
  0
LINE
  8
LC-003-005-----0
  6
CONTINUOUS
  5
15A
 10
95.021934
 20
69.56609
 30
0.0
 11
103.321934
 21
77.86609
 31
0.0
  0
LINE
  8
LC-003-005-----0
  6
CONTINUOUS
  5
15B
 10
94.96481
 20
77.994248
 30
0.0
 11
103.321934
 21
86.351371
 31
0.0
  0
LINE
  8
LC-003-005-----0
  6
CONTINUOUS
  5
15C
 10
91.092586
 20
82.607305
 30
0.0
 11
97.67458
 21
89.189299
 31
0.0
  0
LINE
  8
LC-003-005-----0
  6
CONTINUOUS
  5
15D
 10
82.889299
 20
82.889299
 30
0.0
 11
89.189299
 21
89.189299
 31
0.0
  0
LINE
  8
LC-003-005-----0
  6
CONTINUOUS
  5
15E
 10
74.404017
 20
82.889299
 30
0.0
 11
80.704017
 21
89.189299
 31
0.0
  0
LINE
  8
LC-003-005-----0
  6
CONTINUOUS
  5
15F
 10
65.918736
 20
82.889299
 30
0.0
 11
67.218736
 21
84.189299
 31
0.0
  0
LINE
  8
LC-003-005-----0
  6
CONTINUOUS
  5
160
 10
68.321934
 20
85.292496
 30
0.0
 11
72.218736
 21
89.189299
 31
0.0
  0
LINE
  8
LC-003-005-----0
  6
CONTINUOUS
  5
161
 10
57.733455
 20
83.189299
 30
0.0
 11
63.733455
 21
89.189299
 31
0.0
  0
LINE
  8
LC-003-005-----0
  6
CONTINUOUS
  5
162
 10
52.329608
 20
86.270734
 30
0.0
 11
55.248173
 21
89.189299
 31
0.0
  0
LINE
  8
LC-003-005-----0
  6
CONTINUOUS
  5
163
 10
245.633906
 20
85.292068
 30
0.0
 11
241.736675
 21
89.189299
 31
0.0
  0
LINE
  8
LC-003-005-----0
  6
CONTINUOUS
  5
164
 10
239.251393
 20
83.189299
 30
0.0
 11
234.071934
 21
88.368759
 31
0.0
  0
LINE
  8
LC-003-005-----0
  6
CONTINUOUS
  5
165
 10
231.066112
 20
82.889299
 30
0.0
 11
224.766112
 21
89.189299
 31
0.0
  0
LINE
  8
LC-003-005-----0
  6
CONTINUOUS
  5
166
 10
222.580831
 20
82.889299
 30
0.0
 11
216.280831
 21
89.189299
 31
0.0
  0
LINE
  8
LC-003-005-----0
  6
CONTINUOUS
  5
167
 10
214.095549
 20
82.889299
 30
0.0
 11
207.795549
 21
89.189299
 31
0.0
  0
LINE
  8
LC-003-005-----0
  6
CONTINUOUS
  5
168
 10
206.410127
 20
82.08944
 30
0.0
 11
199.310268
 21
89.189299
 31
0.0
  0
LINE
  8
LC-003-005-----0
  6
CONTINUOUS
  5
169
 10
203.621934
 20
76.392352
 30
0.0
 11
195.321934
 21
84.692352
 31
0.0
  0
LINE
  8
LC-003-005-----0
  6
CONTINUOUS
  5
16A
 10
203.621934
 20
67.90707
 30
0.0
 11
195.321934
 21
76.20707
 31
0.0
  0
LINE
  8
LC-003-005-----0
  6
CONTINUOUS
  5
16B
 10
203.621934
 20
59.421789
 30
0.0
 11
195.321934
 21
67.721789
 31
0.0
  0
LINE
  8
LC-003-005-----0
  6
CONTINUOUS
  5
16C
 10
203.621934
 20
50.936508
 30
0.0
 11
195.321934
 21
59.236508
 31
0.0
  0
LINE
  8
LC-003-005-----0
  6
CONTINUOUS
  5
16D
 10
203.621934
 20
42.451226
 30
0.0
 11
195.321934
 21
50.751226
 31
0.0
  0
LINE
  8
LC-003-005-----0
  6
CONTINUOUS
  5
16E
 10
203.621934
 20
33.965945
 30
0.0
 11
195.321934
 21
42.265945
 31
0.0
  0
LINE
  8
LC-003-005-----0
  6
CONTINUOUS
  5
16F
 10
203.621934
 20
25.480663
 30
0.0
 11
195.321934
 21
33.780663
 31
0.0
  0
LINE
  8
LC-003-005-----0
  6
CONTINUOUS
  5
170
 10
202.122266
 20
18.49505
 30
0.0
 11
195.321934
 21
25.295382
 31
0.0
  0
LINE
  8
LC-003-005-----0
  6
CONTINUOUS
  5
171
 10
103.321934
 20
83.354257
 30
0.0
 11
97.486891
 21
89.189299
 31
0.0
  0
LINE
  8
LC-003-005-----0
  6
CONTINUOUS
  5
172
 10
103.321934
 20
74.868975
 30
0.0
 11
89.00161
 21
89.189299
 31
0.0
  0
LINE
  8
LC-003-005-----0
  6
CONTINUOUS
  5
173
 10
103.321934
 20
66.383694
 30
0.0
 11
95.021934
 21
74.683694
 31
0.0
  0
LINE
  8
LC-003-005-----0
  6
CONTINUOUS
  5
174
 10
86.816329
 20
82.889299
 30
0.0
 11
80.516329
 21
89.189299
 31
0.0
  0
LINE
  8
LC-003-005-----0
  6
CONTINUOUS
  5
175
 10
103.321934
 20
57.898412
 30
0.0
 11
95.021934
 21
66.198412
 31
0.0
  0
LINE
  8
LC-003-005-----0
  6
CONTINUOUS
  5
176
 10
78.331047
 20
82.889299
 30
0.0
 11
72.031047
 21
89.189299
 31
0.0
  0
LINE
  8
LC-003-005-----0
  6
CONTINUOUS
  5
177
 10
103.321934
 20
49.413131
 30
0.0
 11
95.021934
 21
57.713131
 31
0.0
  0
LINE
  8
LC-003-005-----0
  6
CONTINUOUS
  5
178
 10
69.845766
 20
82.889299
 30
0.0
 11
68.321934
 21
84.413131
 31
0.0
  0
LINE
  8
LC-003-005-----0
  6
CONTINUOUS
  5
179
 10
64.571934
 20
88.163131
 30
0.0
 11
63.545766
 21
89.189299
 31
0.0
  0
LINE
  8
LC-003-005-----0
  6
CONTINUOUS
  5
17A
 10
103.321934
 20
40.92785
 30
0.0
 11
95.021934
 21
49.22785
 31
0.0
  0
LINE
  8
LC-003-005-----0
  6
CONTINUOUS
  5
17B
 10
61.360485
 20
82.889299
 30
0.0
 11
55.060485
 21
89.189299
 31
0.0
  0
LINE
  8
LC-003-005-----0
  6
CONTINUOUS
  5
17C
 10
103.321934
 20
32.442568
 30
0.0
 11
95.021934
 21
40.742568
 31
0.0
  0
LINE
  8
LC-003-005-----0
  6
CONTINUOUS
  5
17D
 10
103.321934
 20
23.957287
 30
0.0
 11
95.021934
 21
32.257287
 31
0.0
  0
LINE
  8
LC-003-005-----0
  6
CONTINUOUS
  5
17E
 10
101.90464
 20
16.889299
 30
0.0
 11
95.021934
 21
23.772006
 31
0.0
  0
ENDBLK
  8
0
  5
17F
  0
BLOCK
  8
0
  5
181
  2
BLK2
 70
    64
 10
0.0
 20
0.0
 30
0.0
  3
BLK2
  0
ENDBLK
  8
0
  5
182
  0
BLOCK
  8
0
  5
184
  2
*D11
 70
    65
 10
0.0
 20
0.0
 30
0.0
  3
*D11
  0
LINE
  8
LC-008-003-MTH-0
  6
CONTINUOUS
  5
186
 10
234.071934
 20
89.189299
 30
0.0
 11
330.4
 21
89.189299
 31
0.0
  0
LINE
  8
LC-008-003-MTH-0
  6
CONTINUOUS
  5
187
 10
234.071934
 20
169.193933
 30
0.0
 11
330.4
 21
169.193933
 31
0.0
  0
LINE
  8
LC-009-003-MTG-0
  6
CONTINUOUS
  5
189
 10
313.6
 20
89.189299
 30
0.0
 11
313.6
 21
169.193933
 31
0.0
  0
LINE
  8
LC-007-003-----0
  6
CONTINUOUS
  5
18B
 10
309.945267
 20
116.949755
 30
0.0
 11
313.6
 21
89.189299
 31
0.0
  0
LINE
  8
LC-007-003-----0
  6
CONTINUOUS
  5
18C
 10
313.6
 20
89.189299
 30
0.0
 11
317.254733
 21
116.949755
 31
0.0
  0
LINE
  8
LC-007-003-----0
  6
CONTINUOUS
  5
18D
 10
317.254733
 20
116.949755
 30
0.0
 11
309.945267
 21
116.949755
 31
0.0
  0
LINE
  8
LC-007-003-----0
  6
CONTINUOUS
  5
18E
 10
310.895497
 20
117.012036
 30
0.0
 11
313.6
 21
96.469299
 31
0.0
  0
LINE
  8
LC-007-003-----0
  6
CONTINUOUS
  5
18F
 10
313.6
 20
96.469299
 30
0.0
 11
316.304503
 21
117.012036
 31
0.0
  0
LINE
  8
LC-007-003-----0
  6
CONTINUOUS
  5
190
 10
311.845728
 20
117.074318
 30
0.0
 11
313.6
 21
103.749299
 31
0.0
  0
LINE
  8
LC-007-003-----0
  6
CONTINUOUS
  5
191
 10
313.6
 20
103.749299
 30
0.0
 11
315.354272
 21
117.074318
 31
0.0
  0
LINE
  8
LC-007-003-----0
  6
CONTINUOUS
  5
192
 10
312.795959
 20
117.136599
 30
0.0
 11
313.6
 21
111.029299
 31
0.0
  0
LINE
  8
LC-007-003-----0
  6
CONTINUOUS
  5
193
 10
313.6
 20
111.029299
 30
0.0
 11
314.404041
 21
117.136599
 31
0.0
  0
LINE
  8
LC-007-003-----0
  6
CONTINUOUS
  5
194
 10
317.254733
 20
141.433477
 30
0.0
 11
313.6
 21
169.193933
 31
0.0
  0
LINE
  8
LC-007-003-----0
  6
CONTINUOUS
  5
195
 10
313.6
 20
169.193933
 30
0.0
 11
309.945267
 21
141.433477
 31
0.0
  0
LINE
  8
LC-007-003-----0
  6
CONTINUOUS
  5
196
 10
309.945267
 20
141.433477
 30
0.0
 11
317.254733
 21
141.433477
 31
0.0
  0
LINE
  8
LC-007-003-----0
  6
CONTINUOUS
  5
197
 10
316.304503
 20
141.371195
 30
0.0
 11
313.6
 21
161.913933
 31
0.0
  0
LINE
  8
LC-007-003-----0
  6
CONTINUOUS
  5
198
 10
313.6
 20
161.913933
 30
0.0
 11
310.895497
 21
141.371195
 31
0.0
  0
LINE
  8
LC-007-003-----0
  6
CONTINUOUS
  5
199
 10
315.354272
 20
141.308914
 30
0.0
 11
313.6
 21
154.633933
 31
0.0
  0
LINE
  8
LC-007-003-----0
  6
CONTINUOUS
  5
19A
 10
313.6
 20
154.633933
 30
0.0
 11
311.845728
 21
141.308914
 31
0.0
  0
LINE
  8
LC-007-003-----0
  6
CONTINUOUS
  5
19B
 10
314.404041
 20
141.246632
 30
0.0
 11
313.6
 21
147.353933
 31
0.0
  0
LINE
  8
LC-007-003-----0
  6
CONTINUOUS
  5
19C
 10
313.6
 20
147.353933
 30
0.0
 11
312.795959
 21
141.246632
 31
0.0
  0
TEXT
  8
LC-007-003-----0
  6
CONTINUOUS
 62
     8
  5
19D
 10
305.772446
 20
117.893376
 30
0.0
 40
28.0
  1
80
 50
90.0
 41
0.8
 51
15.0
  7
LC-TXTSTYLE-150-400-0-0-A0
 72
     1
 11
305.772446
 21
133.539776
 31
0.0
  0
ENDBLK
  8
0
  5
19E
  0
BLOCK
  8
0
  5
1A0
  2
*D12
 70
    65
 10
0.0
 20
0.0
 30
0.0
  3
*D12
  0
LINE
  8
LC-008-003-MTH-0
  6
CONTINUOUS
  5
1A1
 10
103.321934
 20
16.889299
 30
0.0
 11
103.321934
 21
-56.0
 31
0.0
  0
LINE
  8
LC-008-003-MTH-0
  6
CONTINUOUS
  5
1A2
 10
195.321934
 20
16.889299
 30
0.0
 11
195.321934
 21
-56.0
 31
0.0
  0
LINE
  8
LC-009-003-MTG-0
  6
CONTINUOUS
  5
1A3
 10
103.321934
 20
-39.2
 30
0.0
 11
195.321934
 21
-39.2
 31
0.0
  0
LINE
  8
LC-007-003-----0
  6
CONTINUOUS
  5
1A4
 10
131.08239
 20
-35.545267
 30
0.0
 11
103.321934
 21
-39.2
 31
0.0
  0
LINE
  8
LC-007-003-----0
  6
CONTINUOUS
  5
1A5
 10
103.321934
 20
-39.2
 30
0.0
 11
131.08239
 21
-42.854733
 31
0.0
  0
LINE
  8
LC-007-003-----0
  6
CONTINUOUS
  5
1A6
 10
131.08239
 20
-42.854733
 30
0.0
 11
131.08239
 21
-35.545267
 31
0.0
  0
LINE
  8
LC-007-003-----0
  6
CONTINUOUS
  5
1A7
 10
131.144671
 20
-36.495497
 30
0.0
 11
110.601934
 21
-39.2
 31
0.0
  0
LINE
  8
LC-007-003-----0
  6
CONTINUOUS
  5
1A8
 10
110.601934
 20
-39.2
 30
0.0
 11
131.144671
 21
-41.904503
 31
0.0
  0
LINE
  8
LC-007-003-----0
  6
CONTINUOUS
  5
1A9
 10
131.206953
 20
-37.445728
 30
0.0
 11
117.881934
 21
-39.2
 31
0.0
  0
LINE
  8
LC-007-003-----0
  6
CONTINUOUS
  5
1AA
 10
117.881934
 20
-39.2
 30
0.0
 11
131.206953
 21
-40.954272
 31
0.0
  0
LINE
  8
LC-007-003-----0
  6
CONTINUOUS
  5
1AB
 10
131.269234
 20
-38.395959
 30
0.0
 11
125.161934
 21
-39.2
 31
0.0
  0
LINE
  8
LC-007-003-----0
  6
CONTINUOUS
  5
1AC
 10
125.161934
 20
-39.2
 30
0.0
 11
131.269234
 21
-40.004041
 31
0.0
  0
LINE
  8
LC-007-003-----0
  6
CONTINUOUS
  5
1AD
 10
167.561478
 20
-42.854733
 30
0.0
 11
195.321934
 21
-39.2
 31
0.0
  0
LINE
  8
LC-007-003-----0
  6
CONTINUOUS
  5
1AE
 10
195.321934
 20
-39.2
 30
0.0
 11
167.561478
 21
-35.545267
 31
0.0
  0
LINE
  8
LC-007-003-----0
  6
CONTINUOUS
  5
1AF
 10
167.561478
 20
-35.545267
 30
0.0
 11
167.561478
 21
-42.854733
 31
0.0
  0
LINE
  8
LC-007-003-----0
  6
CONTINUOUS
  5
1B0
 10
167.499196
 20
-41.904503
 30
0.0
 11
188.041934
 21
-39.2
 31
0.0
  0
LINE
  8
LC-007-003-----0
  6
CONTINUOUS
  5
1B1
 10
188.041934
 20
-39.2
 30
0.0
 11
167.499196
 21
-36.495497
 31
0.0
  0
LINE
  8
LC-007-003-----0
  6
CONTINUOUS
  5
1B2
 10
167.436915
 20
-40.954272
 30
0.0
 11
180.761934
 21
-39.2
 31
0.0
  0
LINE
  8
LC-007-003-----0
  6
CONTINUOUS
  5
1B3
 10
180.761934
 20
-39.2
 30
0.0
 11
167.436915
 21
-37.445728
 31
0.0
  0
LINE
  8
LC-007-003-----0
  6
CONTINUOUS
  5
1B4
 10
167.374633
 20
-40.004041
 30
0.0
 11
173.481934
 21
-39.2
 31
0.0
  0
LINE
  8
LC-007-003-----0
  6
CONTINUOUS
  5
1B5
 10
173.481934
 20
-39.2
 30
0.0
 11
167.374633
 21
-38.395959
 31
0.0
  0
TEXT
  8
LC-007-003-----0
  6
CONTINUOUS
 62
     8
  5
1B6
 10
127.474227
 20
-31.372446
 30
0.0
 40
28.0
  1
Ø92
 41
0.8
 51
15.0
  7
LC-TXTSTYLE-150-400-0-0-A0
 72
     1
 11
153.670094
 21
-31.372446
 31
0.0
  0
ENDBLK
  8
0
  5
1B7
  0
BLOCK
  8
0
  5
1B9
  2
*D13
 70
    65
 10
0.0
 20
0.0
 30
0.0
  3
*D13
  0
LINE
  8
LC-008-003-MTH-0
  6
CONTINUOUS
  5
1BA
 10
68.321934
 20
145.90104
 30
0.0
 11
68.321934
 21
232.8
 31
0.0
  0
LINE
  8
LC-008-003-MTH-0
  6
CONTINUOUS
  5
1BB
 10
230.321934
 20
145.90104
 30
0.0
 11
230.321934
 21
232.8
 31
0.0
  0
LINE
  8
LC-009-003-MTG-0
  6
CONTINUOUS
  5
1BC
 10
68.321934
 20
216.0
 30
0.0
 11
230.321934
 21
216.0
 31
0.0
  0
LINE
  8
LC-007-003-----0
  6
CONTINUOUS
  5
1BD
 10
96.08239
 20
219.654733
 30
0.0
 11
68.321934
 21
216.0
 31
0.0
  0
LINE
  8
LC-007-003-----0
  6
CONTINUOUS
  5
1BE
 10
68.321934
 20
216.0
 30
0.0
 11
96.08239
 21
212.345267
 31
0.0
  0
LINE
  8
LC-007-003-----0
  6
CONTINUOUS
  5
1BF
 10
96.08239
 20
212.345267
 30
0.0
 11
96.08239
 21
219.654733
 31
0.0
  0
LINE
  8
LC-007-003-----0
  6
CONTINUOUS
  5
1C0
 10
96.144671
 20
218.704503
 30
0.0
 11
75.601934
 21
216.0
 31
0.0
  0
LINE
  8
LC-007-003-----0
  6
CONTINUOUS
  5
1C1
 10
75.601934
 20
216.0
 30
0.0
 11
96.144671
 21
213.295497
 31
0.0
  0
LINE
  8
LC-007-003-----0
  6
CONTINUOUS
  5
1C2
 10
96.206953
 20
217.754272
 30
0.0
 11
82.881934
 21
216.0
 31
0.0
  0
LINE
  8
LC-007-003-----0
  6
CONTINUOUS
  5
1C3
 10
82.881934
 20
216.0
 30
0.0
 11
96.206953
 21
214.245728
 31
0.0
  0
LINE
  8
LC-007-003-----0
  6
CONTINUOUS
  5
1C4
 10
96.269234
 20
216.804041
 30
0.0
 11
90.161934
 21
216.0
 31
0.0
  0
LINE
  8
LC-007-003-----0
  6
CONTINUOUS
  5
1C5
 10
90.161934
 20
216.0
 30
0.0
 11
96.269234
 21
215.195959
 31
0.0
  0
LINE
  8
LC-007-003-----0
  6
CONTINUOUS
  5
1C6
 10
202.561478
 20
212.345267
 30
0.0
 11
230.321934
 21
216.0
 31
0.0
  0
LINE
  8
LC-007-003-----0
  6
CONTINUOUS
  5
1C7
 10
230.321934
 20
216.0
 30
0.0
 11
202.561478
 21
219.654733
 31
0.0
  0
LINE
  8
LC-007-003-----0
  6
CONTINUOUS
  5
1C8
 10
202.561478
 20
219.654733
 30
0.0
 11
202.561478
 21
212.345267
 31
0.0
  0
LINE
  8
LC-007-003-----0
  6
CONTINUOUS
  5
1C9
 10
202.499196
 20
213.295497
 30
0.0
 11
223.041934
 21
216.0
 31
0.0
  0
LINE
  8
LC-007-003-----0
  6
CONTINUOUS
  5
1CA
 10
223.041934
 20
216.0
 30
0.0
 11
202.499196
 21
218.704503
 31
0.0
  0
LINE
  8
LC-007-003-----0
  6
CONTINUOUS
  5
1CB
 10
202.436915
 20
214.245728
 30
0.0
 11
215.761934
 21
216.0
 31
0.0
  0
LINE
  8
LC-007-003-----0
  6
CONTINUOUS
  5
1CC
 10
215.761934
 20
216.0
 30
0.0
 11
202.436915
 21
217.754272
 31
0.0
  0
LINE
  8
LC-007-003-----0
  6
CONTINUOUS
  5
1CD
 10
202.374633
 20
215.195959
 30
0.0
 11
208.481934
 21
216.0
 31
0.0
  0
LINE
  8
LC-007-003-----0
  6
CONTINUOUS
  5
1CE
 10
208.481934
 20
216.0
 30
0.0
 11
202.374633
 21
216.804041
 31
0.0
  0
TEXT
  8
LC-007-003-----0
  6
CONTINUOUS
 62
     8
  5
1CF
 10
115.398644
 20
223.827554
 30
0.0
 40
28.0
  1
Ø162
 41
0.9
 51
15.0
  7
LC-TXTSTYLE-150-400-0-0-A0
 72
     1
 11
153.670094
 21
223.827554
 31
0.0
  0
ENDBLK
  8
0
  5
1D0
  0
BLOCK
  8
0
  5
1D2
  2
*D14
 70
    65
 10
0.0
 20
0.0
 30
0.0
  3
*D14
  0
LINE
  8
LC-008-003-MTH-0
  6
CONTINUOUS
  5
1D3
 10
195.321934
 20
16.189299
 30
0.0
 11
369.6
 21
16.189299
 31
0.0
  0
LINE
  8
LC-008-003-MTH-0
  6
CONTINUOUS
  5
1D4
 10
230.321934
 20
169.193933
 30
0.0
 11
369.6
 21
169.193933
 31
0.0
  0
LINE
  8
LC-009-003-MTG-0
  6
CONTINUOUS
  5
1D5
 10
352.8
 20
16.189299
 30
0.0
 11
352.8
 21
169.193933
 31
0.0
  0
LINE
  8
LC-007-003-----0
  6
CONTINUOUS
  5
1D6
 10
349.145267
 20
43.949755
 30
0.0
 11
352.8
 21
16.189299
 31
0.0
  0
LINE
  8
LC-007-003-----0
  6
CONTINUOUS
  5
1D7
 10
352.8
 20
16.189299
 30
0.0
 11
356.454733
 21
43.949755
 31
0.0
  0
LINE
  8
LC-007-003-----0
  6
CONTINUOUS
  5
1D8
 10
356.454733
 20
43.949755
 30
0.0
 11
349.145267
 21
43.949755
 31
0.0
  0
LINE
  8
LC-007-003-----0
  6
CONTINUOUS
  5
1D9
 10
350.095497
 20
44.012036
 30
0.0
 11
352.8
 21
23.469299
 31
0.0
  0
LINE
  8
LC-007-003-----0
  6
CONTINUOUS
  5
1DA
 10
352.8
 20
23.469299
 30
0.0
 11
355.504503
 21
44.012036
 31
0.0
  0
LINE
  8
LC-007-003-----0
  6
CONTINUOUS
  5
1DB
 10
351.045728
 20
44.074318
 30
0.0
 11
352.8
 21
30.749299
 31
0.0
  0
LINE
  8
LC-007-003-----0
  6
CONTINUOUS
  5
1DC
 10
352.8
 20
30.749299
 30
0.0
 11
354.554272
 21
44.074318
 31
0.0
  0
LINE
  8
LC-007-003-----0
  6
CONTINUOUS
  5
1DD
 10
351.995959
 20
44.136599
 30
0.0
 11
352.8
 21
38.029299
 31
0.0
  0
LINE
  8
LC-007-003-----0
  6
CONTINUOUS
  5
1DE
 10
352.8
 20
38.029299
 30
0.0
 11
353.604041
 21
44.136599
 31
0.0
  0
LINE
  8
LC-007-003-----0
  6
CONTINUOUS
  5
1DF
 10
356.454733
 20
141.433477
 30
0.0
 11
352.8
 21
169.193933
 31
0.0
  0
LINE
  8
LC-007-003-----0
  6
CONTINUOUS
  5
1E0
 10
352.8
 20
169.193933
 30
0.0
 11
349.145267
 21
141.433477
 31
0.0
  0
LINE
  8
LC-007-003-----0
  6
CONTINUOUS
  5
1E1
 10
349.145267
 20
141.433477
 30
0.0
 11
356.454733
 21
141.433477
 31
0.0
  0
LINE
  8
LC-007-003-----0
  6
CONTINUOUS
  5
1E2
 10
355.504503
 20
141.371195
 30
0.0
 11
352.8
 21
161.913933
 31
0.0
  0
LINE
  8
LC-007-003-----0
  6
CONTINUOUS
  5
1E3
 10
352.8
 20
161.913933
 30
0.0
 11
350.095497
 21
141.371195
 31
0.0
  0
LINE
  8
LC-007-003-----0
  6
CONTINUOUS
  5
1E4
 10
354.554272
 20
141.308914
 30
0.0
 11
352.8
 21
154.633933
 31
0.0
  0
LINE
  8
LC-007-003-----0
  6
CONTINUOUS
  5
1E5
 10
352.8
 20
154.633933
 30
0.0
 11
351.045728
 21
141.308914
 31
0.0
  0
LINE
  8
LC-007-003-----0
  6
CONTINUOUS
  5
1E6
 10
353.604041
 20
141.246632
 30
0.0
 11
352.8
 21
147.353933
 31
0.0
  0
LINE
  8
LC-007-003-----0
  6
CONTINUOUS
  5
1E7
 10
352.8
 20
147.353933
 30
0.0
 11
351.995959
 21
141.246632
 31
0.0
  0
TEXT
  8
LC-007-003-----0
  6
CONTINUOUS
 62
     8
  5
1E8
 10
344.972446
 20
70.636476
 30
0.0
 40
28.0
  1
153
 50
90.0
 41
0.9
 51
15.0
  7
LC-TXTSTYLE-150-400-0-0-A0
 72
     1
 11
344.972446
 21
97.039776
 31
0.0
  0
ENDBLK
  8
0
  5
1E9
  0
BLOCK
  8
0
  5
1EB
  2
*D15
 70
    65
 10
0.0
 20
0.0
 30
0.0
  3
*D15
  0
LINE
  8
LC-008-003-MTH-0
  6
CONTINUOUS
  5
1EC
 10
234.071934
 20
169.193933
 30
0.0
 11
291.2
 21
169.193933
 31
0.0
  0
LINE
  8
LC-008-003-MTH-0
  6
CONTINUOUS
  5
1ED
 10
252.725492
 20
205.989299
 30
0.0
 11
291.2
 21
205.989299
 31
0.0
  0
LINE
  8
LC-007-003-----0
  6
CONTINUOUS
  5
1EE
 10
278.054733
 20
141.433477
 30
0.0
 11
274.4
 21
169.193933
 31
0.0
  0
LINE
  8
LC-007-003-----0
  6
CONTINUOUS
  5
1EF
 10
274.4
 20
169.193933
 30
0.0
 11
270.745267
 21
141.433477
 31
0.0
  0
LINE
  8
LC-007-003-----0
  6
CONTINUOUS
  5
1F0
 10
270.745267
 20
141.433477
 30
0.0
 11
278.054733
 21
141.433477
 31
0.0
  0
LINE
  8
LC-007-003-----0
  6
CONTINUOUS
  5
1F1
 10
277.104503
 20
141.371195
 30
0.0
 11
274.4
 21
161.913933
 31
0.0
  0
LINE
  8
LC-007-003-----0
  6
CONTINUOUS
  5
1F2
 10
274.4
 20
161.913933
 30
0.0
 11
271.695497
 21
141.371195
 31
0.0
  0
LINE
  8
LC-007-003-----0
  6
CONTINUOUS
  5
1F3
 10
276.154272
 20
141.308914
 30
0.0
 11
274.4
 21
154.633933
 31
0.0
  0
LINE
  8
LC-007-003-----0
  6
CONTINUOUS
  5
1F4
 10
274.4
 20
154.633933
 30
0.0
 11
272.645728
 21
141.308914
 31
0.0
  0
LINE
  8
LC-007-003-----0
  6
CONTINUOUS
  5
1F5
 10
275.204041
 20
141.246632
 30
0.0
 11
274.4
 21
147.353933
 31
0.0
  0
LINE
  8
LC-007-003-----0
  6
CONTINUOUS
  5
1F6
 10
274.4
 20
147.353933
 30
0.0
 11
273.595959
 21
141.246632
 31
0.0
  0
LINE
  8
LC-007-003-----0
  6
CONTINUOUS
  5
1F7
 10
270.745267
 20
233.749755
 30
0.0
 11
274.4
 21
205.989299
 31
0.0
  0
LINE
  8
LC-007-003-----0
  6
CONTINUOUS
  5
1F8
 10
274.4
 20
205.989299
 30
0.0
 11
278.054733
 21
233.749755
 31
0.0
  0
LINE
  8
LC-007-003-----0
  6
CONTINUOUS
  5
1F9
 10
278.054733
 20
233.749755
 30
0.0
 11
270.745267
 21
233.749755
 31
0.0
  0
LINE
  8
LC-007-003-----0
  6
CONTINUOUS
  5
1FA
 10
271.695497
 20
233.812036
 30
0.0
 11
274.4
 21
213.269299
 31
0.0
  0
LINE
  8
LC-007-003-----0
  6
CONTINUOUS
  5
1FB
 10
274.4
 20
213.269299
 30
0.0
 11
277.104503
 21
233.812036
 31
0.0
  0
LINE
  8
LC-007-003-----0
  6
CONTINUOUS
  5
1FC
 10
272.645728
 20
233.874318
 30
0.0
 11
274.4
 21
220.549299
 31
0.0
  0
LINE
  8
LC-007-003-----0
  6
CONTINUOUS
  5
1FD
 10
274.4
 20
220.549299
 30
0.0
 11
276.154272
 21
233.874318
 31
0.0
  0
LINE
  8
LC-007-003-----0
  6
CONTINUOUS
  5
1FE
 10
273.595959
 20
233.936599
 30
0.0
 11
274.4
 21
227.829299
 31
0.0
  0
LINE
  8
LC-007-003-----0
  6
CONTINUOUS
  5
1FF
 10
274.4
 20
227.829299
 30
0.0
 11
275.204041
 21
233.936599
 31
0.0
  0
LINE
  8
LC-009-003-MTG-0
  6
CONTINUOUS
  5
200
 10
274.4
 20
129.993933
 30
0.0
 11
274.4
 21
289.353699
 31
0.0
  0
TEXT
  8
LC-007-003-----0
  6
CONTINUOUS
 62
     8
  5
201
 10
266.572446
 20
248.417459
 30
0.0
 40
28.0
  1
37
 50
90.0
 41
0.9
 51
15.0
  7
LC-TXTSTYLE-150-400-0-0-A0
  0
ENDBLK
  8
0
  5
202
  0
ENDSEC
  0
SECTION
  2
ENTITIES
  0
VIEWPORT
  8
LC-000
  5
331
 67
     1
 68
     1
 10
420.0
 20
297.0
 30
0.0
 40
840.0
 41
594.0
 69
     1
1001
ACAD
1000
MVIEW
1002
{
1070
    16
1010
0.0
1020
0.0
1030
0.0
1010
0.0
1020
0.0
1030
1.0
1040
0.0
1040
594.0
1040
420.0
1040
297.0
1040
50.0
1040
0.0
1040
0.0
1070
     0
1070
   100
1070
     1
1070
     1
1070
     0
1070
     0
1070
     0
1070
     0
1040
0.0
1040
0.0
1040
0.0
1040
1.0
1040
1.0
1040
0.0
1040
0.0
1070
     0
1002
{
1002
}
1002
}
  0
VIEWPORT
  8
0
  5
332
 67
     1
 68
     1
 10
0.0
 20
0.0
 30
0.0
 40
0.0
 41
0.0
 69
     1
1001
ACAD
1000
MVIEW
1002
{
1070
    16
1010
0.0
1020
0.0
1030
0.0
1010
0.0
1020
0.0
1030
1.0
1040
0.0
1040
594.0
1040
0.0
1040
0.0
1040
50.0
1040
0.0
1040
0.0
1070
     0
1070
   100
1070
     0
1070
     1
1070
     0
1070
     0
1070
     0
1070
     0
1040
0.0
1040
0.0
1040
0.0
1040
0.5
1040
0.5
1040
0.5
1040
0.5
1070
     0
1002
{
1002
}
1002
}
  0
INSERT
  8
LC-003-005-----0
  6
CONTINUOUS
  5
203
  2
*X0
 10
61.821933
 20
145.90104
 30
0.0
  0
INSERT
  8
LC-003-005-----0
  6
CONTINUOUS
  5
204
  2
*X1
 10
58.321934
 20
84.189299
 30
0.0
  0
INSERT
  8
LC-003-005-----0
  6
CONTINUOUS
  5
205
  2
*X2
 10
227.025917
 20
145.90104
 30
0.0
  0
INSERT
  8
LC-003-005-----0
  6
CONTINUOUS
  5
206
  2
*X3
 10
-35.401535
 20
83.189299
 30
0.0
  0
INSERT
  8
LC-003-005-----0
  6
CONTINUOUS
  5
207
  2
*X4
 10
192.321934
 20
16.189299
 30
0.0
  0
INSERT
  8
LC-003-005-----0
  6
CONTINUOUS
  5
208
  2
*X5
 10
50.571934
 20
16.189299
 30
0.0
  0
INSERT
  8
LC-003-005-----0
  6
CONTINUOUS
  5
209
  2
*X6
 10
234.771934
 20
82.889299
 30
0.0
  0
INSERT
  8
LC-003-005-----0
  6
CONTINUOUS
  5
20A
  2
*X7
 10
35.633646
 20
82.889299
 30
0.0
  0
INSERT
  8
LC-006-000-----0
  5
20C
  2
BLK1
 10
0.0
 20
0.0
 30
0.0
  0
INSERT
  8
LC-003-005-----0
  6
CONTINUOUS
  5
20D
  2
*X9
 10
51.571934
 20
16.889299
 30
0.0
  0
INSERT
  8
LC-006-000-----0
  5
20E
  2
BLK2
 10
0.0
 20
0.0
 30
0.0
  0
DIMENSION
  8
LC-007-003-----0
  6
CONTINUOUS
  5
20F
  2
*D11
 10
313.6
 20
129.191616
 30
0.0
 11
313.6
 21
129.191616
 31
0.0
 13
234.071934
 23
169.193933
 33
0.0
 14
234.071934
 24
89.189299
 34
0.0
 50
90.0
  3
LC-DIM-L-0140-02-02
  0
DIMENSION
  8
LC-007-003-----0
  6
CONTINUOUS
  5
210
  2
*D12
 10
149.321934
 20
-39.2
 30
0.0
 11
149.321934
 21
-39.2
 31
0.0
  1
%%c<>
 13
103.321934
 23
16.889299
 33
0.0
 14
195.321934
 24
16.889299
 34
0.0
  3
LC-DIM-L-0140-02-02
  0
DIMENSION
  8
LC-007-003-----0
  6
CONTINUOUS
  5
211
  2
*D13
 10
149.321934
 20
216.0
 30
0.0
 11
149.321934
 21
216.0
 31
0.0
  1
%%c<>
 13
68.321934
 23
145.90104
 33
0.0
 14
230.321934
 24
145.90104
 34
0.0
  3
LC-DIM-L-0140-02-02
  0
DIMENSION
  8
LC-007-003-----0
  6
CONTINUOUS
  5
212
  2
*D14
 10
352.8
 20
92.691616
 30
0.0
 11
352.8
 21
92.691616
 31
0.0
 13
230.321934
 23
169.193933
 33
0.0
 14
195.321934
 24
16.189299
 34
0.0
 50
90.0
  3
LC-DIM-L-0140-02-02
  0
DIMENSION
  8
LC-007-003-----0
  6
CONTINUOUS
  5
213
  2
*D15
 10
274.4
 20
187.591616
 30
0.0
 11
274.4
 21
187.591616
 31
0.0
  1
37
 13
234.071934
 23
169.193933
 33
0.0
 14
252.725492
 24
205.989299
 34
0.0
 50
90.0
  3
LC-DIM-L-0140-02-02
  0
LINE
  8
LC-001-002-----0
  6
CONTINUOUS
  5
215
 10
64.321934
 20
158.193933
 30
0.0
 11
149.741541
 21
158.193933
 31
0.0
  0
LINE
  8
LC-001-002-----0
  6
CONTINUOUS
  5
216
 10
61.321934
 20
162.193933
 30
0.0
 11
63.571934
 21
162.193933
 31
0.0
  0
LINE
  8
LC-001-002-----0
  6
CONTINUOUS
  5
217
 10
63.571934
 20
142.193933
 30
0.0
 11
61.321934
 21
142.193933
 31
0.0
  0
ARC
  8
LC-002-002-RND-0
  6
CONTINUOUS
  5
219
 10
64.321934
 20
156.193933
 30
0.0
 40
2.0
 50
90.0
 51
180.0
  0
LINE
  8
LC-001-002-----0
  6
CONTINUOUS
  5
21A
 10
58.321934
 20
145.193933
 30
0.0
 11
58.321934
 21
159.193933
 31
0.0
  0
LINE
  8
LC-001-002-----0
  6
CONTINUOUS
  5
21B
 10
62.321934
 20
148.193933
 30
0.0
 11
62.321934
 21
156.193933
 31
0.0
  0
LINE
  8
LC-001-002-----0
  6
CONTINUOUS
  5
21C
 10
64.571934
 20
169.193933
 30
0.0
 11
149.321934
 21
169.193933
 31
0.0
  0
LINE
  8
LC-001-002-----0
  6
CONTINUOUS
  5
21D
 10
68.321934
 20
84.189299
 30
0.0
 11
68.321934
 21
146.193933
 31
0.0
  0
LINE
  8
LC-001-002-----0
  6
CONTINUOUS
  5
21E
 10
64.571934
 20
84.189299
 30
0.0
 11
64.571934
 21
114.689299
 31
0.0
  0
LINE
  8
LC-001-002-----0
  6
CONTINUOUS
  5
21F
 10
61.821934
 20
155.401039
 30
0.0
 11
62.321934
 21
154.90104
 31
0.0
  0
LINE
  8
LC-001-002-----0
  6
CONTINUOUS
  5
220
 10
62.321934
 20
148.40104
 30
0.0
 11
61.821934
 21
147.90104
 31
0.0
  0
LINE
  8
LC-001-002-----0
  6
CONTINUOUS
  5
221
 10
61.821934
 20
150.401039
 30
0.0
 11
62.321933
 21
149.90104
 31
0.0
  0
LINE
  8
LC-001-002-----0
  6
CONTINUOUS
  5
222
 10
62.321933
 20
153.40104
 30
0.0
 11
61.821933
 21
152.90104
 31
0.0
  0
LINE
  8
LC-001-002-----0
  6
CONTINUOUS
  5
223
 10
62.321933
 20
150.90104
 30
0.0
 11
61.821933
 21
150.40104
 31
0.0
  0
LINE
  8
LC-001-002-----0
  6
CONTINUOUS
  5
224
 10
61.821933
 20
152.90104
 30
0.0
 11
62.321933
 21
152.40104
 31
0.0
  0
ARC
  8
LC-002-002-RND-0
  6
CONTINUOUS
  5
225
 10
63.821934
 20
155.40104
 30
0.0
 40
2.0
 50
90.0
 51
180.0
  0
LINE
  8
LC-001-002-----0
  6
CONTINUOUS
  5
226
 10
63.821934
 20
145.90104
 30
0.0
 11
66.241542
 21
145.90104
 31
0.0
  0
LINE
  8
LC-001-002-----0
  6
CONTINUOUS
  5
227
 10
67.241542
 20
146.90104
 30
0.0
 11
66.922001
 21
150.553406
 31
0.0
  0
LINE
  8
LC-001-002-----0
  6
CONTINUOUS
  5
228
 10
67.745495
 20
150.976613
 30
0.0
 11
70.792555
 21
149.650561
 31
0.0
  0
LINE
  8
LC-001-002-----0
  6
CONTINUOUS
  5
229
 10
71.565164
 20
150.253796
 30
0.0
 11
67.017935
 21
156.848253
 31
0.0
  0
LINE
  8
LC-001-002-----0
  6
CONTINUOUS
  5
22A
 10
66.123508
 20
157.40104
 30
0.0
 11
63.821934
 21
157.40104
 31
0.0
  0
LINE
  8
LC-001-002-----0
  6
CONTINUOUS
  5
22B
 10
66.241542
 20
145.90104
 30
0.0
 11
149.321934
 21
145.90104
 31
0.0
  0
ARC
  8
LC-002-002-RND-0
  6
CONTINUOUS
  5
22C
 10
66.241542
 20
146.90104
 30
0.0
 40
1.0
 50
270.0
 51
0.0
  0
ARC
  8
LC-002-002-RND-0
  6
CONTINUOUS
  5
22D
 10
63.821934
 20
147.90104
 30
0.0
 40
2.0
 50
180.0
 51
270.0
  0
LINE
  8
LC-001-002-----0
  6
CONTINUOUS
  5
22E
 10
62.321934
 20
154.901039
 30
0.0
 11
62.321934
 21
153.40104
 31
0.0
  0
ARC
  8
LC-002-002-RND-0
  6
CONTINUOUS
  5
22F
 10
66.123508
 20
156.40104
 30
0.0
 40
1.0
 50
26.565051
 51
90.0
  0
LINE
  8
LC-001-002-----0
  6
CONTINUOUS
  5
230
 10
66.123508
 20
157.40104
 30
0.0
 11
149.321934
 21
157.40104
 31
0.0
  0
LINE
  8
LC-001-002-----0
  6
CONTINUOUS
  5
231
 10
62.321934
 20
152.401039
 30
0.0
 11
62.321934
 21
150.90104
 31
0.0
  0
LINE
  8
LC-001-002-----0
  6
CONTINUOUS
  5
232
 10
62.321934
 20
149.901039
 30
0.0
 11
62.321934
 21
148.40104
 31
0.0
  0
ARC
  8
LC-002-002-RND-0
  6
CONTINUOUS
  5
233
 10
71.11795
 20
150.030189
 30
0.0
 40
0.5
 50
229.398705
 51
26.565051
  0
ARC
  8
LC-002-002-RND-0
  6
CONTINUOUS
  5
234
 10
67.420099
 20
150.596984
 30
0.0
 40
0.5
 50
49.398705
 51
185.0
  0
LINE
  8
LC-001-002-----0
  6
CONTINUOUS
  5
235
 10
71.11795
 20
149.530189
 30
0.0
 11
149.321934
 21
149.530189
 31
0.0
  0
LINE
  8
LC-001-002-----0
  6
CONTINUOUS
  5
236
 10
64.571934
 20
163.193933
 30
0.0
 11
64.571934
 21
169.193933
 31
0.0
  0
LINE
  8
LC-001-002-----0
  6
CONTINUOUS
  5
237
 10
68.321934
 20
158.193933
 30
0.0
 11
68.321934
 21
169.193933
 31
0.0
  0
LINE
  8
LC-001-002-----0
  6
CONTINUOUS
  5
238
 10
63.571934
 20
115.189299
 30
0.0
 11
64.071934
 21
115.189299
 31
0.0
  0
LINE
  8
LC-001-002-----0
  6
CONTINUOUS
  5
239
 10
63.571934
 20
117.889299
 30
0.0
 11
64.071934
 21
117.889299
 31
0.0
  0
LINE
  8
LC-001-002-----0
  6
CONTINUOUS
  5
23A
 10
63.071934
 20
115.689299
 30
0.0
 11
63.071934
 21
117.389299
 31
0.0
  0
LINE
  8
LC-001-002-----0
  6
CONTINUOUS
  5
23B
 10
64.571934
 20
118.389299
 30
0.0
 11
64.571934
 21
141.193933
 31
0.0
  0
ARC
  8
LC-002-002-RND-0
  6
CONTINUOUS
  5
23C
 10
63.571934
 20
117.389299
 30
0.0
 40
0.5
 50
90.0
 51
180.0
  0
ARC
  8
LC-002-002-RND-0
  6
CONTINUOUS
  5
23D
 10
63.571934
 20
115.689299
 30
0.0
 40
0.5
 50
180.0
 51
270.0
  0
ARC
  8
LC-002-002-RND-0
  6
CONTINUOUS
  5
23E
 10
64.071934
 20
118.389299
 30
0.0
 40
0.5
 50
270.0
 51
0.0
  0
ARC
  8
LC-002-002-RND-0
  6
CONTINUOUS
  5
23F
 10
64.071934
 20
114.689299
 30
0.0
 40
0.5
 50
0.0
 51
90.0
  0
ARC
  8
LC-002-002-RND-0
  6
CONTINUOUS
  5
240
 10
61.321934
 20
159.193933
 30
0.0
 40
3.0
 50
90.0
 51
180.0
  0
ARC
  8
LC-002-002-RND-0
  6
CONTINUOUS
  5
241
 10
61.321934
 20
145.193933
 30
0.0
 40
3.0
 50
180.0
 51
270.0
  0
ARC
  8
LC-002-002-RND-0
  6
CONTINUOUS
  5
242
 10
63.571934
 20
163.193933
 30
0.0
 40
1.0
 50
270.0
 51
0.0
  0
ARC
  8
LC-002-002-RND-0
  6
CONTINUOUS
  5
243
 10
63.571934
 20
141.193933
 30
0.0
 40
1.0
 50
0.0
 51
90.0
  0
LINE
  8
LC-001-002-----0
  6
CONTINUOUS
  5
244
 10
234.321934
 20
158.193933
 30
0.0
 11
148.902326
 21
158.193933
 31
0.0
  0
LINE
  8
LC-001-002-----0
  6
CONTINUOUS
  5
245
 10
237.321934
 20
162.193933
 30
0.0
 11
235.071934
 21
162.193933
 31
0.0
  0
LINE
  8
LC-001-002-----0
  6
CONTINUOUS
  5
246
 10
235.071934
 20
142.193933
 30
0.0
 11
237.321934
 21
142.193933
 31
0.0
  0
ARC
  8
LC-002-002-RND-0
  6
CONTINUOUS
  5
247
 10
234.321934
 20
156.193933
 30
0.0
 40
2.0
 50
0.0
 51
90.0
  0
LINE
  8
LC-001-002-----0
  6
CONTINUOUS
  5
248
 10
240.321934
 20
145.193933
 30
0.0
 11
240.321934
 21
159.193933
 31
0.0
  0
LINE
  8
LC-001-002-----0
  6
CONTINUOUS
  5
249
 10
234.071934
 20
84.189299
 30
0.0
 11
230.321934
 21
84.189299
 31
0.0
  0
LINE
  8
LC-001-002-----0
  6
CONTINUOUS
  5
24A
 10
236.321934
 20
148.193933
 30
0.0
 11
236.321934
 21
156.193933
 31
0.0
  0
LINE
  8
LC-001-002-----0
  6
CONTINUOUS
  5
24B
 10
234.071934
 20
169.193933
 30
0.0
 11
149.321934
 21
169.193933
 31
0.0
  0
LINE
  8
LC-001-002-----0
  6
CONTINUOUS
  5
24C
 10
230.321934
 20
84.189299
 30
0.0
 11
230.321934
 21
146.193933
 31
0.0
  0
LINE
  8
LC-001-002-----0
  6
CONTINUOUS
  5
24D
 10
234.071934
 20
84.189299
 30
0.0
 11
234.071934
 21
114.689299
 31
0.0
  0
LINE
  8
LC-001-002-----0
  6
CONTINUOUS
  5
24E
 10
234.071934
 20
163.193933
 30
0.0
 11
234.071934
 21
169.193933
 31
0.0
  0
LINE
  8
LC-001-002-----0
  6
CONTINUOUS
  5
24F
 10
230.321934
 20
158.193933
 30
0.0
 11
230.321934
 21
169.193933
 31
0.0
  0
LINE
  8
LC-001-002-----0
  6
CONTINUOUS
  5
250
 10
235.071934
 20
115.189299
 30
0.0
 11
234.571934
 21
115.189299
 31
0.0
  0
LINE
  8
LC-001-002-----0
  6
CONTINUOUS
  5
251
 10
235.071934
 20
117.889299
 30
0.0
 11
234.571934
 21
117.889299
 31
0.0
  0
LINE
  8
LC-001-002-----0
  6
CONTINUOUS
  5
252
 10
235.571934
 20
115.689299
 30
0.0
 11
235.571934
 21
117.389299
 31
0.0
  0
LINE
  8
LC-001-002-----0
  6
CONTINUOUS
  5
253
 10
234.071934
 20
118.389299
 30
0.0
 11
234.071934
 21
141.193933
 31
0.0
  0
ARC
  8
LC-002-002-RND-0
  6
CONTINUOUS
  5
254
 10
235.071934
 20
117.389299
 30
0.0
 40
0.5
 50
0.0
 51
90.0
  0
ARC
  8
LC-002-002-RND-0
  6
CONTINUOUS
  5
255
 10
235.071934
 20
115.689299
 30
0.0
 40
0.5
 50
270.0
 51
0.0
  0
ARC
  8
LC-002-002-RND-0
  6
CONTINUOUS
  5
256
 10
234.571934
 20
118.389299
 30
0.0
 40
0.5
 50
180.0
 51
270.0
  0
ARC
  8
LC-002-002-RND-0
  6
CONTINUOUS
  5
257
 10
234.571934
 20
114.689299
 30
0.0
 40
0.5
 50
90.0
 51
180.0
  0
ARC
  8
LC-002-002-RND-0
  6
CONTINUOUS
  5
258
 10
237.321934
 20
159.193933
 30
0.0
 40
3.0
 50
0.0
 51
90.0
  0
ARC
  8
LC-002-002-RND-0
  6
CONTINUOUS
  5
259
 10
237.321934
 20
145.193933
 30
0.0
 40
3.0
 50
270.0
 51
0.0
  0
ARC
  8
LC-002-002-RND-0
  6
CONTINUOUS
  5
25A
 10
235.071934
 20
163.193933
 30
0.0
 40
1.0
 50
180.0
 51
270.0
  0
ARC
  8
LC-002-002-RND-0
  6
CONTINUOUS
  5
25B
 10
235.071934
 20
141.193933
 30
0.0
 40
1.0
 50
90.0
 51
180.0
  0
LINE
  8
LC-001-002-----0
  6
CONTINUOUS
  5
25C
 10
236.821934
 20
155.401039
 30
0.0
 11
236.321934
 21
154.90104
 31
0.0
  0
LINE
  8
LC-001-002-----0
  6
CONTINUOUS
  5
25D
 10
236.321934
 20
148.40104
 30
0.0
 11
236.821934
 21
147.90104
 31
0.0
  0
LINE
  8
LC-001-002-----0
  6
CONTINUOUS
  5
25E
 10
236.821934
 20
150.401039
 30
0.0
 11
236.321934
 21
149.90104
 31
0.0
  0
LINE
  8
LC-001-002-----0
  6
CONTINUOUS
  5
25F
 10
236.321934
 20
153.40104
 30
0.0
 11
236.821934
 21
152.90104
 31
0.0
  0
LINE
  8
LC-001-002-----0
  6
CONTINUOUS
  5
260
 10
236.321934
 20
150.90104
 30
0.0
 11
236.821934
 21
150.40104
 31
0.0
  0
LINE
  8
LC-001-002-----0
  6
CONTINUOUS
  5
261
 10
236.821934
 20
152.90104
 30
0.0
 11
236.321934
 21
152.40104
 31
0.0
  0
ARC
  8
LC-002-002-RND-0
  6
CONTINUOUS
  5
262
 10
234.821934
 20
155.40104
 30
0.0
 40
2.0
 50
0.0
 51
90.0
  0
LINE
  8
LC-001-002-----0
  6
CONTINUOUS
  5
263
 10
234.821934
 20
145.90104
 30
0.0
 11
232.402325
 21
145.90104
 31
0.0
  0
LINE
  8
LC-001-002-----0
  6
CONTINUOUS
  5
264
 10
231.402325
 20
146.90104
 30
0.0
 11
231.721866
 21
150.553406
 31
0.0
  0
LINE
  8
LC-001-002-----0
  6
CONTINUOUS
  5
265
 10
230.898373
 20
150.976613
 30
0.0
 11
227.851313
 21
149.650561
 31
0.0
  0
LINE
  8
LC-001-002-----0
  6
CONTINUOUS
  5
266
 10
227.078704
 20
150.253796
 30
0.0
 11
231.625932
 21
156.848253
 31
0.0
  0
LINE
  8
LC-001-002-----0
  6
CONTINUOUS
  5
267
 10
232.520359
 20
157.40104
 30
0.0
 11
234.821934
 21
157.40104
 31
0.0
  0
LINE
  8
LC-001-002-----0
  6
CONTINUOUS
  5
268
 10
232.402325
 20
145.90104
 30
0.0
 11
149.321934
 21
145.90104
 31
0.0
  0
ARC
  8
LC-002-002-RND-0
  6
CONTINUOUS
  5
269
 10
232.402325
 20
146.90104
 30
0.0
 40
1.0
 50
180.0
 51
270.0
  0
ARC
  8
LC-002-002-RND-0
  6
CONTINUOUS
  5
26A
 10
234.821934
 20
147.90104
 30
0.0
 40
2.0
 50
270.0
 51
0.0
  0
LINE
  8
LC-001-002-----0
  6
CONTINUOUS
  5
26B
 10
236.321934
 20
154.901039
 30
0.0
 11
236.321934
 21
153.40104
 31
0.0
  0
ARC
  8
LC-002-002-RND-0
  6
CONTINUOUS
  5
26C
 10
232.520359
 20
156.40104
 30
0.0
 40
1.0
 50
90.0
 51
153.434949
  0
LINE
  8
LC-001-002-----0
  6
CONTINUOUS
  5
26D
 10
232.520359
 20
157.40104
 30
0.0
 11
149.321934
 21
157.40104
 31
0.0
  0
LINE
  8
LC-001-002-----0
  6
CONTINUOUS
  5
26E
 10
236.321934
 20
152.401039
 30
0.0
 11
236.321934
 21
150.90104
 31
0.0
  0
LINE
  8
LC-001-002-----0
  6
CONTINUOUS
  5
26F
 10
236.321934
 20
149.901039
 30
0.0
 11
236.321934
 21
148.40104
 31
0.0
  0
ARC
  8
LC-002-002-RND-0
  6
CONTINUOUS
  5
270
 10
227.525917
 20
150.030189
 30
0.0
 40
0.5
 50
153.434949
 51
310.601295
  0
ARC
  8
LC-002-002-RND-0
  6
CONTINUOUS
  5
271
 10
231.223769
 20
150.596984
 30
0.0
 40
0.5
 50
355.0
 51
130.601295
  0
LINE
  8
LC-001-002-----0
  6
CONTINUOUS
  5
272
 10
227.525917
 20
149.530189
 30
0.0
 11
149.321934
 21
149.530189
 31
0.0
  0
LINE
  8
LC-001-002-----0
  6
CONTINUOUS
  5
273
 10
57.571934
 20
84.189299
 30
0.0
 11
82.571934
 21
84.189299
 31
0.0
  0
LINE
  8
LC-001-002-----0
  6
CONTINUOUS
  5
274
 10
82.571934
 20
84.189299
 30
0.0
 11
82.571934
 21
83.189299
 31
0.0
  0
ARC
  8
LC-001-002-----0
  6
CONTINUOUS
  5
275
 10
57.571934
 20
88.189299
 30
0.0
 40
4.0
 50
195.0
 51
270.0
  0
ARC
  8
LC-001-002-----0
  6
CONTINUOUS
  5
276
 10
57.571934
 20
88.189299
 30
0.0
 40
5.0
 50
195.0
 51
270.0
  0
LINE
  8
LC-001-002-----0
  6
CONTINUOUS
  5
277
 10
20.063811
 20
205.989299
 30
0.0
 11
-35.401535
 21
205.989299
 31
0.0
  0
LINE
  8
LC-001-002-----0
  6
CONTINUOUS
  5
278
 10
53.70823
 20
87.154023
 30
0.0
 11
21.995663
 21
205.506937
 31
0.0
  0
LINE
  8
LC-001-002-----0
  6
CONTINUOUS
  5
279
 10
20.063811
 20
206.989299
 30
0.0
 11
-35.401535
 21
206.989299
 31
0.0
  0
LINE
  8
LC-001-002-----0
  6
CONTINUOUS
  5
27A
 10
52.742305
 20
86.895204
 30
0.0
 11
21.029737
 21
205.248118
 31
0.0
  0
LINE
  8
LC-001-002-----0
  6
CONTINUOUS
  5
27B
 10
57.571934
 20
83.189299
 30
0.0
 11
82.571934
 21
83.189299
 31
0.0
  0
LINE
  8
LC-001-002-----0
  6
CONTINUOUS
  5
27C
 10
57.571934
 20
82.189299
 30
0.0
 11
89.321934
 21
82.189299
 31
0.0
  0
LINE
  8
LC-001-002-----0
  6
CONTINUOUS
  5
27D
 10
100.321934
 20
16.189299
 30
0.0
 11
149.321934
 21
16.189299
 31
0.0
  0
LINE
  8
LC-001-002-----0
  6
CONTINUOUS
  5
27E
 10
94.321934
 20
77.189299
 30
0.0
 11
94.321934
 21
22.189299
 31
0.0
  0
ARC
  8
LC-002-002-RND-0
  6
CONTINUOUS
  5
27F
 10
89.321934
 20
77.189299
 30
0.0
 40
5.0
 50
0.0
 51
90.0
  0
ARC
  8
LC-002-002-RND-0
  6
CONTINUOUS
  5
280
 10
100.321934
 20
22.189299
 30
0.0
 40
6.0
 50
180.0
 51
270.0
  0
LINE
  8
LC-001-002-----0
  6
CONTINUOUS
  5
281
 10
103.321934
 20
16.889299
 30
0.0
 11
103.321934
 21
16.189299
 31
0.0
  0
LINE
  8
LC-001-002-----0
  6
CONTINUOUS
  5
282
 10
241.071934
 20
82.189299
 30
0.0
 11
209.321934
 21
82.189299
 31
0.0
  0
LINE
  8
LC-001-002-----0
  6
CONTINUOUS
  5
283
 10
198.321934
 20
16.189299
 30
0.0
 11
149.321934
 21
16.189299
 31
0.0
  0
LINE
  8
LC-001-002-----0
  6
CONTINUOUS
  5
284
 10
204.321934
 20
77.189299
 30
0.0
 11
204.321934
 21
22.189299
 31
0.0
  0
ARC
  8
LC-002-002-RND-0
  6
CONTINUOUS
  5
285
 10
209.321934
 20
77.189299
 30
0.0
 40
5.0
 50
90.0
 51
180.0
  0
ARC
  8
LC-002-002-RND-0
  6
CONTINUOUS
  5
286
 10
198.321934
 20
22.189299
 30
0.0
 40
6.0
 50
270.0
 51
0.0
  0
LINE
  8
LC-001-002-----0
  6
CONTINUOUS
  5
287
 10
195.321934
 20
16.889299
 30
0.0
 11
195.321934
 21
16.189299
 31
0.0
  0
LINE
  8
LC-004-006-MLN-0
  6
DASHDOT
  5
28B
 10
149.321934
 20
6.189299
 30
0.0
 11
149.321934
 21
179.193933
 31
0.0
  0
ARC
  8
LC-002-002-RND-0
  6
CONTINUOUS
  5
28C
 10
57.571934
 20
89.189299
 30
0.0
 40
7.0
 50
180.0
 51
270.0
  0
ARC
  8
LC-002-002-RND-0
  6
CONTINUOUS
  5
28D
 10
241.071934
 20
89.189299
 30
0.0
 40
7.0
 50
270.0
 51
360.0
  0
LINE
  8
LC-001-002-----0
  6
CONTINUOUS
  5
28E
 10
-35.401535
 20
205.989299
 30
0.0
 11
-35.401535
 21
206.989299
 31
0.0
  0
ARC
  8
LC-002-002-RND-0
  6
CONTINUOUS
  5
28F
 10
20.063811
 20
204.989299
 30
0.0
 40
1.0
 50
15.0
 51
90.0
  0
ARC
  8
LC-002-002-RND-0
  6
CONTINUOUS
  5
290
 10
20.063811
 20
204.989299
 30
0.0
 40
2.0
 50
15.0
 51
90.0
  0
LINE
  8
LC-004-006-MLN-0
  6
DASHDOT
  5
291
 10
541.167779
 20
235.839299
 30
0.0
 11
541.167779
 21
-12.660701
 31
0.0
  0
LINE
  8
LC-004-006-MLN-0
  6
DASHDOT
  5
292
 10
346.444311
 20
111.589299
 30
0.0
 11
665.417779
 21
111.589299
 31
0.0
  0
ARC
  8
LC-001-002-----0
  6
CONTINUOUS
  5
293
 10
541.167779
 20
111.589299
 30
0.0
 40
97.75
 50
187.346943
 51
292.653057
  0
ARC
  8
LC-001-002-----0
  6
CONTINUOUS
  5
294
 10
541.167779
 20
111.589299
 30
0.0
 40
98.75
 50
187.27214
 51
292.72786
  0
CIRCLE
  8
LC-001-002-----0
  6
CONTINUOUS
  5
295
 10
541.167779
 20
111.589299
 30
0.0
 40
46.0
  0
CIRCLE
  8
LC-001-002-----0
  6
CONTINUOUS
  5
296
 10
541.167779
 20
111.589299
 30
0.0
 40
54.0
  0
CIRCLE
  8
LC-001-002-----0
  6
CONTINUOUS
  5
297
 10
541.167779
 20
111.589299
 30
0.0
 40
60.0
  0
LINE
  8
LC-001-002-----0
  6
CONTINUOUS
  5
298
 10
356.444311
 20
99.089299
 30
0.0
 11
356.444311
 21
124.089299
 31
0.0
  0
LINE
  8
LC-001-002-----0
  6
CONTINUOUS
  5
299
 10
356.444311
 20
124.089299
 30
0.0
 11
450.273266
 21
124.089299
 31
0.0
  0
LINE
  8
LC-001-002-----0
  6
CONTINUOUS
  5
29A
 10
356.444311
 20
99.089299
 30
0.0
 11
450.273266
 21
99.089299
 31
0.0
  0
LINE
  8
LC-005-002-----0
  6
CONTINUOUS
  5
29C
 10
413.444311
 20
99.089299
 30
0.0
 11
413.444311
 21
124.089299
 31
0.0
  0
LINE
  8
LC-004-006-MLN-0
  6
DASHDOT
  5
29D
 10
638.529514
 20
-57.046172
 30
0.0
 11
536.167779
 21
120.249553
 31
0.0
  0
LINE
  8
LC-004-006-MLN-0
  6
DASHDOT
  5
29E
 10
638.529514
 20
280.224769
 30
0.0
 11
536.167779
 21
102.929045
 31
0.0
  0
ARC
  8
LC-001-002-----0
  6
CONTINUOUS
  5
29F
 10
541.167779
 20
111.589299
 30
0.0
 40
98.75
 50
67.27214
 51
172.72786
  0
ARC
  8
LC-001-002-----0
  6
CONTINUOUS
  5
2A0
 10
541.167779
 20
111.589299
 30
0.0
 40
97.75
 50
67.346943
 51
172.653057
  0
ARC
  8
LC-001-002-----0
  6
CONTINUOUS
  5
2A1
 10
541.167779
 20
111.589299
 30
0.0
 40
98.75
 50
307.27214
 51
52.72786
  0
ARC
  8
LC-001-002-----0
  6
CONTINUOUS
  5
2A2
 10
541.167779
 20
111.589299
 30
0.0
 40
97.75
 50
307.346943
 51
52.653057
  0
LINE
  8
LC-001-002-----0
  6
CONTINUOUS
  5
2A3
 10
209.246702
 20
206.989299
 30
0.0
 11
225.359697
 21
206.989299
 31
0.0
  0
LINE
  8
LC-001-002-----0
  6
CONTINUOUS
  5
2A4
 10
225.0544
 20
205.989299
 30
0.0
 11
252.725492
 21
205.989299
 31
0.0
  0
LINE
  8
LC-001-002-----0
  6
CONTINUOUS
  5
2A5
 10
252.725492
 20
205.989299
 30
0.0
 11
252.725492
 21
206.989299
 31
0.0
  0
LINE
  8
LC-001-002-----0
  6
CONTINUOUS
  5
2A6
 10
201.343104
 20
169.193933
 30
0.0
 11
208.263767
 21
206.173255
 31
0.0
  0
LINE
  8
LC-001-002-----0
  6
CONTINUOUS
  5
2A7
 10
217.280399
 20
169.193933
 30
0.0
 11
224.071751
 21
205.174773
 31
0.0
  0
ARC
  8
LC-001-002-----0
  6
CONTINUOUS
  5
2A8
 10
209.246702
 20
205.989299
 30
0.0
 40
1.0
 50
90.0
 51
169.399743
  0
ARC
  8
LC-001-002-----0
  6
CONTINUOUS
  5
2A9
 10
225.0544
 20
204.989299
 30
0.0
 40
1.0
 50
90.0
 51
169.311221
  0
LINE
  8
LC-001-002-----0
  6
CONTINUOUS
  5
2AA
 10
216.568039
 20
169.193933
 30
0.0
 11
223.394399
 21
205.360247
 31
0.0
  0
LINE
  8
LC-001-002-----0
  6
CONTINUOUS
  5
2AB
 10
225.359697
 20
206.989299
 30
0.0
 11
252.725492
 21
206.989299
 31
0.0
  0
ARC
  8
LC-002-002-RND-0
  6
CONTINUOUS
  5
2AC
 10
225.359697
 20
204.989299
 30
0.0
 40
2.0
 50
90.0
 51
169.311221
  0
LINE
  8
LC-001-002-----0
  6
CONTINUOUS
  5
2AD
 10
639.917779
 20
111.339299
 30
0.0
 11
654.855281
 21
111.339299
 31
0.0
  0
LINE
  8
LC-001-002-----0
  6
CONTINUOUS
  5
2AE
 10
636.617659
 20
86.272399
 30
0.0
 11
651.046178
 21
82.40629
 31
0.0
  0
ARC
  8
LC-001-002-----0
  6
CONTINUOUS
  5
2AF
 10
541.167779
 20
111.589299
 30
0.0
 40
113.687776
 50
345.125374
 51
359.874626
  0
LINE
  8
LC-001-002-----0
  6
CONTINUOUS
  5
2B0
 10
247.371934
 20
89.189299
 30
0.0
 11
248.071934
 21
89.189299
 31
0.0
  0
CIRCLE
  8
LC-001-002-----0
  6
CONTINUOUS
  5
2B1
 10
541.167779
 20
111.589299
 30
0.0
 40
91.75
  0
LINE
  8
LC-001-002-----0
  6
CONTINUOUS
  5
2B2
 10
247.371934
 20
89.189299
 30
0.0
 11
263.010221
 21
93.379565
 31
0.0
  0
LINE
  8
LC-001-002-----0
  6
CONTINUOUS
  5
2B3
 10
262.932575
 20
93.669343
 30
0.0
 11
263.010221
 21
93.379565
 31
0.0
  0
LINE
  8
LC-001-002-----0
  6
CONTINUOUS
  5
2B4
 10
241.071934
 20
83.189299
 30
0.0
 11
238.071934
 21
83.189299
 31
0.0
  0
LINE
  8
LC-001-002-----0
  6
CONTINUOUS
  5
2B5
 10
247.294288
 20
89.479076
 30
0.0
 11
262.932575
 21
93.669343
 31
0.0
  0
LINE
  8
LC-001-002-----0
  6
CONTINUOUS
  5
2B6
 10
241.071934
 20
82.889299
 30
0.0
 11
209.321934
 21
82.889299
 31
0.0
  0
LINE
  8
LC-001-002-----0
  6
CONTINUOUS
  5
2B7
 10
234.071934
 20
93.669343
 30
0.0
 11
262.932575
 21
93.669343
 31
0.0
  0
LINE
  8
LC-001-002-----0
  6
CONTINUOUS
  5
2B8
 10
639.917779
 20
111.839299
 30
0.0
 11
654.855281
 21
111.839299
 31
0.0
  0
LINE
  8
LC-001-002-----0
  6
CONTINUOUS
  5
2B9
 10
636.48825
 20
137.389161
 30
0.0
 11
650.916768
 21
141.255271
 31
0.0
  0
LINE
  8
LC-001-002-----0
  6
CONTINUOUS
  5
2BA
 10
626.562788
 20
161.180805
 30
0.0
 11
639.499044
 21
168.649556
 31
0.0
  0
LINE
  8
LC-001-002-----0
  6
CONTINUOUS
  5
2BB
 10
610.817797
 20
181.59287
 30
0.0
 11
621.380206
 21
192.155279
 31
0.0
  0
LINE
  8
LC-001-002-----0
  6
CONTINUOUS
  5
2BC
 10
566.484679
 20
207.039179
 30
0.0
 11
570.350788
 21
221.467697
 31
0.0
  0
LINE
  8
LC-001-002-----0
  6
CONTINUOUS
  5
2BD
 10
540.917779
 20
210.339299
 30
0.0
 11
540.917779
 21
225.2768
 31
0.0
  0
LINE
  8
LC-001-002-----0
  6
CONTINUOUS
  5
2BE
 10
515.367917
 20
206.909769
 30
0.0
 11
511.501807
 21
221.338288
 31
0.0
  0
LINE
  8
LC-001-002-----0
  6
CONTINUOUS
  5
2BF
 10
491.576273
 20
196.984307
 30
0.0
 11
484.107522
 21
209.920563
 31
0.0
  0
LINE
  8
LC-001-002-----0
  6
CONTINUOUS
  5
2C0
 10
471.164208
 20
181.239317
 30
0.0
 11
460.6018
 21
191.801725
 31
0.0
  0
LINE
  8
LC-001-002-----0
  6
CONTINUOUS
  5
2C1
 10
455.522771
 20
160.747792
 30
0.0
 11
442.586515
 21
168.216543
 31
0.0
  0
LINE
  8
LC-001-002-----0
  6
CONTINUOUS
  5
2C2
 10
445.717899
 20
136.906198
 30
0.0
 11
431.289381
 21
140.772308
 31
0.0
  0
LINE
  8
LC-001-002-----0
  6
CONTINUOUS
  5
2C3
 10
445.847309
 20
85.789437
 30
0.0
 11
431.418791
 21
81.923327
 31
0.0
  0
LINE
  8
LC-001-002-----0
  6
CONTINUOUS
  5
2C4
 10
455.772771
 20
61.997792
 30
0.0
 11
442.836515
 21
54.529042
 31
0.0
  0
LINE
  8
LC-001-002-----0
  6
CONTINUOUS
  5
2C5
 10
471.517761
 20
41.585727
 30
0.0
 11
460.955353
 21
31.023319
 31
0.0
  0
LINE
  8
LC-001-002-----0
  6
CONTINUOUS
  5
2C6
 10
492.009286
 20
25.94429
 30
0.0
 11
484.540535
 21
13.008035
 31
0.0
  0
LINE
  8
LC-001-002-----0
  6
CONTINUOUS
  5
2C7
 10
515.85088
 20
16.139419
 30
0.0
 11
511.98477
 21
1.7109
 31
0.0
  0
LINE
  8
LC-001-002-----0
  6
CONTINUOUS
  5
2C8
 10
541.417779
 20
12.839299
 30
0.0
 11
541.417779
 21
-2.098203
 31
0.0
  0
LINE
  8
LC-001-002-----0
  6
CONTINUOUS
  5
2C9
 10
566.967642
 20
16.268828
 30
0.0
 11
570.833751
 21
1.84031
 31
0.0
  0
LINE
  8
LC-001-002-----0
  6
CONTINUOUS
  5
2CA
 10
611.171351
 20
41.939281
 30
0.0
 11
621.733759
 21
31.376872
 31
0.0
  0
LINE
  8
LC-001-002-----0
  6
CONTINUOUS
  5
2CB
 10
626.812788
 20
62.430805
 30
0.0
 11
639.749044
 21
54.962054
 31
0.0
  0
LINE
  8
LC-001-002-----0
  6
CONTINUOUS
  5
2CC
 10
636.617659
 20
136.906198
 30
0.0
 11
651.046178
 21
140.772308
 31
0.0
  0
LINE
  8
LC-001-002-----0
  6
CONTINUOUS
  5
2CD
 10
626.812788
 20
160.747792
 30
0.0
 11
639.749044
 21
168.216543
 31
0.0
  0
LINE
  8
LC-001-002-----0
  6
CONTINUOUS
  5
2CE
 10
611.171351
 20
181.239317
 30
0.0
 11
621.733759
 21
191.801725
 31
0.0
  0
LINE
  8
LC-001-002-----0
  6
CONTINUOUS
  5
2CF
 10
566.967642
 20
206.909769
 30
0.0
 11
570.833751
 21
221.338288
 31
0.0
  0
LINE
  8
LC-001-002-----0
  6
CONTINUOUS
  5
2D0
 10
541.417779
 20
210.339299
 30
0.0
 11
541.417779
 21
225.2768
 31
0.0
  0
LINE
  8
LC-001-002-----0
  6
CONTINUOUS
  5
2D1
 10
515.85088
 20
207.039179
 30
0.0
 11
511.98477
 21
221.467697
 31
0.0
  0
LINE
  8
LC-001-002-----0
  6
CONTINUOUS
  5
2D2
 10
492.009286
 20
197.234307
 30
0.0
 11
484.540535
 21
210.170563
 31
0.0
  0
LINE
  8
LC-001-002-----0
  6
CONTINUOUS
  5
2D3
 10
471.517761
 20
181.59287
 30
0.0
 11
460.955353
 21
192.155279
 31
0.0
  0
LINE
  8
LC-001-002-----0
  6
CONTINUOUS
  5
2D4
 10
455.772771
 20
161.180805
 30
0.0
 11
442.836515
 21
168.649556
 31
0.0
  0
LINE
  8
LC-001-002-----0
  6
CONTINUOUS
  5
2D5
 10
445.847309
 20
137.389161
 30
0.0
 11
431.418791
 21
141.255271
 31
0.0
  0
LINE
  8
LC-001-002-----0
  6
CONTINUOUS
  5
2D6
 10
445.717899
 20
86.272399
 30
0.0
 11
431.289381
 21
82.40629
 31
0.0
  0
LINE
  8
LC-001-002-----0
  6
CONTINUOUS
  5
2D7
 10
455.522771
 20
62.430805
 30
0.0
 11
442.586515
 21
54.962054
 31
0.0
  0
LINE
  8
LC-001-002-----0
  6
CONTINUOUS
  5
2D8
 10
471.164208
 20
41.939281
 30
0.0
 11
460.6018
 21
31.376872
 31
0.0
  0
LINE
  8
LC-001-002-----0
  6
CONTINUOUS
  5
2D9
 10
491.576273
 20
26.19429
 30
0.0
 11
484.107522
 21
13.258035
 31
0.0
  0
LINE
  8
LC-001-002-----0
  6
CONTINUOUS
  5
2DA
 10
515.367917
 20
16.268828
 30
0.0
 11
511.501807
 21
1.84031
 31
0.0
  0
LINE
  8
LC-001-002-----0
  6
CONTINUOUS
  5
2DB
 10
540.917779
 20
12.839299
 30
0.0
 11
540.917779
 21
-2.098203
 31
0.0
  0
LINE
  8
LC-001-002-----0
  6
CONTINUOUS
  5
2DC
 10
566.484679
 20
16.139419
 30
0.0
 11
570.350788
 21
1.7109
 31
0.0
  0
LINE
  8
LC-001-002-----0
  6
CONTINUOUS
  5
2DD
 10
610.817797
 20
41.585727
 30
0.0
 11
621.380206
 21
31.023319
 31
0.0
  0
LINE
  8
LC-001-002-----0
  6
CONTINUOUS
  5
2DE
 10
626.562788
 20
61.997792
 30
0.0
 11
639.499044
 21
54.529042
 31
0.0
  0
LINE
  8
LC-001-002-----0
  6
CONTINUOUS
  5
2DF
 10
636.48825
 20
85.789437
 30
0.0
 11
650.916768
 21
81.923327
 31
0.0
  0
ARC
  8
LC-001-002-----0
  6
CONTINUOUS
  5
2E0
 10
541.167779
 20
111.589299
 30
0.0
 40
113.687776
 50
0.125374
 51
14.874626
  0
ARC
  8
LC-001-002-----0
  6
CONTINUOUS
  5
2E1
 10
541.167779
 20
111.589299
 30
0.0
 40
113.687776
 50
15.125374
 51
29.874626
  0
ARC
  8
LC-001-002-----0
  6
CONTINUOUS
  5
2E2
 10
541.167779
 20
111.589299
 30
0.0
 40
113.687776
 50
30.125374
 51
44.874626
  0
ARC
  8
LC-001-002-----0
  6
CONTINUOUS
  5
2E3
 10
541.167779
 20
111.589299
 30
0.0
 40
113.687776
 50
45.125374
 51
53.687552
  0
ARC
  8
LC-001-002-----0
  6
CONTINUOUS
  5
2E4
 10
541.167779
 20
111.589299
 30
0.0
 40
113.687776
 50
66.312448
 51
74.874626
  0
ARC
  8
LC-001-002-----0
  6
CONTINUOUS
  5
2E5
 10
541.167779
 20
111.589299
 30
0.0
 40
113.687776
 50
75.125374
 51
89.874626
  0
ARC
  8
LC-001-002-----0
  6
CONTINUOUS
  5
2E6
 10
541.167779
 20
111.589299
 30
0.0
 40
113.687776
 50
90.125374
 51
104.874626
  0
ARC
  8
LC-001-002-----0
  6
CONTINUOUS
  5
2E7
 10
541.167779
 20
111.589299
 30
0.0
 40
113.687776
 50
105.125374
 51
119.874626
  0
ARC
  8
LC-001-002-----0
  6
CONTINUOUS
  5
2E8
 10
541.167779
 20
111.589299
 30
0.0
 40
113.687776
 50
120.125374
 51
134.874626
  0
ARC
  8
LC-001-002-----0
  6
CONTINUOUS
  5
2E9
 10
541.167779
 20
111.589299
 30
0.0
 40
113.687776
 50
135.125374
 51
149.874626
  0
ARC
  8
LC-001-002-----0
  6
CONTINUOUS
  5
2EA
 10
541.167779
 20
111.589299
 30
0.0
 40
113.687776
 50
150.125374
 51
164.874626
  0
ARC
  8
LC-001-002-----0
  6
CONTINUOUS
  5
2EB
 10
541.167779
 20
111.589299
 30
0.0
 40
113.687776
 50
165.125374
 51
173.687552
  0
ARC
  8
LC-001-002-----0
  6
CONTINUOUS
  5
2EC
 10
541.167779
 20
111.589299
 30
0.0
 40
113.687776
 50
186.312448
 51
194.874626
  0
ARC
  8
LC-001-002-----0
  6
CONTINUOUS
  5
2ED
 10
541.167779
 20
111.589299
 30
0.0
 40
113.687776
 50
195.125374
 51
209.874626
  0
ARC
  8
LC-001-002-----0
  6
CONTINUOUS
  5
2EE
 10
541.167779
 20
111.589299
 30
0.0
 40
113.687776
 50
210.125374
 51
224.874626
  0
ARC
  8
LC-001-002-----0
  6
CONTINUOUS
  5
2EF
 10
541.167779
 20
111.589299
 30
0.0
 40
113.687776
 50
225.125374
 51
239.874626
  0
ARC
  8
LC-001-002-----0
  6
CONTINUOUS
  5
2F0
 10
541.167779
 20
111.589299
 30
0.0
 40
113.687776
 50
240.125374
 51
254.874626
  0
ARC
  8
LC-001-002-----0
  6
CONTINUOUS
  5
2F1
 10
541.167779
 20
111.589299
 30
0.0
 40
113.687776
 50
255.125374
 51
269.874626
  0
ARC
  8
LC-001-002-----0
  6
CONTINUOUS
  5
2F2
 10
541.167779
 20
111.589299
 30
0.0
 40
113.687776
 50
270.125374
 51
284.874626
  0
ARC
  8
LC-001-002-----0
  6
CONTINUOUS
  5
2F3
 10
541.167779
 20
111.589299
 30
0.0
 40
113.687776
 50
285.125374
 51
293.687552
  0
ARC
  8
LC-001-002-----0
  6
CONTINUOUS
  5
2F4
 10
541.167779
 20
111.589299
 30
0.0
 40
113.687776
 50
306.312448
 51
314.874626
  0
ARC
  8
LC-001-002-----0
  6
CONTINUOUS
  5
2F5
 10
541.167779
 20
111.589299
 30
0.0
 40
113.687776
 50
315.125374
 51
329.874626
  0
ARC
  8
LC-001-002-----0
  6
CONTINUOUS
  5
2F6
 10
541.167779
 20
111.589299
 30
0.0
 40
113.687776
 50
330.125374
 51
344.874626
  0
LINE
  8
LC-001-002-----0
  6
CONTINUOUS
  5
2F7
 10
95.021934
 20
77.189299
 30
0.0
 11
95.021934
 21
22.189299
 31
0.0
  0
ARC
  8
LC-001-002-----0
  6
CONTINUOUS
  5
2F8
 10
57.571934
 20
89.189299
 30
0.0
 40
6.3
 50
180.0
 51
270.0
  0
ARC
  8
LC-001-002-----0
  6
CONTINUOUS
  5
2F9
 10
100.321934
 20
22.189299
 30
0.0
 40
5.3
 50
180.0
 51
270.0
  0
ARC
  8
LC-001-002-----0
  6
CONTINUOUS
  5
2FA
 10
198.321934
 20
22.189299
 30
0.0
 40
5.3
 50
270.0
 51
0.0
  0
ARC
  8
LC-001-002-----0
  6
CONTINUOUS
  5
2FB
 10
241.071934
 20
89.189299
 30
0.0
 40
6.3
 50
270.0
 51
0.0
  0
ARC
  8
LC-001-002-----0
  6
CONTINUOUS
  5
2FC
 10
241.071934
 20
89.189299
 30
0.0
 40
6.0
 50
270.0
 51
0.0
  0
ARC
  8
LC-001-002-----0
  6
CONTINUOUS
  5
2FD
 10
241.071934
 20
89.189299
 30
0.0
 40
6.3
 50
270.0
 51
0.0
  0
ARC
  8
LC-002-002-RND-0
  6
CONTINUOUS
  5
2FE
 10
247.371934
 20
89.189299
 30
0.0
 40
0.3
 50
105.0
 51
180.0
  0
LINE
  8
LC-001-002-----0
  6
CONTINUOUS
  5
2FF
 10
51.271934
 20
89.189299
 30
0.0
 11
35.633646
 21
93.379565
 31
0.0
  0
LINE
  8
LC-001-002-----0
  6
CONTINUOUS
  5
300
 10
35.711292
 20
93.669343
 30
0.0
 11
35.633646
 21
93.379565
 31
0.0
  0
LINE
  8
LC-001-002-----0
  6
CONTINUOUS
  5
301
 10
51.349579
 20
89.479076
 30
0.0
 11
35.711292
 21
93.669343
 31
0.0
  0
LINE
  8
LC-001-002-----0
  6
CONTINUOUS
  5
302
 10
57.571934
 20
82.889299
 30
0.0
 11
89.321934
 21
82.889299
 31
0.0
  0
LINE
  8
LC-001-002-----0
  6
CONTINUOUS
  5
303
 10
60.571934
 20
82.889299
 30
0.0
 11
60.571934
 21
83.189299
 31
0.0
  0
ARC
  8
LC-001-002-----0
  6
CONTINUOUS
  5
304
 10
57.571934
 20
89.189299
 30
0.0
 40
6.0
 50
180.0
 51
270.0
  0
ARC
  8
LC-001-002-----0
  6
CONTINUOUS
  5
305
 10
57.571934
 20
89.189299
 30
0.0
 40
6.3
 50
180.0
 51
270.0
  0
ARC
  8
LC-002-002-RND-0
  6
CONTINUOUS
  5
306
 10
51.271934
 20
89.189299
 30
0.0
 40
0.3
 50
0.0
 51
75.0
  0
LINE
  8
LC-001-002-----0
  6
CONTINUOUS
  5
307
 10
644.354831
 20
-42.135918
 30
0.0
 11
622.704196
 21
-54.635918
 31
0.0
  0
LINE
  8
LC-001-002-----0
  6
CONTINUOUS
  5
308
 10
622.704196
 20
-54.635918
 30
0.0
 11
575.789718
 21
26.622341
 31
0.0
  0
LINE
  8
LC-001-002-----0
  6
CONTINUOUS
  5
309
 10
644.354831
 20
-42.135918
 30
0.0
 11
597.440353
 21
39.122341
 31
0.0
  0
LINE
  8
LC-005-002-----0
  6
CONTINUOUS
  5
30A
 10
615.854831
 20
7.22753
 30
0.0
 11
594.204196
 21
-5.27247
 31
0.0
  0
LINE
  8
LC-001-002-----0
  6
CONTINUOUS
  5
30B
 10
622.704196
 20
277.814515
 30
0.0
 11
644.354831
 21
265.314515
 31
0.0
  0
LINE
  8
LC-001-002-----0
  6
CONTINUOUS
  5
30C
 10
644.354831
 20
265.314515
 30
0.0
 11
597.440353
 21
184.056256
 31
0.0
  0
LINE
  8
LC-001-002-----0
  6
CONTINUOUS
  5
30D
 10
622.704196
 20
277.814515
 30
0.0
 11
575.789718
 21
196.556256
 31
0.0
  0
LINE
  8
LC-005-002-----0
  6
CONTINUOUS
  5
30E
 10
594.204196
 20
228.451067
 30
0.0
 11
615.854831
 21
215.951067
 31
0.0
  0
LINE
  8
LC-005-002-----0
  6
CONTINUOUS
  5
30F
 10
446.330533
 20
124.089299
 30
0.0
 11
446.330533
 21
99.089299
 31
0.0
  0
LINE
  8
LC-005-002-----0
  6
CONTINUOUS
  5
310
 10
577.761085
 20
23.207834
 30
0.0
 11
599.41172
 21
35.707834
 31
0.0
  0
LINE
  8
LC-005-002-----0
  6
CONTINUOUS
  5
311
 10
599.41172
 20
187.470763
 30
0.0
 11
577.761085
 21
199.970763
 31
0.0
  0
LINE
  8
LC-001-002-----0
  6
CONTINUOUS
  5
312
 10
203.621934
 20
77.189299
 30
0.0
 11
203.621934
 21
22.189299
 31
0.0
  0
ARC
  8
LC-001-002-----0
  6
CONTINUOUS
  5
313
 10
198.321934
 20
22.189299
 30
0.0
 40
5.3
 50
270.0
 51
0.0
  0
ARC
  8
LC-001-002-----0
  6
CONTINUOUS
  5
314
 10
209.321934
 20
77.189299
 30
0.0
 40
5.7
 50
90.0
 51
180.0
  0
LINE
  8
LC-001-002-----0
  6
CONTINUOUS
  5
315
 10
241.071934
 20
83.189299
 30
0.0
 11
238.071934
 21
83.189299
 31
0.0
  0
LINE
  8
LC-001-002-----0
  6
CONTINUOUS
  5
316
 10
238.071934
 20
82.889299
 30
0.0
 11
238.071934
 21
83.189299
 31
0.0
  0
ARC
  8
LC-001-002-----0
  6
CONTINUOUS
  5
317
 10
241.071934
 20
89.189299
 30
0.0
 40
6.0
 50
270.0
 51
0.0
  0
LINE
  8
LC-001-002-----0
  6
CONTINUOUS
  5
318
 10
238.071934
 20
82.889299
 30
0.0
 11
209.321934
 21
82.889299
 31
0.0
  0
LINE
  8
LC-001-002-----0
  6
CONTINUOUS
  5
319
 10
195.321934
 20
89.189299
 30
0.0
 11
195.321934
 21
16.889299
 31
0.0
  0
LINE
  8
LC-001-002-----0
  6
CONTINUOUS
  5
31A
 10
230.321934
 20
84.189299
 30
0.0
 11
230.321934
 21
89.189299
 31
0.0
  0
LINE
  8
LC-001-002-----0
  6
CONTINUOUS
  5
31B
 10
247.071934
 20
89.189299
 30
0.0
 11
234.071934
 21
89.189299
 31
0.0
  0
LINE
  8
LC-001-002-----0
  6
CONTINUOUS
  5
31C
 10
198.321934
 20
16.889299
 30
0.0
 11
149.321934
 21
16.889299
 31
0.0
  0
LINE
  8
LC-001-002-----0
  6
CONTINUOUS
  5
31D
 10
230.321934
 20
89.189299
 30
0.0
 11
149.321934
 21
89.189299
 31
0.0
  0
LINE
  8
LC-004-006-MLN-0
  6
DASHDOT
  5
31E
 10
149.321934
 20
6.189299
 30
0.0
 11
149.321934
 21
99.389299
 31
0.0
  0
LINE
  8
LC-001-002-----0
  6
CONTINUOUS
  5
31F
 10
95.021934
 20
77.189299
 30
0.0
 11
95.021934
 21
22.189299
 31
0.0
  0
ARC
  8
LC-001-002-----0
  6
CONTINUOUS
  5
320
 10
100.321934
 20
22.189299
 30
0.0
 40
5.3
 50
180.0
 51
270.0
  0
ARC
  8
LC-001-002-----0
  6
CONTINUOUS
  5
321
 10
89.321934
 20
77.189299
 30
0.0
 40
5.7
 50
0.0
 51
90.0
  0
LINE
  8
LC-001-002-----0
  6
CONTINUOUS
  5
322
 10
57.571934
 20
83.189299
 30
0.0
 11
60.571934
 21
83.189299
 31
0.0
  0
LINE
  8
LC-001-002-----0
  6
CONTINUOUS
  5
323
 10
60.571934
 20
82.889299
 30
0.0
 11
60.571934
 21
83.189299
 31
0.0
  0
ARC
  8
LC-001-002-----0
  6
CONTINUOUS
  5
324
 10
57.571934
 20
89.189299
 30
0.0
 40
6.0
 50
180.0
 51
270.0
  0
LINE
  8
LC-001-002-----0
  6
CONTINUOUS
  5
325
 10
60.571934
 20
82.889299
 30
0.0
 11
89.321934
 21
82.889299
 31
0.0
  0
LINE
  8
LC-001-002-----0
  6
CONTINUOUS
  5
326
 10
103.321934
 20
89.189299
 30
0.0
 11
103.321934
 21
16.889299
 31
0.0
  0
LINE
  8
LC-001-002-----0
  6
CONTINUOUS
  5
327
 10
64.571934
 20
84.189299
 30
0.0
 11
64.571934
 21
89.189299
 31
0.0
  0
LINE
  8
LC-001-002-----0
  6
CONTINUOUS
  5
328
 10
51.571934
 20
89.189299
 30
0.0
 11
52.127604
 21
89.189299
 31
0.0
  0
LINE
  8
LC-001-002-----0
  6
CONTINUOUS
  5
329
 10
100.321934
 20
16.889299
 30
0.0
 11
149.321934
 21
16.889299
 31
0.0
  0
LINE
  8
LC-001-002-----0
  6
CONTINUOUS
  5
32A
 10
68.321934
 20
89.189299
 30
0.0
 11
149.321934
 21
89.189299
 31
0.0
  0
LINE
  8
LC-001-002-----0
  6
CONTINUOUS
  5
32B
 10
64.571934
 20
93.669343
 30
0.0
 11
51.962456
 21
93.669343
 31
0.0
  0
LINE
  8
LC-001-002-----0
  6
CONTINUOUS
  5
32C
 10
51.271934
 20
89.189299
 30
0.0
 11
35.633646
 21
93.379565
 31
0.0
  0
LINE
  8
LC-001-002-----0
  6
CONTINUOUS
  5
32D
 10
51.349579
 20
89.479076
 30
0.0
 11
35.711292
 21
93.669343
 31
0.0
  0
LINE
  8
LC-001-002-----0
  6
CONTINUOUS
  5
32E
 10
53.16288
 20
89.189299
 30
0.0
 11
64.571934
 21
89.189299
 31
0.0
  0
LINE
  8
LC-001-002-----0
  6
CONTINUOUS
  5
32F
 10
50.927179
 20
93.669343
 30
0.0
 11
35.711292
 21
93.669343
 31
0.0
  0
ENDSEC
  0
EOF
