  0
SECTION
  2
HEADER
  9
$ACADVER
  1
AC1009
  9
$INSBASE
 10
0.0
 20
0.0
 30
0.0
  9
$EXTMIN
 10
0.0
 20
0.0
 30
0.0
  9
$EXTMAX
 10
840.0
 20
594.0
 30
0.0
  9
$LIMMIN
 10
0.0
 20
0.0
  9
$LIMMAX
 10
840.0
 20
594.0
  9
$ORTHOMODE
 70
     0
  9
$REGENMODE
 70
     1
  9
$FILLMODE
 70
     1
  9
$QTEXTMODE
 70
     0
  9
$MIRRTEXT
 70
     1
  9
$DRAGMODE
 70
     2
  9
$LTSCALE
 40
2.0
  9
$OSMODE
 70
     0
  9
$ATTMODE
 70
     1
  9
$TEXTSIZE
 40
0.2
  9
$TRACEWID
 40
0.05
  9
$TEXTSTYLE
  7
STANDARD
  9
$CLAYER
  8
0
  9
$CELTYPE
  6
BYLAYER
  9
$CECOLOR
 62
     7
  9
$DIMSCALE
 40
2.0
  9
$DIMASZ
 40
3.5
  9
$DIMEXO
 40
0.0625
  9
$DIMDLI
 40
0.38
  9
$DIMRND
 40
0.0
  9
$DIMDLE
 40
0.0
  9
$DIMEXE
 40
0.18
  9
$DIMTP
 40
0.0
  9
$DIMTM
 40
0.0
  9
$DIMTXT
 40
3.5
  9
$DIMCEN
 40
0.09
  9
$DIMTSZ
 40
0.0
  9
$DIMTOL
 70
     0
  9
$DIMLIM
 70
     0
  9
$DIMTIH
 70
     1
  9
$DIMTOH
 70
     1
  9
$DIMSE1
 70
     0
  9
$DIMSE2
 70
     0
  9
$DIMTAD
 70
     1
  9
$DIMZIN
 70
     0
  9
$DIMBLK
  1

  9
$DIMASO
 70
     1
  9
$DIMSHO
 70
     1
  9
$DIMPOST
  1

  9
$DIMAPOST
  1

  9
$DIMALT
 70
     0
  9
$DIMALTD
 70
     2
  9
$DIMALTF
 40
25.4
  9
$DIMLFAC
 40
1.0
  9
$DIMTOFL
 70
     0
  9
$DIMTVP
 40
0.0
  9
$DIMTIX
 70
     0
  9
$DIMSOXD
 70
     0
  9
$DIMSAH
 70
     0
  9
$DIMBLK1
  1

  9
$DIMBLK2
  1

  9
$DIMSTYLE
  2
STANDARD
  9
$DIMCLRD
 70
     0
  9
$DIMCLRE
 70
     0
  9
$DIMCLRT
 70
     0
  9
$DIMTFAC
 40
1.0
  9
$DIMGAP
 40
0.09
  9
$LUNITS
 70
     2
  9
$LUPREC
 70
     2
  9
$AXISMODE
 70
     0
  9
$AXISUNIT
 10
0.0
 20
0.0
  9
$SKETCHINC
 40
0.1
  9
$FILLETRAD
 40
0.0
  9
$AUNITS
 70
     0
  9
$AUPREC
 70
     0
  9
$MENU
  1
acad
  9
$ELEVATION
 40
0.0
  9
$PELEVATION
 40
0.0
  9
$THICKNESS
 40
0.0
  9
$LIMCHECK
 70
     0
  9
$BLIPMODE
 70
     1
  9
$CHAMFERA
 40
0.0
  9
$CHAMFERB
 40
0.0
  9
$SKPOLY
 70
     0
  9
$TDCREATE
 40
0.000000000
  9
$TDUPDATE
 40
0.000000000
  9
$TDINDWG
 40
0.0000000000
  9
$TDUSRTIMER
 40
0.0000000000
  9
$USRTIMER
 70
     1
  9
$ANGBASE
 50
0.0
  9
$ANGDIR
 70
     0
  9
$PDMODE
 70
     0
  9
$PDSIZE
 40
0.0
  9
$PLINEWID
 40
0.0
  9
$COORDS
 70
     0
  9
$SPLFRAME
 70
     0
  9
$SPLINETYPE
 70
     6
  9
$SPLINESEGS
 70
     8
  9
$ATTDIA
 70
     0
  9
$ATTREQ
 70
     1
  9
$HANDLING
 70
     1
  9
$HANDSEED
  5
9D
  9
$SURFTAB1
 70
     6
  9
$SURFTAB2
 70
     6
  9
$SURFTYPE
 70
     6
  9
$SURFU
 70
     6
  9
$SURFV
 70
     6
  9
$UCSNAME
  2

  9
$UCSORG
 10
0.0
 20
0.0
 30
0.0
  9
$UCSXDIR
 10
1.0
 20
0.0
 30
0.0
  9
$UCSYDIR
 10
0.0
 20
1.0
 30
0.0
  9
$PUCSNAME
  2

  9
$PUCSORG
 10
0.0
 20
0.0
 30
0.0
  9
$PUCSXDIR
 10
1.0
 20
0.0
 30
0.0
  9
$PUCSYDIR
 10
0.0
 20
1.0
 30
0.0
  9
$USERI1
 70
     0
  9
$USERI2
 70
     0
  9
$USERI3
 70
     0
  9
$USERI4
 70
     0
  9
$USERI5
 70
     0
  9
$USERR1
 40
0.0
  9
$USERR2
 40
0.0
  9
$USERR3
 40
0.0
  9
$USERR4
 40
0.0
  9
$USERR5
 40
0.0
  9
$WORLDVIEW
 70
     1
  9
$SHADEDGE
 70
     3
  9
$SHADEDIF
 70
    70
  9
$TILEMODE
 70
     1
  9
$MAXACTVP
 70
    16
  9
$PINSBASE
 10
0.0
 20
0.0
 30
0.0
  9
$PLIMCHECK
 70
     0
  9
$PEXTMIN
 10
1.000000E+20
 20
1.000000E+20
 30
1.000000E+20
  9
$PEXTMAX
 10
-1.000000E+20
 20
-1.000000E+20
 30
-1.000000E+20
  9
$PLIMMIN
 10
0.0
 20
0.0
  9
$PLIMMAX
 10
840.0
 20
594.0
  9
$UNITMODE
 70
     0
  9
$VISRETAIN
 70
     0
  9
$PLINEGEN
 70
     1
  9
$PSLTSCALE
 70
     0
  9
$TREEDEPTH
 70
  3020
  9
$DWGCODEPAGE
  3
dos850
  0
ENDSEC
  0
SECTION
  2
TABLES
  0
TABLE
  2
VPORT
 70
     1
  0
VPORT
  2
*ACTIVE
 70
     0
 10
0.0
 20
0.0
 11
1.0
 21
1.0
 12
420.0
 22
297.0
 13
0.0
 23
0.0
 14
1.0
 24
1.0
 15
0.0
 25
0.0
 16
0.0
 26
0.0
 36
1.0
 17
0.0
 27
0.0
 37
0.0
 40
594.0
 41
1.604229
 42
50.0
 43
0.0
 44
0.0
 50
0.0
 51
0.0
 71
     0
 72
   100
 73
     1
 74
     1
 75
     0
 76
     0
 77
     0
 78
     0
  0
ENDTAB
  0
TABLE
  2
LTYPE
 70
     1
  0
LTYPE
  2
CONTINUOUS
 70
    64
  3
Solid line
 72
    65
 73
     0
 40
0.0
  0
ENDTAB
  0
TABLE
  2
LAYER
 70
     8
  0
LAYER
  2
0
 70
     0
 62
     7
  6
CONTINUOUS
  0
LAYER
  2
LC-INFO-1-2-MM-A3-0
 70
     1
 62
    -1
  6
CONTINUOUS
  0
LAYER
  2
LC-002-003-MTH-0
 70
     0
 62
     2
  6
CONTINUOUS
  0
LAYER
  2
LC-003-003-MTG-0
 70
     0
 62
     2
  6
CONTINUOUS
  0
LAYER
  2
LC-001-003-----0
 70
     0
 62
     2
  6
CONTINUOUS
  0
LAYER
  2
LC-004-002-----0
 70
     0
 62
     1
  6
CONTINUOUS
  0
LAYER
  2
LC-005-002-RND-0
 70
     0
 62
     1
  6
CONTINUOUS
  0
LAYER
  2
LC-000
 70
     0
 62
     7
  6
CONTINUOUS
  0
ENDTAB
  0
TABLE
  2
STYLE
 70
     4
  0
STYLE
  2
STANDARD
 70
     0
 40
0.0
 41
1.0
 50
0.0
 71
     0
 42
0.0
  3
txt
  4

  0
STYLE
  2
LC-STANDARD
 70
    64
 40
0.0
 41
1.0
 50
0.0
 71
     0
 42
3.5
  3
MONOTXT
  4

  0
STYLE
  2
LC-TXTSTYLE-150-400-0-0-A2
 70
    64
 40
0.0
 41
1.0
 50
15.0
 71
     0
 42
3.5
  3
MONOTXT
  4

  0
STYLE
  2
LC-TXTSTYLE-150-400-0-0-D3
 70
    64
 40
0.0
 41
1.0
 50
15.0
 71
     0
 42
3.5
  3
LC-STANDARD
  4

  0
ENDTAB
  0
TABLE
  2
VIEW
 70
     0
  0
ENDTAB
  0
TABLE
  2
UCS
 70
     0
  0
ENDTAB
  0
TABLE
  2
APPID
 70
     1
  0
APPID
  2
ACAD
 70
     0
  0
ENDTAB
  0
TABLE
  2
DIMSTYLE
 70
     3
  0
DIMSTYLE
  2
STANDARD
 70
     0
  3

  4

  5

  6

  7

 40
1.0
 41
0.18
 42
0.0625
 43
0.38
 44
0.18
 45
0.0
 46
0.0
 47
0.0
 48
0.0
 71
     0
 72
     0
 73
     1
 74
     1
 75
     0
 76
     0
 77
     0
 78
     0
140
0.18
141
0.09
142
0.0
143
25.4
144
1.0
145
0.0
146
1.0
147
0.09
170
     0
171
     2
172
     0
173
     0
174
     0
175
     0
176
     0
177
     0
178
     0
  0
DIMSTYLE
  2
LC-STANDARD
 70
     0
  3

  4

  5

  6

  7

 40
1.0
 41
3.5
 42
0.0
 43
7.5
 44
1.8
 45
0.0
 46
0.0
 47
0.0
 48
0.0
 71
     0
 72
     0
 73
     0
 74
     0
 75
     0
 76
     0
 77
     1
 78
     8
140
3.5
141
0.0
142
0.0
143
25.4
144
1.0
145
0.0
146
0.71
147
1.5
170
     0
171
     2
172
     1
173
     0
174
     0
175
     0
176
     0
177
     0
178
     3
  0
DIMSTYLE
  2
LC-DIM-L-0140-02-02
 70
     0
  3

  4

  5

  6

  7

 40
2.0
 41
3.5
 42
0.0
 43
7.5
 44
1.8
 45
0.0
 46
0.0
 47
0.0
 48
0.0
 71
     0
 72
     0
 73
     0
 74
     0
 75
     0
 76
     0
 77
     1
 78
     8
140
14.0
141
0.0
142
0.0
143
25.4
144
1.0
145
0.0
146
0.71
147
1.5
170
     0
171
     2
172
     0
173
     0
174
     0
175
     0
176
     2
177
     2
178
     8
  0
ENDTAB
  0
ENDSEC
  0
SECTION
  2
BLOCKS
  0
BLOCK
  8
0
  5
23
  2
*D0
 70
    65
 10
0.0
 20
0.0
 30
0.0
  3
*D0
  0
LINE
  8
LC-002-003-MTH-0
  6
CONTINUOUS
  5
25
 10
366.006299
 20
302.007099
 30
0.0
 11
366.006299
 21
422.8
 31
0.0
  0
LINE
  8
LC-002-003-MTH-0
  6
CONTINUOUS
  5
26
 10
511.006299
 20
302.007099
 30
0.0
 11
511.006299
 21
422.8
 31
0.0
  0
LINE
  8
LC-003-003-MTG-0
  6
CONTINUOUS
  5
28
 10
366.006299
 20
406.0
 30
0.0
 11
511.006299
 21
406.0
 31
0.0
  0
LINE
  8
LC-001-003-----0
  6
CONTINUOUS
  5
2A
 10
393.766755
 20
409.654733
 30
0.0
 11
366.006299
 21
406.0
 31
0.0
  0
LINE
  8
LC-001-003-----0
  6
CONTINUOUS
  5
2B
 10
366.006299
 20
406.0
 30
0.0
 11
393.766755
 21
402.345267
 31
0.0
  0
LINE
  8
LC-001-003-----0
  6
CONTINUOUS
  5
2C
 10
393.766755
 20
402.345267
 30
0.0
 11
393.766755
 21
409.654733
 31
0.0
  0
LINE
  8
LC-001-003-----0
  6
CONTINUOUS
  5
2D
 10
393.829037
 20
408.704503
 30
0.0
 11
373.286299
 21
406.0
 31
0.0
  0
LINE
  8
LC-001-003-----0
  6
CONTINUOUS
  5
2E
 10
373.286299
 20
406.0
 30
0.0
 11
393.829037
 21
403.295497
 31
0.0
  0
LINE
  8
LC-001-003-----0
  6
CONTINUOUS
  5
2F
 10
393.891318
 20
407.754272
 30
0.0
 11
380.566299
 21
406.0
 31
0.0
  0
LINE
  8
LC-001-003-----0
  6
CONTINUOUS
  5
30
 10
380.566299
 20
406.0
 30
0.0
 11
393.891318
 21
404.245728
 31
0.0
  0
LINE
  8
LC-001-003-----0
  6
CONTINUOUS
  5
31
 10
393.9536
 20
406.804041
 30
0.0
 11
387.846299
 21
406.0
 31
0.0
  0
LINE
  8
LC-001-003-----0
  6
CONTINUOUS
  5
32
 10
387.846299
 20
406.0
 30
0.0
 11
393.9536
 21
405.195959
 31
0.0
  0
LINE
  8
LC-001-003-----0
  6
CONTINUOUS
  5
33
 10
483.245843
 20
402.345267
 30
0.0
 11
511.006299
 21
406.0
 31
0.0
  0
LINE
  8
LC-001-003-----0
  6
CONTINUOUS
  5
34
 10
511.006299
 20
406.0
 30
0.0
 11
483.245843
 21
409.654733
 31
0.0
  0
LINE
  8
LC-001-003-----0
  6
CONTINUOUS
  5
35
 10
483.245843
 20
409.654733
 30
0.0
 11
483.245843
 21
402.345267
 31
0.0
  0
LINE
  8
LC-001-003-----0
  6
CONTINUOUS
  5
36
 10
483.183562
 20
403.295497
 30
0.0
 11
503.726299
 21
406.0
 31
0.0
  0
LINE
  8
LC-001-003-----0
  6
CONTINUOUS
  5
37
 10
503.726299
 20
406.0
 30
0.0
 11
483.183562
 21
408.704503
 31
0.0
  0
LINE
  8
LC-001-003-----0
  6
CONTINUOUS
  5
38
 10
483.12128
 20
404.245728
 30
0.0
 11
496.446299
 21
406.0
 31
0.0
  0
LINE
  8
LC-001-003-----0
  6
CONTINUOUS
  5
39
 10
496.446299
 20
406.0
 30
0.0
 11
483.12128
 21
407.754272
 31
0.0
  0
LINE
  8
LC-001-003-----0
  6
CONTINUOUS
  5
3A
 10
483.058999
 20
405.195959
 30
0.0
 11
489.166299
 21
406.0
 31
0.0
  0
LINE
  8
LC-001-003-----0
  6
CONTINUOUS
  5
3B
 10
489.166299
 20
406.0
 30
0.0
 11
483.058999
 21
406.804041
 31
0.0
  0
TEXT
  8
LC-001-003-----0
  6
CONTINUOUS
 62
     8
  5
3D
 10
413.09068
 20
413.827554
 30
0.0
 40
28.0
  1
145
 41
0.9
 51
15.0
  7
LC-TXTSTYLE-150-400-0-0-D0
 72
     1
 11
442.854459
 21
413.827554
 31
0.0
  0
ENDBLK
  8
0
  5
3E
  0
ENDSEC
  0
SECTION
  2
ENTITIES
  0
VIEWPORT
  8
LC-000
  5
99
 67
     1
 68
     1
 10
420.0
 20
297.0
 30
0.0
 40
840.0
 41
594.0
 69
     1
1001
ACAD
1000
MVIEW
1002
{
1070
    16
1010
0.0
1020
0.0
1030
0.0
1010
0.0
1020
0.0
1030
1.0
1040
0.0
1040
594.0
1040
420.0
1040
297.0
1040
50.0
1040
0.0
1040
0.0
1070
     0
1070
   100
1070
     1
1070
     1
1070
     0
1070
     0
1070
     0
1070
     0
1040
0.0
1040
0.0
1040
0.0
1040
1.0
1040
1.0
1040
0.0
1040
0.0
1070
     0
1002
{
1002
}
1002
}
  0
VIEWPORT
  8
0
  5
9A
 67
     1
 68
     1
 10
0.0
 20
0.0
 30
0.0
 40
0.0
 41
0.0
 69
     1
1001
ACAD
1000
MVIEW
1002
{
1070
    16
1010
0.0
1020
0.0
1030
0.0
1010
0.0
1020
0.0
1030
1.0
1040
0.0
1040
594.0
1040
0.0
1040
0.0
1040
50.0
1040
0.0
1040
0.0
1070
     0
1070
   100
1070
     0
1070
     1
1070
     0
1070
     0
1070
     0
1070
     0
1040
0.0
1040
0.0
1040
0.0
1040
0.5
1040
0.5
1040
0.5
1040
0.5
1070
     0
1002
{
1002
}
1002
}
  0
DIMENSION
  8
0
  5
3F
  2
*D0
 10
438.506299
 20
406.0
 30
0.0
 11
438.506299
 21
406.0
 31
0.0
 13
366.006299
 23
302.007099
 33
0.0
 14
511.006299
 24
302.007099
 34
0.0
  3
LC-DIM-L-0140-02-02
  0
CIRCLE
  8
LC-004-002-----0
  6
CONTINUOUS
  5
41
 10
438.506299
 20
302.007099
 30
0.0
 40
72.5
  0
LINE
  8
LC-004-002-----0
  6
CONTINUOUS
  5
42
 10
413.848643
 20
309.507099
 30
0.0
 11
413.848643
 21
309.507099
 31
0.0
  0
ARC
  8
LC-005-002-RND-0
  6
CONTINUOUS
  5
44
 10
380.540792
 20
313.007099
 30
0.0
 40
3.5
 50
270.0
 51
349.254861
  0
LINE
  8
LC-004-002-----0
  6
CONTINUOUS
  5
45
 10
431.006299
 20
326.664755
 30
0.0
 11
431.006299
 21
326.664755
 31
0.0
  0
ARC
  8
LC-004-002-----0
  6
CONTINUOUS
  5
46
 10
438.506299
 20
302.007099
 30
0.0
 40
23.5
 50
114.042076
 51
155.957924
  0
ARC
  8
LC-004-002-----0
  6
CONTINUOUS
  5
47
 10
438.506299
 20
302.007099
 30
0.0
 40
30.5
 50
114.042076
 51
155.957924
  0
ARC
  8
LC-005-002-RND-0
  6
CONTINUOUS
  5
48
 10
413.848643
 20
313.007099
 30
0.0
 40
3.5
 50
155.957924
 51
270.0
  0
ARC
  8
LC-005-002-RND-0
  6
CONTINUOUS
  5
49
 10
413.848643
 20
313.007099
 30
0.0
 40
3.5
 50
270.0
 51
335.957924
  0
ARC
  8
LC-005-002-RND-0
  6
CONTINUOUS
  5
4A
 10
427.506299
 20
326.664755
 30
0.0
 40
3.5
 50
0.0
 51
114.042076
  0
ARC
  8
LC-005-002-RND-0
  6
CONTINUOUS
  5
4B
 10
427.506299
 20
326.664755
 30
0.0
 40
3.5
 50
294.042076
 51
0.0
  0
LINE
  8
LC-004-002-----0
  6
CONTINUOUS
  5
4C
 10
380.540792
 20
309.507099
 30
0.0
 11
380.540792
 21
309.507099
 31
0.0
  0
LINE
  8
LC-004-002-----0
  6
CONTINUOUS
  5
4D
 10
431.006299
 20
343.576319
 30
0.0
 11
431.006299
 21
343.576319
 31
0.0
  0
ARC
  8
LC-004-002-----0
  6
CONTINUOUS
  5
4E
 10
438.506299
 20
302.007099
 30
0.0
 40
39.5
 50
104.821821
 51
165.178179
  0
ARC
  8
LC-004-002-----0
  6
CONTINUOUS
  5
4F
 10
438.506299
 20
302.007099
 30
0.0
 40
46.5
 50
104.821821
 51
165.178179
  0
ARC
  8
LC-005-002-RND-0
  6
CONTINUOUS
  5
50
 10
396.93708
 20
313.007099
 30
0.0
 40
3.5
 50
165.178179
 51
270.0
  0
ARC
  8
LC-005-002-RND-0
  6
CONTINUOUS
  5
51
 10
396.93708
 20
313.007099
 30
0.0
 40
3.5
 50
270.0
 51
345.178179
  0
ARC
  8
LC-005-002-RND-0
  6
CONTINUOUS
  5
52
 10
427.506299
 20
343.576319
 30
0.0
 40
3.5
 50
284.821821
 51
0.0
  0
ARC
  8
LC-005-002-RND-0
  6
CONTINUOUS
  5
53
 10
427.506299
 20
343.576319
 30
0.0
 40
3.5
 50
0.0
 51
104.821821
  0
LINE
  8
LC-004-002-----0
  6
CONTINUOUS
  5
54
 10
431.006299
 20
359.972606
 30
0.0
 11
431.006299
 21
359.972606
 31
0.0
  0
ARC
  8
LC-004-002-----0
  6
CONTINUOUS
  5
55
 10
438.506299
 20
302.007099
 30
0.0
 40
55.5
 50
100.745139
 51
169.254861
  0
ARC
  8
LC-004-002-----0
  6
CONTINUOUS
  5
56
 10
438.506299
 20
302.007099
 30
0.0
 40
62.5
 50
100.745139
 51
169.254861
  0
ARC
  8
LC-005-002-RND-0
  6
CONTINUOUS
  5
57
 10
380.540792
 20
313.007099
 30
0.0
 40
3.5
 50
169.254861
 51
270.0
  0
ARC
  8
LC-005-002-RND-0
  6
CONTINUOUS
  5
58
 10
427.506299
 20
359.972606
 30
0.0
 40
3.5
 50
280.745139
 51
0.0
  0
ARC
  8
LC-005-002-RND-0
  6
CONTINUOUS
  5
59
 10
427.506299
 20
359.972606
 30
0.0
 40
3.5
 50
0.0
 51
100.745139
  0
LINE
  8
LC-004-002-----0
  6
CONTINUOUS
  5
5A
 10
463.163955
 20
309.507099
 30
0.0
 11
463.163955
 21
309.507099
 31
0.0
  0
ARC
  8
LC-005-002-RND-0
  6
CONTINUOUS
  5
5B
 10
496.471806
 20
313.007099
 30
0.0
 40
3.5
 50
190.745139
 51
270.0
  0
LINE
  8
LC-004-002-----0
  6
CONTINUOUS
  5
5C
 10
446.006299
 20
326.664755
 30
0.0
 11
446.006299
 21
326.664755
 31
0.0
  0
ARC
  8
LC-004-002-----0
  6
CONTINUOUS
  5
5D
 10
438.506299
 20
302.007099
 30
0.0
 40
23.5
 50
24.042076
 51
65.957924
  0
ARC
  8
LC-004-002-----0
  6
CONTINUOUS
  5
5E
 10
438.506299
 20
302.007099
 30
0.0
 40
30.5
 50
24.042076
 51
65.957924
  0
ARC
  8
LC-005-002-RND-0
  6
CONTINUOUS
  5
5F
 10
463.163955
 20
313.007099
 30
0.0
 40
3.5
 50
270.0
 51
24.042076
  0
ARC
  8
LC-005-002-RND-0
  6
CONTINUOUS
  5
60
 10
463.163955
 20
313.007099
 30
0.0
 40
3.5
 50
204.042076
 51
270.0
  0
ARC
  8
LC-005-002-RND-0
  6
CONTINUOUS
  5
61
 10
449.506299
 20
326.664755
 30
0.0
 40
3.5
 50
65.957924
 51
180.0
  0
ARC
  8
LC-005-002-RND-0
  6
CONTINUOUS
  5
62
 10
449.506299
 20
326.664755
 30
0.0
 40
3.5
 50
180.0
 51
245.957924
  0
LINE
  8
LC-004-002-----0
  6
CONTINUOUS
  5
63
 10
496.471806
 20
309.507099
 30
0.0
 11
496.471806
 21
309.507099
 31
0.0
  0
ARC
  8
LC-004-002-----0
  6
CONTINUOUS
  5
64
 10
438.506299
 20
302.007099
 30
0.0
 40
39.5
 50
14.821821
 51
75.178179
  0
ARC
  8
LC-004-002-----0
  6
CONTINUOUS
  5
65
 10
438.506299
 20
302.007099
 30
0.0
 40
46.5
 50
14.821821
 51
75.178179
  0
ARC
  8
LC-005-002-RND-0
  6
CONTINUOUS
  5
66
 10
480.075519
 20
313.007099
 30
0.0
 40
3.5
 50
270.0
 51
14.821821
  0
ARC
  8
LC-005-002-RND-0
  6
CONTINUOUS
  5
67
 10
480.075519
 20
313.007099
 30
0.0
 40
3.5
 50
194.821821
 51
270.0
  0
ARC
  8
LC-004-002-----0
  6
CONTINUOUS
  5
68
 10
438.506299
 20
302.007099
 30
0.0
 40
55.5
 50
10.745139
 51
79.254861
  0
ARC
  8
LC-004-002-----0
  6
CONTINUOUS
  5
69
 10
438.506299
 20
302.007099
 30
0.0
 40
62.5
 50
10.745139
 51
79.254861
  0
ARC
  8
LC-005-002-RND-0
  6
CONTINUOUS
  5
6A
 10
496.471806
 20
313.007099
 30
0.0
 40
3.5
 50
270.0
 51
10.745139
  0
ARC
  8
LC-005-002-RND-0
  6
CONTINUOUS
  5
6B
 10
449.506299
 20
343.576319
 30
0.0
 40
3.5
 50
180.0
 51
255.178179
  0
ARC
  8
LC-005-002-RND-0
  6
CONTINUOUS
  5
6C
 10
449.506299
 20
343.576319
 30
0.0
 40
3.5
 50
75.178179
 51
180.0
  0
ARC
  8
LC-005-002-RND-0
  6
CONTINUOUS
  5
6D
 10
449.506299
 20
359.972606
 30
0.0
 40
3.5
 50
180.0
 51
259.254861
  0
ARC
  8
LC-005-002-RND-0
  6
CONTINUOUS
  5
6E
 10
449.506299
 20
359.972606
 30
0.0
 40
3.5
 50
79.254861
 51
180.0
  0
LINE
  8
LC-004-002-----0
  6
CONTINUOUS
  5
6F
 10
413.848643
 20
294.507099
 30
0.0
 11
413.848643
 21
294.507099
 31
0.0
  0
ARC
  8
LC-005-002-RND-0
  6
CONTINUOUS
  5
70
 10
380.540792
 20
291.007099
 30
0.0
 40
3.5
 50
10.745139
 51
90.0
  0
ARC
  8
LC-004-002-----0
  6
CONTINUOUS
  5
71
 10
438.506299
 20
302.007099
 30
0.0
 40
23.5
 50
204.042076
 51
245.957924
  0
ARC
  8
LC-004-002-----0
  6
CONTINUOUS
  5
72
 10
438.506299
 20
302.007099
 30
0.0
 40
30.5
 50
204.042076
 51
245.957924
  0
ARC
  8
LC-005-002-RND-0
  6
CONTINUOUS
  5
73
 10
413.848643
 20
291.007099
 30
0.0
 40
3.5
 50
90.0
 51
204.042076
  0
ARC
  8
LC-005-002-RND-0
  6
CONTINUOUS
  5
74
 10
413.848643
 20
291.007099
 30
0.0
 40
3.5
 50
24.042076
 51
90.0
  0
LINE
  8
LC-004-002-----0
  6
CONTINUOUS
  5
75
 10
380.540792
 20
294.507099
 30
0.0
 11
380.540792
 21
294.507099
 31
0.0
  0
ARC
  8
LC-004-002-----0
  6
CONTINUOUS
  5
76
 10
438.506299
 20
302.007099
 30
0.0
 40
39.5
 50
194.821821
 51
255.178179
  0
ARC
  8
LC-004-002-----0
  6
CONTINUOUS
  5
77
 10
438.506299
 20
302.007099
 30
0.0
 40
46.5
 50
194.821821
 51
255.178179
  0
ARC
  8
LC-005-002-RND-0
  6
CONTINUOUS
  5
78
 10
396.93708
 20
291.007099
 30
0.0
 40
3.5
 50
90.0
 51
194.821821
  0
ARC
  8
LC-005-002-RND-0
  6
CONTINUOUS
  5
79
 10
396.93708
 20
291.007099
 30
0.0
 40
3.5
 50
14.821821
 51
90.0
  0
ARC
  8
LC-004-002-----0
  6
CONTINUOUS
  5
7A
 10
438.506299
 20
302.007099
 30
0.0
 40
55.5
 50
190.745139
 51
259.254861
  0
ARC
  8
LC-004-002-----0
  6
CONTINUOUS
  5
7B
 10
438.506299
 20
302.007099
 30
0.0
 40
62.5
 50
190.745139
 51
259.254861
  0
ARC
  8
LC-005-002-RND-0
  6
CONTINUOUS
  5
7C
 10
380.540792
 20
291.007099
 30
0.0
 40
3.5
 50
90.0
 51
190.745139
  0
LINE
  8
LC-004-002-----0
  6
CONTINUOUS
  5
7D
 10
463.163955
 20
294.507099
 30
0.0
 11
463.163955
 21
294.507099
 31
0.0
  0
ARC
  8
LC-005-002-RND-0
  6
CONTINUOUS
  5
7E
 10
496.471806
 20
291.007099
 30
0.0
 40
3.5
 50
90.0
 51
169.254861
  0
LINE
  8
LC-004-002-----0
  6
CONTINUOUS
  5
7F
 10
446.006299
 20
277.349443
 30
0.0
 11
446.006299
 21
277.349443
 31
0.0
  0
ARC
  8
LC-004-002-----0
  6
CONTINUOUS
  5
80
 10
438.506299
 20
302.007099
 30
0.0
 40
23.5
 50
294.042076
 51
335.957924
  0
ARC
  8
LC-004-002-----0
  6
CONTINUOUS
  5
81
 10
438.506299
 20
302.007099
 30
0.0
 40
30.5
 50
294.042076
 51
335.957924
  0
ARC
  8
LC-005-002-RND-0
  6
CONTINUOUS
  5
82
 10
463.163955
 20
291.007099
 30
0.0
 40
3.5
 50
335.957924
 51
90.0
  0
ARC
  8
LC-005-002-RND-0
  6
CONTINUOUS
  5
83
 10
463.163955
 20
291.007099
 30
0.0
 40
3.5
 50
90.0
 51
155.957924
  0
ARC
  8
LC-005-002-RND-0
  6
CONTINUOUS
  5
84
 10
449.506299
 20
277.349443
 30
0.0
 40
3.5
 50
180.0
 51
294.042076
  0
ARC
  8
LC-005-002-RND-0
  6
CONTINUOUS
  5
85
 10
449.506299
 20
277.349443
 30
0.0
 40
3.5
 50
114.042076
 51
180.0
  0
LINE
  8
LC-004-002-----0
  6
CONTINUOUS
  5
86
 10
496.471806
 20
294.507099
 30
0.0
 11
496.471806
 21
294.507099
 31
0.0
  0
ARC
  8
LC-004-002-----0
  6
CONTINUOUS
  5
87
 10
438.506299
 20
302.007099
 30
0.0
 40
39.5
 50
284.821821
 51
345.178179
  0
ARC
  8
LC-004-002-----0
  6
CONTINUOUS
  5
88
 10
438.506299
 20
302.007099
 30
0.0
 40
46.5
 50
284.821821
 51
345.178179
  0
ARC
  8
LC-005-002-RND-0
  6
CONTINUOUS
  5
89
 10
480.075519
 20
291.007099
 30
0.0
 40
3.5
 50
345.178179
 51
90.0
  0
ARC
  8
LC-005-002-RND-0
  6
CONTINUOUS
  5
8A
 10
480.075519
 20
291.007099
 30
0.0
 40
3.5
 50
90.0
 51
165.178179
  0
ARC
  8
LC-004-002-----0
  6
CONTINUOUS
  5
8B
 10
438.506299
 20
302.007099
 30
0.0
 40
55.5
 50
280.745139
 51
349.254861
  0
ARC
  8
LC-004-002-----0
  6
CONTINUOUS
  5
8C
 10
438.506299
 20
302.007099
 30
0.0
 40
62.5
 50
280.745139
 51
349.254861
  0
ARC
  8
LC-005-002-RND-0
  6
CONTINUOUS
  5
8D
 10
496.471806
 20
291.007099
 30
0.0
 40
3.5
 50
349.254861
 51
90.0
  0
ARC
  8
LC-005-002-RND-0
  6
CONTINUOUS
  5
8E
 10
427.506299
 20
277.349443
 30
0.0
 40
3.5
 50
245.957924
 51
0.0
  0
ARC
  8
LC-005-002-RND-0
  6
CONTINUOUS
  5
8F
 10
427.506299
 20
277.349443
 30
0.0
 40
3.5
 50
0.0
 51
65.957924
  0
ARC
  8
LC-005-002-RND-0
  6
CONTINUOUS
  5
90
 10
427.506299
 20
260.43788
 30
0.0
 40
3.5
 50
0.0
 51
75.178179
  0
ARC
  8
LC-005-002-RND-0
  6
CONTINUOUS
  5
91
 10
427.506299
 20
260.43788
 30
0.0
 40
3.5
 50
255.178179
 51
0.0
  0
ARC
  8
LC-005-002-RND-0
  6
CONTINUOUS
  5
92
 10
427.506299
 20
244.041592
 30
0.0
 40
3.5
 50
0.0
 51
79.254861
  0
ARC
  8
LC-005-002-RND-0
  6
CONTINUOUS
  5
93
 10
427.506299
 20
244.041592
 30
0.0
 40
3.5
 50
259.254861
 51
0.0
  0
ARC
  8
LC-005-002-RND-0
  6
CONTINUOUS
  5
94
 10
449.506299
 20
260.43788
 30
0.0
 40
3.5
 50
104.821821
 51
180.0
  0
ARC
  8
LC-005-002-RND-0
  6
CONTINUOUS
  5
95
 10
449.506299
 20
260.43788
 30
0.0
 40
3.5
 50
180.0
 51
284.821821
  0
ARC
  8
LC-005-002-RND-0
  6
CONTINUOUS
  5
96
 10
449.506299
 20
244.041592
 30
0.0
 40
3.5
 50
100.745139
 51
180.0
  0
ARC
  8
LC-005-002-RND-0
  6
CONTINUOUS
  5
97
 10
449.506299
 20
244.041592
 30
0.0
 40
3.5
 50
180.0
 51
280.745139
  0
ENDSEC
  0
EOF
