  0
SECTION
  2
HEADER
  9
$ACADVER
  1
AC1009
  9
$INSBASE
 10
41.931032
 20
51.12
 30
0.0
  9
$EXTMIN
 10
41.931032
 20
51.12
 30
0.0
  9
$EXTMAX
 10
881.931032
 20
645.12
 30
0.0
  9
$LIMMIN
 10
41.931032
 20
51.12
  9
$LIMMAX
 10
881.931032
 20
645.12
  9
$ORTHOMODE
 70
     0
  9
$REGENMODE
 70
     1
  9
$FILLMODE
 70
     1
  9
$QTEXTMODE
 70
     0
  9
$MIRRTEXT
 70
     1
  9
$DRAGMODE
 70
     2
  9
$LTSCALE
 40
2.0
  9
$OSMODE
 70
     0
  9
$ATTMODE
 70
     1
  9
$TEXTSIZE
 40
0.2
  9
$TRACEWID
 40
0.05
  9
$TEXTSTYLE
  7
STANDARD
  9
$CLAYER
  8
0
  9
$CELTYPE
  6
BYLAYER
  9
$CECOLOR
 62
     7
  9
$DIMSCALE
 40
2.0
  9
$DIMASZ
 40
3.5
  9
$DIMEXO
 40
0.0625
  9
$DIMDLI
 40
0.38
  9
$DIMRND
 40
0.0
  9
$DIMDLE
 40
0.0
  9
$DIMEXE
 40
0.18
  9
$DIMTP
 40
0.0
  9
$DIMTM
 40
0.0
  9
$DIMTXT
 40
3.5
  9
$DIMCEN
 40
0.09
  9
$DIMTSZ
 40
0.0
  9
$DIMTOL
 70
     0
  9
$DIMLIM
 70
     0
  9
$DIMTIH
 70
     1
  9
$DIMTOH
 70
     1
  9
$DIMSE1
 70
     0
  9
$DIMSE2
 70
     0
  9
$DIMTAD
 70
     1
  9
$DIMZIN
 70
     0
  9
$DIMBLK
  1

  9
$DIMASO
 70
     1
  9
$DIMSHO
 70
     1
  9
$DIMPOST
  1

  9
$DIMAPOST
  1

  9
$DIMALT
 70
     0
  9
$DIMALTD
 70
     2
  9
$DIMALTF
 40
25.4
  9
$DIMLFAC
 40
1.0
  9
$DIMTOFL
 70
     0
  9
$DIMTVP
 40
0.0
  9
$DIMTIX
 70
     0
  9
$DIMSOXD
 70
     0
  9
$DIMSAH
 70
     0
  9
$DIMBLK1
  1

  9
$DIMBLK2
  1

  9
$DIMSTYLE
  2
STANDARD
  9
$DIMCLRD
 70
     0
  9
$DIMCLRE
 70
     0
  9
$DIMCLRT
 70
     0
  9
$DIMTFAC
 40
1.0
  9
$DIMGAP
 40
0.09
  9
$LUNITS
 70
     2
  9
$LUPREC
 70
     2
  9
$AXISMODE
 70
     0
  9
$AXISUNIT
 10
0.0
 20
0.0
  9
$SKETCHINC
 40
0.1
  9
$FILLETRAD
 40
0.0
  9
$AUNITS
 70
     0
  9
$AUPREC
 70
     0
  9
$MENU
  1
acad
  9
$ELEVATION
 40
0.0
  9
$PELEVATION
 40
0.0
  9
$THICKNESS
 40
0.0
  9
$LIMCHECK
 70
     0
  9
$BLIPMODE
 70
     1
  9
$CHAMFERA
 40
0.0
  9
$CHAMFERB
 40
0.0
  9
$SKPOLY
 70
     0
  9
$TDCREATE
 40
0.000000000
  9
$TDUPDATE
 40
0.000000000
  9
$TDINDWG
 40
0.0000000000
  9
$TDUSRTIMER
 40
0.0000000000
  9
$USRTIMER
 70
     1
  9
$ANGBASE
 50
0.0
  9
$ANGDIR
 70
     0
  9
$PDMODE
 70
     0
  9
$PDSIZE
 40
0.0
  9
$PLINEWID
 40
0.0
  9
$COORDS
 70
     0
  9
$SPLFRAME
 70
     0
  9
$SPLINETYPE
 70
     6
  9
$SPLINESEGS
 70
     8
  9
$ATTDIA
 70
     0
  9
$ATTREQ
 70
     1
  9
$HANDLING
 70
     1
  9
$HANDSEED
  5
179
  9
$SURFTAB1
 70
     6
  9
$SURFTAB2
 70
     6
  9
$SURFTYPE
 70
     6
  9
$SURFU
 70
     6
  9
$SURFV
 70
     6
  9
$UCSNAME
  2

  9
$UCSORG
 10
0.0
 20
0.0
 30
0.0
  9
$UCSXDIR
 10
1.0
 20
0.0
 30
0.0
  9
$UCSYDIR
 10
0.0
 20
1.0
 30
0.0
  9
$PUCSNAME
  2

  9
$PUCSORG
 10
0.0
 20
0.0
 30
0.0
  9
$PUCSXDIR
 10
1.0
 20
0.0
 30
0.0
  9
$PUCSYDIR
 10
0.0
 20
1.0
 30
0.0
  9
$USERI1
 70
     0
  9
$USERI2
 70
     0
  9
$USERI3
 70
     0
  9
$USERI4
 70
     0
  9
$USERI5
 70
     0
  9
$USERR1
 40
0.0
  9
$USERR2
 40
0.0
  9
$USERR3
 40
0.0
  9
$USERR4
 40
0.0
  9
$USERR5
 40
0.0
  9
$WORLDVIEW
 70
     1
  9
$SHADEDGE
 70
     3
  9
$SHADEDIF
 70
    70
  9
$TILEMODE
 70
     1
  9
$MAXACTVP
 70
    16
  9
$PINSBASE
 10
0.0
 20
0.0
 30
0.0
  9
$PLIMCHECK
 70
     0
  9
$PEXTMIN
 10
1.000000E+20
 20
1.000000E+20
 30
1.000000E+20
  9
$PEXTMAX
 10
-1.000000E+20
 20
-1.000000E+20
 30
-1.000000E+20
  9
$PLIMMIN
 10
41.931032
 20
51.12
  9
$PLIMMAX
 10
881.931032
 20
645.12
  9
$UNITMODE
 70
     0
  9
$VISRETAIN
 70
     0
  9
$PLINEGEN
 70
     1
  9
$PSLTSCALE
 70
     0
  9
$TREEDEPTH
 70
  3020
  9
$DWGCODEPAGE
  3
dos850
  0
ENDSEC
  0
SECTION
  2
TABLES
  0
TABLE
  2
VPORT
 70
     1
  0
VPORT
  2
*ACTIVE
 70
     0
 10
0.0
 20
0.0
 11
1.0
 21
1.0
 12
420.0
 22
297.0
 13
0.0
 23
0.0
 14
1.0
 24
1.0
 15
0.0
 25
0.0
 16
0.0
 26
0.0
 36
1.0
 17
41.931032
 27
51.12
 37
0.0
 40
594.0
 41
1.604229
 42
50.0
 43
0.0
 44
0.0
 50
0.0
 51
0.0
 71
     0
 72
   100
 73
     1
 74
     1
 75
     0
 76
     0
 77
     0
 78
     0
  0
ENDTAB
  0
TABLE
  2
LTYPE
 70
     4
  0
LTYPE
  2
CONTINUOUS
 70
    64
  3
Solid line
 72
    65
 73
     0
 40
0.0
  0
LTYPE
  2
DASHED
 70
    64
  3
__ __ __ __ __
 72
    65
 73
     2
 40
6.25
 49
5.0
 49
-1.25
  0
LTYPE
  2
DASHDOT
 70
    64
  3
__ . __ . __ . __ . __
 72
    65
 73
     4
 40
7.5
 49
5.0
 49
-1.25
 49
0.0
 49
-1.25
  0
LTYPE
  2
CENTER
 70
    64
  3
__ . __ . __ . __ . __
 72
    65
 73
     4
 40
7.5
 49
5.0
 49
-1.25
 49
0.0
 49
-1.25
  0
ENDTAB
  0
TABLE
  2
LAYER
 70
    13
  0
LAYER
  2
0
 70
     0
 62
     7
  6
CONTINUOUS
  0
LAYER
  2
LC-INFO-1-2-MM-A3-0
 70
     1
 62
    -1
  6
CONTINUOUS
  0
LAYER
  2
LC-002-005-----0
 70
     0
 62
     2
  6
CONTINUOUS
  0
LAYER
  2
LC-010-003-MTH-0
 70
     0
 62
     2
  6
CONTINUOUS
  0
LAYER
  2
LC-011-003-MTG-0
 70
     0
 62
     2
  6
CONTINUOUS
  0
LAYER
  2
LC-009-003-----0
 70
     0
 62
     2
  6
CONTINUOUS
  0
LAYER
  2
LC-003-000-----0
 70
     0
 62
     7
  6
CONTINUOUS
  0
LAYER
  2
LC-005-000-----0
 70
     0
 62
     7
  6
CONTINUOUS
  0
LAYER
  2
LC-001-002-----0
 70
     0
 62
     1
  6
CONTINUOUS
  0
LAYER
  2
LC-006-004-----0
 70
     0
 62
     2
  6
CONTINUOUS
  0
LAYER
  2
LC-007-002-RND-0
 70
     0
 62
     1
  6
CONTINUOUS
  0
LAYER
  2
LC-008-006-MLN-0
 70
     0
 62
     2
  6
CENTER
  0
LAYER
  2
LC-000
 70
     0
 62
     7
  6
CONTINUOUS
  0
ENDTAB
  0
TABLE
  2
STYLE
 70
     5
  0
STYLE
  2
STANDARD
 70
     0
 40
0.0
 41
1.0
 50
0.0
 71
     0
 42
0.0
  3
txt
  4

  0
STYLE
  2
LC-STANDARD
 70
    64
 40
0.0
 41
1.0
 50
0.0
 71
     0
 42
3.5
  3
MONOTXT
  4

  0
STYLE
  2
LC-TXTSTYLE-0-400-0-0-DIN2
 70
    64
 40
0.0
 41
1.0
 50
0.0
 71
     0
 42
3.5
  3
MONOTXT
  4

  0
STYLE
  2
LC-TXTSTYLE-150-400-0-0-D3
 70
    64
 40
0.0
 41
1.0
 50
15.0
 71
     0
 42
3.5
  3
MONOTXT
  4

  0
STYLE
  2
LC-TXTSTYLE-150-400-0-0-D4
 70
    64
 40
0.0
 41
1.0
 50
15.0
 71
     0
 42
3.5
  3
LC-STANDARD
  4

  0
ENDTAB
  0
TABLE
  2
VIEW
 70
     0
  0
ENDTAB
  0
TABLE
  2
UCS
 70
     0
  0
ENDTAB
  0
TABLE
  2
APPID
 70
     1
  0
APPID
  2
ACAD
 70
     0
  0
ENDTAB
  0
TABLE
  2
DIMSTYLE
 70
     3
  0
DIMSTYLE
  2
STANDARD
 70
     0
  3

  4

  5

  6

  7

 40
1.0
 41
0.18
 42
0.0625
 43
0.38
 44
0.18
 45
0.0
 46
0.0
 47
0.0
 48
0.0
 71
     0
 72
     0
 73
     1
 74
     1
 75
     0
 76
     0
 77
     0
 78
     0
140
0.18
141
0.09
142
0.0
143
25.4
144
1.0
145
0.0
146
1.0
147
0.09
170
     0
171
     2
172
     0
173
     0
174
     0
175
     0
176
     0
177
     0
178
     0
  0
DIMSTYLE
  2
LC-STANDARD
 70
     0
  3

  4

  5

  6

  7

 40
1.0
 41
3.5
 42
0.0
 43
7.5
 44
1.8
 45
0.0
 46
0.0
 47
0.0
 48
0.0
 71
     0
 72
     0
 73
     0
 74
     0
 75
     0
 76
     0
 77
     1
 78
     8
140
3.5
141
0.0
142
0.0
143
25.4
144
1.0
145
0.0
146
0.71
147
1.5
170
     0
171
     2
172
     1
173
     0
174
     0
175
     0
176
     0
177
     0
178
     3
  0
DIMSTYLE
  2
LC-DIM-L-0090-02-02
 70
     0
  3

  4

  5

  6

  7

 40
2.0
 41
3.5
 42
0.0
 43
7.5
 44
1.8
 45
0.0
 46
0.0
 47
0.0
 48
0.0
 71
     0
 72
     0
 73
     0
 74
     0
 75
     0
 76
     0
 77
     1
 78
     8
140
9.0
141
0.0
142
0.0
143
25.4
144
1.0
145
0.0
146
0.71
147
1.5
170
     0
171
     2
172
     0
173
     0
174
     0
175
     0
176
     2
177
     2
178
     6
  0
ENDTAB
  0
ENDSEC
  0
SECTION
  2
BLOCKS
  0
BLOCK
  8
0
  5
24
  2
*X0
 70
    65
 10
545.280734
 20
405.154586
 30
0.0
  3
*X0
  0
LINE
  8
LC-002-005-----0
  6
CONTINUOUS
  5
26
 10
554.191666
 20
407.113456
 30
0.0
 11
556.232796
 21
409.154586
 31
0.0
  0
LINE
  8
LC-002-005-----0
  6
CONTINUOUS
  5
27
 10
549.744662
 20
405.494878
 30
0.0
 11
552.254397
 21
408.004614
 31
0.0
  0
LINE
  8
LC-002-005-----0
  6
CONTINUOUS
  5
28
 10
546.744915
 20
405.323559
 30
0.0
 11
547.987469
 21
406.566113
 31
0.0
  0
LINE
  8
LC-002-005-----0
  6
CONTINUOUS
  5
29
 10
546.301147
 20
407.708218
 30
0.0
 11
546.947524
 21
408.354595
 31
0.0
  0
ENDBLK
  8
0
  5
2A
  0
BLOCK
  8
0
  5
2C
  2
*X1
 70
    65
 10
477.052602
 20
405.154586
 30
0.0
  3
*X1
  0
LINE
  8
LC-002-005-----0
  6
CONTINUOUS
  5
2D
 10
487.3267
 20
405.302313
 30
0.0
 11
487.655874
 21
405.631488
 31
0.0
  0
LINE
  8
LC-002-005-----0
  6
CONTINUOUS
  5
2E
 10
484.602578
 20
405.406619
 30
0.0
 11
485.772887
 21
406.576928
 31
0.0
  0
LINE
  8
LC-002-005-----0
  6
CONTINUOUS
  5
2F
 10
486.803602
 20
407.607642
 30
0.0
 11
487.550554
 21
408.354595
 31
0.0
  0
LINE
  8
LC-002-005-----0
  6
CONTINUOUS
  5
30
 10
482.528906
 20
406.161374
 30
0.0
 11
483.699215
 21
407.331683
 31
0.0
  0
LINE
  8
LC-002-005-----0
  6
CONTINUOUS
  5
31
 10
480.455234
 20
406.916129
 30
0.0
 11
481.625543
 21
408.086438
 31
0.0
  0
LINE
  8
LC-002-005-----0
  6
CONTINUOUS
  5
32
 10
478.381562
 20
407.670884
 30
0.0
 11
479.551871
 21
408.841193
 31
0.0
  0
ENDBLK
  8
0
  5
33
  0
BLOCK
  8
0
  5
35
  2
BLK1
 70
    64
 10
0.0
 20
0.0
 30
0.0
  3
BLK1
  0
ENDBLK
  8
0
  5
36
  0
BLOCK
  8
0
  5
38
  2
BLK2
 70
    64
 10
0.0
 20
0.0
 30
0.0
  3
BLK2
  0
ENDBLK
  8
0
  5
39
  0
BLOCK
  8
0
  5
3B
  2
BLK3
 70
    64
 10
0.0
 20
0.0
 30
0.0
  3
BLK3
  0
ENDBLK
  8
0
  5
3C
  0
BLOCK
  8
0
  5
3E
  2
BLK4
 70
    64
 10
0.0
 20
0.0
 30
0.0
  3
BLK4
  0
ENDBLK
  8
0
  5
3F
  0
BLOCK
  8
0
  5
41
  2
BLK5
 70
    64
 10
0.0
 20
0.0
 30
0.0
  3
BLK5
  0
ENDBLK
  8
0
  5
42
  0
BLOCK
  8
0
  5
44
  2
BLK6
 70
    64
 10
0.0
 20
0.0
 30
0.0
  3
BLK6
  0
ENDBLK
  8
0
  5
45
  0
BLOCK
  8
0
  5
47
  2
BLK7
 70
    64
 10
0.0
 20
0.0
 30
0.0
  3
BLK7
  0
ENDBLK
  8
0
  5
48
  0
BLOCK
  8
0
  5
4A
  2
BLK8
 70
    64
 10
0.0
 20
0.0
 30
0.0
  3
BLK8
  0
ENDBLK
  8
0
  5
4B
  0
BLOCK
  8
0
  5
4D
  2
BLK9
 70
    64
 10
0.0
 20
0.0
 30
0.0
  3
BLK9
  0
ENDBLK
  8
0
  5
4E
  0
BLOCK
  8
0
  5
50
  2
BLK10
 70
    64
 10
0.0
 20
0.0
 30
0.0
  3
BLK10
  0
ENDBLK
  8
0
  5
51
  0
BLOCK
  8
0
  5
53
  2
*D12
 70
    65
 10
0.0
 20
0.0
 30
0.0
  3
*D12
  0
LINE
  8
LC-010-003-MTH-0
  6
CONTINUOUS
  5
55
 10
479.052788
 20
525.720506
 30
0.0
 11
479.052788
 21
457.2
 31
0.0
  0
LINE
  8
LC-010-003-MTH-0
  6
CONTINUOUS
  5
56
 10
555.052788
 20
525.720506
 30
0.0
 11
555.052788
 21
457.2
 31
0.0
  0
LINE
  8
LC-011-003-MTG-0
  6
CONTINUOUS
  5
58
 10
479.052788
 20
468.0
 30
0.0
 11
555.052788
 21
468.0
 31
0.0
  0
LINE
  8
LC-009-003-----0
  6
CONTINUOUS
  5
5A
 10
496.898795
 20
470.349471
 30
0.0
 11
479.052788
 21
468.0
 31
0.0
  0
LINE
  8
LC-009-003-----0
  6
CONTINUOUS
  5
5B
 10
479.052788
 20
468.0
 30
0.0
 11
496.898795
 21
465.650529
 31
0.0
  0
LINE
  8
LC-009-003-----0
  6
CONTINUOUS
  5
5C
 10
496.898795
 20
465.650529
 30
0.0
 11
496.898795
 21
470.349471
 31
0.0
  0
LINE
  8
LC-009-003-----0
  6
CONTINUOUS
  5
5D
 10
496.938833
 20
469.738609
 30
0.0
 11
483.732788
 21
468.0
 31
0.0
  0
LINE
  8
LC-009-003-----0
  6
CONTINUOUS
  5
5E
 10
483.732788
 20
468.0
 30
0.0
 11
496.938833
 21
466.261391
 31
0.0
  0
LINE
  8
LC-009-003-----0
  6
CONTINUOUS
  5
5F
 10
496.978871
 20
469.127746
 30
0.0
 11
488.412788
 21
468.0
 31
0.0
  0
LINE
  8
LC-009-003-----0
  6
CONTINUOUS
  5
60
 10
488.412788
 20
468.0
 30
0.0
 11
496.978871
 21
466.872254
 31
0.0
  0
LINE
  8
LC-009-003-----0
  6
CONTINUOUS
  5
61
 10
497.018909
 20
468.516884
 30
0.0
 11
493.092788
 21
468.0
 31
0.0
  0
LINE
  8
LC-009-003-----0
  6
CONTINUOUS
  5
62
 10
493.092788
 20
468.0
 30
0.0
 11
497.018909
 21
467.483116
 31
0.0
  0
LINE
  8
LC-009-003-----0
  6
CONTINUOUS
  5
63
 10
537.20678
 20
465.650529
 30
0.0
 11
555.052788
 21
468.0
 31
0.0
  0
LINE
  8
LC-009-003-----0
  6
CONTINUOUS
  5
64
 10
555.052788
 20
468.0
 30
0.0
 11
537.20678
 21
470.349471
 31
0.0
  0
LINE
  8
LC-009-003-----0
  6
CONTINUOUS
  5
65
 10
537.20678
 20
470.349471
 30
0.0
 11
537.20678
 21
465.650529
 31
0.0
  0
LINE
  8
LC-009-003-----0
  6
CONTINUOUS
  5
66
 10
537.166742
 20
466.261391
 30
0.0
 11
550.372788
 21
468.0
 31
0.0
  0
LINE
  8
LC-009-003-----0
  6
CONTINUOUS
  5
67
 10
550.372788
 20
468.0
 30
0.0
 11
537.166742
 21
469.738609
 31
0.0
  0
LINE
  8
LC-009-003-----0
  6
CONTINUOUS
  5
68
 10
537.126704
 20
466.872254
 30
0.0
 11
545.692788
 21
468.0
 31
0.0
  0
LINE
  8
LC-009-003-----0
  6
CONTINUOUS
  5
69
 10
545.692788
 20
468.0
 30
0.0
 11
537.126704
 21
469.127746
 31
0.0
  0
LINE
  8
LC-009-003-----0
  6
CONTINUOUS
  5
6A
 10
537.086666
 20
467.483116
 30
0.0
 11
541.012788
 21
468.0
 31
0.0
  0
LINE
  8
LC-009-003-----0
  6
CONTINUOUS
  5
6B
 10
541.012788
 20
468.0
 30
0.0
 11
537.086666
 21
468.516884
 31
0.0
  0
TEXT
  8
LC-009-003-----0
  6
CONTINUOUS
 62
     6
  5
6D
 10
507.985041
 20
478.431999
 30
0.0
 40
18.0
  1
76
 41
0.9
 51
15.0
  7
LC-TXTSTYLE-150-400-0-0-D0
 72
     1
 11
519.848033
 21
478.431999
 31
0.0
  0
ENDBLK
  8
0
  5
6E
  0
BLOCK
  8
0
  5
70
  2
*D13
 70
    65
 10
0.0
 20
0.0
 30
0.0
  3
*D13
  0
LINE
  8
LC-010-003-MTH-0
  6
CONTINUOUS
  5
71
 10
487.552788
 20
521.720506
 30
0.0
 11
487.552788
 21
493.2
 31
0.0
  0
LINE
  8
LC-010-003-MTH-0
  6
CONTINUOUS
  5
72
 10
546.552788
 20
521.720506
 30
0.0
 11
546.552788
 21
493.2
 31
0.0
  0
LINE
  8
LC-009-003-----0
  6
CONTINUOUS
  5
73
 10
469.70678
 20
501.650529
 30
0.0
 11
487.552788
 21
504.0
 31
0.0
  0
LINE
  8
LC-009-003-----0
  6
CONTINUOUS
  5
74
 10
487.552788
 20
504.0
 30
0.0
 11
469.70678
 21
506.349471
 31
0.0
  0
LINE
  8
LC-009-003-----0
  6
CONTINUOUS
  5
75
 10
469.70678
 20
506.349471
 30
0.0
 11
469.70678
 21
501.650529
 31
0.0
  0
LINE
  8
LC-009-003-----0
  6
CONTINUOUS
  5
76
 10
469.666742
 20
502.261391
 30
0.0
 11
482.872788
 21
504.0
 31
0.0
  0
LINE
  8
LC-009-003-----0
  6
CONTINUOUS
  5
77
 10
482.872788
 20
504.0
 30
0.0
 11
469.666742
 21
505.738609
 31
0.0
  0
LINE
  8
LC-009-003-----0
  6
CONTINUOUS
  5
78
 10
469.626704
 20
502.872254
 30
0.0
 11
478.192788
 21
504.0
 31
0.0
  0
LINE
  8
LC-009-003-----0
  6
CONTINUOUS
  5
79
 10
478.192788
 20
504.0
 30
0.0
 11
469.626704
 21
505.127746
 31
0.0
  0
LINE
  8
LC-009-003-----0
  6
CONTINUOUS
  5
7A
 10
469.586666
 20
503.483116
 30
0.0
 11
473.512788
 21
504.0
 31
0.0
  0
LINE
  8
LC-009-003-----0
  6
CONTINUOUS
  5
7B
 10
473.512788
 20
504.0
 30
0.0
 11
469.586666
 21
504.516884
 31
0.0
  0
LINE
  8
LC-009-003-----0
  6
CONTINUOUS
  5
7C
 10
564.398795
 20
506.349471
 30
0.0
 11
546.552788
 21
504.0
 31
0.0
  0
LINE
  8
LC-009-003-----0
  6
CONTINUOUS
  5
7D
 10
546.552788
 20
504.0
 30
0.0
 11
564.398795
 21
501.650529
 31
0.0
  0
LINE
  8
LC-009-003-----0
  6
CONTINUOUS
  5
7E
 10
564.398795
 20
501.650529
 30
0.0
 11
564.398795
 21
506.349471
 31
0.0
  0
LINE
  8
LC-009-003-----0
  6
CONTINUOUS
  5
7F
 10
564.438833
 20
505.738609
 30
0.0
 11
551.232788
 21
504.0
 31
0.0
  0
LINE
  8
LC-009-003-----0
  6
CONTINUOUS
  5
80
 10
551.232788
 20
504.0
 30
0.0
 11
564.438833
 21
502.261391
 31
0.0
  0
LINE
  8
LC-009-003-----0
  6
CONTINUOUS
  5
81
 10
564.478871
 20
505.127746
 30
0.0
 11
555.912788
 21
504.0
 31
0.0
  0
LINE
  8
LC-009-003-----0
  6
CONTINUOUS
  5
82
 10
555.912788
 20
504.0
 30
0.0
 11
564.478871
 21
502.872254
 31
0.0
  0
LINE
  8
LC-009-003-----0
  6
CONTINUOUS
  5
83
 10
564.518909
 20
504.516884
 30
0.0
 11
560.592788
 21
504.0
 31
0.0
  0
LINE
  8
LC-009-003-----0
  6
CONTINUOUS
  5
84
 10
560.592788
 20
504.0
 30
0.0
 11
564.518909
 21
503.483116
 31
0.0
  0
LINE
  8
LC-011-003-MTG-0
  6
CONTINUOUS
  5
85
 10
462.352788
 20
504.0
 30
0.0
 11
610.483501
 21
504.0
 31
0.0
  0
TEXT
  8
LC-009-003-----0
  6
CONTINUOUS
 62
     6
  5
86
 10
579.756227
 20
514.431999
 30
0.0
 40
18.0
  1
59
 51
15.0
  7
LC-TXTSTYLE-150-400-0-0-D0
  0
ENDBLK
  8
0
  5
87
  0
BLOCK
  8
0
  5
89
  2
*D14
 70
    65
 10
0.0
 20
0.0
 30
0.0
  3
*D14
  0
LINE
  8
LC-010-003-MTH-0
  6
CONTINUOUS
  5
8A
 10
490.302362
 20
402.654586
 30
0.0
 11
451.2
 21
402.654586
 31
0.0
  0
LINE
  8
LC-010-003-MTH-0
  6
CONTINUOUS
  5
8B
 10
477.052602
 20
409.154586
 30
0.0
 11
451.2
 21
409.154586
 31
0.0
  0
LINE
  8
LC-009-003-----0
  6
CONTINUOUS
  5
8C
 10
464.349471
 20
384.808578
 30
0.0
 11
462.0
 21
402.654586
 31
0.0
  0
LINE
  8
LC-009-003-----0
  6
CONTINUOUS
  5
8D
 10
462.0
 20
402.654586
 30
0.0
 11
459.650529
 21
384.808578
 31
0.0
  0
LINE
  8
LC-009-003-----0
  6
CONTINUOUS
  5
8E
 10
459.650529
 20
384.808578
 30
0.0
 11
464.349471
 21
384.808578
 31
0.0
  0
LINE
  8
LC-009-003-----0
  6
CONTINUOUS
  5
8F
 10
463.738609
 20
384.76854
 30
0.0
 11
462.0
 21
397.974586
 31
0.0
  0
LINE
  8
LC-009-003-----0
  6
CONTINUOUS
  5
90
 10
462.0
 20
397.974586
 30
0.0
 11
460.261391
 21
384.76854
 31
0.0
  0
LINE
  8
LC-009-003-----0
  6
CONTINUOUS
  5
91
 10
463.127746
 20
384.728502
 30
0.0
 11
462.0
 21
393.294586
 31
0.0
  0
LINE
  8
LC-009-003-----0
  6
CONTINUOUS
  5
92
 10
462.0
 20
393.294586
 30
0.0
 11
460.872254
 21
384.728502
 31
0.0
  0
LINE
  8
LC-009-003-----0
  6
CONTINUOUS
  5
93
 10
462.516884
 20
384.688464
 30
0.0
 11
462.0
 21
388.614586
 31
0.0
  0
LINE
  8
LC-009-003-----0
  6
CONTINUOUS
  5
94
 10
462.0
 20
388.614586
 30
0.0
 11
461.483116
 21
384.688464
 31
0.0
  0
LINE
  8
LC-009-003-----0
  6
CONTINUOUS
  5
95
 10
459.650529
 20
427.000593
 30
0.0
 11
462.0
 21
409.154586
 31
0.0
  0
LINE
  8
LC-009-003-----0
  6
CONTINUOUS
  5
96
 10
462.0
 20
409.154586
 30
0.0
 11
464.349471
 21
427.000593
 31
0.0
  0
LINE
  8
LC-009-003-----0
  6
CONTINUOUS
  5
97
 10
464.349471
 20
427.000593
 30
0.0
 11
459.650529
 21
427.000593
 31
0.0
  0
LINE
  8
LC-009-003-----0
  6
CONTINUOUS
  5
98
 10
460.261391
 20
427.040631
 30
0.0
 11
462.0
 21
413.834586
 31
0.0
  0
LINE
  8
LC-009-003-----0
  6
CONTINUOUS
  5
99
 10
462.0
 20
413.834586
 30
0.0
 11
463.738609
 21
427.040631
 31
0.0
  0
LINE
  8
LC-009-003-----0
  6
CONTINUOUS
  5
9A
 10
460.872254
 20
427.080669
 30
0.0
 11
462.0
 21
418.514586
 31
0.0
  0
LINE
  8
LC-009-003-----0
  6
CONTINUOUS
  5
9B
 10
462.0
 20
418.514586
 30
0.0
 11
463.127746
 21
427.080669
 31
0.0
  0
LINE
  8
LC-009-003-----0
  6
CONTINUOUS
  5
9C
 10
461.483116
 20
427.120707
 30
0.0
 11
462.0
 21
423.194586
 31
0.0
  0
LINE
  8
LC-009-003-----0
  6
CONTINUOUS
  5
9D
 10
462.0
 20
423.194586
 30
0.0
 11
462.516884
 21
427.120707
 31
0.0
  0
LINE
  8
LC-011-003-MTG-0
  6
CONTINUOUS
  5
9E
 10
462.0
 20
328.452066
 30
0.0
 11
462.0
 21
434.354586
 31
0.0
  0
TEXT
  8
LC-009-003-----0
  6
CONTINUOUS
 62
     6
  5
9F
 10
451.568001
 20
350.610776
 30
0.0
 40
18.0
  1
6,5
 50
90.0
 51
15.0
  7
LC-TXTSTYLE-150-400-0-0-D0
 72
     2
 11
451.568001
 21
380.969831
 31
0.0
  0
ENDBLK
  8
0
  5
A0
  0
ENDSEC
  0
SECTION
  2
ENTITIES
  0
VIEWPORT
  8
LC-000
  5
16B
 67
     1
 68
     1
 10
420.0
 20
297.0
 30
0.0
 40
840.0
 41
594.0
 69
     1
1001
ACAD
1000
MVIEW
1002
{
1070
    16
1010
0.0
1020
0.0
1030
0.0
1010
0.0
1020
0.0
1030
1.0
1040
0.0
1040
594.0
1040
420.0
1040
297.0
1040
50.0
1040
0.0
1040
0.0
1070
     0
1070
   100
1070
     1
1070
     1
1070
     0
1070
     0
1070
     0
1070
     0
1040
0.0
1040
0.0
1040
0.0
1040
1.0
1040
1.0
1040
0.0
1040
0.0
1070
     0
1002
{
1002
}
1002
}
  0
VIEWPORT
  8
0
  5
16C
 67
     1
 68
     1
 10
0.0
 20
0.0
 30
0.0
 40
0.0
 41
0.0
 69
     1
1001
ACAD
1000
MVIEW
1002
{
1070
    16
1010
0.0
1020
0.0
1030
0.0
1010
0.0
1020
0.0
1030
1.0
1040
0.0
1040
594.0
1040
0.0
1040
0.0
1040
50.0
1040
0.0
1040
0.0
1070
     0
1070
   100
1070
     0
1070
     1
1070
     0
1070
     0
1070
     0
1070
     0
1040
0.0
1040
0.0
1040
0.0
1040
0.5
1040
0.5
1040
0.5
1040
0.5
1070
     0
1002
{
1002
}
1002
}
  0
INSERT
  8
0
  5
A1
  2
*X0
 10
545.280734
 20
405.154586
 30
0.0
  0
INSERT
  8
0
  5
A2
  2
*X1
 10
477.052602
 20
405.154586
 30
0.0
  0
INSERT
  8
0
  5
A4
  2
BLK1
 10
0.0
 20
0.0
 30
0.0
  0
INSERT
  8
0
  5
A6
  2
BLK2
 10
0.0
 20
0.0
 30
0.0
  0
INSERT
  8
0
  5
A7
  2
BLK3
 10
0.0
 20
0.0
 30
0.0
  0
INSERT
  8
0
  5
A8
  2
BLK4
 10
0.0
 20
0.0
 30
0.0
  0
INSERT
  8
0
  5
A9
  2
BLK5
 10
0.0
 20
0.0
 30
0.0
  0
INSERT
  8
0
  5
AA
  2
BLK6
 10
0.0
 20
0.0
 30
0.0
  0
INSERT
  8
0
  5
AB
  2
BLK7
 10
0.0
 20
0.0
 30
0.0
  0
INSERT
  8
0
  5
AC
  2
BLK8
 10
0.0
 20
0.0
 30
0.0
  0
INSERT
  8
0
  5
AD
  2
BLK9
 10
0.0
 20
0.0
 30
0.0
  0
INSERT
  8
0
  5
AE
  2
BLK10
 10
0.0
 20
0.0
 30
0.0
  0
DIMENSION
  8
0
  5
AF
  2
*D12
 10
517.052788
 20
468.0
 30
0.0
 11
517.052788
 21
468.0
 31
0.0
 13
479.052788
 23
525.720506
 33
0.0
 14
555.052788
 24
525.720506
 34
0.0
  3
LC-DIM-L-0090-02-02
  0
DIMENSION
  8
0
  5
B0
  2
*D13
 10
590.482241
 20
504.0
 30
0.0
 11
590.482241
 21
504.0
 31
0.0
 13
487.552788
 23
532.720506
 33
0.0
 14
546.552788
 24
532.720506
 34
0.0
  3
LC-DIM-L-0090-02-02
  0
DIMENSION
  8
0
  5
B1
  2
*D14
 10
462.0
 20
402.342095
 30
0.0
 11
462.0
 21
402.342095
 31
0.0
 13
477.052602
 23
409.154586
 33
0.0
 14
490.302362
 24
402.654586
 34
0.0
 50
90.0
  3
LC-DIM-L-0090-02-02
  0
LINE
  8
LC-001-002-----0
  6
CONTINUOUS
  5
B3
 10
487.054027
 20
409.154586
 30
0.0
 11
487.054027
 21
408.354595
 31
0.0
  0
LINE
  8
LC-001-002-----0
  6
CONTINUOUS
  5
B4
 10
487.054027
 20
409.154586
 30
0.0
 11
517.052375
 21
409.154586
 31
0.0
  0
LINE
  8
LC-001-002-----0
  6
CONTINUOUS
  5
B5
 10
478.690831
 20
409.154586
 30
0.0
 11
484.054027
 21
409.154586
 31
0.0
  0
LINE
  8
LC-001-002-----0
  6
CONTINUOUS
  5
B6
 10
547.050722
 20
409.154586
 30
0.0
 11
547.050722
 21
408.354595
 31
0.0
  0
LINE
  8
LC-001-002-----0
  6
CONTINUOUS
  5
B7
 10
546.301147
 20
408.354595
 30
0.0
 11
547.301147
 21
408.354595
 31
0.0
  0
LINE
  8
LC-001-002-----0
  6
CONTINUOUS
  5
B8
 10
486.803602
 20
408.354595
 30
0.0
 11
487.803602
 21
408.354595
 31
0.0
  0
ARC
  8
LC-001-002-----0
  6
DASHED
 62
     2
  5
BA
 10
-444.455889
 20
18.632061
 30
0.0
 40
4.5
 50
278.327207
 51
278.714603
  0
CIRCLE
  8
LC-001-002-----0
  6
CONTINUOUS
  5
BB
 10
72.864909
 20
-97.494492
 30
0.0
 40
2525.0
  0
LINE
  8
LC-001-002-----0
  6
CONTINUOUS
  5
BC
 10
491.752369
 20
427.354586
 30
0.0
 11
491.752369
 21
441.134598
 31
0.0
  0
LINE
  8
LC-001-002-----0
  6
CONTINUOUS
  5
BD
 10
519.052362
 20
424.154586
 30
0.0
 11
519.052362
 21
414.154586
 31
0.0
  0
LINE
  8
LC-001-002-----0
  6
CONTINUOUS
  5
BE
 10
519.052362
 20
413.354571
 30
0.0
 11
519.052362
 21
412.154586
 31
0.0
  0
LINE
  8
LC-001-002-----0
  6
CONTINUOUS
  5
BF
 10
496.052362
 20
412.154586
 30
0.0
 11
496.052362
 21
413.354586
 31
0.0
  0
LINE
  8
LC-001-002-----0
  6
CONTINUOUS
  5
C0
 10
496.052362
 20
414.154586
 30
0.0
 11
496.052362
 21
424.154586
 31
0.0
  0
LINE
  8
LC-001-002-----0
  6
CONTINUOUS
  5
C1
 10
492.552369
 20
413.354586
 30
0.0
 11
492.552369
 21
427.353465
 31
0.0
  0
LINE
  8
LC-001-002-----0
  6
CONTINUOUS
  5
C2
 10
492.552369
 20
427.353465
 30
0.0
 11
491.752369
 21
427.353465
 31
0.0
  0
LINE
  8
LC-001-002-----0
  6
CONTINUOUS
  5
C3
 10
491.752369
 20
427.354586
 30
0.0
 11
491.752369
 21
414.154586
 31
0.0
  0
LINE
  8
LC-001-002-----0
  6
CONTINUOUS
  5
C4
 10
491.752369
 20
414.154586
 30
0.0
 11
481.552369
 21
414.154586
 31
0.0
  0
LINE
  8
LC-001-002-----0
  6
CONTINUOUS
  5
C5
 10
481.552369
 20
414.154586
 30
0.0
 11
481.552369
 21
413.354586
 31
0.0
  0
ARC
  8
LC-006-004-----0
  6
CONTINUOUS
  5
C7
 10
229.897537
 20
-0.157311
 30
0.0
 40
0.63
 50
200.0
 51
290.0
  0
LINE
  8
LC-001-002-----0
  6
CONTINUOUS
  5
C8
 10
492.552369
 20
413.354586
 30
0.0
 11
481.552369
 21
413.354586
 31
0.0
  0
LINE
  8
LC-001-002-----0
  6
CONTINUOUS
  5
C9
 10
485.052369
 20
413.354586
 30
0.0
 11
517.052366
 21
413.354586
 31
0.0
  0
LINE
  8
LC-001-002-----0
  6
CONTINUOUS
  5
CA
 10
492.552369
 20
427.354586
 30
0.0
 11
492.552369
 21
442.354586
 31
0.0
  0
LINE
  8
LC-001-002-----0
  6
CONTINUOUS
  5
CB
 10
492.552369
 20
427.354586
 30
0.0
 11
517.052416
 21
427.354586
 31
0.0
  0
LINE
  8
LC-001-002-----0
  6
CONTINUOUS
  5
CC
 10
492.552369
 20
442.354586
 30
0.0
 11
517.052469
 21
442.354586
 31
0.0
  0
LINE
  8
LC-001-002-----0
  6
CONTINUOUS
  5
CD
 10
541.552364
 20
413.354412
 30
0.0
 11
541.552464
 21
427.353291
 31
0.0
  0
LINE
  8
LC-001-002-----0
  6
CONTINUOUS
  5
CE
 10
541.552464
 20
427.353291
 30
0.0
 11
542.352464
 21
427.353286
 31
0.0
  0
LINE
  8
LC-001-002-----0
  6
CONTINUOUS
  5
CF
 10
542.352464
 20
427.354406
 30
0.0
 11
542.35237
 21
414.154406
 31
0.0
  0
LINE
  8
LC-001-002-----0
  6
CONTINUOUS
  5
D0
 10
552.55237
 20
414.154334
 30
0.0
 11
552.552364
 21
413.354334
 31
0.0
  0
LINE
  8
LC-001-002-----0
  6
CONTINUOUS
  5
D1
 10
541.552364
 20
413.354412
 30
0.0
 11
552.552364
 21
413.354334
 31
0.0
  0
LINE
  8
LC-001-002-----0
  6
CONTINUOUS
  5
D2
 10
541.552464
 20
427.354412
 30
0.0
 11
541.55257
 21
442.354412
 31
0.0
  0
LINE
  8
LC-001-002-----0
  6
CONTINUOUS
  5
D3
 10
541.552464
 20
427.354412
 30
0.0
 11
517.052416
 21
427.354586
 31
0.0
  0
LINE
  8
LC-001-002-----0
  6
CONTINUOUS
  5
D4
 10
541.55257
 20
442.354412
 30
0.0
 11
517.052469
 21
442.354586
 31
0.0
  0
LINE
  8
LC-001-002-----0
  6
CONTINUOUS
  5
D5
 10
496.052362
 20
424.154586
 30
0.0
 11
538.052362
 21
424.154586
 31
0.0
  0
LINE
  8
LC-001-002-----0
  6
CONTINUOUS
  5
D6
 10
549.05237
 20
413.354589
 30
0.0
 11
517.052366
 21
413.354586
 31
0.0
  0
LINE
  8
LC-001-002-----0
  6
CONTINUOUS
  5
D7
 10
538.052362
 20
424.154586
 30
0.0
 11
538.052362
 21
414.154586
 31
0.0
  0
LINE
  8
LC-001-002-----0
  6
CONTINUOUS
  5
D8
 10
538.052362
 20
413.354437
 30
0.0
 11
538.052362
 21
412.154586
 31
0.0
  0
LINE
  8
LC-001-002-----0
  6
CONTINUOUS
  5
D9
 10
491.752369
 20
414.154586
 30
0.0
 11
552.55237
 21
414.154586
 31
0.0
  0
LINE
  8
LC-001-002-----0
  6
CONTINUOUS
  5
DA
 10
542.352464
 20
427.354406
 30
0.0
 11
542.352561
 21
441.134418
 31
0.0
  0
LINE
  8
LC-001-002-----0
  6
CONTINUOUS
  5
DB
 10
543.553591
 20
442.335431
 30
0.0
 11
542.352561
 21
441.134418
 31
0.0
  0
LINE
  8
LC-001-002-----0
  6
CONTINUOUS
  5
DC
 10
542.582609
 20
442.354404
 30
0.0
 11
543.534625
 21
442.354398
 31
0.0
  0
LINE
  8
LC-001-002-----0
  6
CONTINUOUS
  5
DD
 10
542.582609
 20
442.354404
 30
0.0
 11
541.552563
 21
441.324373
 31
0.0
  0
LINE
  8
LC-001-002-----0
  6
CONTINUOUS
  5
DE
 10
515.052362
 20
424.154586
 30
0.0
 11
515.052362
 21
414.154586
 31
0.0
  0
LINE
  8
LC-001-002-----0
  6
CONTINUOUS
  5
DF
 10
515.052362
 20
413.354586
 30
0.0
 11
515.052362
 21
412.154586
 31
0.0
  0
LINE
  8
LC-001-002-----0
  6
CONTINUOUS
  5
E0
 10
515.052362
 20
421.654586
 30
0.0
 11
519.052362
 21
421.654586
 31
0.0
  0
ARC
  8
LC-007-002-RND-0
  6
CONTINUOUS
  5
E2
 10
490.302362
 20
404.654586
 30
0.0
 40
2.0
 50
180.0
 51
270.0
  0
ARC
  8
LC-007-002-RND-0
  6
CONTINUOUS
  5
E3
 10
543.802362
 20
404.654586
 30
0.0
 40
2.0
 50
270.0
 51
0.0
  0
LINE
  8
LC-001-002-----0
  6
CONTINUOUS
  5
E4
 10
490.302788
 20
588.470506
 30
0.0
 11
543.802788
 21
588.470506
 31
0.0
  0
LINE
  8
LC-001-002-----0
  6
CONTINUOUS
  5
E5
 10
545.802788
 20
586.470506
 30
0.0
 11
545.802788
 21
532.970506
 31
0.0
  0
LINE
  8
LC-001-002-----0
  6
CONTINUOUS
  5
E6
 10
543.802788
 20
530.970506
 30
0.0
 11
528.802788
 21
530.970506
 31
0.0
  0
LINE
  8
LC-001-002-----0
  6
CONTINUOUS
  5
E7
 10
488.302788
 20
532.970506
 30
0.0
 11
488.302788
 21
586.470506
 31
0.0
  0
LINE
  8
LC-001-002-----0
  6
CONTINUOUS
  5
E8
 10
505.302788
 20
530.970506
 30
0.0
 11
490.302788
 21
530.970506
 31
0.0
  0
LINE
  8
LC-001-002-----0
  6
CONTINUOUS
  5
E9
 10
505.302788
 20
530.970506
 30
0.0
 11
505.302788
 21
531.470506
 31
0.0
  0
LINE
  8
LC-001-002-----0
  6
CONTINUOUS
  5
EA
 10
505.302788
 20
531.470506
 30
0.0
 11
528.802788
 21
531.470506
 31
0.0
  0
LINE
  8
LC-001-002-----0
  6
CONTINUOUS
  5
EB
 10
528.802788
 20
531.470506
 30
0.0
 11
528.802788
 21
530.970506
 31
0.0
  0
LINE
  8
LC-001-002-----0
  6
CONTINUOUS
  5
EC
 10
505.302788
 20
531.470506
 30
0.0
 11
505.302788
 21
532.970506
 31
0.0
  0
LINE
  8
LC-001-002-----0
  6
CONTINUOUS
  5
ED
 10
505.302788
 20
532.970506
 30
0.0
 11
528.802788
 21
532.970506
 31
0.0
  0
LINE
  8
LC-001-002-----0
  6
CONTINUOUS
  5
EE
 10
528.802788
 20
532.970506
 30
0.0
 11
528.802788
 21
531.470506
 31
0.0
  0
LINE
  8
LC-001-002-----0
  6
CONTINUOUS
  5
EF
 10
505.302788
 20
532.970506
 30
0.0
 11
505.302788
 21
537.470506
 31
0.0
  0
LINE
  8
LC-001-002-----0
  6
CONTINUOUS
  5
F0
 10
505.302788
 20
537.470506
 30
0.0
 11
528.802788
 21
537.470506
 31
0.0
  0
LINE
  8
LC-001-002-----0
  6
CONTINUOUS
  5
F1
 10
528.802788
 20
537.470506
 30
0.0
 11
528.802788
 21
532.970506
 31
0.0
  0
LINE
  8
LC-008-006-MLN-0
  6
DASHDOT
  5
F5
 10
470.052788
 20
559.720506
 30
0.0
 11
556.552788
 21
559.720506
 31
0.0
  0
LINE
  8
LC-008-006-MLN-0
  6
DASHDOT
  5
F6
 10
517.052788
 20
606.720506
 30
0.0
 11
517.052788
 21
512.720506
 31
0.0
  0
ARC
  8
LC-007-002-RND-0
  6
CONTINUOUS
  5
F7
 10
507.587546
 20
402.154586
 30
0.0
 40
1.0
 50
213.690068
 51
270.0
  0
LINE
  8
LC-001-002-----0
  6
CONTINUOUS
  5
F8
 10
490.052788
 20
530.220506
 30
0.0
 11
544.052788
 21
530.220506
 31
0.0
  0
LINE
  8
LC-001-002-----0
  6
CONTINUOUS
  5
F9
 10
546.552788
 20
532.720506
 30
0.0
 11
546.552788
 21
586.720506
 31
0.0
  0
LINE
  8
LC-001-002-----0
  6
CONTINUOUS
  5
FA
 10
544.052788
 20
589.220506
 30
0.0
 11
490.052788
 21
589.220506
 31
0.0
  0
LINE
  8
LC-001-002-----0
  6
CONTINUOUS
  5
FB
 10
487.552788
 20
586.720506
 30
0.0
 11
487.552788
 21
532.720506
 31
0.0
  0
ARC
  8
LC-007-002-RND-0
  6
CONTINUOUS
  5
FC
 10
490.302788
 20
586.470506
 30
0.0
 40
2.0
 50
90.0
 51
180.0
  0
ARC
  8
LC-007-002-RND-0
  6
CONTINUOUS
  5
FD
 10
543.802788
 20
586.470506
 30
0.0
 40
2.0
 50
0.0
 51
90.0
  0
ARC
  8
LC-007-002-RND-0
  6
CONTINUOUS
  5
FE
 10
543.802788
 20
532.970506
 30
0.0
 40
2.0
 50
270.0
 51
0.0
  0
ARC
  8
LC-007-002-RND-0
  6
CONTINUOUS
  5
FF
 10
490.302788
 20
532.970506
 30
0.0
 40
2.0
 50
180.0
 51
270.0
  0
ARC
  8
LC-007-002-RND-0
  6
CONTINUOUS
  5
100
 10
551.052788
 20
593.720506
 30
0.0
 40
4.0
 50
0.0
 51
90.0
  0
ARC
  8
LC-007-002-RND-0
  6
CONTINUOUS
  5
101
 10
483.052788
 20
593.720506
 30
0.0
 40
4.0
 50
90.0
 51
180.0
  0
ARC
  8
LC-007-002-RND-0
  6
CONTINUOUS
  5
102
 10
483.052788
 20
525.720506
 30
0.0
 40
4.0
 50
180.0
 51
270.0
  0
ARC
  8
LC-007-002-RND-0
  6
CONTINUOUS
  5
103
 10
551.052788
 20
525.720506
 30
0.0
 40
4.0
 50
270.0
 51
0.0
  0
LINE
  8
LC-001-002-----0
  6
CONTINUOUS
  5
104
 10
551.052788
 20
597.720506
 30
0.0
 11
483.052788
 21
597.720506
 31
0.0
  0
LINE
  8
LC-001-002-----0
  6
CONTINUOUS
  5
105
 10
479.052788
 20
593.720506
 30
0.0
 11
479.052788
 21
525.720506
 31
0.0
  0
LINE
  8
LC-001-002-----0
  6
CONTINUOUS
  5
106
 10
483.052788
 20
521.720506
 30
0.0
 11
551.052788
 21
521.720506
 31
0.0
  0
LINE
  8
LC-001-002-----0
  6
CONTINUOUS
  5
107
 10
555.052788
 20
525.720506
 30
0.0
 11
555.052788
 21
593.720506
 31
0.0
  0
LINE
  8
LC-001-002-----0
  6
CONTINUOUS
  5
108
 10
546.552788
 20
586.720506
 30
0.0
 11
546.552788
 21
532.720506
 31
0.0
  0
LINE
  8
LC-001-002-----0
  6
CONTINUOUS
  5
109
 10
487.552788
 20
586.720506
 30
0.0
 11
487.552788
 21
532.720506
 31
0.0
  0
LINE
  8
LC-001-002-----0
  6
CONTINUOUS
  5
10A
 10
490.052788
 20
589.220506
 30
0.0
 11
544.052788
 21
589.220506
 31
0.0
  0
LINE
  8
LC-001-002-----0
  6
CONTINUOUS
  5
10B
 10
490.052788
 20
530.220506
 30
0.0
 11
544.052788
 21
530.220506
 31
0.0
  0
ARC
  8
LC-007-002-RND-0
  6
CONTINUOUS
  5
10C
 10
490.052788
 20
586.720506
 30
0.0
 40
2.5
 50
90.0
 51
180.0
  0
ARC
  8
LC-007-002-RND-0
  6
CONTINUOUS
  5
10D
 10
490.052788
 20
532.720506
 30
0.0
 40
2.5
 50
180.0
 51
270.0
  0
ARC
  8
LC-007-002-RND-0
  6
CONTINUOUS
  5
10E
 10
544.052788
 20
532.720506
 30
0.0
 40
2.5
 50
270.0
 51
0.0
  0
ARC
  8
LC-007-002-RND-0
  6
CONTINUOUS
  5
10F
 10
544.052788
 20
586.720506
 30
0.0
 40
2.5
 50
0.0
 51
90.0
  0
ARC
  8
LC-007-002-RND-0
  6
CONTINUOUS
  5
110
 10
526.517178
 20
402.154586
 30
0.0
 40
1.0
 50
270.0
 51
326.309932
  0
LINE
  8
LC-001-002-----0
  6
CONTINUOUS
  5
111
 10
488.302362
 20
412.154586
 30
0.0
 11
545.802362
 21
412.154586
 31
0.0
  0
LINE
  8
LC-001-002-----0
  6
CONTINUOUS
  5
112
 10
545.802362
 20
412.154586
 30
0.0
 11
545.802362
 21
408.654586
 31
0.0
  0
LINE
  8
LC-001-002-----0
  6
CONTINUOUS
  5
113
 10
545.802362
 20
408.654586
 30
0.0
 11
488.302362
 21
408.654586
 31
0.0
  0
LINE
  8
LC-001-002-----0
  6
CONTINUOUS
  5
114
 10
488.302362
 20
408.654586
 30
0.0
 11
488.302362
 21
412.154586
 31
0.0
  0
LINE
  8
LC-001-002-----0
  6
CONTINUOUS
  5
115
 10
488.302362
 20
406.654586
 30
0.0
 11
545.802362
 21
406.654586
 31
0.0
  0
LINE
  8
LC-001-002-----0
  6
CONTINUOUS
  5
116
 10
545.802362
 20
406.654586
 30
0.0
 11
545.802362
 21
404.654586
 31
0.0
  0
LINE
  8
LC-001-002-----0
  6
CONTINUOUS
  5
117
 10
543.802362
 20
402.654586
 30
0.0
 11
490.302362
 21
402.654586
 31
0.0
  0
LINE
  8
LC-001-002-----0
  6
CONTINUOUS
  5
118
 10
488.302362
 20
404.654586
 30
0.0
 11
488.302362
 21
406.654586
 31
0.0
  0
LINE
  8
LC-001-002-----0
  6
CONTINUOUS
  5
119
 10
537.052362
 20
424.154586
 30
0.0
 11
537.052362
 21
414.154586
 31
0.0
  0
LINE
  8
LC-001-002-----0
  6
CONTINUOUS
  5
11A
 10
537.052362
 20
413.354444
 30
0.0
 11
537.052362
 21
412.154586
 31
0.0
  0
ARC
  8
LC-007-002-RND-0
  6
CONTINUOUS
  5
11B
 10
528.587546
 20
401.654586
 30
0.0
 40
1.0
 50
90.0
 51
146.309932
  0
ARC
  8
LC-007-002-RND-0
  6
CONTINUOUS
  5
11C
 10
505.517178
 20
401.654586
 30
0.0
 40
1.0
 50
33.690068
 51
90.0
  0
LINE
  8
LC-001-002-----0
  6
CONTINUOUS
  5
11D
 10
488.302362
 20
406.654586
 30
0.0
 11
488.302362
 21
408.654586
 31
0.0
  0
LINE
  8
LC-001-002-----0
  6
CONTINUOUS
  5
11E
 10
488.302362
 20
408.154586
 30
0.0
 11
489.302362
 21
408.154586
 31
0.0
  0
LINE
  8
LC-001-002-----0
  6
CONTINUOUS
  5
11F
 10
489.302362
 20
408.154586
 30
0.0
 11
489.302362
 21
406.654586
 31
0.0
  0
LINE
  8
LC-001-002-----0
  6
CONTINUOUS
  5
120
 10
545.802362
 20
406.654586
 30
0.0
 11
545.802362
 21
408.654586
 31
0.0
  0
LINE
  8
LC-001-002-----0
  6
CONTINUOUS
  5
121
 10
545.802362
 20
408.154586
 30
0.0
 11
544.802362
 21
408.154586
 31
0.0
  0
LINE
  8
LC-001-002-----0
  6
CONTINUOUS
  5
122
 10
544.802362
 20
408.154586
 30
0.0
 11
544.802362
 21
406.654586
 31
0.0
  0
LINE
  8
LC-001-002-----0
  6
CONTINUOUS
  5
123
 10
497.052362
 20
424.154586
 30
0.0
 11
497.052362
 21
414.154586
 31
0.0
  0
LINE
  8
LC-001-002-----0
  6
CONTINUOUS
  5
124
 10
497.052362
 20
413.354586
 30
0.0
 11
497.052362
 21
412.154586
 31
0.0
  0
LINE
  8
LC-001-002-----0
  6
CONTINUOUS
  5
125
 10
490.551347
 20
442.335619
 30
0.0
 11
491.752369
 21
441.134598
 31
0.0
  0
LINE
  8
LC-001-002-----0
  6
CONTINUOUS
  5
126
 10
514.552362
 20
408.654586
 30
0.0
 11
514.552362
 21
406.654586
 31
0.0
  0
LINE
  8
LC-001-002-----0
  6
CONTINUOUS
  5
127
 10
519.552362
 20
408.654586
 30
0.0
 11
519.552362
 21
406.654586
 31
0.0
  0
LINE
  8
LC-001-002-----0
  6
CONTINUOUS
  5
128
 10
526.517178
 20
401.154586
 30
0.0
 11
507.587546
 21
401.154586
 31
0.0
  0
LINE
  8
LC-001-002-----0
  6
CONTINUOUS
  5
129
 10
506.349229
 20
402.209286
 30
0.0
 11
506.755496
 21
401.599885
 31
0.0
  0
LINE
  8
LC-001-002-----0
  6
CONTINUOUS
  5
12A
 10
527.755496
 20
402.209286
 30
0.0
 11
527.349229
 21
401.599885
 31
0.0
  0
LINE
  8
LC-001-002-----0
  6
CONTINUOUS
  5
12B
 10
504.052362
 20
424.154586
 30
0.0
 11
504.052362
 21
426.154586
 31
0.0
  0
LINE
  8
LC-001-002-----0
  6
CONTINUOUS
  5
12C
 10
504.052362
 20
426.154586
 30
0.0
 11
511.052362
 21
426.154586
 31
0.0
  0
LINE
  8
LC-001-002-----0
  6
CONTINUOUS
  5
12D
 10
511.052362
 20
426.154586
 30
0.0
 11
511.052362
 21
424.154586
 31
0.0
  0
LINE
  8
LC-001-002-----0
  6
CONTINUOUS
  5
12E
 10
511.052362
 20
426.154586
 30
0.0
 11
511.052362
 21
427.353291
 31
0.0
  0
LINE
  8
LC-001-002-----0
  6
CONTINUOUS
  5
12F
 10
523.052362
 20
427.353291
 30
0.0
 11
523.052362
 21
426.154586
 31
0.0
  0
LINE
  8
LC-001-002-----0
  6
CONTINUOUS
  5
130
 10
523.052362
 20
426.154586
 30
0.0
 11
530.052362
 21
426.154586
 31
0.0
  0
LINE
  8
LC-001-002-----0
  6
CONTINUOUS
  5
131
 10
530.052362
 20
426.154586
 30
0.0
 11
530.052362
 21
424.154586
 31
0.0
  0
LINE
  8
LC-001-002-----0
  6
CONTINUOUS
  5
132
 10
523.052362
 20
426.154586
 30
0.0
 11
523.052362
 21
424.154586
 31
0.0
  0
LINE
  8
LC-001-002-----0
  6
CONTINUOUS
  5
133
 10
520.052362
 20
427.353291
 30
0.0
 11
520.052362
 21
424.154586
 31
0.0
  0
LINE
  8
LC-001-002-----0
  6
CONTINUOUS
  5
134
 10
514.052362
 20
427.353291
 30
0.0
 11
514.052362
 21
424.154586
 31
0.0
  0
LINE
  8
LC-008-006-MLN-0
  6
DASHDOT
  5
135
 10
517.052375
 20
395.154586
 30
0.0
 11
517.052375
 21
419.154586
 31
0.0
  0
LINE
  8
LC-001-002-----0
  6
CONTINUOUS
  5
136
 10
487.803602
 20
408.354595
 30
0.0
 11
517.052375
 21
408.354595
 31
0.0
  0
LINE
  8
LC-001-002-----0
  6
CONTINUOUS
  5
137
 10
486.803602
 20
406.566113
 30
0.0
 11
486.803602
 21
408.354595
 31
0.0
  0
LINE
  8
LC-001-002-----0
  6
CONTINUOUS
  5
138
 10
485.802602
 20
406.566113
 30
0.0
 11
478.690831
 21
409.154586
 31
0.0
  0
LINE
  8
LC-001-002-----0
  6
CONTINUOUS
  5
139
 10
477.052602
 20
409.154586
 30
0.0
 11
478.690831
 21
409.154586
 31
0.0
  0
LINE
  8
LC-001-002-----0
  6
CONTINUOUS
  5
13A
 10
477.052602
 20
409.154586
 30
0.0
 11
477.052602
 21
408.854793
 31
0.0
  0
LINE
  8
LC-001-002-----0
  6
CONTINUOUS
  5
13B
 10
486.803602
 20
405.154586
 30
0.0
 11
485.824015
 21
405.154586
 31
0.0
  0
LINE
  8
LC-001-002-----0
  6
CONTINUOUS
  5
13C
 10
487.803602
 20
406.154586
 30
0.0
 11
487.803602
 21
408.354595
 31
0.0
  0
LINE
  8
LC-001-002-----0
  6
CONTINUOUS
  5
13D
 10
486.803602
 20
405.154586
 30
0.0
 11
517.052375
 21
405.154586
 31
0.0
  0
ARC
  8
LC-007-002-RND-0
  6
CONTINUOUS
  5
13E
 10
478.052602
 20
408.854793
 30
0.0
 40
1.0
 50
180.0
 51
250.0
  0
ARC
  8
LC-007-002-RND-0
  6
CONTINUOUS
  5
13F
 10
485.824015
 20
408.154586
 30
0.0
 40
3.0
 50
250.0
 51
270.0
  0
LINE
  8
LC-001-002-----0
  6
CONTINUOUS
  5
140
 10
555.413918
 20
409.154586
 30
0.0
 11
550.050722
 21
409.154586
 31
0.0
  0
LINE
  8
LC-001-002-----0
  6
CONTINUOUS
  5
141
 10
546.301147
 20
408.354595
 30
0.0
 11
517.052375
 21
408.354595
 31
0.0
  0
LINE
  8
LC-001-002-----0
  6
CONTINUOUS
  5
142
 10
547.301147
 20
406.566113
 30
0.0
 11
547.301147
 21
408.354595
 31
0.0
  0
LINE
  8
LC-001-002-----0
  6
CONTINUOUS
  5
143
 10
555.413918
 20
409.154586
 30
0.0
 11
548.302147
 21
406.566113
 31
0.0
  0
LINE
  8
LC-001-002-----0
  6
CONTINUOUS
  5
144
 10
557.052147
 20
409.154586
 30
0.0
 11
555.413918
 21
409.154586
 31
0.0
  0
LINE
  8
LC-001-002-----0
  6
CONTINUOUS
  5
145
 10
557.052147
 20
409.154586
 30
0.0
 11
557.052147
 21
408.854793
 31
0.0
  0
LINE
  8
LC-001-002-----0
  6
CONTINUOUS
  5
146
 10
547.181864
 20
405.154586
 30
0.0
 11
548.280734
 21
405.154586
 31
0.0
  0
LINE
  8
LC-001-002-----0
  6
CONTINUOUS
  5
147
 10
546.301147
 20
406.154586
 30
0.0
 11
546.301147
 21
408.354595
 31
0.0
  0
LINE
  8
LC-001-002-----0
  6
CONTINUOUS
  5
148
 10
547.301147
 20
405.154586
 30
0.0
 11
517.052375
 21
405.154586
 31
0.0
  0
ARC
  8
LC-007-002-RND-0
  6
CONTINUOUS
  5
149
 10
556.052147
 20
408.854793
 30
0.0
 40
1.0
 50
290.0
 51
360.0
  0
ARC
  8
LC-007-002-RND-0
  6
CONTINUOUS
  5
14A
 10
548.280734
 20
408.154586
 30
0.0
 40
3.0
 50
270.0
 51
290.0
  0
LINE
  8
LC-001-002-----0
  6
CONTINUOUS
  5
14B
 10
549.800722
 20
412.352882
 30
0.0
 11
547.300187
 21
412.352882
 31
0.0
  0
LINE
  8
LC-001-002-----0
  6
CONTINUOUS
  5
14C
 10
550.050722
 20
412.102882
 30
0.0
 11
549.800722
 21
412.352882
 31
0.0
  0
LINE
  8
LC-001-002-----0
  6
CONTINUOUS
  5
14D
 10
547.300187
 20
412.352882
 30
0.0
 11
547.050187
 21
412.102882
 31
0.0
  0
LINE
  8
LC-001-002-----0
  6
CONTINUOUS
  5
14E
 10
547.050722
 20
409.154586
 30
0.0
 11
517.052375
 21
409.154586
 31
0.0
  0
LINE
  8
LC-001-002-----0
  6
CONTINUOUS
  5
14F
 10
550.050722
 20
412.102882
 30
0.0
 11
547.050723
 21
412.101812
 31
0.0
  0
LINE
  8
LC-001-002-----0
  6
CONTINUOUS
  5
150
 10
549.306795
 20
405.335508
 30
0.0
 11
556.394168
 21
407.915101
 31
0.0
  0
LINE
  8
LC-001-002-----0
  6
CONTINUOUS
  5
151
 10
484.797955
 20
405.335508
 30
0.0
 11
477.710582
 21
407.915101
 31
0.0
  0
LINE
  8
LC-001-002-----0
  6
CONTINUOUS
  5
152
 10
548.302147
 20
406.566113
 30
0.0
 11
547.301147
 21
406.566113
 31
0.0
  0
ARC
  8
LC-007-002-RND-0
  6
CONTINUOUS
  5
153
 10
486.803602
 20
406.154586
 30
0.0
 40
1.0
 50
270.0
 51
0.0
  0
ARC
  8
LC-007-002-RND-0
  6
CONTINUOUS
  5
154
 10
547.301147
 20
406.154586
 30
0.0
 40
1.0
 50
180.0
 51
270.0
  0
LINE
  8
LC-001-002-----0
  6
CONTINUOUS
  5
155
 10
487.054027
 20
412.101812
 30
0.0
 11
487.054027
 21
409.154586
 31
0.0
  0
LINE
  8
LC-001-002-----0
  6
CONTINUOUS
  5
156
 10
484.054027
 20
412.102882
 30
0.0
 11
484.054027
 21
409.154586
 31
0.0
  0
LINE
  8
LC-001-002-----0
  6
CONTINUOUS
  5
157
 10
484.054027
 20
412.102882
 30
0.0
 11
487.054026
 21
412.101812
 31
0.0
  0
LINE
  8
LC-001-002-----0
  6
CONTINUOUS
  5
158
 10
484.304027
 20
412.352882
 30
0.0
 11
486.804562
 21
412.352882
 31
0.0
  0
LINE
  8
LC-001-002-----0
  6
CONTINUOUS
  5
159
 10
484.054027
 20
412.102882
 30
0.0
 11
484.304027
 21
412.352882
 31
0.0
  0
LINE
  8
LC-001-002-----0
  6
CONTINUOUS
  5
15A
 10
486.804562
 20
412.352882
 30
0.0
 11
487.054562
 21
412.102882
 31
0.0
  0
LINE
  8
LC-001-002-----0
  6
CONTINUOUS
  5
15B
 10
484.054027
 20
409.154586
 30
0.0
 11
484.054027
 21
407.202542
 31
0.0
  0
LINE
  8
LC-001-002-----0
  6
CONTINUOUS
  5
15C
 10
485.802602
 20
406.566113
 30
0.0
 11
486.803602
 21
406.566113
 31
0.0
  0
LINE
  8
LC-001-002-----0
  6
CONTINUOUS
  5
15D
 10
547.050722
 20
412.101812
 30
0.0
 11
547.050722
 21
409.154586
 31
0.0
  0
LINE
  8
LC-001-002-----0
  6
CONTINUOUS
  5
15E
 10
550.050722
 20
412.102882
 30
0.0
 11
550.050722
 21
409.154586
 31
0.0
  0
LINE
  8
LC-001-002-----0
  6
CONTINUOUS
  5
15F
 10
550.050722
 20
409.154586
 30
0.0
 11
550.050722
 21
407.202542
 31
0.0
  0
LINE
  8
LC-001-002-----0
  6
CONTINUOUS
  5
160
 10
491.52233
 20
442.354586
 30
0.0
 11
490.570314
 21
442.354586
 31
0.0
  0
LINE
  8
LC-001-002-----0
  6
CONTINUOUS
  5
161
 10
491.52233
 20
442.354586
 30
0.0
 11
492.552369
 21
441.324547
 31
0.0
  0
LINE
  8
LC-001-002-----0
  6
CONTINUOUS
 62
     2
  5
162
 10
489.898567
 20
477.867161
 30
0.0
 11
504.857164
 21
477.867161
 31
0.0
  0
LINE
  8
LC-001-002-----0
  6
CONTINUOUS
 62
     2
  5
163
 10
504.857164
 20
477.867161
 30
0.0
 11
504.857164
 21
492.867161
 31
0.0
  0
LINE
  8
LC-001-002-----0
  6
CONTINUOUS
 62
     2
  5
164
 10
489.898567
 20
492.867161
 30
0.0
 11
504.857164
 21
492.867161
 31
0.0
  0
LINE
  8
LC-001-002-----0
  6
CONTINUOUS
 62
     2
  5
165
 10
489.857164
 20
477.867161
 30
0.0
 11
489.857164
 21
492.867161
 31
0.0
  0
LINE
  8
LC-001-002-----0
  6
CONTINUOUS
 62
     2
  5
166
 10
575.965456
 20
513.852678
 30
0.0
 11
575.965456
 21
528.852678
 31
0.0
  0
LINE
  8
LC-001-002-----0
  6
CONTINUOUS
 62
     2
  5
167
 10
561.006859
 20
528.852678
 30
0.0
 11
575.965456
 21
528.852678
 31
0.0
  0
LINE
  8
LC-001-002-----0
  6
CONTINUOUS
 62
     2
  5
168
 10
560.965456
 20
513.852678
 30
0.0
 11
560.965456
 21
528.852678
 31
0.0
  0
LINE
  8
LC-001-002-----0
  6
CONTINUOUS
 62
     2
  5
169
 10
561.006859
 20
513.852678
 30
0.0
 11
575.965456
 21
513.852678
 31
0.0
  0
ENDSEC
  0
EOF
