  0
SECTION
  2
HEADER
  9
$ACADVER
  1
AC1009
  9
$DWGCODEPAGE
  3
ansi_1252
  9
$INSBASE
 10
0.0
 20
0.0
 30
0.0
  9
$EXTMIN
 10
0.0
 20
0.0
 30
0.0
  9
$EXTMAX
 10
420.0
 20
297.0
 30
0.0
  9
$LIMMIN
 10
0.0
 20
0.0
  9
$LIMMAX
 10
420.0
 20
297.0
  9
$ORTHOMODE
 70
     0
  9
$REGENMODE
 70
     1
  9
$FILLMODE
 70
     1
  9
$QTEXTMODE
 70
     0
  9
$MIRRTEXT
 70
     1
  9
$DRAGMODE
 70
     2
  9
$LTSCALE
 40
1.0
  9
$OSMODE
 70
    37
  9
$ATTMODE
 70
     1
  9
$TEXTSIZE
 40
3.5
  9
$TRACEWID
 40
1.0
  9
$TEXTSTYLE
  7
STANDARD
  9
$CLAYER
  8
0
  9
$CELTYPE
  6
BYLAYER
  9
$CECOLOR
 62
   256
  9
$DIMSCALE
 40
1.0
  9
$DIMASZ
 40
4.0
  9
$DIMEXO
 40
1.0
  9
$DIMDLI
 40
3.75
  9
$DIMRND
 40
0.0
  9
$DIMDLE
 40
0.0
  9
$DIMEXE
 40
1.0
  9
$DIMTP
 40
0.0
  9
$DIMTM
 40
0.0
  9
$DIMTXT
 40
9.8777777778
  9
$DIMCEN
 40
2.5
  9
$DIMTSZ
 40
0.0
  9
$DIMTOL
 70
     0
  9
$DIMLIM
 70
     0
  9
$DIMTIH
 70
     1
  9
$DIMTOH
 70
     1
  9
$DIMSE1
 70
     0
  9
$DIMSE2
 70
     0
  9
$DIMTAD
 70
     1
  9
$DIMZIN
 70
     0
  9
$DIMBLK
  1

  9
$DIMASO
 70
     1
  9
$DIMSHO
 70
     1
  9
$DIMPOST
  1

  9
$DIMAPOST
  1

  9
$DIMALT
 70
     0
  9
$DIMALTD
 70
     3
  9
$DIMALTF
 40
0.0393700787
  9
$DIMLFAC
 40
0.5
  9
$DIMTOFL
 70
     1
  9
$DIMTVP
 40
0.0
  9
$DIMTIX
 70
     0
  9
$DIMSOXD
 70
     0
  9
$DIMSAH
 70
     0
  9
$DIMBLK1
  1

  9
$DIMBLK2
  1

  9
$DIMSTYLE
  2
ISO-25
  9
$DIMCLRD
 70
     0
  9
$DIMCLRE
 70
     0
  9
$DIMCLRT
 70
     0
  9
$DIMTFAC
 40
1.0
  9
$DIMGAP
 40
1.524
  9
$LUNITS
 70
     2
  9
$LUPREC
 70
     2
  9
$SKETCHINC
 40
1.0
  9
$FILLETRAD
 40
10.0
  9
$AUNITS
 70
     0
  9
$AUPREC
 70
     2
  9
$MENU
  1
.
  9
$ELEVATION
 40
0.0
  9
$PELEVATION
 40
0.0
  9
$THICKNESS
 40
0.0
  9
$LIMCHECK
 70
     0
  9
$CHAMFERA
 40
0.0
  9
$CHAMFERB
 40
0.0
  9
$SKPOLY
 70
     0
  9
$TDCREATE
 40
2460053.443880718
  9
$TDUPDATE
 40
2460053.443881296
  9
$TDINDWG
 40
0.0000000116
  9
$TDUSRTIMER
 40
0.0000000116
  9
$USRTIMER
 70
     1
  9
$ANGBASE
 50
0.0
  9
$ANGDIR
 70
     0
  9
$PDMODE
 70
     0
  9
$PDSIZE
 40
-1.0
  9
$PLINEWID
 40
0.0
  9
$COORDS
 70
     1
  9
$SPLFRAME
 70
     0
  9
$SPLINETYPE
 70
     6
  9
$SPLINESEGS
 70
     8
  9
$ATTDIA
 70
     0
  9
$ATTREQ
 70
     1
  9
$HANDLING
 70
     1
  9
$HANDSEED
  5
3C7
  9
$SURFTAB1
 70
     6
  9
$SURFTAB2
 70
     6
  9
$SURFTYPE
 70
     6
  9
$SURFU
 70
     6
  9
$SURFV
 70
     6
  9
$UCSNAME
  2

  9
$UCSORG
 10
0.0
 20
0.0
 30
0.0
  9
$UCSXDIR
 10
1.0
 20
0.0
 30
0.0
  9
$UCSYDIR
 10
0.0
 20
1.0
 30
0.0
  9
$PUCSNAME
  2

  9
$PUCSORG
 10
0.0
 20
0.0
 30
0.0
  9
$PUCSXDIR
 10
1.0
 20
0.0
 30
0.0
  9
$PUCSYDIR
 10
0.0
 20
1.0
 30
0.0
  9
$USERI1
 70
     0
  9
$USERI2
 70
     0
  9
$USERI3
 70
     0
  9
$USERI4
 70
     0
  9
$USERI5
 70
     0
  9
$USERR1
 40
0.0
  9
$USERR2
 40
0.0
  9
$USERR3
 40
0.0
  9
$USERR4
 40
0.0
  9
$USERR5
 40
0.0
  9
$WORLDVIEW
 70
     1
  9
$SHADEDGE
 70
     3
  9
$SHADEDIF
 70
    70
  9
$TILEMODE
 70
     1
  9
$MAXACTVP
 70
    64
  9
$PLIMCHECK
 70
     0
  9
$PEXTMIN
 10
1.0000000000E+20
 20
1.0000000000E+20
 30
1.0000000000E+20
  9
$PEXTMAX
 10
-1.0000000000E+20
 20
-1.0000000000E+20
 30
-1.0000000000E+20
  9
$PLIMMIN
 10
0.0
 20
0.0
  9
$PLIMMAX
 10
420.0
 20
297.0
  9
$UNITMODE
 70
     0
  9
$VISRETAIN
 70
     1
  9
$PLINEGEN
 70
     0
  9
$PSLTSCALE
 70
     1
  0
ENDSEC
  0
SECTION
  2
TABLES
  0
TABLE
  2
VPORT
 70
     1
  0
VPORT
  2
*ACTIVE
 70
     0
 10
0.0
 20
0.0
 11
1.0
 21
1.0
 12
210.0
 22
148.5
 13
0.0
 23
0.0
 14
10.0
 24
10.0
 15
10.0
 25
10.0
 16
0.0
 26
0.0
 36
1.0
 17
0.0
 27
0.0
 37
0.0
 40
297.0
 41
1.4141414141
 42
50.0
 43
0.0
 44
0.0
 50
0.0
 51
0.0
 71
     0
 72
  2000
 73
     1
 74
     3
 75
     0
 76
     0
 77
     0
 78
     0
  0
ENDTAB
  0
TABLE
  2
LTYPE
 70
     6
  0
LTYPE
  2
CONTINUOUS
 70
     0
  3
Solid line
 72
    65
 73
     0
 40
0.0
  0
LTYPE
  2
HIDDEN
 70
     0
  3
Hidden __ __ __ __ __ __ __ __ __ __ __ __ __ __
 72
    65
 73
     2
 40
1.905
 49
1.27
 49
-0.635
  0
LTYPE
  2
PHANTOM
 70
     0
  3
Phantom ______  __  __  ______  __  __  ______
 72
    65
 73
     6
 40
12.7
 49
6.35
 49
-1.27
 49
1.27
 49
-1.27
 49
1.27
 49
-1.27
  0
LTYPE
  2
CENTER
 70
     0
  3
Center ____ _ ____ _ ____ _ ____ _ ____ _ ____
 72
    65
 73
     4
 40
10.16
 49
6.35
 49
-1.27
 49
1.27
 49
-1.27
  0
LTYPE
  2
CENTERX2
 70
     0
  3
Center (2x) ________  __  ________  __  _____
 72
    65
 73
     4
 40
20.32
 49
12.7
 49
-2.54
 49
2.54
 49
-2.54
  0
LTYPE
  2
DOT2
 70
     0
  3
Dot (.5x) ........................................
 72
    65
 73
     2
 40
0.635
 49
0.0
 49
-0.635
  0
ENDTAB
  0
TABLE
  2
LAYER
 70
     7
  0
LAYER
  2
0
 70
     0
 62
     7
  6
CONTINUOUS
  0
LAYER
  2
FORMAT
 70
     0
 62
     7
  6
CONTINUOUS
  0
LAYER
  2
RED
 70
     0
 62
     1
  6
CONTINUOUS
  0
LAYER
  2
GREEN
 70
     0
 62
   114
  6
CONTINUOUS
  0
LAYER
  2
BLUE
 70
     0
 62
     5
  6
CONTINUOUS
  0
LAYER
  2
BLATTFORMAT
 70
     0
 62
     7
  6
CONTINUOUS
  0
LAYER
  2
BEMAßUNG
 70
     0
 62
     7
  6
CONTINUOUS
  0
ENDTAB
  0
TABLE
  2
STYLE
 70
     1
  0
STYLE
  2
STANDARD
 70
     0
 40
0.0
 41
1.0
 50
0.0
 71
     0
 42
3.5
  3
txt
  4

  0
ENDTAB
  0
TABLE
  2
VIEW
 70
     0
  0
ENDTAB
  0
TABLE
  2
UCS
 70
     0
  0
ENDTAB
  0
TABLE
  2
APPID
 70
     1
  0
APPID
  2
ACAD
 70
     0
  0
ENDTAB
  0
TABLE
  2
DIMSTYLE
 70
     3
  0
DIMSTYLE
  2
ISO-25
 70
     0
  3

  4

  5

  6

  7

 40
1.0
 41
2.5
 42
0.625
 43
3.75
 44
1.25
 45
0.0
 46
0.0
 47
0.0
 48
0.0
140
2.5
141
2.5
142
0.0
143
0.0393700787
144
1.0
145
0.0
146
1.0
147
0.625
 71
     0
 72
     0
 73
     0
 74
     0
 75
     0
 76
     0
 77
     1
 78
     8
170
     0
171
     3
172
     1
173
     0
174
     0
175
     0
176
     0
177
     0
178
     0
  0
DIMSTYLE
  2
SLDDIMSTYLE0
 70
     0
  3

  4

  5

  6

  7

 40
1.0
 41
4.0
 42
0.0625
 43
0.38
 44
0.0
 45
0.000000001
 46
0.0
 47
0.0
 48
0.0
140
7.1912923177
141
0.09
142
0.0
143
25.4
144
1.0
145
0.0
146
1.0
147
1.7978230794
 71
     0
 72
     0
 73
     0
 74
     0
 75
     0
 76
     0
 77
     1
 78
    12
170
     0
171
     2
172
     0
173
     1
174
     0
175
     0
176
     0
177
     0
178
     0
  0
DIMSTYLE
  2
SLDDIMSTYLE1
 70
     0
  3

  4

  5

  6

  7

 40
1.0
 41
4.0
 42
0.0625
 43
0.38
 44
0.0
 45
0.000000001
 46
0.0
 47
0.0
 48
0.0
140
7.1912923177
141
0.09
142
0.0
143
25.4
144
1.0
145
0.0
146
1.0
147
1.7978230794
 71
     0
 72
     0
 73
     0
 74
     0
 75
     0
 76
     0
 77
     1
 78
    12
170
     0
171
     2
172
     1
173
     1
174
     0
175
     0
176
     0
177
     0
178
     0
  0
ENDTAB
  0
ENDSEC
  0
SECTION
  2
BLOCKS
  0
BLOCK
  8
0
  2
$MODEL_SPACE
 70
     0
 10
0.0
 20
0.0
 30
0.0
  3
$MODEL_SPACE
  1

  0
ENDBLK
  5
21
  8
0
  0
BLOCK
 67
     1
  8
0
  2
$PAPER_SPACE
 70
     0
 10
0.0
 20
0.0
 30
0.0
  3
$PAPER_SPACE
  1

  0
ENDBLK
  5
1D
 67
     1
  8
0
  0
BLOCK
  8
0
  2
_D
 70
     0
 10
0.0
 20
0.0
 30
0.0
  3
_D
  1

  0
SOLID
  5
2CF
  8
BEMAßUNG
 10
168.5201972856
 20
241.1415337754
 30
0.0
 11
172.5201972856
 21
240.2415337754
 31
0.0
 12
172.5201972856
 22
242.0415337754
 32
0.0
 13
172.5201972856
 23
242.0415337754
 33
0.0
  0
SOLID
  5
2D0
  8
BEMAßUNG
 10
243.5201108646
 20
241.1415337754
 30
0.0
 11
239.5201108646
 21
242.0415337754
 31
0.0
 12
239.5201108646
 22
240.2415337754
 32
0.0
 13
239.5201108646
 23
240.2415337754
 33
0.0
  0
LINE
  5
2D1
  8
BEMAßUNG
 10
168.5201972856
 20
216.9415337754
 30
0.0
 11
168.5201972856
 21
242.1415337754
 31
0.0
  0
LINE
  5
2D2
  8
BEMAßUNG
 10
243.5201108646
 20
216.9415337754
 30
0.0
 11
243.5201108646
 21
242.1415337754
 31
0.0
  0
LINE
  5
2D3
  8
BEMAßUNG
 10
168.5201972856
 20
241.1415337754
 30
0.0
 11
243.5201108646
 21
241.1415337754
 31
0.0
  0
TEXT
  5
2D4
  8
BEMAßUNG
 10
200.3249403669
 20
243.7586020674
 30
16.2364484558
 40
7.4083333333
  1
75
 41
0.7
 11
200.3249403669
 21
241.1415337754
 31
16.2364484558
 73
     1
  0
ENDBLK
  5
2CE
  8
0
  0
BLOCK
  8
0
  2
_D_1
 70
     0
 10
0.0
 20
0.0
 30
0.0
  3
_D_1
  1

  0
SOLID
  5
2DA
  8
BEMAßUNG
 10
271.5482968991
 20
216.4415337754
 30
0.0
 11
272.4482968991
 21
220.4415337754
 31
0.0
 12
270.6482968991
 22
220.4415337754
 32
0.0
 13
270.6482968991
 23
220.4415337754
 33
0.0
  0
SOLID
  5
2DB
  8
BEMAßUNG
 10
271.5482968991
 20
188.4415337754
 30
0.0
 11
270.6482968991
 21
184.4415337754
 31
0.0
 12
272.4482968991
 22
184.4415337754
 32
0.0
 13
272.4482968991
 23
184.4415337754
 33
0.0
  0
LINE
  5
2DC
  8
BEMAßUNG
 10
237.4257456661
 20
216.4415337754
 30
0.0
 11
272.5482968991
 21
216.4415337754
 31
0.0
  0
LINE
  5
2DD
  8
BEMAßUNG
 10
243.0201016051
 20
188.4415337754
 30
0.0
 11
272.5482968991
 21
188.4415337754
 31
0.0
  0
LINE
  5
2DE
  8
BEMAßUNG
 10
271.5482968991
 20
216.4415337754
 30
0.0
 11
271.5482968991
 21
228.4415337754
 31
0.0
  0
LINE
  5
2DF
  8
BEMAßUNG
 10
271.5482968991
 20
216.4415337754
 30
0.0
 11
271.5482968991
 21
188.4415337754
 31
0.0
  0
LINE
  5
2E0
  8
BEMAßUNG
 10
271.5482968991
 20
188.4415337754
 30
0.0
 11
271.5482968991
 21
176.4415337754
 31
0.0
  0
TEXT
  5
2E1
  8
BEMAßUNG
 10
268.931228607
 20
197.6739232878
 30
16.2364484558
 40
7.4083333333
  1
28
 50
90.0
 41
0.7
 11
271.5482968991
 21
197.6739232878
 31
16.2364484558
 73
     1
  0
ENDBLK
  5
2D9
  8
0
  0
ENDSEC
  0
SECTION
  2
ENTITIES
  0
POLYLINE
  5
79
  8
0
  6
CONTINUOUS
 62
     7
 66
     1
 10
0.0
 20
0.0
 30
0.0
 70
   128
  0
VERTEX
  5
2E2
  8
0
  6
CONTINUOUS
 62
     7
 10
176.923887129
 20
120.2311214173
 30
0.0
  0
VERTEX
  5
2E3
  8
0
  6
CONTINUOUS
 62
     7
 10
176.9201792394
 20
120.2310186863
 30
0.0
  0
VERTEX
  5
2E4
  8
0
  6
CONTINUOUS
 62
     7
 10
176.911894741
 20
120.2311689119
 30
0.0
  0
VERTEX
  5
2E5
  8
0
  6
CONTINUOUS
 62
     7
 10
176.9084742459
 20
120.2312749469
 30
0.0
  0
VERTEX
  5
2E6
  8
0
  6
CONTINUOUS
 62
     7
 10
176.9069759678
 20
120.2313310932
 30
0.0
  0
VERTEX
  5
2E7
  8
0
  6
CONTINUOUS
 62
     7
 10
176.9062873976
 20
120.2313597788
 30
0.0
  0
VERTEX
  5
2E8
  8
0
  6
CONTINUOUS
 62
     7
 10
176.9067468161
 20
120.2313378676
 30
0.0
  0
VERTEX
  5
2E9
  8
0
  6
CONTINUOUS
 62
     7
 10
176.9073224968
 20
120.2313077071
 30
0.0
  0
SEQEND
  5
3A0
  8
0
  6
CONTINUOUS
 62
     7
  0
ARC
  5
7A
  8
0
  6
CONTINUOUS
 62
     7
 10
235.1195134706
 20
120.5661147297
 30
0.0
 40
0.3350692275579775
 50
268.0801298401
 51
272.4477178048
  0
LINE
  5
7B
  8
0
  6
CONTINUOUS
 62
     7
 10
202.3739595745
 20
134.9820672523
 30
0.0
 11
202.3739595745
 21
130.9357701557
 31
0.0
  0
LINE
  5
7C
  8
0
  6
CONTINUOUS
 62
     7
 10
209.6663486118
 20
130.9357701557
 30
0.0
 11
209.6663486118
 21
134.9820672523
 31
0.0
  0
LINE
  5
7D
  8
0
  6
CONTINUOUS
 62
     7
 10
209.6663486118
 20
120.7309966426
 30
0.0
 11
209.6663486118
 21
122.2541451909
 31
0.0
  0
LINE
  5
7E
  8
0
  6
CONTINUOUS
 62
     7
 10
202.3739595745
 20
122.2541451909
 30
0.0
 11
202.3739595745
 21
120.7309966426
 31
0.0
  0
LINE
  5
7F
  8
0
  6
CONTINUOUS
 62
     7
 10
205.663299049
 20
138.7245032925
 30
0.0
 11
205.4430602107
 21
138.7245032925
 31
0.0
  0
ARC
  5
80
  8
0
  6
CONTINUOUS
 62
     7
 10
205.4347693115
 20
138.4411343388
 30
0.0
 40
0.2834902167141241
 50
88.3240999147
 51
181.9705802836
  0
LINE
  5
81
  8
0
  6
CONTINUOUS
 62
     7
 10
205.1514467466
 20
138.4313861495
 30
0.0
 11
205.1514467466
 21
137.8961767012
 31
0.0
  0
LINE
  5
82
  8
0
  6
CONTINUOUS
 62
     7
 10
205.1514467466
 20
137.8961767012
 30
0.0
 11
205.9550127584
 21
137.8961767012
 31
0.0
  0
LINE
  5
83
  8
0
  6
CONTINUOUS
 62
     7
 10
205.9550127584
 20
137.8961767012
 30
0.0
 11
205.9550127584
 21
138.4325890926
 31
0.0
  0
ARC
  5
84
  8
0
  6
CONTINUOUS
 62
     7
 10
205.6530469299
 20
138.4225444364
 30
0.0
 40
0.3021328461929447
 50
1.9051966258
 51
88.0554383606
  0
LINE
  5
85
  8
0
  6
CONTINUOUS
 62
     7
 10
207.5124231327
 20
139.3185568091
 30
0.0
 11
206.6312672661
 21
139.3185568091
 31
0.0
  0
LINE
  5
86
  8
0
  6
CONTINUOUS
 62
     7
 10
207.5124231327
 20
138.7243029021
 30
0.0
 11
207.5124231327
 21
139.3185568091
 31
0.0
  0
LINE
  5
87
  8
0
  6
CONTINUOUS
 62
     7
 10
206.8649389922
 20
138.7242026568
 30
0.0
 11
207.5124231327
 21
138.7243029021
 31
0.0
  0
ARC
  5
88
  8
0
  6
CONTINUOUS
 62
     7
 10
206.826756327
 20
138.4589379399
 30
0.0
 40
0.26799866784871
 50
81.8090068743
 51
186.8927770912
  0
LINE
  5
89
  8
0
  6
CONTINUOUS
 62
     7
 10
206.5606946252
 20
137.8965777728
 30
0.0
 11
206.5606946252
 21
138.4267749675
 31
0.0
  0
LINE
  5
8A
  8
0
  6
CONTINUOUS
 62
     7
 10
207.5117214159
 20
137.8963979606
 30
0.0
 11
206.5606946252
 21
137.8965777728
 31
0.0
  0
LINE
  5
8B
  8
0
  6
CONTINUOUS
 62
     7
 10
207.5117214159
 20
137.2521008995
 30
0.0
 11
207.5117214159
 21
137.8963979606
 31
0.0
  0
LINE
  5
8C
  8
0
  6
CONTINUOUS
 62
     7
 10
204.5128844114
 20
137.2521008995
 30
0.0
 11
207.5117214159
 21
137.2521008995
 31
0.0
  0
LINE
  5
8D
  8
0
  6
CONTINUOUS
 62
     7
 10
204.5128844114
 20
138.5076728931
 30
0.0
 11
204.5128844114
 21
137.2521008995
 31
0.0
  0
POLYLINE
  5
8E
  8
0
  6
CONTINUOUS
 62
     7
 66
     1
 10
0.0
 20
0.0
 30
0.0
 70
   128
  0
VERTEX
  5
2EA
  8
0
  6
CONTINUOUS
 62
     7
 10
205.3535411699
 20
139.317754847
 30
0.0
  0
VERTEX
  5
2EB
  8
0
  6
CONTINUOUS
 62
     7
 10
205.0866691159
 20
139.3023216407
 30
0.0
  0
VERTEX
  5
2EC
  8
0
  6
CONTINUOUS
 62
     7
 10
204.8814416277
 20
139.2557326453
 30
0.0
  0
VERTEX
  5
2ED
  8
0
  6
CONTINUOUS
 62
     7
 10
204.7302320313
 20
139.1775537954
 30
0.0
  0
VERTEX
  5
2EE
  8
0
  6
CONTINUOUS
 62
     7
 10
204.6254136529
 20
139.0673510259
 30
0.0
  0
VERTEX
  5
2EF
  8
0
  6
CONTINUOUS
 62
     7
 10
204.5360842131
 20
138.8284298223
 30
0.0
  0
VERTEX
  5
2F0
  8
0
  6
CONTINUOUS
 62
     7
 10
204.5128844114
 20
138.5076728931
 30
0.0
  0
SEQEND
  5
3A1
  8
0
  6
CONTINUOUS
 62
     7
  0
POLYLINE
  5
8F
  8
0
  6
CONTINUOUS
 62
     7
 66
     1
 10
0.0
 20
0.0
 30
0.0
 70
   128
  0
VERTEX
  5
2F1
  8
0
  6
CONTINUOUS
 62
     7
 10
205.7954222802
 20
139.3183563185
 30
0.0
  0
VERTEX
  5
2F2
  8
0
  6
CONTINUOUS
 62
     7
 10
205.5736079071
 20
139.3181676971
 30
0.0
  0
VERTEX
  5
2F3
  8
0
  6
CONTINUOUS
 62
     7
 10
205.3535411699
 20
139.317754847
 30
0.0
  0
SEQEND
  5
3A2
  8
0
  6
CONTINUOUS
 62
     7
  0
ARC
  5
90
  8
0
  6
CONTINUOUS
 62
     7
 10
206.6120824206
 20
138.8530878074
 30
0.0
 40
0.4658641967306176
 50
87.6398237658
 51
149.7051578005
  0
ARC
  5
91
  8
0
  6
CONTINUOUS
 62
     7
 10
205.8031803471
 20
138.8442687369
 30
0.0
 40
0.4741510547069738
 50
30.9462152044
 51
90.9375162644
  0
LINE
  5
92
  8
0
  6
CONTINUOUS
 62
     7
 10
207.5114206801
 20
135.0418933859
 30
0.0
 11
207.5114206801
 21
136.6750891774
 31
0.0
  0
LINE
  5
93
  8
0
  6
CONTINUOUS
 62
     7
 10
204.5123832079
 20
135.0418933859
 30
0.0
 11
207.5114206801
 21
135.0418933859
 31
0.0
  0
LINE
  5
94
  8
0
  6
CONTINUOUS
 62
     7
 10
204.5123832079
 20
136.6750891774
 30
0.0
 11
204.5123832079
 21
135.0418933859
 31
0.0
  0
LINE
  5
95
  8
0
  6
CONTINUOUS
 62
     7
 10
205.1570604812
 20
136.6750891774
 30
0.0
 11
204.5123832079
 21
136.6750891774
 31
0.0
  0
LINE
  5
96
  8
0
  6
CONTINUOUS
 62
     7
 10
205.1570604812
 20
135.6870718854
 30
0.0
 11
205.1570604812
 21
136.6750891774
 31
0.0
  0
LINE
  5
97
  8
0
  6
CONTINUOUS
 62
     7
 10
205.6894630621
 20
135.6870718854
 30
0.0
 11
205.1570604812
 21
135.6870718854
 31
0.0
  0
LINE
  5
98
  8
0
  6
CONTINUOUS
 62
     7
 10
205.6894630621
 20
136.6750891774
 30
0.0
 11
205.6894630621
 21
135.6870718854
 31
0.0
  0
LINE
  5
99
  8
0
  6
CONTINUOUS
 62
     7
 10
206.3341403354
 20
136.6750891774
 30
0.0
 11
205.6894630621
 21
136.6750891774
 31
0.0
  0
LINE
  5
9A
  8
0
  6
CONTINUOUS
 62
     7
 10
206.3341403354
 20
135.6870718854
 30
0.0
 11
206.3341403354
 21
136.6750891774
 31
0.0
  0
LINE
  5
9B
  8
0
  6
CONTINUOUS
 62
     7
 10
206.8666431616
 20
135.6870718854
 30
0.0
 11
206.3341403354
 21
135.6870718854
 31
0.0
  0
LINE
  5
9C
  8
0
  6
CONTINUOUS
 62
     7
 10
206.8666431616
 20
136.6750891774
 30
0.0
 11
206.8666431616
 21
135.6870718854
 31
0.0
  0
LINE
  5
9D
  8
0
  6
CONTINUOUS
 62
     7
 10
207.5114206801
 20
136.6750891774
 30
0.0
 11
206.8666431616
 21
136.6750891774
 31
0.0
  0
LINE
  5
9E
  8
0
  6
CONTINUOUS
 62
     7
 10
204.5124834532
 20
133.6085878427
 30
0.0
 11
204.5124834532
 21
133.2982782326
 31
0.0
  0
POLYLINE
  5
9F
  8
0
  6
CONTINUOUS
 62
     7
 66
     1
 10
0.0
 20
0.0
 30
0.0
 70
   128
  0
VERTEX
  5
2F4
  8
0
  6
CONTINUOUS
 62
     7
 10
205.4118839345
 20
134.4611737872
 30
0.0
  0
VERTEX
  5
2F5
  8
0
  6
CONTINUOUS
 62
     7
 10
205.1230719461
 20
134.4485894334
 30
0.0
  0
VERTEX
  5
2F6
  8
0
  6
CONTINUOUS
 62
     7
 10
204.9021809033
 20
134.408149459
 30
0.0
  0
VERTEX
  5
2F7
  8
0
  6
CONTINUOUS
 62
     7
 10
204.7405278519
 20
134.3358234944
 30
0.0
  0
VERTEX
  5
2F8
  8
0
  6
CONTINUOUS
 62
     7
 10
204.6294298377
 20
134.2275811702
 30
0.0
  0
VERTEX
  5
2F9
  8
0
  6
CONTINUOUS
 62
     7
 10
204.5578040364
 20
134.0712704752
 30
0.0
  0
VERTEX
  5
2FA
  8
0
  6
CONTINUOUS
 62
     7
 10
204.5221497021
 20
133.8664840292
 30
0.0
  0
VERTEX
  5
2FB
  8
0
  6
CONTINUOUS
 62
     7
 10
204.5124834532
 20
133.6085878427
 30
0.0
  0
SEQEND
  5
3A3
  8
0
  6
CONTINUOUS
 62
     7
  0
LINE
  5
A0
  8
0
  6
CONTINUOUS
 62
     7
 10
207.5115223052
 20
134.4611737872
 30
0.0
 11
205.4118839345
 21
134.4611737872
 31
0.0
  0
LINE
  5
A1
  8
0
  6
CONTINUOUS
 62
     7
 10
207.5115223052
 20
133.8216090223
 30
0.0
 11
207.5115223052
 21
134.4611737872
 31
0.0
  0
LINE
  5
A2
  8
0
  6
CONTINUOUS
 62
     7
 10
205.3362000291
 20
133.8216090223
 30
0.0
 11
207.5115223052
 21
133.8216090223
 31
0.0
  0
ARC
  5
A3
  8
0
  6
CONTINUOUS
 62
     7
 10
205.3045772991
 20
133.6762414275
 30
0.0
 40
0.1487673843861106
 50
77.7272932726
 51
120.694759809
  0
ARC
  5
A4
  8
0
  6
CONTINUOUS
 62
     7
 10
205.2931515652
 20
133.74946888
 30
0.0
 40
0.0845810826469574
 50
139.7077383976
 51
191.5796050189
  0
LINE
  5
A5
  8
0
  6
CONTINUOUS
 62
     7
 10
205.2102919813
 20
133.2949204212
 30
0.0
 11
205.2102919813
 21
133.7324909853
 31
0.0
  0
ARC
  5
A6
  8
0
  6
CONTINUOUS
 62
     7
 10
205.2954417146
 20
133.2818097967
 30
0.0
 40
0.0861531517415543
 50
171.2468271508
 51
218.9452618681
  0
POLYLINE
  5
A7
  8
0
  6
CONTINUOUS
 62
     7
 66
     1
 10
0.0
 20
0.0
 30
0.0
 70
   128
  0
VERTEX
  5
2FC
  8
0
  6
CONTINUOUS
 62
     7
 10
205.3367012554
 20
133.2083586383
 30
0.0
  0
VERTEX
  5
2FD
  8
0
  6
CONTINUOUS
 62
     7
 10
205.2593853095
 20
133.2121180441
 30
0.0
  0
VERTEX
  5
2FE
  8
0
  6
CONTINUOUS
 62
     7
 10
205.2418250224
 20
133.2177742005
 30
0.0
  0
VERTEX
  5
2FF
  8
0
  6
CONTINUOUS
 62
     7
 10
205.2284363736
 20
133.2276558511
 30
0.0
  0
SEQEND
  5
3A4
  8
0
  6
CONTINUOUS
 62
     7
  0
LINE
  5
A8
  8
0
  6
CONTINUOUS
 62
     7
 10
207.5115222203
 20
133.2083586383
 30
0.0
 11
205.3367012554
 21
133.2083586383
 31
0.0
  0
LINE
  5
A9
  8
0
  6
CONTINUOUS
 62
     7
 10
207.5115222203
 20
132.559220451
 30
0.0
 11
207.5115222203
 21
133.2083586383
 31
0.0
  0
LINE
  5
AA
  8
0
  6
CONTINUOUS
 62
     7
 10
207.5115208405
 20
132.5557607914
 30
0.0
 11
207.5115222203
 21
132.559220451
 31
0.0
  0
LINE
  5
AB
  8
0
  6
CONTINUOUS
 62
     7
 10
205.3361986494
 20
132.5557607914
 30
0.0
 11
207.5115208405
 21
132.5557607914
 31
0.0
  0
ARC
  5
AC
  8
0
  6
CONTINUOUS
 62
     7
 10
205.3039607834
 20
132.4231740765
 30
0.0
 40
0.136449686584098
 50
76.3339792542
 51
123.9116951308
  0
POLYLINE
  5
AD
  8
0
  6
CONTINUOUS
 62
     7
 66
     1
 10
0.0
 20
0.0
 30
0.0
 70
   128
  0
VERTEX
  5
300
  8
0
  6
CONTINUOUS
 62
     7
 10
205.20968913
 20
132.4691990086
 30
0.0
  0
VERTEX
  5
301
  8
0
  6
CONTINUOUS
 62
     7
 10
205.2142775722
 20
132.5125567552
 30
0.0
  0
VERTEX
  5
302
  8
0
  6
CONTINUOUS
 62
     7
 10
205.2278335223
 20
132.536413456
 30
0.0
  0
SEQEND
  5
3A5
  8
0
  6
CONTINUOUS
 62
     7
  0
LINE
  5
AE
  8
0
  6
CONTINUOUS
 62
     7
 10
205.20968913
 20
132.0316785671
 30
0.0
 11
205.20968913
 21
132.4691990086
 31
0.0
  0
ARC
  5
AF
  8
0
  6
CONTINUOUS
 62
     7
 10
205.2986155609
 20
132.0163126964
 30
0.0
 40
0.0902442246870741
 50
170.1964908737
 51
218.6472014112
  0
ARC
  5
B0
  8
0
  6
CONTINUOUS
 62
     7
 10
205.3011938574
 20
132.0704805074
 30
0.0
 40
0.1324915719493741
 50
236.5349459056
 51
285.0950343861
  0
LINE
  5
B1
  8
0
  6
CONTINUOUS
 62
     7
 10
207.5115209254
 20
131.9425605301
 30
0.0
 11
205.3356974231
 21
131.9425605301
 31
0.0
  0
LINE
  5
B2
  8
0
  6
CONTINUOUS
 62
     7
 10
207.5115209254
 20
131.3024945389
 30
0.0
 11
207.5115209254
 21
131.9425605301
 31
0.0
  0
LINE
  5
B3
  8
0
  6
CONTINUOUS
 62
     7
 10
205.4120844251
 20
131.3000886526
 30
0.0
 11
207.5115209254
 21
131.3024945389
 31
0.0
  0
POLYLINE
  5
B4
  8
0
  6
CONTINUOUS
 62
     7
 66
     1
 10
0.0
 20
0.0
 30
0.0
 70
   128
  0
VERTEX
  5
303
  8
0
  6
CONTINUOUS
 62
     7
 10
204.5126839437
 20
132.1525242292
 30
0.0
  0
VERTEX
  5
304
  8
0
  6
CONTINUOUS
 62
     7
 10
204.521422502
 20
131.9051402661
 30
0.0
  0
VERTEX
  5
305
  8
0
  6
CONTINUOUS
 62
     7
 10
204.5534268128
 20
131.7063708968
 30
0.0
  0
VERTEX
  5
306
  8
0
  6
CONTINUOUS
 62
     7
 10
204.6173798304
 20
131.552175849
 30
0.0
  0
VERTEX
  5
307
  8
0
  6
CONTINUOUS
 62
     7
 10
204.721964509
 20
131.4385148506
 30
0.0
  0
VERTEX
  5
308
  8
0
  6
CONTINUOUS
 62
     7
 10
204.884570236
 20
131.3585144906
 30
0.0
  0
VERTEX
  5
309
  8
0
  6
CONTINUOUS
 62
     7
 10
205.1112824141
 20
131.3139208829
 30
0.0
  0
VERTEX
  5
30A
  8
0
  6
CONTINUOUS
 62
     7
 10
205.4120844251
 20
131.3000886526
 30
0.0
  0
SEQEND
  5
3A6
  8
0
  6
CONTINUOUS
 62
     7
  0
LINE
  5
B5
  8
0
  6
CONTINUOUS
 62
     7
 10
204.5126839437
 20
132.4628843504
 30
0.0
 11
204.5126839437
 21
132.1525242292
 31
0.0
  0
ARC
  5
B6
  8
0
  6
CONTINUOUS
 62
     7
 10
204.9865582293
 20
132.4705150095
 30
0.0
 40
0.4739357187623605
 50
120.9317590955
 51
180.9225374558
  0
ARC
  5
B7
  8
0
  6
CONTINUOUS
 62
     7
 10
204.9779228664
 20
133.2792686056
 30
0.0
 40
0.4658274501005353
 50
177.6612071118
 51
239.7067321016
  0
LINE
  5
B8
  8
0
  6
CONTINUOUS
 62
     7
 10
207.5114206801
 20
129.2981907912
 30
0.0
 11
207.5114206801
 21
130.8322941423
 31
0.0
  0
LINE
  5
B9
  8
0
  6
CONTINUOUS
 62
     7
 10
204.5123832079
 20
129.2981907912
 30
0.0
 11
207.5114206801
 21
129.2981907912
 31
0.0
  0
LINE
  5
BA
  8
0
  6
CONTINUOUS
 62
     7
 10
204.5123832079
 20
129.9432690455
 30
0.0
 11
204.5123832079
 21
129.2981907912
 31
0.0
  0
LINE
  5
BB
  8
0
  6
CONTINUOUS
 62
     7
 10
206.8666431616
 20
129.9432690455
 30
0.0
 11
204.5123832079
 21
129.9432690455
 31
0.0
  0
LINE
  5
BC
  8
0
  6
CONTINUOUS
 62
     7
 10
206.8666431616
 20
130.8322941423
 30
0.0
 11
206.8666431616
 21
129.9432690455
 31
0.0
  0
LINE
  5
BD
  8
0
  6
CONTINUOUS
 62
     7
 10
207.5114206801
 20
130.8322941423
 30
0.0
 11
206.8666431616
 21
130.8322941423
 31
0.0
  0
LINE
  5
BE
  8
0
  6
CONTINUOUS
 62
     7
 10
204.5123832079
 20
127.3191989719
 30
0.0
 11
207.5114206801
 21
127.3191989719
 31
0.0
  0
LINE
  5
BF
  8
0
  6
CONTINUOUS
 62
     7
 10
204.5123832079
 20
127.9643273489
 30
0.0
 11
204.5123832079
 21
127.3191989719
 31
0.0
  0
LINE
  5
C0
  8
0
  6
CONTINUOUS
 62
     7
 10
206.8666431616
 20
127.9643273489
 30
0.0
 11
204.5123832079
 21
127.9643273489
 31
0.0
  0
LINE
  5
C1
  8
0
  6
CONTINUOUS
 62
     7
 10
206.8666431616
 20
128.8533023231
 30
0.0
 11
206.8666431616
 21
127.9643273489
 31
0.0
  0
LINE
  5
C2
  8
0
  6
CONTINUOUS
 62
     7
 10
207.5114206801
 20
128.8533023231
 30
0.0
 11
206.8666431616
 21
128.8533023231
 31
0.0
  0
LINE
  5
C3
  8
0
  6
CONTINUOUS
 62
     7
 10
207.5114206801
 20
127.3191989719
 30
0.0
 11
207.5114206801
 21
128.8533023231
 31
0.0
  0
ARC
  5
C4
  8
0
  6
CONTINUOUS
 62
     7
 10
205.4318426576
 20
125.4640329381
 30
0.0
 40
0.281195473891272
 50
177.8492412277
 51
269.0992091119
  0
LINE
  5
C5
  8
0
  6
CONTINUOUS
 62
     7
 10
205.42742195
 20
125.1828722156
 30
0.0
 11
206.1628211844
 21
125.1828722156
 31
0.0
  0
LINE
  5
C6
  8
0
  6
CONTINUOUS
 62
     7
 10
206.1628211844
 20
125.1828722156
 30
0.0
 11
206.1628211844
 21
126.060018249
 31
0.0
  0
LINE
  5
C7
  8
0
  6
CONTINUOUS
 62
     7
 10
206.1628211844
 20
126.060018249
 30
0.0
 11
205.4542876799
 21
126.060018249
 31
0.0
  0
ARC
  5
C8
  8
0
  6
CONTINUOUS
 62
     7
 10
205.4457504655
 20
125.76521999
 30
0.0
 40
0.2949218498733769
 50
88.3412056547
 51
179.3910018185
  0
LINE
  5
C9
  8
0
  6
CONTINUOUS
 62
     7
 10
205.150845275
 20
125.7683546622
 30
0.0
 11
205.150845275
 21
125.474585925
 31
0.0
  0
LINE
  5
CA
  8
0
  6
CONTINUOUS
 62
     7
 10
204.5101778122
 20
125.8020370699
 30
0.0
 11
204.5101778122
 21
125.4364426032
 31
0.0
  0
LINE
  5
CB
  8
0
  6
CONTINUOUS
 62
     7
 10
206.8030876662
 20
126.0598177642
 30
0.0
 11
207.5135258306
 21
126.0598177642
 31
0.0
  0
LINE
  5
CC
  8
0
  6
CONTINUOUS
 62
     7
 10
206.8030876662
 20
125.1827719703
 30
0.0
 11
206.8030876662
 21
126.0598177642
 31
0.0
  0
LINE
  5
CD
  8
0
  6
CONTINUOUS
 62
     7
 10
207.5090147939
 20
125.1827719703
 30
0.0
 11
206.8030876662
 21
125.1827719703
 31
0.0
  0
LINE
  5
CE
  8
0
  6
CONTINUOUS
 62
     7
 10
207.5090147939
 20
124.5389969044
 30
0.0
 11
207.5090147939
 21
125.1827719703
 31
0.0
  0
LINE
  5
CF
  8
0
  6
CONTINUOUS
 62
     7
 10
205.3943410139
 20
124.5389969044
 30
0.0
 11
207.5090147939
 21
124.5389969044
 31
0.0
  0
ARC
  5
D0
  8
0
  6
CONTINUOUS
 62
     7
 10
205.3135703603
 20
125.343683178
 30
0.0
 40
0.8087298048766894
 50
173.4138125022
 51
275.7318844862
  0
ARC
  5
D1
  8
0
  6
CONTINUOUS
 62
     7
 10
205.3227292928
 20
125.891102221
 30
0.0
 40
0.817418197650632
 50
83.9009294438
 51
186.2553157329
  0
LINE
  5
D2
  8
0
  6
CONTINUOUS
 62
     7
 10
207.5135258306
 20
126.0598177642
 30
0.0
 11
207.5135258306
 21
126.7038935602
 31
0.0
  0
LINE
  5
D3
  8
0
  6
CONTINUOUS
 62
     7
 10
207.5135258306
 20
126.7038935602
 30
0.0
 11
205.4095782935
 21
126.7038935602
 31
0.0
  0
ARC
  5
D4
  8
0
  6
CONTINUOUS
 62
     7
 10
205.4523402215
 20
123.057921625
 30
0.0
 40
0.3038810681985744
 50
92.2606367312
 51
178.0241476008
  0
LINE
  5
D5
  8
0
  6
CONTINUOUS
 62
     7
 10
205.1486398267
 20
123.0683989261
 30
0.0
 11
205.1486398267
 21
122.5030156543
 31
0.0
  0
LINE
  5
D6
  8
0
  6
CONTINUOUS
 62
     7
 10
205.1486398267
 20
122.5030156543
 30
0.0
 11
206.8641370301
 21
122.5030156543
 31
0.0
  0
LINE
  5
D7
  8
0
  6
CONTINUOUS
 62
     7
 10
206.8641370301
 20
122.5030156543
 30
0.0
 11
206.8641370301
 21
123.071807265
 31
0.0
  0
ARC
  5
D8
  8
0
  6
CONTINUOUS
 62
     7
 10
206.570680397
 20
123.0710206476
 30
0.0
 40
0.2934576874112595
 50
0.1535823207
 51
81.9214940897
  0
LINE
  5
D9
  8
0
  6
CONTINUOUS
 62
     7
 10
206.6119199535
 20
123.3615661918
 30
0.0
 11
205.4403535361
 21
123.3615661918
 31
0.0
  0
POLYLINE
  5
DA
  8
0
  6
CONTINUOUS
 62
     7
 66
     1
 10
0.0
 20
0.0
 30
0.0
 70
   128
  0
VERTEX
  5
30B
  8
0
  6
CONTINUOUS
 62
     7
 10
207.5090145526
 20
123.0389270146
 30
0.0
  0
VERTEX
  5
30C
  8
0
  6
CONTINUOUS
 62
     7
 10
207.5097748936
 20
123.0677241656
 30
0.0
  0
VERTEX
  5
30D
  8
0
  6
CONTINUOUS
 62
     7
 10
207.5099171101
 20
123.0902525821
 30
0.0
  0
SEQEND
  5
3A7
  8
0
  6
CONTINUOUS
 62
     7
  0
LINE
  5
DB
  8
0
  6
CONTINUOUS
 62
     7
 10
207.5090145526
 20
121.8585890828
 30
0.0
 11
207.5090145526
 21
123.0389270146
 31
0.0
  0
LINE
  5
DC
  8
0
  6
CONTINUOUS
 62
     7
 10
204.510177571
 20
121.8585890828
 30
0.0
 11
207.5090145526
 21
121.8585890828
 31
0.0
  0
LINE
  5
DD
  8
0
  6
CONTINUOUS
 62
     7
 10
204.510177571
 20
123.1081964838
 30
0.0
 11
204.510177571
 21
121.8585890828
 31
0.0
  0
ARC
  5
DE
  8
0
  6
CONTINUOUS
 62
     7
 10
205.2990011047
 20
123.1832518106
 30
0.0
 40
0.7923861870253158
 50
81.9343089651
 51
185.4352411581
  0
LINE
  5
DF
  8
0
  6
CONTINUOUS
 62
     7
 10
206.6337735293
 20
123.9677995966
 30
0.0
 11
205.4101795239
 21
123.9677995966
 31
0.0
  0
ARC
  5
E0
  8
0
  6
CONTINUOUS
 62
     7
 10
206.707655068
 20
123.1331939455
 30
0.0
 40
0.8378693660630331
 50
43.0080818797
 51
95.0587901156
  0
POLYLINE
  5
E1
  8
0
  6
CONTINUOUS
 62
     7
 66
     1
 10
0.0
 20
0.0
 30
0.0
 70
   128
  0
VERTEX
  5
30E
  8
0
  6
CONTINUOUS
 62
     7
 10
207.5099171101
 20
123.0902525821
 30
0.0
  0
VERTEX
  5
30F
  8
0
  6
CONTINUOUS
 62
     7
 10
207.4501932612
 20
123.4754637729
 30
0.0
  0
VERTEX
  5
310
  8
0
  6
CONTINUOUS
 62
     7
 10
207.3203533216
 20
123.7047059092
 30
0.0
  0
SEQEND
  5
3A8
  8
0
  6
CONTINUOUS
 62
     7
  0
ARC
  5
E2
  8
0
  6
CONTINUOUS
 62
     7
 10
208.548306433
 20
141.6867990529
 30
0.0
 40
0.4995325389742147
 50
359.9447276904
 51
87.9281315089
  0
ARC
  5
E3
  8
0
  6
CONTINUOUS
 62
     7
 10
206.0201540931
 20
70.1595680712
 30
0.0
 40
72.07142857142698
 50
87.9753757198
 51
92.0246242802
  0
ARC
  5
E4
  8
0
  6
CONTINUOUS
 62
     7
 10
203.4920017533
 20
141.6867990529
 30
0.0
 40
0.4995325389742505
 50
92.0718684911
 51
180.0552723096
  0
LINE
  5
E5
  8
0
  6
CONTINUOUS
 62
     7
 10
208.548701553
 20
118.2309966426
 30
0.0
 11
203.4916066333
 21
118.2309966426
 31
0.0
  0
LINE
  5
E6
  8
0
  6
CONTINUOUS
 62
     7
 10
208.5663660562
 20
142.1860050299
 30
0.0
 11
209.0698590702
 21
142.1664435477
 31
0.0
  0
ARC
  5
E7
  8
0
  6
CONTINUOUS
 62
     7
 10
209.0264124192
 20
141.7012427208
 30
0.0
 40
0.4672252355972273
 50
356.0690052266
 51
84.6644336758
  0
ARC
  5
E8
  8
0
  6
CONTINUOUS
 62
     7
 10
203.0225575439
 20
141.6938796421
 30
0.0
 40
0.4754281576057508
 50
96.2924399127
 51
182.9741211849
  0
LINE
  5
E9
  8
0
  6
CONTINUOUS
 62
     7
 10
202.9704491161
 20
142.1664435477
 30
0.0
 11
203.4739421301
 21
142.1860050299
 31
0.0
  0
LINE
  5
EA
  8
0
  6
CONTINUOUS
 62
     7
 10
203.4916066333
 20
118.2309966426
 30
0.0
 11
202.9916066333
 21
118.2309966426
 31
0.0
  0
ARC
  5
EB
  8
0
  6
CONTINUOUS
 62
     7
 10
203.0215040511
 20
118.7044616144
 30
0.0
 40
0.4744079837858133
 50
176.7936058655
 51
266.3867982191
  0
ARC
  5
EC
  8
0
  6
CONTINUOUS
 62
     7
 10
209.0188041352
 20
118.7044616144
 30
0.0
 40
0.4744079837858419
 50
273.6132017809
 51
3.2063941345
  0
LINE
  5
ED
  8
0
  6
CONTINUOUS
 62
     7
 10
209.048701553
 20
118.2309966426
 30
0.0
 11
208.548701553
 21
118.2309966426
 31
0.0
  0
LINE
  5
EE
  8
0
  6
CONTINUOUS
 62
     7
 10
170.6388937833
 20
128.7645684375
 30
0.0
 11
169.9833535233
 21
129.9229888969
 31
0.0
  0
LINE
  5
EF
  8
0
  6
CONTINUOUS
 62
     7
 10
169.9833535233
 20
129.9229888969
 30
0.0
 11
170.1400954037
 21
129.9229888969
 31
0.0
  0
LINE
  5
F0
  8
0
  6
CONTINUOUS
 62
     7
 10
170.1400954037
 20
129.9229888969
 30
0.0
 11
170.686651075
 21
128.9213103179
 31
0.0
  0
LINE
  5
F1
  8
0
  6
CONTINUOUS
 62
     7
 10
170.686651075
 20
128.9213103179
 30
0.0
 11
170.7005292623
 21
128.9213103179
 31
0.0
  0
LINE
  5
F2
  8
0
  6
CONTINUOUS
 62
     7
 10
171.4201540931
 20
129.9229888969
 30
0.0
 11
170.7621647413
 21
128.7645684375
 31
0.0
  0
LINE
  5
F3
  8
0
  6
CONTINUOUS
 62
     7
 10
170.7621647413
 20
128.7645684375
 30
0.0
 11
170.6388937833
 21
128.7645684375
 31
0.0
  0
LINE
  5
F4
  8
0
  6
CONTINUOUS
 62
     7
 10
170.7005292623
 20
128.9213103179
 30
0.0
 11
171.2634122128
 21
129.9229888969
 31
0.0
  0
LINE
  5
F5
  8
0
  6
CONTINUOUS
 62
     7
 10
171.2634122128
 20
129.9229888969
 30
0.0
 11
171.4201540931
 21
129.9229888969
 31
0.0
  0
POLYLINE
  5
F6
  8
0
  6
CONTINUOUS
 62
     7
 66
     1
 10
0.0
 20
0.0
 30
0.0
 70
   128
  0
VERTEX
  5
311
  8
0
  6
CONTINUOUS
 62
     7
 10
240.7662190504
 20
128.469044684
 30
0.0
  0
VERTEX
  5
312
  8
0
  6
CONTINUOUS
 62
     7
 10
240.8049230091
 20
128.6937093928
 30
0.0
  0
VERTEX
  5
313
  8
0
  6
CONTINUOUS
 62
     7
 10
240.8688876407
 20
128.7884769489
 30
0.0
  0
VERTEX
  5
314
  8
0
  6
CONTINUOUS
 62
     7
 10
240.9574766368
 20
128.8609005198
 30
0.0
  0
VERTEX
  5
315
  8
0
  6
CONTINUOUS
 62
     7
 10
241.1756909213
 20
128.9264626934
 30
0.0
  0
VERTEX
  5
316
  8
0
  6
CONTINUOUS
 62
     7
 10
241.4050238492
 20
128.9343721412
 30
0.0
  0
SEQEND
  5
3A9
  8
0
  6
CONTINUOUS
 62
     7
  0
POLYLINE
  5
F7
  8
0
  6
CONTINUOUS
 62
     7
 66
     1
 10
0.0
 20
0.0
 30
0.0
 70
   128
  0
VERTEX
  5
317
  8
0
  6
CONTINUOUS
 62
     7
 10
241.4050238492
 20
128.9343721412
 30
0.0
  0
VERTEX
  5
318
  8
0
  6
CONTINUOUS
 62
     7
 10
241.6644993747
 20
128.9107344685
 30
0.0
  0
VERTEX
  5
319
  8
0
  6
CONTINUOUS
 62
     7
 10
241.8994005046
 20
128.803326387
 30
0.0
  0
VERTEX
  5
31A
  8
0
  6
CONTINUOUS
 62
     7
 10
242.0156376113
 20
128.6368788027
 30
0.0
  0
VERTEX
  5
31B
  8
0
  6
CONTINUOUS
 62
     7
 10
242.0462777399
 20
128.4351655796
 30
0.0
  0
SEQEND
  5
3AA
  8
0
  6
CONTINUOUS
 62
     7
  0
ARC
  5
F8
  8
0
  6
CONTINUOUS
 62
     7
 10
241.6030876392
 20
128.3833594064
 30
0.0
 40
0.4462077374316565
 50
261.8361155109
 51
6.6672635138
  0
LINE
  5
F9
  8
0
  6
CONTINUOUS
 62
     7
 10
241.5397239026
 20
127.9416735657
 30
0.0
 11
241.5397239026
 21
128.1245390928
 31
0.0
  0
ARC
  5
FA
  8
0
  6
CONTINUOUS
 62
     7
 10
241.6010862038
 20
128.4075111431
 30
0.0
 40
0.2895488098283373
 50
257.7648808213
 51
4.9939422522
  0
POLYLINE
  5
FB
  8
0
  6
CONTINUOUS
 62
     7
 66
     1
 10
0.0
 20
0.0
 30
0.0
 70
   128
  0
VERTEX
  5
31C
  8
0
  6
CONTINUOUS
 62
     7
 10
241.8895358595
 20
128.4327164877
 30
0.0
  0
VERTEX
  5
31D
  8
0
  6
CONTINUOUS
 62
     7
 10
241.8530905231
 20
128.5927427934
 30
0.0
  0
VERTEX
  5
31E
  8
0
  6
CONTINUOUS
 62
     7
 10
241.8001449712
 20
128.6563332105
 30
0.0
  0
VERTEX
  5
31F
  8
0
  6
CONTINUOUS
 62
     7
 10
241.7305639295
 20
128.7010899244
 30
0.0
  0
VERTEX
  5
320
  8
0
  6
CONTINUOUS
 62
     7
 10
241.4050238492
 20
128.7515066142
 30
0.0
  0
SEQEND
  5
3AB
  8
0
  6
CONTINUOUS
 62
     7
  0
POLYLINE
  5
FC
  8
0
  6
CONTINUOUS
 62
     7
 66
     1
 10
0.0
 20
0.0
 30
0.0
 70
   128
  0
VERTEX
  5
321
  8
0
  6
CONTINUOUS
 62
     7
 10
241.4050238492
 20
128.7515066142
 30
0.0
  0
VERTEX
  5
322
  8
0
  6
CONTINUOUS
 62
     7
 10
241.0750619182
 20
128.7038462091
 30
0.0
  0
VERTEX
  5
323
  8
0
  6
CONTINUOUS
 62
     7
 10
241.0056120845
 20
128.6571567837
 30
0.0
  0
VERTEX
  5
324
  8
0
  6
CONTINUOUS
 62
     7
 10
240.9549916975
 20
128.5904383497
 30
0.0
  0
VERTEX
  5
325
  8
0
  6
CONTINUOUS
 62
     7
 10
240.9229609308
 20
128.42700194
 30
0.0
  0
SEQEND
  5
3AC
  8
0
  6
CONTINUOUS
 62
     7
  0
ARC
  5
FD
  8
0
  6
CONTINUOUS
 62
     7
 10
241.2149900457
 20
128.4072078704
 30
0.0
 40
0.2926991785831303
 50
176.1223571657
 51
252.9344338426
  0
LINE
  5
FE
  8
0
  6
CONTINUOUS
 62
     7
 10
241.1290928307
 20
128.1273963667
 30
0.0
 11
241.1290928307
 21
127.9677972124
 31
0.0
  0
LINE
  5
FF
  8
0
  6
CONTINUOUS
 62
     7
 10
241.1290928307
 20
127.9677972124
 30
0.0
 11
240.0608805889
 21
127.9677972124
 31
0.0
  0
LINE
  5
100
  8
0
  6
CONTINUOUS
 62
     7
 10
240.0608805889
 20
127.9677972124
 30
0.0
 11
240.0608805889
 21
128.8608993848
 31
0.0
  0
LINE
  5
101
  8
0
  6
CONTINUOUS
 62
     7
 10
240.0608805889
 20
128.8608993848
 30
0.0
 11
240.2176224692
 21
128.8608993848
 31
0.0
  0
LINE
  5
102
  8
0
  6
CONTINUOUS
 62
     7
 10
240.2176224692
 20
128.8608993848
 30
0.0
 11
240.2176224692
 21
128.1245390928
 31
0.0
  0
LINE
  5
103
  8
0
  6
CONTINUOUS
 62
     7
 10
240.2176224692
 20
128.1245390928
 30
0.0
 11
240.917246383
 21
128.1245390928
 31
0.0
  0
POLYLINE
  5
104
  8
0
  6
CONTINUOUS
 62
     7
 66
     1
 10
0.0
 20
0.0
 30
0.0
 70
   128
  0
VERTEX
  5
326
  8
0
  6
CONTINUOUS
 62
     7
 10
240.917246383
 20
128.1245390928
 30
0.0
  0
VERTEX
  5
327
  8
0
  6
CONTINUOUS
 62
     7
 10
240.792518395
 20
128.3011023242
 30
0.0
  0
VERTEX
  5
328
  8
0
  6
CONTINUOUS
 62
     7
 10
240.7662190504
 20
128.469044684
 30
0.0
  0
SEQEND
  5
3AD
  8
0
  6
CONTINUOUS
 62
     7
  0
POLYLINE
  5
105
  8
0
  6
CONTINUOUS
 62
     7
 66
     1
 10
0.0
 20
0.0
 30
0.0
 70
   128
  0
VERTEX
  5
329
  8
0
  6
CONTINUOUS
 62
     7
 10
169.9164116786
 20
128.3727137367
 30
0.0
  0
VERTEX
  5
32A
  8
0
  6
CONTINUOUS
 62
     7
 10
169.7457590441
 20
128.3537375421
 30
0.0
  0
VERTEX
  5
32B
  8
0
  6
CONTINUOUS
 62
     7
 10
169.5945658096
 20
128.2770420708
 30
0.0
  0
VERTEX
  5
32C
  8
0
  6
CONTINUOUS
 62
     7
 10
169.5287723771
 20
128.1607161175
 30
0.0
  0
VERTEX
  5
32D
  8
0
  6
CONTINUOUS
 62
     7
 10
169.5131278823
 20
128.0269835996
 30
0.0
  0
SEQEND
  5
3AE
  8
0
  6
CONTINUOUS
 62
     7
  0
ARC
  5
106
  8
0
  6
CONTINUOUS
 62
     7
 10
169.8081784704
 20
127.9676608101
 30
0.0
 40
0.3009552174026637
 50
168.6316970925
 51
273.822977191
  0
ARC
  5
107
  8
0
  6
CONTINUOUS
 62
     7
 10
169.8125702577
 20
128.1742426267
 30
0.0
 40
0.5071096428989569
 50
271.7712216686
 51
345.7996392417
  0
ARC
  5
108
  8
0
  6
CONTINUOUS
 62
     7
 10
171.0036950149
 20
127.8240331483
 30
0.0
 40
0.7350540251490483
 50
95.5998329144
 51
162.1094260141
  0
ARC
  5
109
  8
0
  6
CONTINUOUS
 62
     7
 10
170.9853809239
 20
128.068599019
 30
0.0
 40
0.489900654893728
 50
353.7840522386
 51
96.2592388659
  0
ARC
  5
10A
  8
0
  6
CONTINUOUS
 62
     7
 10
170.9523561272
 20
127.9712735713
 30
0.0
 40
0.5219270761191238
 50
259.3208597485
 51
4.8668947835
  0
LINE
  5
10B
  8
0
  6
CONTINUOUS
 62
     7
 10
170.8556384147
 20
127.4583861013
 30
0.0
 11
170.8556384147
 21
127.6412516284
 31
0.0
  0
POLYLINE
  5
10C
  8
0
  6
CONTINUOUS
 62
     7
 66
     1
 10
0.0
 20
0.0
 30
0.0
 70
   128
  0
VERTEX
  5
32E
  8
0
  6
CONTINUOUS
 62
     7
 10
170.8556384147
 20
127.6412516284
 30
0.0
  0
VERTEX
  5
32F
  8
0
  6
CONTINUOUS
 62
     7
 10
171.0505217246
 20
127.6534879774
 30
0.0
  0
VERTEX
  5
330
  8
0
  6
CONTINUOUS
 62
     7
 10
171.2244627531
 20
127.735930207
 30
0.0
  0
VERTEX
  5
331
  8
0
  6
CONTINUOUS
 62
     7
 10
171.2984811043
 20
127.8686811583
 30
0.0
  0
VERTEX
  5
332
  8
0
  6
CONTINUOUS
 62
     7
 10
171.3156595063
 20
128.0208608699
 30
0.0
  0
SEQEND
  5
3AF
  8
0
  6
CONTINUOUS
 62
     7
  0
ARC
  5
10D
  8
0
  6
CONTINUOUS
 62
     7
 10
170.9934515976
 20
128.0513324501
 30
0.0
 40
0.3236455679068914
 50
354.5975386405
 51
96.7814336108
  0
ARC
  5
10E
  8
0
  6
CONTINUOUS
 62
     7
 10
171.0463742402
 20
127.7316868833
 30
0.0
 40
0.6474734133507363
 50
98.091921709
 51
165.153435505
  0
POLYLINE
  5
10F
  8
0
  6
CONTINUOUS
 62
     7
 66
     1
 10
0.0
 20
0.0
 30
0.0
 70
   128
  0
VERTEX
  5
333
  8
0
  6
CONTINUOUS
 62
     7
 10
170.420516424
 20
127.8975899119
 30
0.0
  0
VERTEX
  5
334
  8
0
  6
CONTINUOUS
 62
     7
 10
170.1620293471
 20
127.5734598818
 30
0.0
  0
VERTEX
  5
335
  8
0
  6
CONTINUOUS
 62
     7
 10
170.0175238096
 20
127.4991328345
 30
0.0
  0
VERTEX
  5
336
  8
0
  6
CONTINUOUS
 62
     7
 10
169.8547761996
 20
127.4845097481
 30
0.0
  0
SEQEND
  5
3B0
  8
0
  6
CONTINUOUS
 62
     7
  0
ARC
  5
110
  8
0
  6
CONTINUOUS
 62
     7
 10
169.8371719294
 20
127.9700456984
 30
0.0
 40
0.4858549880427959
 50
171.7162619211
 51
272.0764862927
  0
ARC
  5
111
  8
0
  6
CONTINUOUS
 62
     7
 10
169.8422891644
 20
128.0741531788
 30
0.0
 40
0.4870987808559004
 50
81.2472153273
 51
184.0152655768
  0
LINE
  5
112
  8
0
  6
CONTINUOUS
 62
     7
 10
169.9164116786
 20
128.5555792637
 30
0.0
 11
169.9164116786
 21
128.3727137367
 31
0.0
  0
LINE
  5
113
  8
0
  6
CONTINUOUS
 62
     7
 10
242.0201540931
 20
127.628189805
 30
0.0
 11
242.0201540931
 21
126.6354912295
 31
0.0
  0
LINE
  5
114
  8
0
  6
CONTINUOUS
 62
     7
 10
242.0201540931
 20
126.6354912295
 30
0.0
 11
241.8634122128
 21
126.6354912295
 31
0.0
  0
ARC
  5
115
  8
0
  6
CONTINUOUS
 62
     7
 10
238.9218194482
 20
123.2065978807
 30
0.0
 40
4.517773521366489
 50
49.3742346435
 51
69.7569785248
  0
ARC
  5
116
  8
0
  6
CONTINUOUS
 62
     7
 10
240.4653198373
 20
127.1678387018
 30
0.0
 40
0.2781812943032698
 50
85.9469600671
 51
190.1578019642
  0
ARC
  5
117
  8
0
  6
CONTINUOUS
 62
     7
 10
240.5155997051
 20
127.1145861206
 30
0.0
 40
0.3241279990675737
 50
179.2588623783
 51
275.9989534975
  0
LINE
  5
118
  8
0
  6
CONTINUOUS
 62
     7
 10
240.549474419
 20
126.7922331099
 30
0.0
 11
240.549474419
 21
126.6354912295
 31
0.0
  0
ARC
  5
119
  8
0
  6
CONTINUOUS
 62
     7
 10
240.5052530974
 20
127.1044078363
 30
0.0
 40
0.4709971437053825
 50
177.3570991295
 51
275.3873626036
  0
ARC
  5
11A
  8
0
  6
CONTINUOUS
 62
     7
 10
240.447014985
 20
127.2079477085
 30
0.0
 40
0.4202992872403867
 50
90.9452049033
 51
191.2257351798
  0
LINE
  5
11B
  8
0
  6
CONTINUOUS
 62
     7
 10
241.8634122128
 20
126.83141858
 30
0.0
 11
241.8634122128
 21
127.628189805
 31
0.0
  0
LINE
  5
11C
  8
0
  6
CONTINUOUS
 62
     7
 10
241.8634122128
 20
127.628189805
 30
0.0
 11
242.0201540931
 21
127.628189805
 31
0.0
  0
ARC
  5
11D
  8
0
  6
CONTINUOUS
 62
     7
 10
239.0921115156
 20
123.5505271987
 30
0.0
 40
4.294689256526715
 50
49.8129154697
 51
71.7074457786
  0
ARC
  5
11E
  8
0
  6
CONTINUOUS
 62
     7
 10
169.8302350085
 20
126.6722285634
 30
0.0
 40
0.2950099628781842
 50
79.2246179303
 51
189.4771432687
  0
LINE
  5
11F
  8
0
  6
CONTINUOUS
 62
     7
 10
169.539251529
 20
126.6236539521
 30
0.0
 11
169.539251529
 21
126.256698352
 31
0.0
  0
LINE
  5
120
  8
0
  6
CONTINUOUS
 62
     7
 10
169.539251529
 20
126.256698352
 30
0.0
 11
170.296837284
 21
126.256698352
 31
0.0
  0
LINE
  5
121
  8
0
  6
CONTINUOUS
 62
     7
 10
170.296837284
 20
126.256698352
 30
0.0
 11
170.296837284
 21
126.6122248567
 31
0.0
  0
POLYLINE
  5
122
  8
0
  6
CONTINUOUS
 62
     7
 66
     1
 10
0.0
 20
0.0
 30
0.0
 70
   128
  0
VERTEX
  5
337
  8
0
  6
CONTINUOUS
 62
     7
 10
170.296837284
 20
126.6122248567
 30
0.0
  0
VERTEX
  5
338
  8
0
  6
CONTINUOUS
 62
     7
 10
170.2642163105
 20
126.7809109053
 30
0.0
  0
VERTEX
  5
339
  8
0
  6
CONTINUOUS
 62
     7
 10
170.1488971498
 20
126.9062808478
 30
0.0
  0
VERTEX
  5
33A
  8
0
  6
CONTINUOUS
 62
     7
 10
169.8853898481
 20
126.9620368136
 30
0.0
  0
SEQEND
  5
3B1
  8
0
  6
CONTINUOUS
 62
     7
  0
ARC
  5
123
  8
0
  6
CONTINUOUS
 62
     7
 10
170.8963329553
 20
126.6386768868
 30
0.0
 40
0.3764780531288346
 50
347.1704453246
 51
93.8977947235
  0
ARC
  5
124
  8
0
  6
CONTINUOUS
 62
     7
 10
170.8142798232
 20
126.6574504611
 30
0.0
 40
0.3612729328841502
 50
81.0087049671
 51
183.2253681278
  0
LINE
  5
125
  8
0
  6
CONTINUOUS
 62
     7
 10
170.4535791644
 20
126.6371239575
 30
0.0
 11
170.4535791644
 21
126.256698352
 31
0.0
  0
LINE
  5
126
  8
0
  6
CONTINUOUS
 62
     7
 10
170.4535791644
 20
126.256698352
 30
0.0
 11
171.2634122128
 21
126.256698352
 31
0.0
  0
LINE
  5
127
  8
0
  6
CONTINUOUS
 62
     7
 10
171.2634122128
 20
126.256698352
 30
0.0
 11
171.2634122128
 21
126.5550793795
 31
0.0
  0
LINE
  5
128
  8
0
  6
CONTINUOUS
 62
     7
 10
171.4201540931
 20
126.073832825
 30
0.0
 11
169.3825096487
 21
126.073832825
 31
0.0
  0
LINE
  5
129
  8
0
  6
CONTINUOUS
 62
     7
 10
169.3825096487
 20
126.073832825
 30
0.0
 11
169.3825096487
 21
126.6526348727
 31
0.0
  0
ARC
  5
12A
  8
0
  6
CONTINUOUS
 62
     7
 10
169.81684895
 20
126.7107086623
 30
0.0
 40
0.4382045113045278
 50
82.2420262466
 51
187.6156240639
  0
ARC
  5
12B
  8
0
  6
CONTINUOUS
 62
     7
 10
169.9641943565
 20
126.7364344961
 30
0.0
 40
0.4178802834120486
 50
15.6227236135
 51
102.1837601811
  0
LINE
  5
12C
  8
0
  6
CONTINUOUS
 62
     7
 10
170.3666364026
 20
126.8489704051
 30
0.0
 11
170.3723509503
 21
126.8489704051
 31
0.0
  0
POLYLINE
  5
12D
  8
0
  6
CONTINUOUS
 62
     7
 66
     1
 10
0.0
 20
0.0
 30
0.0
 70
   128
  0
VERTEX
  5
33B
  8
0
  6
CONTINUOUS
 62
     7
 10
170.3723509503
 20
126.8489704051
 30
0.0
  0
VERTEX
  5
33C
  8
0
  6
CONTINUOUS
 62
     7
 10
170.4375938902
 20
127.0218371117
 30
0.0
  0
VERTEX
  5
33D
  8
0
  6
CONTINUOUS
 62
     7
 10
170.5740986519
 20
127.14413892
 30
0.0
  0
VERTEX
  5
33E
  8
0
  6
CONTINUOUS
 62
     7
 10
170.8584956886
 20
127.1971496341
 30
0.0
  0
SEQEND
  5
3B2
  8
0
  6
CONTINUOUS
 62
     7
  0
ARC
  5
12E
  8
0
  6
CONTINUOUS
 62
     7
 10
170.9233696092
 20
126.7032225923
 30
0.0
 40
0.4981691963763159
 50
355.7270320425
 51
97.4825754858
  0
LINE
  5
12F
  8
0
  6
CONTINUOUS
 62
     7
 10
171.4201540931
 20
126.666104878
 30
0.0
 11
171.4201540931
 21
126.073832825
 31
0.0
  0
POLYLINE
  5
130
  8
0
  6
CONTINUOUS
 62
     7
 66
     1
 10
0.0
 20
0.0
 30
0.0
 70
   128
  0
VERTEX
  5
33F
  8
0
  6
CONTINUOUS
 62
     7
 10
240.6507035501
 20
126.2436365287
 30
0.0
  0
VERTEX
  5
340
  8
0
  6
CONTINUOUS
 62
     7
 10
240.4849039211
 20
126.2384376925
 30
0.0
  0
VERTEX
  5
341
  8
0
  6
CONTINUOUS
 62
     7
 10
240.3253312693
 20
126.1973997085
 30
0.0
  0
VERTEX
  5
342
  8
0
  6
CONTINUOUS
 62
     7
 10
240.2605974015
 20
126.1461333504
 30
0.0
  0
VERTEX
  5
343
  8
0
  6
CONTINUOUS
 62
     7
 10
240.2167411658
 20
126.0760914518
 30
0.0
  0
VERTEX
  5
344
  8
0
  6
CONTINUOUS
 62
     7
 10
240.1914988225
 20
125.9130091248
 30
0.0
  0
SEQEND
  5
3B3
  8
0
  6
CONTINUOUS
 62
     7
  0
POLYLINE
  5
131
  8
0
  6
CONTINUOUS
 62
     7
 66
     1
 10
0.0
 20
0.0
 30
0.0
 70
   128
  0
VERTEX
  5
345
  8
0
  6
CONTINUOUS
 62
     7
 10
240.1914988225
 20
125.9130091248
 30
0.0
  0
VERTEX
  5
346
  8
0
  6
CONTINUOUS
 62
     7
 10
240.2060947203
 20
125.7975569433
 30
0.0
  0
VERTEX
  5
347
  8
0
  6
CONTINUOUS
 62
     7
 10
240.2635321079
 20
125.6970141626
 30
0.0
  0
VERTEX
  5
348
  8
0
  6
CONTINUOUS
 62
     7
 10
240.3584235313
 20
125.630556468
 30
0.0
  0
VERTEX
  5
349
  8
0
  6
CONTINUOUS
 62
     7
 10
240.6286617231
 20
125.5905453606
 30
0.0
  0
SEQEND
  5
3B4
  8
0
  6
CONTINUOUS
 62
     7
  0
POLYLINE
  5
132
  8
0
  6
CONTINUOUS
 62
     7
 66
     1
 10
0.0
 20
0.0
 30
0.0
 70
   128
  0
VERTEX
  5
34A
  8
0
  6
CONTINUOUS
 62
     7
 10
240.6286617231
 20
125.5905453606
 30
0.0
  0
VERTEX
  5
34B
  8
0
  6
CONTINUOUS
 62
     7
 10
240.9351495895
 20
125.6429668905
 30
0.0
  0
VERTEX
  5
34C
  8
0
  6
CONTINUOUS
 62
     7
 10
240.9991082298
 20
125.6878686063
 30
0.0
  0
VERTEX
  5
34D
  8
0
  6
CONTINUOUS
 62
     7
 10
241.0467804458
 20
125.749849657
 30
0.0
  0
VERTEX
  5
34E
  8
0
  6
CONTINUOUS
 62
     7
 10
241.0797028111
 20
125.9015800294
 30
0.0
  0
SEQEND
  5
3B5
  8
0
  6
CONTINUOUS
 62
     7
  0
POLYLINE
  5
133
  8
0
  6
CONTINUOUS
 62
     7
 66
     1
 10
0.0
 20
0.0
 30
0.0
 70
   128
  0
VERTEX
  5
34F
  8
0
  6
CONTINUOUS
 62
     7
 10
241.0797028111
 20
125.9015800294
 30
0.0
  0
VERTEX
  5
350
  8
0
  6
CONTINUOUS
 62
     7
 10
241.0656623001
 20
126.0176470734
 30
0.0
  0
VERTEX
  5
351
  8
0
  6
CONTINUOUS
 62
     7
 10
241.0103134176
 20
126.1199682205
 30
0.0
  0
VERTEX
  5
352
  8
0
  6
CONTINUOUS
 62
     7
 10
240.9194588628
 20
126.1928666551
 30
0.0
  0
VERTEX
  5
353
  8
0
  6
CONTINUOUS
 62
     7
 10
240.6507035501
 20
126.2436365287
 30
0.0
  0
SEQEND
  5
3B6
  8
0
  6
CONTINUOUS
 62
     7
  0
POLYLINE
  5
134
  8
0
  6
CONTINUOUS
 62
     7
 66
     1
 10
0.0
 20
0.0
 30
0.0
 70
   128
  0
VERTEX
  5
354
  8
0
  6
CONTINUOUS
 62
     7
 10
241.2364446914
 20
125.8779054746
 30
0.0
  0
VERTEX
  5
355
  8
0
  6
CONTINUOUS
 62
     7
 10
241.2007008399
 20
125.6599874987
 30
0.0
  0
VERTEX
  5
356
  8
0
  6
CONTINUOUS
 62
     7
 10
241.1448032313
 20
125.5645712
 30
0.0
  0
VERTEX
  5
357
  8
0
  6
CONTINUOUS
 62
     7
 10
241.0593843832
 20
125.4943928897
 30
0.0
  0
VERTEX
  5
358
  8
0
  6
CONTINUOUS
 62
     7
 10
240.8498301971
 20
125.4243654624
 30
0.0
  0
VERTEX
  5
359
  8
0
  6
CONTINUOUS
 62
     7
 10
240.6286617231
 20
125.4076798335
 30
0.0
  0
SEQEND
  5
3B7
  8
0
  6
CONTINUOUS
 62
     7
  0
ARC
  5
135
  8
0
  6
CONTINUOUS
 62
     7
 10
240.5206720414
 20
125.8816112779
 30
0.0
 40
0.4860789908471814
 50
178.5120965997
 51
282.8362188325
  0
POLYLINE
  5
136
  8
0
  6
CONTINUOUS
 62
     7
 66
     1
 10
0.0
 20
0.0
 30
0.0
 70
   128
  0
VERTEX
  5
35A
  8
0
  6
CONTINUOUS
 62
     7
 10
240.0347569421
 20
125.8942327538
 30
0.0
  0
VERTEX
  5
35B
  8
0
  6
CONTINUOUS
 62
     7
 10
240.0763122257
 20
126.157269332
 30
0.0
  0
VERTEX
  5
35C
  8
0
  6
CONTINUOUS
 62
     7
 10
240.1503087488
 20
126.2681683744
 30
0.0
  0
VERTEX
  5
35D
  8
0
  6
CONTINUOUS
 62
     7
 10
240.2609670934
 20
126.3424586101
 30
0.0
  0
VERTEX
  5
35E
  8
0
  6
CONTINUOUS
 62
     7
 10
240.5224736351
 20
126.3938446163
 30
0.0
  0
VERTEX
  5
35F
  8
0
  6
CONTINUOUS
 62
     7
 10
240.7903017872
 20
126.400378409
 30
0.0
  0
SEQEND
  5
3B8
  8
0
  6
CONTINUOUS
 62
     7
  0
LINE
  5
137
  8
0
  6
CONTINUOUS
 62
     7
 10
240.7903017872
 20
126.400378409
 30
0.0
 11
241.0307209735
 21
126.400378409
 31
0.0
  0
POLYLINE
  5
138
  8
0
  6
CONTINUOUS
 62
     7
 66
     1
 10
0.0
 20
0.0
 30
0.0
 70
   128
  0
VERTEX
  5
360
  8
0
  6
CONTINUOUS
 62
     7
 10
241.0307209735
 20
126.400378409
 30
0.0
  0
VERTEX
  5
361
  8
0
  6
CONTINUOUS
 62
     7
 10
241.3572532367
 20
126.3960333176
 30
0.0
  0
VERTEX
  5
362
  8
0
  6
CONTINUOUS
 62
     7
 10
241.6823046279
 20
126.3685059076
 30
0.0
  0
VERTEX
  5
363
  8
0
  6
CONTINUOUS
 62
     7
 10
241.8379187074
 20
126.3200616139
 30
0.0
  0
VERTEX
  5
364
  8
0
  6
CONTINUOUS
 62
     7
 10
241.9656008331
 20
126.2205436024
 30
0.0
  0
VERTEX
  5
365
  8
0
  6
CONTINUOUS
 62
     7
 10
242.0310126125
 20
126.0724243855
 30
0.0
  0
VERTEX
  5
366
  8
0
  6
CONTINUOUS
 62
     7
 10
242.0462777399
 20
125.910151851
 30
0.0
  0
SEQEND
  5
3B9
  8
0
  6
CONTINUOUS
 62
     7
  0
ARC
  5
139
  8
0
  6
CONTINUOUS
 62
     7
 10
241.6227362879
 20
125.8577380178
 30
0.0
 40
0.4267722711930482
 50
263.3890132906
 51
7.0545647223
  0
LINE
  5
13A
  8
0
  6
CONTINUOUS
 62
     7
 10
241.573603007
 20
125.4338034803
 30
0.0
 11
241.573603007
 21
125.6166690073
 31
0.0
  0
ARC
  5
13B
  8
0
  6
CONTINUOUS
 62
     7
 10
241.6240344627
 20
125.8779256238
 30
0.0
 40
0.2660795959172303
 50
259.0743383582
 51
3.7778893393
  0
POLYLINE
  5
13C
  8
0
  6
CONTINUOUS
 62
     7
 66
     1
 10
0.0
 20
0.0
 30
0.0
 70
   128
  0
VERTEX
  5
367
  8
0
  6
CONTINUOUS
 62
     7
 10
241.8895358595
 20
125.8954572997
 30
0.0
  0
VERTEX
  5
368
  8
0
  6
CONTINUOUS
 62
     7
 10
241.8767837684
 20
126.0218598689
 30
0.0
  0
VERTEX
  5
369
  8
0
  6
CONTINUOUS
 62
     7
 10
241.8175913229
 20
126.1328470739
 30
0.0
  0
VERTEX
  5
36A
  8
0
  6
CONTINUOUS
 62
     7
 10
241.708397531
 20
126.1959904471
 30
0.0
  0
VERTEX
  5
36B
  8
0
  6
CONTINUOUS
 62
     7
 10
241.5840804041
 20
126.2225320402
 30
0.0
  0
VERTEX
  5
36C
  8
0
  6
CONTINUOUS
 62
     7
 10
241.0756209913
 20
126.2436365287
 30
0.0
  0
SEQEND
  5
3BA
  8
0
  6
CONTINUOUS
 62
     7
  0
LINE
  5
13D
  8
0
  6
CONTINUOUS
 62
     7
 10
241.0756209913
 20
126.2436365287
 30
0.0
 11
241.0756209913
 21
126.237921981
 31
0.0
  0
ARC
  5
13E
  8
0
  6
CONTINUOUS
 62
     7
 10
240.807947098
 20
125.9024196429
 30
0.0
 40
0.4291982432538859
 50
356.7257014679
 51
51.4160775746
  0
LINE
  5
13F
  8
0
  6
CONTINUOUS
 62
     7
 10
170.7409392783
 20
125.4521716694
 30
0.0
 11
169.580069727
 21
125.1052169863
 31
0.0
  0
LINE
  5
140
  8
0
  6
CONTINUOUS
 62
     7
 10
169.580069727
 20
125.1052169863
 30
0.0
 11
169.580069727
 21
125.0995024386
 31
0.0
  0
LINE
  5
141
  8
0
  6
CONTINUOUS
 62
     7
 10
169.580069727
 20
125.0995024386
 30
0.0
 11
170.7409392783
 21
124.7554050294
 31
0.0
  0
LINE
  5
142
  8
0
  6
CONTINUOUS
 62
     7
 10
170.7409392783
 20
124.7554050294
 30
0.0
 11
170.7409392783
 21
125.4521716694
 31
0.0
  0
LINE
  5
143
  8
0
  6
CONTINUOUS
 62
     7
 10
169.3825096487
 20
125.2178752128
 30
0.0
 11
171.4201540931
 21
125.8525981918
 31
0.0
  0
LINE
  5
144
  8
0
  6
CONTINUOUS
 62
     7
 10
171.4201540931
 20
125.663609935
 30
0.0
 11
170.8976811587
 21
125.499928961
 31
0.0
  0
LINE
  5
145
  8
0
  6
CONTINUOUS
 62
     7
 10
170.8976811587
 20
125.499928961
 30
0.0
 11
170.8976811587
 21
124.701525008
 31
0.0
  0
LINE
  5
146
  8
0
  6
CONTINUOUS
 62
     7
 10
170.8976811587
 20
124.701525008
 30
0.0
 11
171.4201540931
 21
124.5407013079
 31
0.0
  0
LINE
  5
147
  8
0
  6
CONTINUOUS
 62
     7
 10
171.4201540931
 20
124.5407013079
 30
0.0
 11
171.4201540931
 21
124.3602848727
 31
0.0
  0
LINE
  5
148
  8
0
  6
CONTINUOUS
 62
     7
 10
171.4201540931
 20
124.3602848727
 30
0.0
 11
169.3825096487
 21
125.0035796733
 31
0.0
  0
LINE
  5
149
  8
0
  6
CONTINUOUS
 62
     7
 10
169.3825096487
 20
125.0035796733
 30
0.0
 11
169.3825096487
 21
125.2178752128
 31
0.0
  0
LINE
  5
14A
  8
0
  6
CONTINUOUS
 62
     7
 10
171.4201540931
 20
125.8525981918
 30
0.0
 11
171.4201540931
 21
125.663609935
 31
0.0
  0
ARC
  5
14B
  8
0
  6
CONTINUOUS
 62
     7
 10
240.4719142643
 20
124.6646430487
 30
0.0
 40
0.3068841561645201
 50
76.930511374
 51
182.7173353445
  0
POLYLINE
  5
14C
  8
0
  6
CONTINUOUS
 62
     7
 66
     1
 10
0.0
 20
0.0
 30
0.0
 70
   128
  0
VERTEX
  5
36D
  8
0
  6
CONTINUOUS
 62
     7
 10
240.1653751758
 20
124.6500940785
 30
0.0
  0
VERTEX
  5
36E
  8
0
  6
CONTINUOUS
 62
     7
 10
240.1760688258
 20
124.5450863197
 30
0.0
  0
VERTEX
  5
36F
  8
0
  6
CONTINUOUS
 62
     7
 10
240.2187541788
 20
124.4490726954
 30
0.0
  0
VERTEX
  5
370
  8
0
  6
CONTINUOUS
 62
     7
 10
240.2981295572
 20
124.380653966
 30
0.0
  0
VERTEX
  5
371
  8
0
  6
CONTINUOUS
 62
     7
 10
240.5413107794
 20
124.3366103179
 30
0.0
  0
SEQEND
  5
3BB
  8
0
  6
CONTINUOUS
 62
     7
  0
POLYLINE
  5
14D
  8
0
  6
CONTINUOUS
 62
     7
 66
     1
 10
0.0
 20
0.0
 30
0.0
 70
   128
  0
VERTEX
  5
372
  8
0
  6
CONTINUOUS
 62
     7
 10
240.5413107794
 20
124.3366103179
 30
0.0
  0
VERTEX
  5
373
  8
0
  6
CONTINUOUS
 62
     7
 10
240.6988024499
 20
124.3531249913
 30
0.0
  0
VERTEX
  5
374
  8
0
  6
CONTINUOUS
 62
     7
 10
240.839279342
 20
124.4232056206
 30
0.0
  0
VERTEX
  5
375
  8
0
  6
CONTINUOUS
 62
     7
 10
240.9058564904
 20
124.5271393387
 30
0.0
  0
VERTEX
  5
376
  8
0
  6
CONTINUOUS
 62
     7
 10
240.9229609308
 20
124.6500940785
 30
0.0
  0
SEQEND
  5
3BC
  8
0
  6
CONTINUOUS
 62
     7
  0
POLYLINE
  5
14E
  8
0
  6
CONTINUOUS
 62
     7
 66
     1
 10
0.0
 20
0.0
 30
0.0
 70
   128
  0
VERTEX
  5
377
  8
0
  6
CONTINUOUS
 62
     7
 10
240.9229609308
 20
124.6500940785
 30
0.0
  0
VERTEX
  5
378
  8
0
  6
CONTINUOUS
 62
     7
 10
240.910654471
 20
124.7547898435
 30
0.0
  0
VERTEX
  5
379
  8
0
  6
CONTINUOUS
 62
     7
 10
240.8644248766
 20
124.8490746388
 30
0.0
  0
VERTEX
  5
37A
  8
0
  6
CONTINUOUS
 62
     7
 10
240.7834367561
 20
124.9158234287
 30
0.0
  0
VERTEX
  5
37B
  8
0
  6
CONTINUOUS
 62
     7
 10
240.5413107794
 20
124.9635778392
 30
0.0
  0
SEQEND
  5
3BD
  8
0
  6
CONTINUOUS
 62
     7
  0
POLYLINE
  5
14F
  8
0
  6
CONTINUOUS
 62
     7
 66
     1
 10
0.0
 20
0.0
 30
0.0
 70
   128
  0
VERTEX
  5
37C
  8
0
  6
CONTINUOUS
 62
     7
 10
241.5058447983
 20
124.989701486
 30
0.0
  0
VERTEX
  5
37D
  8
0
  6
CONTINUOUS
 62
     7
 10
241.323199423
 20
124.978341892
 30
0.0
  0
VERTEX
  5
37E
  8
0
  6
CONTINUOUS
 62
     7
 10
241.1564128948
 20
124.9081058007
 30
0.0
  0
VERTEX
  5
37F
  8
0
  6
CONTINUOUS
 62
     7
 10
241.0742760597
 20
124.7918331725
 30
0.0
  0
VERTEX
  5
380
  8
0
  6
CONTINUOUS
 62
     7
 10
241.0535791644
 20
124.6500940785
 30
0.0
  0
SEQEND
  5
3BE
  8
0
  6
CONTINUOUS
 62
     7
  0
POLYLINE
  5
150
  8
0
  6
CONTINUOUS
 62
     7
 66
     1
 10
0.0
 20
0.0
 30
0.0
 70
   128
  0
VERTEX
  5
381
  8
0
  6
CONTINUOUS
 62
     7
 10
241.0535791644
 20
124.6500940785
 30
0.0
  0
VERTEX
  5
382
  8
0
  6
CONTINUOUS
 62
     7
 10
241.067717463
 20
124.5291684478
 30
0.0
  0
VERTEX
  5
383
  8
0
  6
CONTINUOUS
 62
     7
 10
241.1253380484
 20
124.422674389
 30
0.0
  0
VERTEX
  5
384
  8
0
  6
CONTINUOUS
 62
     7
 10
241.2230374163
 20
124.3511311858
 30
0.0
  0
VERTEX
  5
385
  8
0
  6
CONTINUOUS
 62
     7
 10
241.5058447983
 20
124.3104866711
 30
0.0
  0
SEQEND
  5
3BF
  8
0
  6
CONTINUOUS
 62
     7
  0
ARC
  5
151
  8
0
  6
CONTINUOUS
 62
     7
 10
241.5733355392
 20
124.64611523
 30
0.0
 40
0.3423470894222164
 50
258.6301619863
 51
0.6659217174
  0
POLYLINE
  5
152
  8
0
  6
CONTINUOUS
 62
     7
 66
     1
 10
0.0
 20
0.0
 30
0.0
 70
   128
  0
VERTEX
  5
386
  8
0
  6
CONTINUOUS
 62
     7
 10
241.9156595063
 20
124.6500940785
 30
0.0
  0
VERTEX
  5
387
  8
0
  6
CONTINUOUS
 62
     7
 10
241.9027226794
 20
124.7627253465
 30
0.0
  0
VERTEX
  5
388
  8
0
  6
CONTINUOUS
 62
     7
 10
241.8526712337
 20
124.8639810283
 30
0.0
  0
VERTEX
  5
389
  8
0
  6
CONTINUOUS
 62
     7
 10
241.7656973651
 20
124.93584383
 30
0.0
  0
VERTEX
  5
38A
  8
0
  6
CONTINUOUS
 62
     7
 10
241.5058447983
 20
124.989701486
 30
0.0
  0
SEQEND
  5
3C0
  8
0
  6
CONTINUOUS
 62
     7
  0
POLYLINE
  5
153
  8
0
  6
CONTINUOUS
 62
     7
 66
     1
 10
0.0
 20
0.0
 30
0.0
 70
   128
  0
VERTEX
  5
38B
  8
0
  6
CONTINUOUS
 62
     7
 10
240.9943927773
 20
124.8558177965
 30
0.0
  0
VERTEX
  5
38C
  8
0
  6
CONTINUOUS
 62
     7
 10
241.0649862163
 20
125.0205106302
 30
0.0
  0
VERTEX
  5
38D
  8
0
  6
CONTINUOUS
 62
     7
 10
241.2081061823
 20
125.1269989646
 30
0.0
  0
VERTEX
  5
38E
  8
0
  6
CONTINUOUS
 62
     7
 10
241.4866602452
 20
125.172567013
 30
0.0
  0
SEQEND
  5
3C1
  8
0
  6
CONTINUOUS
 62
     7
  0
ARC
  5
154
  8
0
  6
CONTINUOUS
 62
     7
 10
241.563089685
 20
124.6934922406
 30
0.0
 40
0.4851330712563344
 50
354.8676764229
 51
99.0643262137
  0
ARC
  5
155
  8
0
  6
CONTINUOUS
 62
     7
 10
241.5570796106
 20
124.6125088102
 30
0.0
 40
0.490639849667237
 50
261.2179116451
 51
4.3934242699
  0
ARC
  5
156
  8
0
  6
CONTINUOUS
 62
     7
 10
241.394890867
 20
124.5383635977
 30
0.0
 40
0.4199131490719528
 50
193.0489747357
 51
281.9964461995
  0
LINE
  5
157
  8
0
  6
CONTINUOUS
 62
     7
 10
240.9858209557
 20
124.4435539966
 30
0.0
 11
240.980106408
 21
124.4378394489
 31
0.0
  0
POLYLINE
  5
158
  8
0
  6
CONTINUOUS
 62
     7
 66
     1
 10
0.0
 20
0.0
 30
0.0
 70
   128
  0
VERTEX
  5
38F
  8
0
  6
CONTINUOUS
 62
     7
 10
240.980106408
 20
124.4378394489
 30
0.0
  0
VERTEX
  5
390
  8
0
  6
CONTINUOUS
 62
     7
 10
240.9123503265
 20
124.2862868073
 30
0.0
  0
VERTEX
  5
391
  8
0
  6
CONTINUOUS
 62
     7
 10
240.7764955278
 20
124.1913145855
 30
0.0
  0
VERTEX
  5
392
  8
0
  6
CONTINUOUS
 62
     7
 10
240.5172280426
 20
124.1537447908
 30
0.0
  0
SEQEND
  5
3C2
  8
0
  6
CONTINUOUS
 62
     7
  0
ARC
  5
159
  8
0
  6
CONTINUOUS
 62
     7
 10
240.4627040174
 20
124.5834104072
 30
0.0
 40
0.4331113150754167
 50
171.1432672209
 51
277.2321072742
  0
ARC
  5
15A
  8
0
  6
CONTINUOUS
 62
     7
 10
240.4624697044
 20
124.7175211665
 30
0.0
 40
0.4329949413317976
 50
82.1353273856
 51
188.9587057313
  0
ARC
  5
15B
  8
0
  6
CONTINUOUS
 62
     7
 10
240.6034313808
 20
124.7572806249
 30
0.0
 40
0.3976489766289173
 50
14.347329204
 51
101.8582506786
  0
LINE
  5
15C
  8
0
  6
CONTINUOUS
 62
     7
 10
240.9886782295
 20
124.8558177965
 30
0.0
 11
240.9943927773
 21
124.8558177965
 31
0.0
  0
LINE
  5
15D
  8
0
  6
CONTINUOUS
 62
     7
 10
171.4201540931
 20
123.1128807417
 30
0.0
 11
171.2634122128
 21
123.1128807417
 31
0.0
  0
LINE
  5
15E
  8
0
  6
CONTINUOUS
 62
     7
 10
171.2634122128
 20
123.1128807417
 30
0.0
 11
170.7001210803
 21
124.1145593207
 31
0.0
  0
LINE
  5
15F
  8
0
  6
CONTINUOUS
 62
     7
 10
170.7001210803
 20
124.1145593207
 30
0.0
 11
170.686242893
 21
124.1145593207
 31
0.0
  0
LINE
  5
160
  8
0
  6
CONTINUOUS
 62
     7
 10
170.686242893
 20
124.1145593207
 30
0.0
 11
170.1400954037
 21
123.1128807417
 31
0.0
  0
LINE
  5
161
  8
0
  6
CONTINUOUS
 62
     7
 10
170.1400954037
 20
123.1128807417
 30
0.0
 11
169.9833535233
 21
123.1128807417
 31
0.0
  0
LINE
  5
162
  8
0
  6
CONTINUOUS
 62
     7
 10
169.9833535233
 20
123.1128807417
 30
0.0
 11
170.6388937833
 21
124.2713012011
 31
0.0
  0
LINE
  5
163
  8
0
  6
CONTINUOUS
 62
     7
 10
170.6388937833
 20
124.2713012011
 30
0.0
 11
170.7621647413
 21
124.2713012011
 31
0.0
  0
LINE
  5
164
  8
0
  6
CONTINUOUS
 62
     7
 10
170.7621647413
 20
124.2713012011
 30
0.0
 11
171.4201540931
 21
123.1128807417
 31
0.0
  0
ARC
  5
165
  8
0
  6
CONTINUOUS
 62
     7
 10
206.0201540931
 20
70.1595680712
 30
0.0
 40
72.071428571427
 50
92.4251969911
 51
117.1408687703
  0
ARC
  5
166
  8
0
  6
CONTINUOUS
 62
     7
 10
206.0201540931
 20
70.1595680712
 30
0.0
 40
72.07142857142699
 50
62.8591312297
 51
87.5748030089
  0
ARC
  5
167
  8
0
  6
CONTINUOUS
 62
     7
 10
214.4062728642
 20
139.2237171315
 30
0.0
 40
0.5000000000000233
 50
83.0767490841
 51
126.9384336716
  0
LINE
  5
168
  8
0
  6
CONTINUOUS
 62
     7
 10
214.1057946073
 20
139.6233579917
 30
0.0
 11
213.750487811
 21
139.9786647879
 31
0.0
  0
ARC
  5
169
  8
0
  6
CONTINUOUS
 62
     7
 10
214.5054354674
 20
139.3228797347
 30
0.0
 40
0.5000000000000121
 50
143.0615663284
 51
225.0
  0
LINE
  5
16A
  8
0
  6
CONTINUOUS
 62
     7
 10
197.934513579
 20
139.6233579917
 30
0.0
 11
198.2898203753
 21
139.9786647879
 31
0.0
  0
ARC
  5
16B
  8
0
  6
CONTINUOUS
 62
     7
 10
197.6340353221
 20
139.2237171315
 30
0.0
 40
0.4999999999999954
 50
53.0615663283
 51
96.9232509159
  0
ARC
  5
16C
  8
0
  6
CONTINUOUS
 62
     7
 10
197.5348727189
 20
139.3228797347
 30
0.0
 40
0.5000000000000067
 50
315.0
 51
36.9384336717
  0
ARC
  5
16D
  8
0
  6
CONTINUOUS
 62
     7
 10
206.0201540931
 20
70.1595680712
 30
0.0
 40
70.071428571427
 50
96.9232509159
 51
102.9625009815
  0
ARC
  5
16E
  8
0
  6
CONTINUOUS
 62
     7
 10
206.0201540931
 20
70.1595680712
 30
0.0
 40
70.07142857142702
 50
77.0374990185
 51
83.0767490841
  0
ARC
  5
16F
  8
0
  6
CONTINUOUS
 62
     7
 10
221.6259507651
 20
137.9581136582
 30
0.0
 40
0.5000000000000241
 50
315.0
 51
77.0374990185
  0
LINE
  5
170
  8
0
  6
CONTINUOUS
 62
     7
 10
214.1518820768
 20
138.9693263441
 30
0.0
 11
218.3945227639
 21
134.726685657
 31
0.0
  0
LINE
  5
171
  8
0
  6
CONTINUOUS
 62
     7
 10
193.6457854224
 20
134.726685657
 30
0.0
 11
197.8884261095
 21
138.9693263441
 31
0.0
  0
ARC
  5
172
  8
0
  6
CONTINUOUS
 62
     7
 10
190.4143574212
 20
137.9581136582
 30
0.0
 40
0.5000000000000319
 50
102.9625009815
 51
225.0
  0
ARC
  5
173
  8
0
  6
CONTINUOUS
 62
     7
 10
199.6561930625
 20
137.2015593911
 30
0.0
 40
0.499999999999984
 50
45.0
 51
135.0
  0
ARC
  5
174
  8
0
  6
CONTINUOUS
 62
     7
 10
212.3841151238
 20
137.2015593911
 30
0.0
 40
0.499999999999984
 50
45.0
 51
135.0
  0
ARC
  5
175
  8
0
  6
CONTINUOUS
 62
     7
 10
187.0383855014
 20
137.0914448909
 30
0.0
 40
0.5000000000000441
 50
45.0
 51
105.8332479461
  0
ARC
  5
176
  8
0
  6
CONTINUOUS
 62
     7
 10
225.0019226849
 20
137.0914448908
 30
0.0
 40
0.5000000000000049
 50
74.1667520539
 51
135.0
  0
ARC
  5
177
  8
0
  6
CONTINUOUS
 62
     7
 10
206.0201540931
 20
70.1595680712
 30
0.0
 40
70.07142857142699
 50
73.902506812
 51
74.1667520539
  0
ARC
  5
178
  8
0
  6
CONTINUOUS
 62
     7
 10
206.0201540931
 20
70.1595680712
 30
0.0
 40
70.071428571427
 50
105.8332479461
 51
106.097493188
  0
ARC
  5
179
  8
0
  6
CONTINUOUS
 62
     7
 10
186.7299020311
 20
137.0031904211
 30
0.0
 40
0.500000000000004
 50
106.097493188
 51
135.0
  0
ARC
  5
17A
  8
0
  6
CONTINUOUS
 62
     7
 10
225.3104061552
 20
137.0031904211
 30
0.0
 40
0.499999999999984
 50
45.0
 51
73.902506812
  0
LINE
  5
17B
  8
0
  6
CONTINUOUS
 62
     7
 10
202.3434314142
 20
135.2214278206
 30
0.0
 11
200.0097464531
 21
137.5551127817
 31
0.0
  0
LINE
  5
17C
  8
0
  6
CONTINUOUS
 62
     7
 10
216.9803092015
 20
133.3124720946
 30
0.0
 11
212.7376685144
 21
137.5551127817
 31
0.0
  0
LINE
  5
17D
  8
0
  6
CONTINUOUS
 62
     7
 10
199.3026396719
 20
137.5551127817
 30
0.0
 11
195.0599989848
 21
133.3124720946
 31
0.0
  0
LINE
  5
17E
  8
0
  6
CONTINUOUS
 62
     7
 10
212.0305617332
 20
137.5551127817
 30
0.0
 11
209.6968767721
 21
135.2214278206
 31
0.0
  0
LINE
  5
17F
  8
0
  6
CONTINUOUS
 62
     7
 10
191.5244650788
 20
133.3124720946
 30
0.0
 11
187.391938892
 21
137.4449982814
 31
0.0
  0
LINE
  5
180
  8
0
  6
CONTINUOUS
 62
     7
 10
224.6483692943
 20
137.4449982814
 30
0.0
 11
220.5158431075
 21
133.3124720946
 31
0.0
  0
LINE
  5
181
  8
0
  6
CONTINUOUS
 62
     7
 10
229.7082312629
 20
133.3124720946
 30
0.0
 11
225.6639595458
 21
137.3567438117
 31
0.0
  0
LINE
  5
182
  8
0
  6
CONTINUOUS
 62
     7
 10
186.3763486405
 20
137.3567438117
 30
0.0
 11
182.3320769234
 21
133.3124720946
 31
0.0
  0
LINE
  5
183
  8
0
  6
CONTINUOUS
 62
     7
 10
190.0608040306
 20
137.6045602676
 30
0.0
 11
192.9386786412
 21
134.726685657
 31
0.0
  0
LINE
  5
184
  8
0
  6
CONTINUOUS
 62
     7
 10
219.1016295451
 20
134.726685657
 30
0.0
 11
221.9795041557
 21
137.6045602676
 31
0.0
  0
ARC
  5
185
  8
0
  6
CONTINUOUS
 62
     7
 10
177.6971505036
 20
133.7047578273
 30
0.0
 40
0.5000000000000095
 50
45.0
 51
114.0232193538
  0
ARC
  5
186
  8
0
  6
CONTINUOUS
 62
     7
 10
234.3431576827
 20
133.7047578273
 30
0.0
 40
0.500000000000004
 50
65.9767806462
 51
135.0
  0
ARC
  5
187
  8
0
  6
CONTINUOUS
 62
     7
 10
193.2922320318
 20
135.0802390476
 30
0.0
 40
0.500000000000004
 50
225.0
 51
315.0
  0
ARC
  5
188
  8
0
  6
CONTINUOUS
 62
     7
 10
218.7480761545
 20
135.0802390476
 30
0.0
 40
0.500000000000004
 50
225.0
 51
315.0
  0
ARC
  5
189
  8
0
  6
CONTINUOUS
 62
     7
 10
206.0201540931
 20
70.1595680712
 30
0.0
 40
70.07142857142699
 50
62.8591312297
 51
65.9767806462
  0
ARC
  5
18A
  8
0
  6
CONTINUOUS
 62
     7
 10
206.0201540931
 20
70.1595680712
 30
0.0
 40
70.07142857142699
 50
114.0232193538
 51
117.1408687703
  0
LINE
  5
18B
  8
0
  6
CONTINUOUS
 62
     7
 10
178.7965430175
 20
133.3124720946
 30
0.0
 11
178.0507038942
 21
134.0583112179
 31
0.0
  0
LINE
  5
18C
  8
0
  6
CONTINUOUS
 62
     7
 10
233.9896042921
 20
134.0583112179
 30
0.0
 11
233.2437651688
 21
133.3124720946
 31
0.0
  0
ARC
  5
18D
  8
0
  6
CONTINUOUS
 62
     7
 10
235.0201540931
 20
126.7309966426
 30
0.0
 40
8.499999999999686
 50
270.0
 51
62.8591312297
  0
ARC
  5
18E
  8
0
  6
CONTINUOUS
 62
     7
 10
177.0201540931
 20
126.7309966426
 30
0.0
 40
8.500000000000341
 50
117.1408687703
 51
270.0
  0
ARC
  5
18F
  8
0
  6
CONTINUOUS
 62
     7
 10
182.685630314
 20
132.958918704
 30
0.0
 40
0.499999999999984
 50
135.0
 51
225.0
  0
ARC
  5
190
  8
0
  6
CONTINUOUS
 62
     7
 10
233.5973185594
 20
132.958918704
 30
0.0
 40
0.500000000000004
 50
135.0
 51
225.0
  0
ARC
  5
191
  8
0
  6
CONTINUOUS
 62
     7
 10
195.4135523753
 20
132.958918704
 30
0.0
 40
0.500000000000004
 50
135.0
 51
225.0
  0
ARC
  5
192
  8
0
  6
CONTINUOUS
 62
     7
 10
178.4429896269
 20
132.958918704
 30
0.0
 40
0.500000000000004
 50
315.0
 51
45.0
  0
ARC
  5
193
  8
0
  6
CONTINUOUS
 62
     7
 10
216.6267558109
 20
132.958918704
 30
0.0
 40
0.500000000000004
 50
315.0
 51
45.0
  0
ARC
  5
194
  8
0
  6
CONTINUOUS
 62
     7
 10
191.1709116882
 20
132.958918704
 30
0.0
 40
0.499999999999984
 50
315.0
 51
45.0
  0
ARC
  5
195
  8
0
  6
CONTINUOUS
 62
     7
 10
220.8693964981
 20
132.958918704
 30
0.0
 40
0.500000000000004
 50
135.0
 51
225.0
  0
ARC
  5
196
  8
0
  6
CONTINUOUS
 62
     7
 10
229.3546778723
 20
132.958918704
 30
0.0
 40
0.500000000000004
 50
315.0
 51
45.0
  0
ARC
  5
197
  8
0
  6
CONTINUOUS
 62
     7
 10
177.0201540931
 20
126.7309966426
 30
0.0
 40
6.50000000000029
 50
117.1408687703
 51
140.6441393234
  0
ARC
  5
198
  8
0
  6
CONTINUOUS
 62
     7
 10
235.0201540931
 20
126.7309966426
 30
0.0
 40
6.499999999999684
 50
39.3558606766
 51
62.8591312297
  0
LINE
  5
199
  8
0
  6
CONTINUOUS
 62
     7
 10
195.0599989848
 20
132.6053653134
 30
0.0
 11
199.3026396719
 21
128.3627246263
 31
0.0
  0
LINE
  5
19A
  8
0
  6
CONTINUOUS
 62
     7
 10
212.7376685144
 20
128.3627246263
 30
0.0
 11
216.9803092015
 21
132.6053653134
 31
0.0
  0
LINE
  5
19B
  8
0
  6
CONTINUOUS
 62
     7
 10
220.5158431075
 20
132.6053653134
 30
0.0
 11
224.7584837946
 21
128.3627246263
 31
0.0
  0
LINE
  5
19C
  8
0
  6
CONTINUOUS
 62
     7
 10
225.4655905758
 20
128.3627246263
 30
0.0
 11
229.7082312629
 21
132.6053653134
 31
0.0
  0
LINE
  5
19D
  8
0
  6
CONTINUOUS
 62
     7
 10
182.3320769234
 20
132.6053653134
 30
0.0
 11
186.5747176105
 21
128.3627246263
 31
0.0
  0
LINE
  5
19E
  8
0
  6
CONTINUOUS
 62
     7
 10
233.2437651688
 20
132.6053653134
 30
0.0
 11
237.4864058559
 21
128.3627246263
 31
0.0
  0
LINE
  5
19F
  8
0
  6
CONTINUOUS
 62
     7
 10
174.5539023303
 20
128.3627246263
 30
0.0
 11
178.7965430175
 21
132.6053653134
 31
0.0
  0
LINE
  5
1A0
  8
0
  6
CONTINUOUS
 62
     7
 10
187.2818243917
 20
128.3627246263
 30
0.0
 11
191.5244650788
 21
132.6053653134
 31
0.0
  0
ARC
  5
1A1
  8
0
  6
CONTINUOUS
 62
     7
 10
193.2922320318
 20
130.8375983604
 30
0.0
 40
0.500000000000004
 50
45.0
 51
135.0
  0
ARC
  5
1A2
  8
0
  6
CONTINUOUS
 62
     7
 10
231.4759982159
 20
130.8375983604
 30
0.0
 40
0.499999999999984
 50
45.0
 51
135.0
  0
ARC
  5
1A3
  8
0
  6
CONTINUOUS
 62
     7
 10
180.5643099704
 20
130.8375983604
 30
0.0
 40
0.499999999999984
 50
45.0
 51
135.0
  0
ARC
  5
1A4
  8
0
  6
CONTINUOUS
 62
     7
 10
218.7480761545
 20
130.8375983604
 30
0.0
 40
0.5000000000000241
 50
45.0
 51
135.0
  0
LINE
  5
1A5
  8
0
  6
CONTINUOUS
 62
     7
 10
197.8884261095
 20
126.9485110639
 30
0.0
 11
193.6457854224
 21
131.191151751
 31
0.0
  0
LINE
  5
1A6
  8
0
  6
CONTINUOUS
 62
     7
 10
180.2107565798
 20
131.191151751
 30
0.0
 11
175.9681158927
 21
126.9485110639
 31
0.0
  0
LINE
  5
1A7
  8
0
  6
CONTINUOUS
 62
     7
 10
236.0721922936
 20
126.9485110639
 30
0.0
 11
231.8295516065
 21
131.191151751
 31
0.0
  0
LINE
  5
1A8
  8
0
  6
CONTINUOUS
 62
     7
 10
218.3945227639
 20
131.191151751
 30
0.0
 11
214.1518820768
 21
126.9485110639
 31
0.0
  0
LINE
  5
1A9
  8
0
  6
CONTINUOUS
 62
     7
 10
223.3442702322
 20
126.9485110639
 30
0.0
 11
219.1016295451
 21
131.191151751
 31
0.0
  0
LINE
  5
1AA
  8
0
  6
CONTINUOUS
 62
     7
 10
231.1224448253
 20
131.191151751
 30
0.0
 11
226.8798041381
 21
126.9485110639
 31
0.0
  0
LINE
  5
1AB
  8
0
  6
CONTINUOUS
 62
     7
 10
192.9386786412
 20
131.191151751
 30
0.0
 11
188.6960379541
 21
126.9485110639
 31
0.0
  0
LINE
  5
1AC
  8
0
  6
CONTINUOUS
 62
     7
 10
185.1605040481
 20
126.9485110639
 30
0.0
 11
180.917863361
 21
131.191151751
 31
0.0
  0
ARC
  5
1AD
  8
0
  6
CONTINUOUS
 62
     7
 10
172.3808201393
 20
130.5358068173
 30
0.0
 40
0.5000000000000168
 50
140.6441393234
 51
225.0
  0
ARC
  5
1AE
  8
0
  6
CONTINUOUS
 62
     7
 10
239.6594880469
 20
130.5358068173
 30
0.0
 40
0.500000000000004
 50
315.0
 51
39.3558606766
  0
LINE
  5
1AF
  8
0
  6
CONTINUOUS
 62
     7
 10
209.6968767721
 20
130.6964095874
 30
0.0
 11
212.0305617332
 21
128.3627246263
 31
0.0
  0
LINE
  5
1B0
  8
0
  6
CONTINUOUS
 62
     7
 10
200.0097464531
 20
128.3627246263
 30
0.0
 11
202.3434314142
 21
130.6964095874
 31
0.0
  0
LINE
  5
1B1
  8
0
  6
CONTINUOUS
 62
     7
 10
238.1935126371
 20
128.3627246263
 30
0.0
 11
240.0130414375
 21
130.1822534267
 31
0.0
  0
LINE
  5
1B2
  8
0
  6
CONTINUOUS
 62
     7
 10
172.0272667488
 20
130.1822534267
 30
0.0
 11
173.8467955492
 21
128.3627246263
 31
0.0
  0
ARC
  5
1B3
  8
0
  6
CONTINUOUS
 62
     7
 10
174.2003489398
 20
128.7162780169
 30
0.0
 40
0.5000000000000442
 50
225.0
 51
315.0
  0
ARC
  5
1B4
  8
0
  6
CONTINUOUS
 62
     7
 10
199.6561930625
 20
128.7162780169
 30
0.0
 40
0.5000000000000241
 50
225.0
 51
315.0
  0
ARC
  5
1B5
  8
0
  6
CONTINUOUS
 62
     7
 10
237.8399592465
 20
128.7162780169
 30
0.0
 40
0.500000000000004
 50
225.0
 51
315.0
  0
ARC
  5
1B6
  8
0
  6
CONTINUOUS
 62
     7
 10
212.3841151238
 20
128.7162780169
 30
0.0
 40
0.5000000000000241
 50
225.0
 51
315.0
  0
ARC
  5
1B7
  8
0
  6
CONTINUOUS
 62
     7
 10
186.9282710011
 20
128.7162780169
 30
0.0
 40
0.5000000000000442
 50
225.0
 51
315.0
  0
ARC
  5
1B8
  8
0
  6
CONTINUOUS
 62
     7
 10
225.1120371852
 20
128.7162780169
 30
0.0
 40
0.5000000000000241
 50
225.0
 51
315.0
  0
ARC
  5
1B9
  8
0
  6
CONTINUOUS
 62
     7
 10
214.5054354674
 20
126.5949576733
 30
0.0
 40
0.499999999999994
 50
135.0
 51
225.0
  0
ARC
  5
1BA
  8
0
  6
CONTINUOUS
 62
     7
 10
184.8069506576
 20
126.5949576733
 30
0.0
 40
0.499999999999994
 50
315.0
 51
45.0
  0
ARC
  5
1BB
  8
0
  6
CONTINUOUS
 62
     7
 10
227.2333575287
 20
126.5949576733
 30
0.0
 40
0.5000000000000141
 50
135.0
 51
225.0
  0
ARC
  5
1BC
  8
0
  6
CONTINUOUS
 62
     7
 10
189.0495913447
 20
126.5949576733
 30
0.0
 40
0.5000000000000141
 50
135.0
 51
225.0
  0
ARC
  5
1BD
  8
0
  6
CONTINUOUS
 62
     7
 10
222.9907168416
 20
126.5949576733
 30
0.0
 40
0.5000000000000141
 50
315.0
 51
45.0
  0
ARC
  5
1BE
  8
0
  6
CONTINUOUS
 62
     7
 10
176.3216692833
 20
126.5949576733
 30
0.0
 40
0.5000000000000141
 50
135.0
 51
225.0
  0
ARC
  5
1BF
  8
0
  6
CONTINUOUS
 62
     7
 10
235.718638903
 20
126.5949576733
 30
0.0
 40
0.5000000000000342
 50
315.0
 51
45.0
  0
ARC
  5
1C0
  8
0
  6
CONTINUOUS
 62
     7
 10
197.5348727189
 20
126.5949576733
 30
0.0
 40
0.5000000000000141
 50
315.0
 51
45.0
  0
LINE
  5
1C1
  8
0
  6
CONTINUOUS
 62
     7
 10
219.1016295451
 20
121.9987635956
 30
0.0
 11
223.3442702322
 21
126.2414042827
 31
0.0
  0
LINE
  5
1C2
  8
0
  6
CONTINUOUS
 62
     7
 10
193.6457854224
 20
121.9987635956
 30
0.0
 11
197.8884261095
 21
126.2414042827
 31
0.0
  0
LINE
  5
1C3
  8
0
  6
CONTINUOUS
 62
     7
 10
214.1518820768
 20
126.2414042827
 30
0.0
 11
218.3945227639
 21
121.9987635956
 31
0.0
  0
LINE
  5
1C4
  8
0
  6
CONTINUOUS
 62
     7
 10
231.8295516065
 20
121.9987635956
 30
0.0
 11
236.0721922936
 21
126.2414042827
 31
0.0
  0
LINE
  5
1C5
  8
0
  6
CONTINUOUS
 62
     7
 10
226.8798041381
 20
126.2414042827
 30
0.0
 11
231.1224448253
 21
121.9987635956
 31
0.0
  0
LINE
  5
1C6
  8
0
  6
CONTINUOUS
 62
     7
 10
175.9681158927
 20
126.2414042827
 30
0.0
 11
180.2107565798
 21
121.9987635956
 31
0.0
  0
LINE
  5
1C7
  8
0
  6
CONTINUOUS
 62
     7
 10
180.917863361
 20
121.9987635956
 30
0.0
 11
185.1605040481
 21
126.2414042827
 31
0.0
  0
LINE
  5
1C8
  8
0
  6
CONTINUOUS
 62
     7
 10
188.6960379541
 20
126.2414042827
 30
0.0
 11
192.9386786412
 21
121.9987635956
 31
0.0
  0
ARC
  5
1C9
  8
0
  6
CONTINUOUS
 62
     7
 10
174.2003489398
 20
124.4736373298
 30
0.0
 40
0.5000000000000241
 50
45.0
 51
135.0
  0
ARC
  5
1CA
  8
0
  6
CONTINUOUS
 62
     7
 10
186.9282710011
 20
124.4736373298
 30
0.0
 40
0.500000000000004
 50
45.0
 51
135.0
  0
ARC
  5
1CB
  8
0
  6
CONTINUOUS
 62
     7
 10
212.3841151238
 20
124.4736373298
 30
0.0
 40
0.499999999999994
 50
45.0
 51
135.0
  0
ARC
  5
1CC
  8
0
  6
CONTINUOUS
 62
     7
 10
237.8399592465
 20
124.4736373298
 30
0.0
 40
0.499999999999994
 50
45.0
 51
135.0
  0
ARC
  5
1CD
  8
0
  6
CONTINUOUS
 62
     7
 10
199.6561930625
 20
124.4736373298
 30
0.0
 40
0.499999999999994
 50
45.0
 51
135.0
  0
ARC
  5
1CE
  8
0
  6
CONTINUOUS
 62
     7
 10
225.1120371852
 20
124.4736373298
 30
0.0
 40
0.500000000000004
 50
45.0
 51
135.0
  0
LINE
  5
1CF
  8
0
  6
CONTINUOUS
 62
     7
 10
216.4803092015
 20
121.0845500332
 30
0.0
 11
212.7376685144
 21
124.8271907204
 31
0.0
  0
LINE
  5
1D0
  8
0
  6
CONTINUOUS
 62
     7
 10
229.2082312629
 20
121.0845500332
 30
0.0
 11
225.4655905758
 21
124.8271907204
 31
0.0
  0
LINE
  5
1D1
  8
0
  6
CONTINUOUS
 62
     7
 10
191.0244650788
 20
121.0845500332
 30
0.0
 11
187.2818243917
 21
124.8271907204
 31
0.0
  0
LINE
  5
1D2
  8
0
  6
CONTINUOUS
 62
     7
 10
239.8882404173
 20
123.1324629401
 30
0.0
 11
238.1935126371
 21
124.8271907204
 31
0.0
  0
LINE
  5
1D3
  8
0
  6
CONTINUOUS
 62
     7
 10
186.5747176105
 20
124.8271907204
 30
0.0
 11
182.8320769234
 21
121.0845500332
 31
0.0
  0
LINE
  5
1D4
  8
0
  6
CONTINUOUS
 62
     7
 10
199.3026396719
 20
124.8271907204
 30
0.0
 11
195.5599989848
 21
121.0845500332
 31
0.0
  0
LINE
  5
1D5
  8
0
  6
CONTINUOUS
 62
     7
 10
202.3434314142
 20
122.4935057593
 30
0.0
 11
200.0097464531
 21
124.8271907204
 31
0.0
  0
LINE
  5
1D6
  8
0
  6
CONTINUOUS
 62
     7
 10
224.7584837946
 20
124.8271907204
 30
0.0
 11
221.0158431075
 21
121.0845500332
 31
0.0
  0
LINE
  5
1D7
  8
0
  6
CONTINUOUS
 62
     7
 10
178.2965430175
 20
121.0845500332
 30
0.0
 11
174.5539023303
 21
124.8271907204
 31
0.0
  0
LINE
  5
1D8
  8
0
  6
CONTINUOUS
 62
     7
 10
212.0305617332
 20
124.8271907204
 30
0.0
 11
209.6968767721
 21
122.4935057593
 31
0.0
  0
LINE
  5
1D9
  8
0
  6
CONTINUOUS
 62
     7
 10
173.8467955492
 20
124.8271907204
 30
0.0
 11
172.1520677689
 21
123.1324629401
 31
0.0
  0
LINE
  5
1DA
  8
0
  6
CONTINUOUS
 62
     7
 10
237.4864058559
 20
124.8271907204
 30
0.0
 11
233.7437651688
 21
121.0845500332
 31
0.0
  0
ARC
  5
1DB
  8
0
  6
CONTINUOUS
 62
     7
 10
239.5346870268
 20
122.7789095496
 30
0.0
 40
0.500000000000004
 50
318.8006303551
 51
45.0
  0
ARC
  5
1DC
  8
0
  6
CONTINUOUS
 62
     7
 10
172.5056211595
 20
122.7789095496
 30
0.0
 40
0.499999999999993
 50
135.0
 51
221.1993696449
  0
ARC
  5
1DD
  8
0
  6
CONTINUOUS
 62
     7
 10
177.0201540931
 20
126.7309966426
 30
0.0
 40
6.500000000000176
 50
221.1993696449
 51
268.7429795521
  0
POLYLINE
  5
1DE
  8
0
  6
CONTINUOUS
 62
     7
 66
     1
 10
0.0
 20
0.0
 30
0.0
 70
   128
  0
VERTEX
  5
393
  8
0
  6
CONTINUOUS
 62
     7
 10
176.8992830334
 20
120.2317320517
 30
0.0
  0
VERTEX
  5
394
  8
0
  6
CONTINUOUS
 62
     7
 10
176.8808877742
 20
120.2324796406
 30
0.0
  0
VERTEX
  5
395
  8
0
  6
CONTINUOUS
 62
     7
 10
176.8775610865
 20
120.2325608898
 30
0.0
  0
SEQEND
  5
3C3
  8
0
  6
CONTINUOUS
 62
     7
  0
ARC
  5
1DF
  8
0
  6
CONTINUOUS
 62
     7
 10
177.1775486558
 20
125.8871831217
 30
0.0
 40
5.662292694796243
 50
267.1831427512
 51
268.4071459428
  0
ARC
  5
1E0
  8
0
  6
CONTINUOUS
 62
     7
 10
234.8506853409
 20
126.2007903118
 30
0.0
 40
5.976115269808338
 50
271.6249931052
 51
272.7847182006
  0
POLYLINE
  5
1E1
  8
0
  6
CONTINUOUS
 62
     7
 66
     1
 10
0.0
 20
0.0
 30
0.0
 70
   128
  0
VERTEX
  5
396
  8
0
  6
CONTINUOUS
 62
     7
 10
235.1627470998
 20
120.2325608898
 30
0.0
  0
VERTEX
  5
397
  8
0
  6
CONTINUOUS
 62
     7
 10
235.1594204121
 20
120.2324796406
 30
0.0
  0
VERTEX
  5
398
  8
0
  6
CONTINUOUS
 62
     7
 10
235.1410251529
 20
120.2317320517
 30
0.0
  0
SEQEND
  5
3C4
  8
0
  6
CONTINUOUS
 62
     7
  0
ARC
  5
1E2
  8
0
  6
CONTINUOUS
 62
     7
 10
235.0201540931
 20
126.7309966426
 30
0.0
 40
6.499999999999679
 50
271.2570204479
 51
318.8006303551
  0
ARC
  5
1E3
  8
0
  6
CONTINUOUS
 62
     7
 10
218.7480761545
 20
122.3523169862
 30
0.0
 40
0.500000000000004
 50
225.0
 51
315.0
  0
ARC
  5
1E4
  8
0
  6
CONTINUOUS
 62
     7
 10
231.4759982159
 20
122.3523169862
 30
0.0
 40
0.499999999999994
 50
225.0
 51
315.0
  0
ARC
  5
1E5
  8
0
  6
CONTINUOUS
 62
     7
 10
193.2922320318
 20
122.3523169862
 30
0.0
 40
0.500000000000004
 50
225.0
 51
315.0
  0
ARC
  5
1E6
  8
0
  6
CONTINUOUS
 62
     7
 10
180.5643099704
 20
122.3523169862
 30
0.0
 40
0.5000000000000141
 50
225.0
 51
315.0
  0
ARC
  5
1E7
  8
0
  6
CONTINUOUS
 62
     7
 10
216.1267558109
 20
120.7309966426
 30
0.0
 40
0.5
 50
270.0
 51
45.0
  0
ARC
  5
1E8
  8
0
  6
CONTINUOUS
 62
     7
 10
221.3693964981
 20
120.7309966426
 30
0.0
 40
0.5
 50
135.0
 51
270.0
  0
ARC
  5
1E9
  8
0
  6
CONTINUOUS
 62
     7
 10
234.0973185594
 20
120.7309966426
 30
0.0
 40
0.500000000000004
 50
135.0
 51
270.0
  0
ARC
  5
1EA
  8
0
  6
CONTINUOUS
 62
     7
 10
190.6709116882
 20
120.7309966426
 30
0.0
 40
0.500000000000004
 50
270.0
 51
45.0
  0
ARC
  5
1EB
  8
0
  6
CONTINUOUS
 62
     7
 10
228.8546778723
 20
120.7309966426
 30
0.0
 40
0.5
 50
270.0
 51
45.0
  0
ARC
  5
1EC
  8
0
  6
CONTINUOUS
 62
     7
 10
183.185630314
 20
120.7309966426
 30
0.0
 40
0.5
 50
135.0
 51
270.0
  0
ARC
  5
1ED
  8
0
  6
CONTINUOUS
 62
     7
 10
195.9135523753
 20
120.7309966426
 30
0.0
 40
0.5
 50
135.0
 51
270.0
  0
ARC
  5
1EE
  8
0
  6
CONTINUOUS
 62
     7
 10
177.9429896269
 20
120.7309966426
 30
0.0
 40
0.5000000000000141
 50
270.0
 51
45.0
  0
LINE
  5
1EF
  8
0
  6
CONTINUOUS
 62
     7
 10
183.185630314
 20
120.2309966426
 30
0.0
 11
190.6709116882
 21
120.2309966426
 31
0.0
  0
LINE
  5
1F0
  8
0
  6
CONTINUOUS
 62
     7
 10
221.3693964981
 20
120.2309966426
 30
0.0
 11
228.8546778723
 21
120.2309966426
 31
0.0
  0
LINE
  5
1F1
  8
0
  6
CONTINUOUS
 62
     7
 10
234.0973185594
 20
120.2309966426
 30
0.0
 11
235.1154753263
 21
120.2309966426
 31
0.0
  0
LINE
  5
1F2
  8
0
  6
CONTINUOUS
 62
     7
 10
176.92483286
 20
120.2309966426
 30
0.0
 11
177.9429896269
 21
120.2309966426
 31
0.0
  0
LINE
  5
1F3
  8
0
  6
CONTINUOUS
 62
     7
 10
210.0504301627
 20
120.2309966426
 30
0.0
 11
216.1267558109
 21
120.2309966426
 31
0.0
  0
LINE
  5
1F4
  8
0
  6
CONTINUOUS
 62
     7
 10
195.9135523753
 20
120.2309966426
 30
0.0
 11
201.9898780236
 21
120.2309966426
 31
0.0
  0
LINE
  5
1F5
  8
0
  6
CONTINUOUS
 62
     7
 10
202.9916066333
 20
118.2309966426
 30
0.0
 11
177.0201540931
 21
118.2309966426
 31
0.0
  0
LINE
  5
1F6
  8
0
  6
CONTINUOUS
 62
     7
 10
235.0201540931
 20
118.2309966426
 30
0.0
 11
209.048701553
 21
118.2309966426
 31
0.0
  0
ARC
  5
1F7
  8
0
  6
CONTINUOUS
 62
     7
 10
201.8670427334
 20
134.9797001035
 30
0.0
 40
0.5077851720324806
 50
0.2670974571
 51
45.0505169443
  0
ARC
  5
1F8
  8
0
  6
CONTINUOUS
 62
     7
 10
210.1732654529
 20
134.9797001034
 30
0.0
 40
0.5077851720324404
 50
134.9494830557
 51
179.732902543
  0
ARC
  5
1F9
  8
0
  6
CONTINUOUS
 62
     7
 10
201.8670427334
 20
130.9381373046
 30
0.0
 40
0.5077851720325409
 50
314.9494830557
 51
359.7329025429
  0
ARC
  5
1FA
  8
0
  6
CONTINUOUS
 62
     7
 10
210.1732654529
 20
130.9381373046
 30
0.0
 40
0.5077851720324204
 50
180.267097457
 51
225.0505169443
  0
ARC
  5
1FB
  8
0
  6
CONTINUOUS
 62
     7
 10
210.1732654529
 20
122.2517780421
 30
0.0
 40
0.5077851720323702
 50
134.9494830557
 51
179.732902543
  0
ARC
  5
1FC
  8
0
  6
CONTINUOUS
 62
     7
 10
201.8670427334
 20
122.2517780421
 30
0.0
 40
0.507785172032448
 50
0.267097457
 51
45.0505169443
  0
ARC
  5
1FD
  8
0
  6
CONTINUOUS
 62
     7
 10
210.1667848504
 20
120.732295712
 30
0.0
 40
0.5013007352156641
 50
180.148476289
 51
270.1477107253
  0
ARC
  5
1FE
  8
0
  6
CONTINUOUS
 62
     7
 10
201.873470238
 20
120.732349085
 30
0.0
 40
0.5013539740336109
 50
269.8583731138
 51
359.845439872
  0
LINE
  5
1FF
  8
0
  6
CONTINUOUS
 62
     7
 10
202.3748223879
 20
134.9820672523
 30
0.0
 11
202.3739595745
 21
134.9820672523
 31
0.0
  0
LINE
  5
200
  8
0
  6
CONTINUOUS
 62
     7
 10
209.6654857984
 20
134.9820672523
 30
0.0
 11
209.6663486118
 21
134.9820672523
 31
0.0
  0
LINE
  5
201
  8
0
  6
CONTINUOUS
 62
     7
 10
202.3748223879
 20
130.9357701557
 30
0.0
 11
202.3739595745
 21
130.9357701557
 31
0.0
  0
LINE
  5
202
  8
0
  6
CONTINUOUS
 62
     7
 10
209.6663486118
 20
130.9357701557
 30
0.0
 11
209.6654857984
 21
130.9357701557
 31
0.0
  0
LINE
  5
203
  8
0
  6
CONTINUOUS
 62
     7
 10
209.6654857984
 20
122.2541451909
 30
0.0
 11
209.6663486118
 21
122.2541451909
 31
0.0
  0
LINE
  5
204
  8
0
  6
CONTINUOUS
 62
     7
 10
202.3748223879
 20
122.2541451909
 30
0.0
 11
202.3739595745
 21
122.2541451909
 31
0.0
  0
LINE
  5
205
  8
0
  6
CONTINUOUS
 62
     7
 10
209.6654857984
 20
120.7309966426
 30
0.0
 11
209.6663486118
 21
120.7309966426
 31
0.0
  0
LINE
  5
206
  8
0
  6
CONTINUOUS
 62
     7
 10
202.3748223879
 20
120.7309966426
 30
0.0
 11
202.3739595745
 21
120.7309966426
 31
0.0
  0
LINE
  5
207
  8
0
  6
CENTER
 62
     7
 10
252.5201540931
 20
126.7038935602
 30
0.0
 11
159.5201540931
 21
126.7038935602
 31
0.0
  0
LINE
  5
208
  8
0
  6
CONTINUOUS
 62
     7
 10
250.5201540931
 20
114.7038935602
 30
0.0
 11
250.5201540931
 21
126.7038935602
 31
0.0
  0
SOLID
  5
209
  8
0
  6
CONTINUOUS
 62
     7
 10
250.5201540931
 20
126.7038935602
 30
0.0
 11
249.0201540931
 21
120.7038935602
 31
0.0
 12
252.0201540931
 22
120.7038935602
 32
0.0
 13
252.0201540931
 23
120.7038935602
 33
0.0
  0
LINE
  5
20A
  8
0
  6
CONTINUOUS
 62
     7
 10
161.5201540931
 20
114.7038935602
 30
0.0
 11
161.5201540931
 21
126.7038935602
 31
0.0
  0
SOLID
  5
20B
  8
0
  6
CONTINUOUS
 62
     7
 10
161.5201540931
 20
126.7038935602
 30
0.0
 11
160.0201540931
 21
120.7038935602
 31
0.0
 12
163.0201540931
 22
120.7038935602
 32
0.0
 13
163.0201540931
 23
120.7038935602
 33
0.0
  0
TEXT
  5
20C
  8
0
  6
CONTINUOUS
 62
     7
 10
253.0246797327
 20
118.4397592578
 30
0.0
 40
6.35
  1
A
 41
0.7
 11
253.0246797327
 21
124.7897592578
 31
0.0
 73
     3
  0
TEXT
  5
20D
  8
0
  6
CONTINUOUS
 62
     7
 10
152.7543143549
 20
118.4397592578
 30
0.0
 40
6.35
  1
A
 41
0.7
 11
152.7543143549
 21
124.7897592578
 31
0.0
 73
     3
  0
LINE
  5
20E
  8
0
  6
CONTINUOUS
 62
     7
 10
240.549474401
 20
216.5399576775
 30
0.0
 11
237.4510504988
 21
213.4415337754
 31
0.0
  0
LINE
  5
20F
  8
0
  6
CONTINUOUS
 62
     7
 10
243.5201108646
 20
215.0204660806
 30
0.0
 11
241.512595997
 21
213.012951213
 31
0.0
  0
LINE
  5
210
  8
0
  6
CONTINUOUS
 62
     7
 10
243.5201108646
 20
210.53033802
 30
0.0
 11
241.5200975689
 21
208.5303247244
 31
0.0
  0
LINE
  5
211
  8
0
  6
CONTINUOUS
 62
     7
 10
243.5201108646
 20
206.0402099595
 30
0.0
 11
241.5200975689
 21
204.0401966639
 31
0.0
  0
LINE
  5
212
  8
0
  6
CONTINUOUS
 62
     7
 10
243.5201108646
 20
201.550081899
 30
0.0
 11
241.5200975689
 21
199.5500686033
 31
0.0
  0
LINE
  5
213
  8
0
  6
CONTINUOUS
 62
     7
 10
243.5201108646
 20
197.0599538384
 30
0.0
 11
241.5200975689
 21
195.0599405428
 31
0.0
  0
LINE
  5
214
  8
0
  6
CONTINUOUS
 62
     7
 10
243.5201108646
 20
192.5698257779
 30
0.0
 11
241.5200975689
 21
190.5698124823
 31
0.0
  0
LINE
  5
215
  8
0
  6
CONTINUOUS
 62
     7
 10
173.0991295908
 20
216.4415337754
 30
0.0
 11
168.5201972856
 21
211.8626014702
 31
0.0
  0
LINE
  5
216
  8
0
  6
CONTINUOUS
 62
     7
 10
170.5202105813
 20
209.3724867053
 30
0.0
 11
168.5201972856
 21
207.3724734096
 31
0.0
  0
LINE
  5
217
  8
0
  6
CONTINUOUS
 62
     7
 10
175.833680564
 20
214.685956688
 30
0.0
 11
174.5892576514
 21
213.4415337754
 31
0.0
  0
LINE
  5
218
  8
0
  6
CONTINUOUS
 62
     7
 10
170.5202105813
 20
204.8823586448
 30
0.0
 11
168.5201972856
 21
202.8823453491
 31
0.0
  0
LINE
  5
219
  8
0
  6
CONTINUOUS
 62
     7
 10
170.5202105813
 20
200.3922305842
 30
0.0
 11
168.5201972856
 21
198.3922172886
 31
0.0
  0
LINE
  5
21A
  8
0
  6
CONTINUOUS
 62
     7
 10
170.5202105813
 20
195.9021025237
 30
0.0
 11
168.5201972856
 21
193.902089228
 31
0.0
  0
LINE
  5
21B
  8
0
  6
CONTINUOUS
 62
     7
 10
170.5202105813
 20
191.4119744632
 30
0.0
 11
168.5201972856
 21
189.4119611675
 31
0.0
  0
LINE
  5
21C
  8
0
  6
CONTINUOUS
 62
     7
 10
186.5695137724
 20
216.4415337754
 30
0.0
 11
185.2949393408
 21
215.1669593437
 31
0.0
  0
LINE
  5
21D
  8
0
  6
CONTINUOUS
 62
     7
 10
188.5583289828
 20
213.9402209252
 30
0.0
 11
188.0600834544
 21
213.4419753968
 31
0.0
  0
LINE
  5
21E
  8
0
  6
CONTINUOUS
 62
     7
 10
204.0497698935
 20
224.9415337754
 30
0.0
 11
202.9558030864
 21
223.8475669683
 31
0.0
  0
LINE
  5
21F
  8
0
  6
CONTINUOUS
 62
     7
 10
200.039897954
 20
216.4415337754
 30
0.0
 11
198.0228614021
 21
214.4244972235
 31
0.0
  0
LINE
  5
220
  8
0
  6
CONTINUOUS
 62
     7
 10
205.0201540751
 20
221.4217898964
 30
0.0
 11
202.6751700827
 21
219.076805904
 31
0.0
  0
LINE
  5
221
  8
0
  6
CONTINUOUS
 62
     7
 10
208.539897954
 20
224.9415337754
 30
0.0
 11
206.039897954
 21
222.4415337754
 31
0.0
  0
LINE
  5
222
  8
0
  6
CONTINUOUS
 62
     7
 10
204.7795155944
 20
216.6910233552
 30
0.0
 11
201.5300260146
 21
213.4415337754
 31
0.0
  0
LINE
  5
223
  8
0
  6
CONTINUOUS
 62
     7
 10
209.2429247384
 20
221.1544324992
 30
0.0
 11
207.0611733667
 21
218.9726811275
 31
0.0
  0
LINE
  5
224
  8
0
  6
CONTINUOUS
 62
     7
 10
209.4923762973
 20
216.9137559976
 30
0.0
 11
207.4224049972
 21
214.8437846974
 31
0.0
  0
LINE
  5
225
  8
0
  6
CONTINUOUS
 62
     7
 10
213.5102821356
 20
216.4415337754
 30
0.0
 11
210.5102821356
 21
213.4415337754
 31
0.0
  0
LINE
  5
226
  8
0
  6
CONTINUOUS
 62
     7
 10
226.6914687562
 20
216.1523362143
 30
0.0
 11
223.9811244971
 21
213.4419919553
 31
0.0
  0
POLYLINE
  5
227
  8
0
  6
CONTINUOUS
 62
     7
 66
     1
 10
0.0
 20
0.0
 30
0.0
 70
   128
  0
VERTEX
  5
399
  8
0
  6
CONTINUOUS
 62
     7
 10
240.2341510668
 20
213.4401539522
 30
0.0
  0
VERTEX
  5
39A
  8
0
  6
CONTINUOUS
 62
     7
 10
240.310154188
 20
213.4283293004
 30
0.0
  0
VERTEX
  5
39B
  8
0
  6
CONTINUOUS
 62
     7
 10
240.3216433858
 20
213.4228317842
 30
0.0
  0
SEQEND
  5
3C5
  8
0
  6
CONTINUOUS
 62
     7
  0
POLYLINE
  5
228
  8
0
  6
CONTINUOUS
 62
     7
 66
     1
 10
0.0
 20
0.0
 30
0.0
 70
   128
  0
VERTEX
  5
39C
  8
0
  6
CONTINUOUS
 62
     7
 10
171.719744787
 20
213.424784718
 30
0.0
  0
VERTEX
  5
39D
  8
0
  6
CONTINUOUS
 62
     7
 10
171.7173969053
 20
213.4222889712
 30
0.0
  0
VERTEX
  5
39E
  8
0
  6
CONTINUOUS
 62
     7
 10
171.7789744768
 20
213.4401739913
 30
0.0
  0
VERTEX
  5
39F
  8
0
  6
CONTINUOUS
 62
     7
 10
171.8053763947
 20
213.4368436801
 30
0.0
  0
SEQEND
  5
3C6
  8
0
  6
CONTINUOUS
 62
     7
  0
LINE
  5
229
  8
0
  6
CONTINUOUS
 62
     7
 10
241.7578073021
 20
216.4415337754
 30
0.0
 11
241.757807306
 21
216.6415337754
 31
0.0
  0
LINE
  5
22A
  8
0
  6
CONTINUOUS
 62
     7
 10
241.757807306
 20
216.6415337754
 30
0.0
 11
240.549474401
 21
216.6415337754
 31
0.0
  0
LINE
  5
22B
  8
0
  6
CONTINUOUS
 62
     7
 10
169.8853898301
 20
216.6415337754
 30
0.0
 11
169.8853898301
 21
216.4415337754
 31
0.0
  0
LINE
  5
22C
  8
0
  6
CONTINUOUS
 62
     7
 10
169.5420814378
 20
216.6415337754
 30
0.0
 11
169.5420814374
 21
216.4415337754
 31
0.0
  0
LINE
  5
22D
  8
0
  6
CONTINUOUS
 62
     7
 10
169.8853898301
 20
216.6415337754
 30
0.0
 11
169.5420814378
 21
216.6415337754
 31
0.0
  0
ARC
  5
22E
  8
0
  6
CONTINUOUS
 62
     7
 10
169.0201987312
 20
188.941535221
 30
0.0
 40
0.5000014456141577
 50
180.0001656533
 51
270.0001438188
  0
ARC
  5
22F
  8
0
  6
CONTINUOUS
 62
     7
 10
170.0202080217
 20
188.941536335
 30
0.0
 40
0.5000025596284421
 50
269.999830799
 51
359.9997066899
  0
LINE
  5
230
  8
0
  6
CONTINUOUS
 62
     7
 10
171.7680597319
 20
188.4415337754
 30
0.0
 11
170.0202065451
 21
188.4415337754
 31
0.0
  0
LINE
  5
231
  8
0
  6
CONTINUOUS
 62
     7
 10
236.2066275862
 20
215.9415337754
 30
0.0
 11
236.2066275862
 21
213.9415337754
 31
0.0
  0
ARC
  5
232
  8
0
  6
CONTINUOUS
 62
     7
 10
236.7098555084
 20
215.9383034548
 30
0.0
 40
0.5032382901564241
 50
89.677545715
 51
179.6322119915
  0
LINE
  5
233
  8
0
  6
CONTINUOUS
 62
     7
 10
236.7126876627
 20
216.4415337754
 30
0.0
 11
240.2582114678
 21
216.4415337754
 31
0.0
  0
LINE
  5
234
  8
0
  6
CONTINUOUS
 62
     7
 10
240.2582114678
 20
216.4415337754
 30
0.0
 11
240.2582114518
 21
216.6415337754
 31
0.0
  0
LINE
  5
235
  8
0
  6
CONTINUOUS
 62
     7
 10
240.549474401
 20
216.6415337754
 30
0.0
 11
240.549474401
 21
216.4415337754
 31
0.0
  0
LINE
  5
236
  8
0
  6
CONTINUOUS
 62
     7
 10
240.549474401
 20
216.4415337754
 30
0.0
 11
241.7578073021
 21
216.4415337754
 31
0.0
  0
LINE
  5
237
  8
0
  6
CONTINUOUS
 62
     7
 10
242.0201540751
 20
216.6415337754
 30
0.0
 11
242.0201540751
 21
216.4415337754
 31
0.0
  0
LINE
  5
238
  8
0
  6
CONTINUOUS
 62
     7
 10
242.0201540751
 20
216.4415337754
 30
0.0
 11
243.0201081639
 21
216.4415337754
 31
0.0
  0
ARC
  5
239
  8
0
  6
CONTINUOUS
 62
     7
 10
243.020109704
 20
215.9415326148
 30
0.0
 40
0.5000011605615495
 50
0.00013299
 51
90.0001764835
  0
LINE
  5
23A
  8
0
  6
CONTINUOUS
 62
     7
 10
243.5201108646
 20
188.9415337754
 30
0.0
 11
243.5201108646
 21
215.9415337754
 31
0.0
  0
ARC
  5
23B
  8
0
  6
CONTINUOUS
 62
     7
 10
243.0201094511
 20
188.9415351888
 30
0.0
 40
0.5000014134723839
 50
269.9998524979
 51
359.9998380286
  0
ARC
  5
23C
  8
0
  6
CONTINUOUS
 62
     7
 10
242.0200996168
 20
188.9415358232
 30
0.0
 40
0.5000020478664197
 50
180.0002346668
 51
270.0002278443
  0
LINE
  5
23D
  8
0
  6
CONTINUOUS
 62
     7
 10
241.5200975689
 20
188.9415337754
 30
0.0
 11
241.5200975689
 21
212.9415337754
 31
0.0
  0
ARC
  5
23E
  8
0
  6
CONTINUOUS
 62
     7
 10
241.0200952703
 20
212.9415314768
 30
0.0
 40
0.500002298622374
 50
0.0002634005
 51
90.0002761961
  0
LINE
  5
23F
  8
0
  6
CONTINUOUS
 62
     7
 10
236.7126876627
 20
213.4415337754
 30
0.0
 11
241.02009286
 21
213.4415337754
 31
0.0
  0
ARC
  5
240
  8
0
  6
CONTINUOUS
 62
     7
 10
236.7103508821
 20
213.9452654737
 30
0.0
 40
0.5037371183923848
 50
180.4244525817
 51
270.2657897118
  0
LINE
  5
241
  8
0
  6
CONTINUOUS
 62
     7
 10
243.0201081639
 20
188.4415337754
 30
0.0
 11
242.0201016051
 21
188.4415337754
 31
0.0
  0
LINE
  5
242
  8
0
  6
CONTINUOUS
 62
     7
 10
241.757807306
 20
216.6415337754
 30
0.0
 11
242.0201540751
 21
216.6415337754
 31
0.0
  0
LINE
  5
243
  8
0
  6
CONTINUOUS
 62
     7
 10
240.2582114518
 20
216.6415337754
 30
0.0
 11
240.549474401
 21
216.6415337754
 31
0.0
  0
LINE
  5
244
  8
0
  6
CONTINUOUS
 62
     7
 10
168.5201972856
 20
215.9415337754
 30
0.0
 11
168.5201972856
 21
188.9415337754
 31
0.0
  0
ARC
  5
245
  8
0
  6
CONTINUOUS
 62
     7
 10
169.0201983568
 20
215.9415327042
 30
0.0
 40
0.5000010711977843
 50
89.9998132762
 51
179.9998772503
  0
LINE
  5
246
  8
0
  6
CONTINUOUS
 62
     7
 10
170.2888832036
 20
216.4415337754
 30
0.0
 11
170.2888832025
 21
216.6415337754
 31
0.0
  0
LINE
  5
247
  8
0
  6
CONTINUOUS
 62
     7
 10
170.4570178217
 20
216.6415337754
 30
0.0
 11
170.4570178228
 21
216.4415337754
 31
0.0
  0
LINE
  5
248
  8
0
  6
CONTINUOUS
 62
     7
 10
170.4570178228
 20
216.4415337754
 30
0.0
 11
171.2530823768
 21
216.4415337754
 31
0.0
  0
LINE
  5
249
  8
0
  6
CONTINUOUS
 62
     7
 10
171.2530823768
 20
216.4415337754
 30
0.0
 11
171.2530823782
 21
216.6415337754
 31
0.0
  0
ARC
  5
24A
  8
0
  6
CONTINUOUS
 62
     7
 10
175.3301921515
 20
215.9380398074
 30
0.0
 40
0.5035005355404037
 50
0.3975988384
 51
90.2926434551
  0
LINE
  5
24B
  8
0
  6
CONTINUOUS
 62
     7
 10
175.833680564
 20
213.9415337754
 30
0.0
 11
175.833680564
 21
215.9415337754
 31
0.0
  0
ARC
  5
24C
  8
0
  6
CONTINUOUS
 62
     7
 10
175.3296908068
 20
213.9455351645
 30
0.0
 40
0.5040056412706724
 50
269.7646437179
 51
359.5451139886
  0
LINE
  5
24D
  8
0
  6
CONTINUOUS
 62
     7
 10
171.0202152902
 20
213.4415337754
 30
0.0
 11
175.3276204875
 21
213.4415337754
 31
0.0
  0
ARC
  5
24E
  8
0
  6
CONTINUOUS
 62
     7
 10
171.0202127354
 20
212.9415316213
 30
0.0
 40
0.5000021541135385
 50
89.9997072444
 51
179.9997531586
  0
LINE
  5
24F
  8
0
  6
CONTINUOUS
 62
     7
 10
170.5202105813
 20
212.9415337754
 30
0.0
 11
170.5202105813
 21
188.9415337754
 31
0.0
  0
LINE
  5
250
  8
0
  6
CONTINUOUS
 62
     7
 10
170.0202065451
 20
188.4415337754
 30
0.0
 11
169.0201999863
 21
188.4415337754
 31
0.0
  0
LINE
  5
251
  8
0
  6
CONTINUOUS
 62
     7
 10
171.4190434598
 20
216.4415337754
 30
0.0
 11
175.3276204875
 21
216.4415337754
 31
0.0
  0
LINE
  5
252
  8
0
  6
CONTINUOUS
 62
     7
 10
169.0201999863
 20
216.4415337754
 30
0.0
 11
169.3837321774
 21
216.4415337754
 31
0.0
  0
LINE
  5
253
  8
0
  6
CONTINUOUS
 62
     7
 10
169.3837321774
 20
216.4415337754
 30
0.0
 11
169.3837321774
 21
216.6415337754
 31
0.0
  0
LINE
  5
254
  8
0
  6
CONTINUOUS
 62
     7
 10
171.2530823782
 20
216.6415337754
 30
0.0
 11
171.4190434602
 21
216.6415337754
 31
0.0
  0
LINE
  5
255
  8
0
  6
CONTINUOUS
 62
     7
 10
170.2888832025
 20
216.6415337754
 30
0.0
 11
170.4570178217
 21
216.6415337754
 31
0.0
  0
LINE
  5
256
  8
0
  6
CONTINUOUS
 62
     7
 10
169.3837321774
 20
216.6415337754
 30
0.0
 11
169.5420814378
 21
216.6415337754
 31
0.0
  0
LINE
  5
257
  8
0
  6
CONTINUOUS
 62
     7
 10
171.4190434602
 20
216.6415337754
 30
0.0
 11
171.4190434598
 21
216.4415337754
 31
0.0
  0
LINE
  5
258
  8
0
  6
CONTINUOUS
 62
     7
 10
169.5420814374
 20
216.4415337754
 30
0.0
 11
170.2888832036
 21
216.4415337754
 31
0.0
  0
LINE
  5
259
  8
0
  6
CONTINUOUS
 62
     7
 10
242.0201016051
 20
188.4415337754
 30
0.0
 11
240.2722484183
 21
188.4415337754
 31
0.0
  0
LINE
  5
25A
  8
0
  6
CONTINUOUS
 62
     7
 10
188.5616026254
 20
213.9415337754
 30
0.0
 11
188.5616026254
 21
215.9415337754
 31
0.0
  0
ARC
  5
25B
  8
0
  6
CONTINUOUS
 62
     7
 10
213.5139583356
 20
215.9380398074
 30
0.0
 40
0.5035005355398312
 50
0.3975988383
 51
90.2926434552
  0
LINE
  5
25C
  8
0
  6
CONTINUOUS
 62
     7
 10
213.5113866716
 20
216.4415337754
 30
0.0
 11
213.7983286682
 21
216.4415337754
 31
0.0
  0
LINE
  5
25D
  8
0
  6
CONTINUOUS
 62
     7
 10
198.0228614021
 20
215.9415337754
 30
0.0
 11
198.0228614021
 21
213.9415337754
 31
0.0
  0
LINE
  5
25E
  8
0
  6
CONTINUOUS
 62
     7
 10
226.5262507295
 20
213.4415337754
 30
0.0
 11
226.2393087329
 21
213.4415337754
 31
0.0
  0
ARC
  5
25F
  8
0
  6
CONTINUOUS
 62
     7
 10
226.2413790523
 20
213.9455351645
 30
0.0
 40
0.5040056412705616
 50
269.7646437179
 51
359.5451139886
  0
ARC
  5
260
  8
0
  6
CONTINUOUS
 62
     7
 10
223.9824288208
 20
213.9452654737
 30
0.0
 40
0.5037371183940277
 50
180.4244525819
 51
270.2657897116
  0
LINE
  5
261
  8
0
  6
CONTINUOUS
 62
     7
 10
223.9847656013
 20
213.4415337754
 30
0.0
 11
223.6978236048
 21
213.4415337754
 31
0.0
  0
LINE
  5
262
  8
0
  6
CONTINUOUS
 62
     7
 10
188.3424845454
 20
213.4415337754
 30
0.0
 11
188.0555425489
 21
213.4415337754
 31
0.0
  0
ARC
  5
263
  8
0
  6
CONTINUOUS
 62
     7
 10
188.0576128682
 20
213.9455351645
 30
0.0
 40
0.5040056412706473
 50
269.7646437179
 51
359.5451139886
  0
LINE
  5
264
  8
0
  6
CONTINUOUS
 62
     7
 10
214.0174467481
 20
213.9415337754
 30
0.0
 11
214.0174467481
 21
215.9415337754
 31
0.0
  0
LINE
  5
265
  8
0
  6
CONTINUOUS
 62
     7
 10
175.6145624841
 20
213.4415337754
 30
0.0
 11
175.3276204875
 21
213.4415337754
 31
0.0
  0
ARC
  5
266
  8
0
  6
CONTINUOUS
 62
     7
 10
185.7986626367
 20
213.9452654737
 30
0.0
 40
0.5037371183925264
 50
180.4244525817
 51
270.2657897118
  0
LINE
  5
267
  8
0
  6
CONTINUOUS
 62
     7
 10
185.8009994173
 20
213.4415337754
 30
0.0
 11
185.5140574207
 21
213.4415337754
 31
0.0
  0
ARC
  5
268
  8
0
  6
CONTINUOUS
 62
     7
 10
226.241880397
 20
215.9380398074
 30
0.0
 40
0.503500535539717
 50
0.3975988383
 51
90.2926434552
  0
LINE
  5
269
  8
0
  6
CONTINUOUS
 62
     7
 10
226.2393087329
 20
216.4415337754
 30
0.0
 11
226.5262507295
 21
216.4415337754
 31
0.0
  0
LINE
  5
26A
  8
0
  6
CONTINUOUS
 62
     7
 10
226.7453688094
 20
213.9415337754
 30
0.0
 11
226.7453688094
 21
215.9415337754
 31
0.0
  0
LINE
  5
26B
  8
0
  6
CONTINUOUS
 62
     7
 10
236.7126876627
 20
213.4415337754
 30
0.0
 11
236.4257456661
 21
213.4415337754
 31
0.0
  0
ARC
  5
26C
  8
0
  6
CONTINUOUS
 62
     7
 10
188.0581142129
 20
215.9380398074
 30
0.0
 40
0.5035005355397838
 50
0.3975988383
 51
90.2926434552
  0
LINE
  5
26D
  8
0
  6
CONTINUOUS
 62
     7
 10
188.0555425489
 20
216.4415337754
 30
0.0
 11
188.3424845454
 21
216.4415337754
 31
0.0
  0
ARC
  5
26E
  8
0
  6
CONTINUOUS
 62
     7
 10
198.5260893244
 20
215.9383034548
 30
0.0
 40
0.5032382901568251
 50
89.677545715
 51
179.6322119915
  0
LINE
  5
26F
  8
0
  6
CONTINUOUS
 62
     7
 10
198.241979482
 20
216.4415337754
 30
0.0
 11
198.5289214786
 21
216.4415337754
 31
0.0
  0
ARC
  5
270
  8
0
  6
CONTINUOUS
 62
     7
 10
185.798167263
 20
215.9383034548
 30
0.0
 40
0.5032382901568534
 50
89.677545715
 51
179.6322119915
  0
LINE
  5
271
  8
0
  6
CONTINUOUS
 62
     7
 10
185.5140574207
 20
216.4415337754
 30
0.0
 11
185.8009994173
 21
216.4415337754
 31
0.0
  0
LINE
  5
272
  8
0
  6
CONTINUOUS
 62
     7
 10
213.7983286682
 20
213.4415337754
 30
0.0
 11
213.5113866716
 21
213.4415337754
 31
0.0
  0
ARC
  5
273
  8
0
  6
CONTINUOUS
 62
     7
 10
213.5134569909
 20
213.9455351645
 30
0.0
 40
0.5040056412706762
 50
269.7646437179
 51
359.5451139886
  0
LINE
  5
274
  8
0
  6
CONTINUOUS
 62
     7
 10
223.9847656013
 20
216.4415337754
 30
0.0
 11
226.2393087329
 21
216.4415337754
 31
0.0
  0
LINE
  5
275
  8
0
  6
CONTINUOUS
 62
     7
 10
223.9847656013
 20
213.4415337754
 30
0.0
 11
226.2393087329
 21
213.4415337754
 31
0.0
  0
LINE
  5
276
  8
0
  6
CONTINUOUS
 62
     7
 10
223.4787055248
 20
215.9415337754
 30
0.0
 11
223.4787055248
 21
213.9415337754
 31
0.0
  0
ARC
  5
277
  8
0
  6
CONTINUOUS
 62
     7
 10
223.9819334471
 20
215.9383034548
 30
0.0
 40
0.5032382901568254
 50
89.677545715
 51
179.6322119915
  0
LINE
  5
278
  8
0
  6
CONTINUOUS
 62
     7
 10
209.0478387215
 20
224.4708947864
 30
0.0
 11
209.4924694287
 21
216.9121727644
 31
0.0
  0
ARC
  5
279
  8
0
  6
CONTINUOUS
 62
     7
 10
209.9916066153
 20
216.9415337754
 30
0.0
 40
0.5000000000000284
 50
183.3664606634
 51
270.0
  0
LINE
  5
27A
  8
0
  6
CONTINUOUS
 62
     7
 10
209.9916066153
 20
216.4415337754
 30
0.0
 11
213.5113866716
 21
216.4415337754
 31
0.0
  0
LINE
  5
27B
  8
0
  6
CONTINUOUS
 62
     7
 10
207.4652225322
 20
214.3543780326
 30
0.0
 11
207.0201540751
 21
219.4415337754
 31
0.0
  0
LINE
  5
27C
  8
0
  6
CONTINUOUS
 62
     7
 10
207.0201540751
 20
221.9415337754
 30
0.0
 11
207.0201540751
 21
219.4415337754
 31
0.0
  0
ARC
  5
27D
  8
0
  6
CONTINUOUS
 62
     7
 10
206.5201540751
 20
221.9415337754
 30
0.0
 40
0.5
 50
0.0
 51
90.0
  0
LINE
  5
27E
  8
0
  6
CONTINUOUS
 62
     7
 10
205.5201540751
 20
222.4415337754
 30
0.0
 11
206.5201540751
 21
222.4415337754
 31
0.0
  0
ARC
  5
27F
  8
0
  6
CONTINUOUS
 62
     7
 10
205.5201540751
 20
221.9415337754
 30
0.0
 40
0.5
 50
90.0
 51
180.0
  0
LINE
  5
280
  8
0
  6
CONTINUOUS
 62
     7
 10
205.0201540751
 20
219.4415337754
 30
0.0
 11
205.0201540751
 21
221.9415337754
 31
0.0
  0
LINE
  5
281
  8
0
  6
CONTINUOUS
 62
     7
 10
205.0201540751
 20
219.4415337754
 30
0.0
 11
204.575085618
 21
214.3543780326
 31
0.0
  0
ARC
  5
282
  8
0
  6
CONTINUOUS
 62
     7
 10
198.5265846981
 20
213.9452654737
 30
0.0
 40
0.5037371183925266
 50
180.4244525817
 51
270.2657897118
  0
ARC
  5
283
  8
0
  6
CONTINUOUS
 62
     7
 10
202.0487015349
 20
216.9415337754
 30
0.0
 40
0.5000000000000284
 50
270.0
 51
356.6335393366
  0
LINE
  5
284
  8
0
  6
CONTINUOUS
 62
     7
 10
202.5478387215
 20
216.9121727644
 30
0.0
 11
202.9924694287
 21
224.4708947864
 31
0.0
  0
ARC
  5
285
  8
0
  6
CONTINUOUS
 62
     7
 10
203.4916066153
 20
224.4415337754
 30
0.0
 40
0.5
 50
90.0
 51
176.6335393366
  0
LINE
  5
286
  8
0
  6
CONTINUOUS
 62
     7
 10
208.5487015349
 20
224.9415337754
 30
0.0
 11
203.4916066153
 21
224.9415337754
 31
0.0
  0
ARC
  5
287
  8
0
  6
CONTINUOUS
 62
     7
 10
208.5487015349
 20
224.4415337754
 30
0.0
 40
0.5
 50
3.3664606634
 51
90.0
  0
ARC
  5
288
  8
0
  6
CONTINUOUS
 62
     7
 10
203.5788909199
 20
214.4415337754
 30
0.0
 40
1.000000000000003
 50
270.0
 51
355.0
  0
LINE
  5
289
  8
0
  6
CONTINUOUS
 62
     7
 10
208.4614172303
 20
213.4415337754
 30
0.0
 11
213.5113866716
 21
213.4415337754
 31
0.0
  0
LINE
  5
28A
  8
0
  6
CONTINUOUS
 62
     7
 10
198.5289214786
 20
213.4415337754
 30
0.0
 11
203.5788909199
 21
213.4415337754
 31
0.0
  0
ARC
  5
28B
  8
0
  6
CONTINUOUS
 62
     7
 10
208.4614172303
 20
214.4415337754
 30
0.0
 40
1.0
 50
185.0
 51
270.0
  0
LINE
  5
28C
  8
0
  6
CONTINUOUS
 62
     7
 10
198.5289214786
 20
216.4415337754
 30
0.0
 11
202.0487015349
 21
216.4415337754
 31
0.0
  0
LINE
  5
28D
  8
0
  6
CONTINUOUS
 62
     7
 10
185.2949393408
 20
215.9415337754
 30
0.0
 11
185.2949393408
 21
213.9415337754
 31
0.0
  0
LINE
  5
28E
  8
0
  6
CONTINUOUS
 62
     7
 10
198.5289214786
 20
213.4415337754
 30
0.0
 11
198.241979482
 21
213.4415337754
 31
0.0
  0
LINE
  5
28F
  8
0
  6
CONTINUOUS
 62
     7
 10
223.6978236048
 20
216.4415337754
 30
0.0
 11
223.9847656013
 21
216.4415337754
 31
0.0
  0
LINE
  5
290
  8
0
  6
CONTINUOUS
 62
     7
 10
185.8009994173
 20
213.4415337754
 30
0.0
 11
188.0555425489
 21
213.4415337754
 31
0.0
  0
LINE
  5
291
  8
0
  6
CONTINUOUS
 62
     7
 10
185.8009994173
 20
216.4415337754
 30
0.0
 11
188.0555425489
 21
216.4415337754
 31
0.0
  0
LINE
  5
292
  8
0
  6
CONTINUOUS
 62
     7
 10
175.3276204875
 20
216.4415337754
 30
0.0
 11
175.6145624841
 21
216.4415337754
 31
0.0
  0
LINE
  5
293
  8
0
  6
CONTINUOUS
 62
     7
 10
236.4257456661
 20
216.4415337754
 30
0.0
 11
236.7126876627
 21
216.4415337754
 31
0.0
  0
LINE
  5
294
  8
0
  6
CONTINUOUS
 62
     7
 10
170.8707411299
 20
216.6415337754
 30
0.0
 11
170.8707411299
 21
216.4415337754
 31
0.0
  0
LINE
  5
295
  8
0
  6
CONTINUOUS
 62
     7
 10
170.8707411299
 20
216.6415337754
 30
0.0
 11
170.4570178217
 21
216.6415337754
 31
0.0
  0
LINE
  5
296
  8
0
  6
CONTINUOUS
 62
     7
 10
240.0347569241
 20
216.6415337754
 30
0.0
 11
240.0347569241
 21
216.4415337754
 31
0.0
  0
LINE
  5
297
  8
0
  6
CONTINUOUS
 62
     7
 10
240.2582114518
 20
216.6415337754
 30
0.0
 11
240.0347569241
 21
216.6415337754
 31
0.0
  0
LINE
  5
298
  8
0
  6
CONTINUOUS
 62
     7
 10
171.2530823782
 20
216.6415337754
 30
0.0
 11
170.8707411299
 21
216.6415337754
 31
0.0
  0
LINE
  5
299
  8
0
  6
CONTINUOUS
 62
     7
 10
170.2888832025
 20
216.6415337754
 30
0.0
 11
169.8853898301
 21
216.6415337754
 31
0.0
  0
LINE
  5
29A
  8
0
  6
CONTINUOUS
 62
     7
 10
188.3424845454
 20
216.4415337754
 30
0.0
 11
192.5851252326
 21
216.4415337754
 31
0.0
  0
LINE
  5
29B
  8
0
  6
CONTINUOUS
 62
     7
 10
192.5851252326
 20
213.4415337754
 30
0.0
 11
188.3424845454
 21
213.4415337754
 31
0.0
  0
LINE
  5
29C
  8
0
  6
CONTINUOUS
 62
     7
 10
175.6145624841
 20
216.4415337754
 30
0.0
 11
179.8572031712
 21
216.4415337754
 31
0.0
  0
LINE
  5
29D
  8
0
  6
CONTINUOUS
 62
     7
 10
179.8572031712
 20
213.4415337754
 30
0.0
 11
175.6145624841
 21
213.4415337754
 31
0.0
  0
LINE
  5
29E
  8
0
  6
CONTINUOUS
 62
     7
 10
198.241979482
 20
213.4415337754
 30
0.0
 11
193.9993387949
 21
213.4415337754
 31
0.0
  0
LINE
  5
29F
  8
0
  6
CONTINUOUS
 62
     7
 10
193.9993387949
 20
216.4415337754
 30
0.0
 11
198.241979482
 21
216.4415337754
 31
0.0
  0
LINE
  5
2A0
  8
0
  6
CONTINUOUS
 62
     7
 10
181.2714167336
 20
216.4415337754
 30
0.0
 11
185.5140574207
 21
216.4415337754
 31
0.0
  0
LINE
  5
2A1
  8
0
  6
CONTINUOUS
 62
     7
 10
185.5140574207
 20
213.4415337754
 30
0.0
 11
181.2714167336
 21
213.4415337754
 31
0.0
  0
LINE
  5
2A2
  8
0
  6
CONTINUOUS
 62
     7
 10
218.0409693553
 20
213.4415337754
 30
0.0
 11
213.7983286682
 21
213.4415337754
 31
0.0
  0
LINE
  5
2A3
  8
0
  6
CONTINUOUS
 62
     7
 10
213.7983286682
 20
216.4415337754
 30
0.0
 11
218.0409693553
 21
216.4415337754
 31
0.0
  0
LINE
  5
2A4
  8
0
  6
CONTINUOUS
 62
     7
 10
226.5262507295
 20
216.4415337754
 30
0.0
 11
230.7688914166
 21
216.4415337754
 31
0.0
  0
LINE
  5
2A5
  8
0
  6
CONTINUOUS
 62
     7
 10
223.6978236048
 20
213.4415337754
 30
0.0
 11
219.4551829176
 21
213.4415337754
 31
0.0
  0
LINE
  5
2A6
  8
0
  6
CONTINUOUS
 62
     7
 10
230.7688914166
 20
213.4415337754
 30
0.0
 11
226.5262507295
 21
213.4415337754
 31
0.0
  0
LINE
  5
2A7
  8
0
  6
CONTINUOUS
 62
     7
 10
219.4551829176
 20
216.4415337754
 30
0.0
 11
223.6978236048
 21
216.4415337754
 31
0.0
  0
LINE
  5
2A8
  8
0
  6
CONTINUOUS
 62
     7
 10
236.4257456661
 20
213.4415337754
 30
0.0
 11
232.183104979
 21
213.4415337754
 31
0.0
  0
LINE
  5
2A9
  8
0
  6
CONTINUOUS
 62
     7
 10
232.183104979
 20
216.4415337754
 30
0.0
 11
236.4257456661
 21
216.4415337754
 31
0.0
  0
LINE
  5
2AA
  8
0
  6
CONTINUOUS
 62
     7
 10
207.5114206621
 20
225.1415337754
 30
0.0
 11
207.5114206621
 21
224.9415337754
 31
0.0
  0
LINE
  5
2AB
  8
0
  6
CONTINUOUS
 62
     7
 10
204.5123831899
 20
225.1415337754
 30
0.0
 11
207.5114206621
 21
225.1415337754
 31
0.0
  0
LINE
  5
2AC
  8
0
  6
CONTINUOUS
 62
     7
 10
204.5123831899
 20
225.1415337754
 30
0.0
 11
204.5123831899
 21
224.9415337754
 31
0.0
  0
LINE
  5
2AD
  8
0
  6
CONTINUOUS
 62
     7
 10
171.4724013685
 20
216.6415337754
 30
0.0
 11
171.4724013685
 21
216.4415337754
 31
0.0
  0
LINE
  5
2AE
  8
0
  6
CONTINUOUS
 62
     7
 10
171.4724013685
 20
216.6415337754
 30
0.0
 11
171.4626596531
 21
216.6415337754
 31
0.0
  0
LINE
  5
2AF
  8
0
  6
CONTINUOUS
 62
     7
 10
169.3563859839
 20
216.6415337754
 30
0.0
 11
169.3563859839
 21
216.4415337754
 31
0.0
  0
LINE
  5
2B0
  8
0
  6
CONTINUOUS
 62
     7
 10
241.715301728
 20
216.6415337754
 30
0.0
 11
241.5397238846
 21
216.6415337754
 31
0.0
  0
LINE
  5
2B1
  8
0
  6
CONTINUOUS
 62
     7
 10
242.0462777218
 20
216.6415337754
 30
0.0
 11
242.0462777218
 21
216.4415337754
 31
0.0
  0
ARC
  5
2B2
  8
0
  6
CONTINUOUS
 62
     7
 10
240.2722484183
 20
190.4415337754
 30
0.0
 40
2.000000000000085
 50
188.0
 51
270.0
  0
ARC
  5
2B3
  8
0
  6
CONTINUOUS
 62
     7
 10
171.7680597319
 20
190.4415337754
 30
0.0
 40
1.999999999999943
 50
270.0
 51
352.0
  0
LINE
  5
2B4
  8
0
  6
CONTINUOUS
 62
     7
 10
192.5851252326
 20
216.4415337754
 30
0.0
 11
193.9993387949
 21
216.4415337754
 31
0.0
  0
LINE
  5
2B5
  8
0
  6
CONTINUOUS
 62
     7
 10
193.9993387949
 20
213.4415337754
 30
0.0
 11
192.5851252326
 21
213.4415337754
 31
0.0
  0
LINE
  5
2B6
  8
0
  6
CONTINUOUS
 62
     7
 10
179.8572031712
 20
216.4415337754
 30
0.0
 11
181.2714167336
 21
216.4415337754
 31
0.0
  0
LINE
  5
2B7
  8
0
  6
CONTINUOUS
 62
     7
 10
181.2714167336
 20
213.4415337754
 30
0.0
 11
179.8572031712
 21
213.4415337754
 31
0.0
  0
LINE
  5
2B8
  8
0
  6
CONTINUOUS
 62
     7
 10
219.4551829176
 20
213.4415337754
 30
0.0
 11
218.0409693553
 21
213.4415337754
 31
0.0
  0
LINE
  5
2B9
  8
0
  6
CONTINUOUS
 62
     7
 10
218.0409693553
 20
216.4415337754
 30
0.0
 11
219.4551829176
 21
216.4415337754
 31
0.0
  0
LINE
  5
2BA
  8
0
  6
CONTINUOUS
 62
     7
 10
230.7688914166
 20
216.4415337754
 30
0.0
 11
232.183104979
 21
216.4415337754
 31
0.0
  0
LINE
  5
2BB
  8
0
  6
CONTINUOUS
 62
     7
 10
232.183104979
 20
213.4415337754
 30
0.0
 11
230.7688914166
 21
213.4415337754
 31
0.0
  0
LINE
  5
2BC
  8
0
  6
CONTINUOUS
 62
     7
 10
207.5115209073
 20
225.1415337754
 30
0.0
 11
207.5115209073
 21
224.9415337754
 31
0.0
  0
LINE
  5
2BD
  8
0
  6
CONTINUOUS
 62
     7
 10
207.5114206621
 20
225.1415337754
 30
0.0
 11
207.5115209073
 21
225.1415337754
 31
0.0
  0
LINE
  5
2BE
  8
0
  6
CONTINUOUS
 62
     7
 10
238.2917122808
 20
190.1631875735
 30
0.0
 11
237.7182784677
 21
194.2433811651
 31
0.0
  0
LINE
  5
2BF
  8
0
  6
CONTINUOUS
 62
     7
 10
174.3220296825
 20
194.2433811651
 30
0.0
 11
173.7485958694
 21
190.1631875735
 31
0.0
  0
LINE
  5
2C0
  8
0
  6
CONTINUOUS
 62
     7
 10
237.7182784677
 20
194.2433811651
 30
0.0
 11
235.068372422
 21
213.0984424099
 31
0.0
  0
LINE
  5
2C1
  8
0
  6
CONTINUOUS
 62
     7
 10
235.0668422438
 20
213.1112295322
 30
0.0
 11
235.068372422
 21
213.0984424099
 31
0.0
  0
LINE
  5
2C2
  8
0
  6
CONTINUOUS
 62
     7
 10
176.9719357282
 20
213.0984424099
 30
0.0
 11
176.9734659064
 21
213.1112295322
 31
0.0
  0
LINE
  5
2C3
  8
0
  6
CONTINUOUS
 62
     7
 10
176.9719357282
 20
213.0984424099
 30
0.0
 11
174.3220296825
 21
194.2433811651
 31
0.0
  0
ARC
  5
2C4
  8
0
  6
CONTINUOUS
 62
     7
 10
234.5855107062
 20
212.9415337754
 30
0.0
 40
0.5
 50
8.0
 51
90.0
  0
ARC
  5
2C5
  8
0
  6
CONTINUOUS
 62
     7
 10
177.454797444
 20
212.9415337754
 30
0.0
 40
0.5000000000000224
 50
90.0
 51
172.0
  0
LINE
  5
2C6
  8
0
  6
CONTINUOUS
 62
     7
 10
207.5117213979
 20
225.1415337754
 30
0.0
 11
207.5117213979
 21
224.9415337754
 31
0.0
  0
LINE
  5
2C7
  8
0
  6
CONTINUOUS
 62
     7
 10
207.5115222871
 20
225.1415337754
 30
0.0
 11
207.5117213979
 21
225.1415337754
 31
0.0
  0
LINE
  5
2C8
  8
0
  6
CONTINUOUS
 62
     7
 10
207.5124231147
 20
225.1415337754
 30
0.0
 11
207.5124231147
 21
224.9415337754
 31
0.0
  0
LINE
  5
2C9
  8
0
  6
CONTINUOUS
 62
     7
 10
207.5117213979
 20
225.1415337754
 30
0.0
 11
207.5124231147
 21
225.1415337754
 31
0.0
  0
DIMENSION
  5
2CA
  8
BEMAßUNG
  2
_D
 10
243.5201108646
 20
241.1415337754
 30
0.0
 11
205.8125947251
 21
241.1415337754
 31
0.0
 70
   160
  1
<>
  3
SLDDIMSTYLE0
 13
168.5201972856
 23
215.9415337754
 33
0.0
 14
243.5201108646
 24
215.9415337754
 34
0.0
  0
DIMENSION
  5
2D5
  8
BEMAßUNG
  2
_D_1
 10
271.5482968991
 20
188.4415337754
 30
0.0
 11
271.5482968991
 21
203.161577646
 31
0.0
 70
   160
  1
<>
  3
SLDDIMSTYLE1
 13
236.4257456661
 23
216.4415337754
 33
0.0
 14
242.0201016051
 24
188.4415337754
 34
0.0
 50
90.0
  0
ENDSEC
  0
EOF
